  0
SECTION
  2
HEADER
  9
$ACADVER
  1
AC1024
  9
$ACADMAINTVER
 70
     6
  9
$DWGCODEPAGE
  3
ANSI_932
  9
$INSBASE
 10
0.0
 20
0.0
 30
0.0
  9
$EXTMIN
 10
63.38145715179415
 20
65.12745372581884
 30
0.0
  9
$EXTMAX
 10
196.4129329010895
 20
130.2585378500018
 30
0.0
  9
$LIMMIN
 10
0.0
 20
0.0
  9
$LIMMAX
 10
420.0
 20
297.0
  9
$ORTHOMODE
 70
     0
  9
$REGENMODE
 70
     1
  9
$FILLMODE
 70
     1
  9
$QTEXTMODE
 70
     0
  9
$MIRRTEXT
 70
     1
  9
$LTSCALE
 40
0.25
  9
$ATTMODE
 70
     1
  9
$TEXTSIZE
 40
5.0
  9
$TRACEWID
 40
0.05
  9
$TEXTSTYLE
  7
Standard
  9
$CLAYER
  8
0
  9
$CELTYPE
  6
ByLayer
  9
$CECOLOR
 62
   256
  9
$CELTSCALE
 40
1.0
  9
$DISPSILH
 70
     0
  9
$DIMSCALE
 40
1.0
  9
$DIMASZ
 40
4.0
  9
$DIMEXO
 40
2.0
  9
$DIMDLI
 40
10.0
  9
$DIMRND
 40
0.0
  9
$DIMDLE
 40
0.0
  9
$DIMEXE
 40
2.0
  9
$DIMTP
 40
0.0
  9
$DIMTM
 40
0.0
  9
$DIMTXT
 40
3.5
  9
$DIMCEN
 40
0.09
  9
$DIMTSZ
 40
0.0
  9
$DIMTOL
 70
     0
  9
$DIMLIM
 70
     0
  9
$DIMTIH
 70
     0
  9
$DIMTOH
 70
     0
  9
$DIMSE1
 70
     0
  9
$DIMSE2
 70
     0
  9
$DIMTAD
 70
     3
  9
$DIMZIN
 70
     8
  9
$DIMBLK
  1

  9
$DIMASO
 70
     1
  9
$DIMSHO
 70
     1
  9
$DIMPOST
  1

  9
$DIMAPOST
  1

  9
$DIMALT
 70
     0
  9
$DIMALTD
 70
     2
  9
$DIMALTF
 40
25.4
  9
$DIMLFAC
 40
1.0
  9
$DIMTOFL
 70
     1
  9
$DIMTVP
 40
0.7
  9
$DIMTIX
 70
     0
  9
$DIMSOXD
 70
     0
  9
$DIMSAH
 70
     0
  9
$DIMBLK1
  1

  9
$DIMBLK2
  1

  9
$DIMSTYLE
  2
Standard
  9
$DIMCLRD
 70
     0
  9
$DIMCLRE
 70
     0
  9
$DIMCLRT
 70
     0
  9
$DIMTFAC
 40
0.5
  9
$DIMGAP
 40
0.09
  9
$DIMJUST
 70
     0
  9
$DIMSD1
 70
     0
  9
$DIMSD2
 70
     0
  9
$DIMTOLJ
 70
     1
  9
$DIMTZIN
 70
     8
  9
$DIMALTZ
 70
     0
  9
$DIMALTTZ
 70
     0
  9
$DIMUPT
 70
     1
  9
$DIMDEC
 70
     2
  9
$DIMTDEC
 70
     4
  9
$DIMALTU
 70
     2
  9
$DIMALTTD
 70
     2
  9
$DIMTXSTY
  7
Standard
  9
$DIMAUNIT
 70
     0
  9
$DIMADEC
 70
     0
  9
$DIMALTRND
 40
0.0
  9
$DIMAZIN
 70
     0
  9
$DIMDSEP
 70
    46
  9
$DIMATFIT
 70
     2
  9
$DIMFRAC
 70
     0
  9
$DIMLDRBLK
  1

  9
$DIMLUNIT
 70
     2
  9
$DIMLWD
 70
    -2
  9
$DIMLWE
 70
    -2
  9
$DIMTMOVE
 70
     2
  9
$DIMFXL
 40
1.0
  9
$DIMFXLON
 70
     0
  9
$DIMJOGANG
 40
0.7853981633974483
  9
$DIMTFILL
 70
     0
  9
$DIMTFILLCLR
 70
     0
  9
$DIMARCSYM
 70
     0
  9
$DIMLTYPE
  6

  9
$DIMLTEX1
  6

  9
$DIMLTEX2
  6

  9
$DIMTXTDIRECTION
 70
     0
  9
$LUNITS
 70
     2
  9
$LUPREC
 70
     4
  9
$SKETCHINC
 40
0.1
  9
$FILLETRAD
 40
0.5
  9
$AUNITS
 70
     0
  9
$AUPREC
 70
     0
  9
$MENU
  1
.
  9
$ELEVATION
 40
0.0
  9
$PELEVATION
 40
0.0
  9
$THICKNESS
 40
0.0
  9
$LIMCHECK
 70
     0
  9
$CHAMFERA
 40
0.5
  9
$CHAMFERB
 40
0.5
  9
$CHAMFERC
 40
1.0
  9
$CHAMFERD
 40
0.0
  9
$SKPOLY
 70
     0
  9
$TDCREATE
 40
2456776.985023148
  9
$TDUCREATE
 40
2456776.610023148
  9
$TDUPDATE
 40
2456776.610024225
  9
$TDUUPDATE
 40
2456776.235024225
  9
$TDINDWG
 40
0.0000000116
  9
$TDUSRTIMER
 40
0.0000000116
  9
$USRTIMER
 70
     1
  9
$ANGBASE
 50
0.0
  9
$ANGDIR
 70
     0
  9
$PDMODE
 70
     0
  9
$PDSIZE
 40
0.0
  9
$PLINEWID
 40
0.0
  9
$SPLFRAME
 70
     0
  9
$SPLINETYPE
 70
     6
  9
$SPLINESEGS
 70
     8
  9
$HANDSEED
  5
4D4
  9
$SURFTAB1
 70
     6
  9
$SURFTAB2
 70
     6
  9
$SURFTYPE
 70
     6
  9
$SURFU
 70
     6
  9
$SURFV
 70
     6
  9
$UCSBASE
  2

  9
$UCSNAME
  2

  9
$UCSORG
 10
0.0
 20
0.0
 30
0.0
  9
$UCSXDIR
 10
1.0
 20
0.0
 30
0.0
  9
$UCSYDIR
 10
0.0
 20
1.0
 30
0.0
  9
$UCSORTHOREF
  2

  9
$UCSORTHOVIEW
 70
     0
  9
$UCSORGTOP
 10
0.0
 20
0.0
 30
0.0
  9
$UCSORGBOTTOM
 10
0.0
 20
0.0
 30
0.0
  9
$UCSORGLEFT
 10
0.0
 20
0.0
 30
0.0
  9
$UCSORGRIGHT
 10
0.0
 20
0.0
 30
0.0
  9
$UCSORGFRONT
 10
0.0
 20
0.0
 30
0.0
  9
$UCSORGBACK
 10
0.0
 20
0.0
 30
0.0
  9
$PUCSBASE
  2

  9
$PUCSNAME
  2

  9
$PUCSORG
 10
0.0
 20
0.0
 30
0.0
  9
$PUCSXDIR
 10
1.0
 20
0.0
 30
0.0
  9
$PUCSYDIR
 10
0.0
 20
1.0
 30
0.0
  9
$PUCSORTHOREF
  2

  9
$PUCSORTHOVIEW
 70
     0
  9
$PUCSORGTOP
 10
0.0
 20
0.0
 30
0.0
  9
$PUCSORGBOTTOM
 10
0.0
 20
0.0
 30
0.0
  9
$PUCSORGLEFT
 10
0.0
 20
0.0
 30
0.0
  9
$PUCSORGRIGHT
 10
0.0
 20
0.0
 30
0.0
  9
$PUCSORGFRONT
 10
0.0
 20
0.0
 30
0.0
  9
$PUCSORGBACK
 10
0.0
 20
0.0
 30
0.0
  9
$USERI1
 70
     0
  9
$USERI2
 70
     0
  9
$USERI3
 70
     0
  9
$USERI4
 70
     0
  9
$USERI5
 70
     0
  9
$USERR1
 40
0.0
  9
$USERR2
 40
0.0
  9
$USERR3
 40
0.0
  9
$USERR4
 40
0.0
  9
$USERR5
 40
0.0
  9
$WORLDVIEW
 70
     1
  9
$SHADEDGE
 70
     3
  9
$SHADEDIF
 70
    70
  9
$TILEMODE
 70
     1
  9
$MAXACTVP
 70
    64
  9
$PINSBASE
 10
0.0
 20
0.0
 30
0.0
  9
$PLIMCHECK
 70
     0
  9
$PEXTMIN
 10
0.0
 20
0.0
 30
0.0
  9
$PEXTMAX
 10
420.0
 20
297.0
 30
0.0
  9
$PLIMMIN
 10
0.0
 20
0.0
  9
$PLIMMAX
 10
420.0
 20
297.0
  9
$UNITMODE
 70
     0
  9
$VISRETAIN
 70
     1
  9
$PLINEGEN
 70
     0
  9
$PSLTSCALE
 70
     1
  9
$TREEDEPTH
 70
  3020
  9
$CMLSTYLE
  2
Standard
  9
$CMLJUST
 70
     0
  9
$CMLSCALE
 40
1.0
  9
$PROXYGRAPHICS
 70
     1
  9
$MEASUREMENT
 70
     1
  9
$CELWEIGHT
370
    -1
  9
$ENDCAPS
280
     0
  9
$JOINSTYLE
280
     0
  9
$LWDISPLAY
290
     0
  9
$INSUNITS
 70
     4
  9
$HYPERLINKBASE
  1

  9
$STYLESHEET
  1

  9
$XEDIT
290
     1
  9
$CEPSNTYPE
380
     0
  9
$PSTYLEMODE
290
     1
  9
$FINGERPRINTGUID
  2
{E2CCE4F3-6DEE-4062-8886-708FD5B4130C}
  9
$VERSIONGUID
  2
{FAEB1C32-E019-11D5-929B-00C0DF256EC4}
  9
$EXTNAMES
290
     1
  9
$PSVPSCALE
 40
0.0
  9
$OLESTARTUP
290
     0
  9
$SORTENTS
280
   127
  9
$INDEXCTL
280
     0
  9
$HIDETEXT
280
     1
  9
$XCLIPFRAME
280
     2
  9
$HALOGAP
280
     0
  9
$OBSCOLOR
 70
   257
  9
$OBSLTYPE
280
     0
  9
$INTERSECTIONDISPLAY
280
     0
  9
$INTERSECTIONCOLOR
 70
   257
  9
$DIMASSOC
280
     1
  9
$PROJECTNAME
  1

  9
$CAMERADISPLAY
290
     0
  9
$LENSLENGTH
 40
50.0
  9
$CAMERAHEIGHT
 40
0.0
  9
$STEPSPERSEC
 40
2.0
  9
$STEPSIZE
 40
6.0
  9
$3DDWFPREC
 40
2.0
  9
$PSOLWIDTH
 40
0.25
  9
$PSOLHEIGHT
 40
4.0
  9
$LOFTANG1
 40
1.570796326794897
  9
$LOFTANG2
 40
1.570796326794897
  9
$LOFTMAG1
 40
0.0
  9
$LOFTMAG2
 40
0.0
  9
$LOFTPARAM
 70
     7
  9
$LOFTNORMALS
280
     1
  9
$LATITUDE
 40
37.795
  9
$LONGITUDE
 40
-122.394
  9
$NORTHDIRECTION
 40
0.0
  9
$TIMEZONE
 70
 -8000
  9
$LIGHTGLYPHDISPLAY
280
     1
  9
$TILEMODELIGHTSYNCH
280
     1
  9
$SOLIDHIST
280
     1
  9
$SHOWHIST
280
     1
  9
$DWFFRAME
280
     2
  9
$DGNFRAME
280
     2
  9
$REALWORLDSCALE
290
     1
  9
$INTERFERECOLOR
 62
   256
  9
$CSHADOW
280
     0
  9
$SHADOWPLANELOCATION
 40
0.0
  0
ENDSEC
  0
SECTION
  2
CLASSES
  0
CLASS
  1
ACDBDICTIONARYWDFLT
  2
AcDbDictionaryWithDefault
  3
ObjectDBX Classes
 90
        0
 91
        4
280
     0
281
     0
  0
CLASS
  1
VISUALSTYLE
  2
AcDbVisualStyle
  3
ObjectDBX Classes
 90
     4095
 91
        4
280
     0
281
     0
  0
CLASS
  1
MATERIAL
  2
AcDbMaterial
  3
ObjectDBX Classes
 90
     1153
 91
        4
280
     0
281
     0
  0
ENDSEC
  0
SECTION
  2
TABLES
  0
TABLE
  2
VPORT
  5
8
330
0
100
AcDbSymbolTable
 70
     1
  0
VPORT
  5
29
330
8
100
AcDbSymbolTableRecord
100
AcDbViewportTableRecord
  2
*Active
 70
     0
 10
0.0
 20
0.0
 11
1.0
 21
1.0
 12
10.42990654205607
 22
4.5
 13
0.0
 23
0.0
 14
0.5
 24
0.5
 15
0.5
 25
0.5
 16
0.0
 26
0.0
 36
1.0
 17
0.0
 27
0.0
 37
0.0
 40
9.0
 41
1.972972972850329
 42
50.0
 43
0.0
 44
0.0
 50
0.0
 51
0.0
 71
     0
 72
   100
 73
     1
 74
     3
 75
     0
 76
     0
 77
     0
 78
     0
281
     0
 65
     1
110
0.0
120
0.0
130
0.0
111
1.0
121
0.0
131
0.0
112
0.0
122
1.0
132
0.0
 79
     0
146
0.0
 60
     3
 61
     5
292
     1
282
     1
141
0.0
142
0.0
 63
   250
  0
ENDTAB
  0
TABLE
  2
LTYPE
  5
5
330
0
100
AcDbSymbolTable
 70
     9
  0
LTYPE
  5
14
330
5
100
AcDbSymbolTableRecord
100
AcDbLinetypeTableRecord
  2
ByBlock
 70
     0
  3

 72
    65
 73
     0
 40
0.0
  0
LTYPE
  5
15
330
5
100
AcDbSymbolTableRecord
100
AcDbLinetypeTableRecord
  2
ByLayer
 70
     0
  3

 72
    65
 73
     0
 40
0.0
  0
LTYPE
  5
16
330
5
100
AcDbSymbolTableRecord
100
AcDbLinetypeTableRecord
  2
Continuous
 70
     0
  3
Solid line
 72
    65
 73
     0
 40
0.0
  0
LTYPE
  5
8E
330
5
100
AcDbSymbolTableRecord
100
AcDbLinetypeTableRecord
  2
DOT
 70
     0
  3
DOT
 72
    65
 73
     2
 40
4.0
 49
6.0
 74
     0
 49
-2.0
 74
     0
  0
LTYPE
  5
8F
330
5
100
AcDbSymbolTableRecord
100
AcDbLinetypeTableRecord
  2
HIDDEN
 70
     0
  3
HIDDEN
 72
    65
 73
     2
 40
4.2
 49
8.4
 74
     0
 49
-4.2
 74
     0
  0
LTYPE
  5
90
330
5
100
AcDbSymbolTableRecord
100
AcDbLinetypeTableRecord
  2
DASHDOT
 70
     0
  3
DASHDOT
 72
    65
 73
     4
 40
14.5
 49
30.0
 74
     0
 49
-9.0
 74
     0
 49
2.5
 74
     0
 49
-9.0
 74
     0
  0
LTYPE
  5
91
330
5
100
AcDbSymbolTableRecord
100
AcDbLinetypeTableRecord
  2
PHANTOM
 70
     0
  3
PHANTOM
 72
    65
 73
     6
 40
12.0
 49
30.0
 74
     0
 49
-9.0
 74
     0
 49
2.5
 74
     0
 49
-5.0
 74
     0
 49
2.5
 74
     0
 49
-9.0
 74
     0
  0
LTYPE
  5
92
330
5
100
AcDbSymbolTableRecord
100
AcDbLinetypeTableRecord
  2
ACAD_ISO14W100
 70
     0
  3
ACAD_ISO14W100
 72
    65
 73
     8
 40
1.5
 49
12.0
 74
     0
 49
-3.0
 74
     0
 49
0.5
 74
     0
 49
-3.0
 74
     0
 49
0.5
 74
     0
 49
-3.0
 74
     0
 49
0.5
 74
     0
 49
-3.0
 74
     0
  0
LTYPE
  5
93
330
5
100
AcDbSymbolTableRecord
100
AcDbLinetypeTableRecord
  2
ACAD_ISO06W100
 70
     0
  3
ACAD_ISO06W100
 72
    65
 73
     8
 40
13.5
 49
24.0
 74
     0
 49
-3.0
 74
     0
 49
0.5
 74
     0
 49
-3.0
 74
     0
 49
0.5
 74
     0
 49
-3.0
 74
     0
 49
0.5
 74
     0
 49
-3.0
 74
     0
  0
LTYPE
  5
94
330
5
100
AcDbSymbolTableRecord
100
AcDbLinetypeTableRecord
  2
ACAD_ISO11W100
 70
     0
  3
ACAD_ISO11W100
 72
    65
 73
     6
 40
15.5
 49
12.0
 74
     0
 49
-3.0
 74
     0
 49
12.0
 74
     0
 49
-3.0
 74
     0
 49
0.5
 74
     0
 49
-3.0
 74
     0
  0
LTYPE
  5
95
330
5
100
AcDbSymbolTableRecord
100
AcDbLinetypeTableRecord
  2
ACAD_ISO13W100
 70
     0
  3
ACAD_ISO13W100
 72
    65
 73
     8
 40
13.0
 49
12.0
 74
     0
 49
-3.0
 74
     0
 49
12.0
 74
     0
 49
-3.0
 74
     0
 49
0.5
 74
     0
 49
-3.0
 74
     0
 49
0.5
 74
     0
 49
-3.0
 74
     0
  0
ENDTAB
  0
TABLE
  2
LAYER
  5
2
330
0
100
AcDbSymbolTable
 70
    31
  0
LAYER
  5
10
330
2
100
AcDbSymbolTableRecord
100
AcDbLayerTableRecord
  2
0
 70
     0
 62
     7
  6
Continuous
370
    -3
390
F
347
3E
  0
LAYER
  5
96
330
2
100
AcDbSymbolTableRecord
100
AcDbLayerTableRecord
  2
1
 70
     0
 62
     7
  6
Continuous
370
     9
390
F
347
3E
  0
LAYER
  5
97
330
2
100
AcDbSymbolTableRecord
100
AcDbLayerTableRecord
  2
2
 70
     0
 62
   134
  6
Continuous
370
     9
390
F
347
3E
  0
LAYER
  5
98
330
2
100
AcDbSymbolTableRecord
100
AcDbLayerTableRecord
  2
3
 70
     0
 62
   214
  6
Continuous
370
     9
390
F
347
3E
  0
LAYER
  5
99
330
2
100
AcDbSymbolTableRecord
100
AcDbLayerTableRecord
  2
4
 70
     0
 62
    54
  6
Continuous
370
     9
390
F
347
3E
  0
LAYER
  5
9A
330
2
100
AcDbSymbolTableRecord
100
AcDbLayerTableRecord
  2
5
 70
     0
 62
    94
  6
Continuous
370
     9
390
F
347
3E
  0
LAYER
  5
9B
330
2
100
AcDbSymbolTableRecord
100
AcDbLayerTableRecord
  2
6
 70
     0
 62
    14
  6
Continuous
370
     9
390
F
347
3E
  0
LAYER
  5
9C
330
2
100
AcDbSymbolTableRecord
100
AcDbLayerTableRecord
  2
7
 70
     0
 62
     4
  6
Continuous
370
     9
390
F
347
3E
  0
LAYER
  5
9D
330
2
100
AcDbSymbolTableRecord
100
AcDbLayerTableRecord
  2
8
 70
     0
 62
     6
  6
Continuous
370
     9
390
F
347
3E
  0
LAYER
  5
9E
330
2
100
AcDbSymbolTableRecord
100
AcDbLayerTableRecord
  2
9
 70
     0
 62
     2
  6
Continuous
370
     9
390
F
347
3E
  0
LAYER
  5
9F
330
2
100
AcDbSymbolTableRecord
100
AcDbLayerTableRecord
  2
10
 70
     0
 62
     3
  6
Continuous
370
     9
390
F
347
3E
  0
LAYER
  5
A0
330
2
100
AcDbSymbolTableRecord
100
AcDbLayerTableRecord
  2
11
 70
     0
 62
   251
  6
Continuous
370
     9
390
F
347
3E
  0
LAYER
  5
A1
330
2
100
AcDbSymbolTableRecord
100
AcDbLayerTableRecord
  2
12
 70
     0
 62
   136
  6
Continuous
370
     9
390
F
347
3E
  0
LAYER
  5
A2
330
2
100
AcDbSymbolTableRecord
100
AcDbLayerTableRecord
  2
13
 70
     0
 62
   216
  6
Continuous
370
     9
390
F
347
3E
  0
LAYER
  5
A3
330
2
100
AcDbSymbolTableRecord
100
AcDbLayerTableRecord
  2
14
 70
     0
 62
    56
  6
Continuous
370
     9
390
F
347
3E
  0
LAYER
  5
A4
330
2
100
AcDbSymbolTableRecord
100
AcDbLayerTableRecord
  2
15
 70
     0
 62
    96
  6
Continuous
370
     9
390
F
347
3E
  0
LAYER
  5
A5
330
2
100
AcDbSymbolTableRecord
100
AcDbLayerTableRecord
  2
16
 70
     0
 62
    16
  6
Continuous
370
     9
390
F
347
3E
  0
LAYER
  5
A6
330
2
100
AcDbSymbolTableRecord
100
AcDbLayerTableRecord
  2
17
 70
     0
 62
   132
  6
Continuous
370
     9
390
F
347
3E
  0
LAYER
  5
A7
330
2
100
AcDbSymbolTableRecord
100
AcDbLayerTableRecord
  2
18
 70
     0
 62
   212
  6
Continuous
370
     9
390
F
347
3E
  0
LAYER
  5
A8
330
2
100
AcDbSymbolTableRecord
100
AcDbLayerTableRecord
  2
19
 70
     0
 62
    52
  6
Continuous
370
     9
390
F
347
3E
  0
LAYER
  5
A9
330
2
100
AcDbSymbolTableRecord
100
AcDbLayerTableRecord
  2
20
 70
     0
 62
   250
  6
Continuous
370
     9
390
F
347
3E
  0
LAYER
  5
AA
330
2
100
AcDbSymbolTableRecord
100
AcDbLayerTableRecord
  2
21
 70
     0
 62
     7
  6
Continuous
370
     9
390
F
347
3E
  0
LAYER
  5
AB
330
2
100
AcDbSymbolTableRecord
100
AcDbLayerTableRecord
  2
22
 70
     0
 62
     7
  6
Continuous
370
     9
390
F
347
3E
  0
LAYER
  5
AC
330
2
100
AcDbSymbolTableRecord
100
AcDbLayerTableRecord
  2
23
 70
     0
 62
     5
  6
Continuous
370
     9
390
F
347
3E
  0
LAYER
  5
AD
330
2
100
AcDbSymbolTableRecord
100
AcDbLayerTableRecord
  2
24
 70
     0
 62
   104
  6
Continuous
370
     9
390
F
347
3E
  0
LAYER
  5
AE
330
2
100
AcDbSymbolTableRecord
100
AcDbLayerTableRecord
  2
25
 70
     0
 62
     7
  6
Continuous
370
     9
390
F
347
3E
  0
LAYER
  5
AF
330
2
100
AcDbSymbolTableRecord
100
AcDbLayerTableRecord
  2
26
 70
     0
 62
     1
  6
Continuous
370
     9
390
F
347
3E
  0
LAYER
  5
B0
330
2
100
AcDbSymbolTableRecord
100
AcDbLayerTableRecord
  2
27
 70
     0
 62
    12
  6
Continuous
370
     9
390
F
347
3E
  0
LAYER
  5
B1
330
2
100
AcDbSymbolTableRecord
100
AcDbLayerTableRecord
  2
28
 70
     0
 62
     5
  6
Continuous
370
     9
390
F
347
3E
  0
LAYER
  5
B2
330
2
100
AcDbSymbolTableRecord
100
AcDbLayerTableRecord
  2
29
 70
     0
 62
   104
  6
Continuous
370
     9
390
F
347
3E
  0
LAYER
  5
B3
330
2
100
AcDbSymbolTableRecord
100
AcDbLayerTableRecord
  2
30
 70
     0
 62
    11
  6
Continuous
370
     9
390
F
347
3E
  0
ENDTAB
  0
TABLE
  2
STYLE
  5
3
330
0
100
AcDbSymbolTable
 70
     3
  0
STYLE
  5
11
330
3
100
AcDbSymbolTableRecord
100
AcDbTextStyleTableRecord
  2
Standard
 70
     0
 40
0.0
 41
1.0
 50
0.0
 71
     0
 42
5.0
  3
txt
  4
bigfont
  0
STYLE
  5
41
330
3
100
AcDbSymbolTableRecord
100
AcDbTextStyleTableRecord
  2
T_STANDARD
 70
     4
 40
10.0
 41
1.0
 50
0.0
 71
     0
 42
10.0
  3
txt
  4
bigfont
  0
STYLE
  5
3F0
330
3
100
AcDbSymbolTableRecord
100
AcDbTextStyleTableRecord
  2
ＭＳ ゴシック
 70
     0
 40
0.0
 41
1.0
 50
0.0
 71
     0
 42
0.0
  3
MSGOTHIC.TTC
  4

  0
ENDTAB
  0
TABLE
  2
VIEW
  5
6
330
0
100
AcDbSymbolTable
 70
     0
  0
ENDTAB
  0
TABLE
  2
UCS
  5
7
330
0
100
AcDbSymbolTable
 70
     0
  0
ENDTAB
  0
TABLE
  2
APPID
  5
9
330
0
100
AcDbSymbolTable
 70
     2
  0
APPID
  5
12
330
9
100
AcDbSymbolTableRecord
100
AcDbRegAppTableRecord
  2
ACAD
 70
     0
  0
APPID
  5
40
330
9
100
AcDbSymbolTableRecord
100
AcDbRegAppTableRecord
  2
ODA
 70
     0
  0
ENDTAB
  0
TABLE
  2
DIMSTYLE
  5
A
330
0
100
AcDbSymbolTable
 70
     1
100
AcDbDimStyleTable
  0
DIMSTYLE
105
27
102
{ACAD_REACTORS
330
3F8
330
402
330
40C
330
416
330
420
330
42A
330
434
330
43E
330
448
330
452
330
45D
330
467
330
4B8
330
4C2
102
}
330
A
100
AcDbSymbolTableRecord
100
AcDbDimStyleTableRecord
  2
Standard
 70
     0
178
     0
340
11
  0
ENDTAB
  0
TABLE
  2
BLOCK_RECORD
  5
1
330
0
100
AcDbSymbolTable
 70
    33
  0
BLOCK_RECORD
  5
1F
330
1
100
AcDbSymbolTableRecord
100
AcDbBlockTableRecord
  2
*Model_Space
340
22
 70
     0
280
     1
281
     0
  0
BLOCK_RECORD
  5
1B
330
1
100
AcDbSymbolTableRecord
100
AcDbBlockTableRecord
  2
*Paper_Space
340
1E
 70
     0
280
     1
281
     0
  0
BLOCK_RECORD
  5
23
330
1
100
AcDbSymbolTableRecord
100
AcDbBlockTableRecord
  2
*Paper_Space0
340
26
 70
     0
280
     1
281
     0
  0
BLOCK_RECORD
  5
42
330
1
100
AcDbSymbolTableRecord
100
AcDbBlockTableRecord
  2
_ORIGIN
340
0
 70
     0
280
     1
281
     0
  0
BLOCK_RECORD
  5
47
330
1
100
AcDbSymbolTableRecord
100
AcDbBlockTableRecord
  2
_DOTBLANK
340
0
 70
     0
280
     1
281
     0
  0
BLOCK_RECORD
  5
4C
330
1
100
AcDbSymbolTableRecord
100
AcDbBlockTableRecord
  2
_DOT
340
0
 70
     0
280
     1
281
     0
  0
BLOCK_RECORD
  5
51
330
1
100
AcDbSymbolTableRecord
100
AcDbBlockTableRecord
  2
_OPEN
340
0
102
{BLKREFS
331
3F6
331
3F7
331
400
331
401
331
40A
331
40B
331
414
331
415
331
41E
331
41F
331
428
331
429
331
432
331
433
331
43C
331
43D
331
446
331
447
331
450
331
451
331
45B
331
45C
331
465
331
466
331
4B6
331
4B7
331
4C0
331
4C1
102
}
 70
     0
280
     1
281
     0
  0
BLOCK_RECORD
  5
57
330
1
100
AcDbSymbolTableRecord
100
AcDbBlockTableRecord
  2
_CLOSED
340
0
 70
     0
280
     1
281
     0
  0
BLOCK_RECORD
  5
5E
330
1
100
AcDbSymbolTableRecord
100
AcDbBlockTableRecord
  2
_CLOSEDBLANK
340
0
 70
     0
280
     1
281
     0
  0
BLOCK_RECORD
  5
64
330
1
100
AcDbSymbolTableRecord
100
AcDbBlockTableRecord
  2
_ARROWFILLED
340
0
 70
     0
280
     1
281
     0
  0
BLOCK_RECORD
  5
68
330
1
100
AcDbSymbolTableRecord
100
AcDbBlockTableRecord
  2
_BOXBLANK
340
0
 70
     0
280
     1
281
     0
  0
BLOCK_RECORD
  5
70
330
1
100
AcDbSymbolTableRecord
100
AcDbBlockTableRecord
  2
_BOXFILLED
340
0
 70
     0
280
     1
281
     0
  0
BLOCK_RECORD
  5
75
330
1
100
AcDbSymbolTableRecord
100
AcDbBlockTableRecord
  2
_INTEGRAL
340
0
 70
     0
280
     1
281
     0
  0
BLOCK_RECORD
  5
7A
330
1
100
AcDbSymbolTableRecord
100
AcDbBlockTableRecord
  2
_OBLIQUE
340
0
 70
     0
280
     1
281
     0
  0
BLOCK_RECORD
  5
7E
330
1
100
AcDbSymbolTableRecord
100
AcDbBlockTableRecord
  2
_NONE
340
0
 70
     0
280
     1
281
     0
  0
BLOCK_RECORD
  5
81
330
1
100
AcDbSymbolTableRecord
100
AcDbBlockTableRecord
  2
MARK_OPEN
340
0
102
{BLKREFS
331
468
331
46E
331
474
331
47A
331
480
102
}
 70
     0
280
     1
281
     0
  0
BLOCK_RECORD
  5
86
330
1
100
AcDbSymbolTableRecord
100
AcDbBlockTableRecord
  2
MARK_ORIGIN
340
0
 70
     0
280
     1
281
     0
  0
BLOCK_RECORD
  5
8A
330
1
100
AcDbSymbolTableRecord
100
AcDbBlockTableRecord
  2
MARK_DOT
340
0
 70
     0
280
     1
281
     0
  0
BLOCK_RECORD
  5
3F1
330
1
100
AcDbSymbolTableRecord
100
AcDbBlockTableRecord
  2
Dim1
340
0
 70
     0
280
     1
281
     0
  0
BLOCK_RECORD
  5
3F9
330
1
100
AcDbSymbolTableRecord
100
AcDbBlockTableRecord
  2
Dim2
340
0
 70
     0
280
     1
281
     0
  0
BLOCK_RECORD
  5
403
330
1
100
AcDbSymbolTableRecord
100
AcDbBlockTableRecord
  2
Dim3
340
0
 70
     0
280
     1
281
     0
  0
BLOCK_RECORD
  5
40D
330
1
100
AcDbSymbolTableRecord
100
AcDbBlockTableRecord
  2
Dim4
340
0
 70
     0
280
     1
281
     0
  0
BLOCK_RECORD
  5
417
330
1
100
AcDbSymbolTableRecord
100
AcDbBlockTableRecord
  2
Dim5
340
0
 70
     0
280
     1
281
     0
  0
BLOCK_RECORD
  5
421
330
1
100
AcDbSymbolTableRecord
100
AcDbBlockTableRecord
  2
Dim6
340
0
 70
     0
280
     1
281
     0
  0
BLOCK_RECORD
  5
42B
330
1
100
AcDbSymbolTableRecord
100
AcDbBlockTableRecord
  2
Dim7
340
0
 70
     0
280
     1
281
     0
  0
BLOCK_RECORD
  5
435
330
1
100
AcDbSymbolTableRecord
100
AcDbBlockTableRecord
  2
Dim8
340
0
 70
     0
280
     1
281
     0
  0
BLOCK_RECORD
  5
43F
330
1
100
AcDbSymbolTableRecord
100
AcDbBlockTableRecord
  2
Dim9
340
0
 70
     0
280
     1
281
     0
  0
BLOCK_RECORD
  5
449
330
1
100
AcDbSymbolTableRecord
100
AcDbBlockTableRecord
  2
Dim10
340
0
 70
     0
280
     1
281
     0
  0
BLOCK_RECORD
  5
454
330
1
100
AcDbSymbolTableRecord
100
AcDbBlockTableRecord
  2
Dim11
340
0
 70
     0
280
     1
281
     0
  0
BLOCK_RECORD
  5
45E
330
1
100
AcDbSymbolTableRecord
100
AcDbBlockTableRecord
  2
Dim12
340
0
 70
     0
280
     1
281
     0
  0
BLOCK_RECORD
  5
48D
330
1
100
AcDbSymbolTableRecord
100
AcDbBlockTableRecord
  2
*G28
340
0
102
{BLKREFS
331
491
102
}
 70
     0
280
     1
281
     0
  0
BLOCK_RECORD
  5
49A
330
1
100
AcDbSymbolTableRecord
100
AcDbBlockTableRecord
  2
*G29
340
0
102
{BLKREFS
331
49E
102
}
 70
     0
280
     1
281
     0
  0
BLOCK_RECORD
  5
4A5
330
1
100
AcDbSymbolTableRecord
100
AcDbBlockTableRecord
  2
*G30
340
0
102
{BLKREFS
331
4AE
102
}
 70
     0
280
     1
281
     0
  0
BLOCK_RECORD
  5
4AF
330
1
100
AcDbSymbolTableRecord
100
AcDbBlockTableRecord
  2
Dim13
340
0
 70
     0
280
     1
281
     0
  0
BLOCK_RECORD
  5
4B9
330
1
100
AcDbSymbolTableRecord
100
AcDbBlockTableRecord
  2
Dim14
340
0
 70
     0
280
     1
281
     0
  0
ENDTAB
  0
ENDSEC
  0
SECTION
  2
BLOCKS
  0
BLOCK
  5
20
330
1F
100
AcDbEntity
  8
0
100
AcDbBlockBegin
  2
*Model_Space
 70
     0
 10
0.0
 20
0.0
 30
0.0
  3
*Model_Space
  1

  0
ENDBLK
  5
21
330
1F
100
AcDbEntity
  8
0
100
AcDbBlockEnd
  0
BLOCK
  5
1C
330
1B
100
AcDbEntity
 67
     1
  8
0
100
AcDbBlockBegin
  2
*Paper_Space
 70
     0
 10
0.0
 20
0.0
 30
0.0
  3
*Paper_Space
  1

  0
ENDBLK
  5
1D
330
1B
100
AcDbEntity
 67
     1
  8
0
100
AcDbBlockEnd
  0
BLOCK
  5
24
330
23
100
AcDbEntity
  8
0
100
AcDbBlockBegin
  2
*Paper_Space0
 70
     0
 10
0.0
 20
0.0
 30
0.0
  3
*Paper_Space0
  1

  0
ENDBLK
  5
25
330
23
100
AcDbEntity
  8
0
100
AcDbBlockEnd
  0
BLOCK
  5
45
330
42
100
AcDbEntity
  8
0
100
AcDbBlockBegin
  2
_ORIGIN
 70
     0
 10
0.0
 20
0.0
 30
0.0
  3
_ORIGIN
  1

  0
CIRCLE
  5
43
330
42
100
AcDbEntity
  8
0
100
AcDbCircle
 10
0.0
 20
0.0
 30
0.0
 40
0.5
  0
LINE
  5
44
330
42
100
AcDbEntity
  8
0
100
AcDbLine
 10
0.0
 20
0.0
 30
0.0
 11
-1.0
 21
0.0
 31
0.0
  0
ENDBLK
  5
46
330
42
100
AcDbEntity
  8
0
100
AcDbBlockEnd
  0
BLOCK
  5
4A
330
47
100
AcDbEntity
  8
0
100
AcDbBlockBegin
  2
_DOTBLANK
 70
     0
 10
0.0
 20
0.0
 30
0.0
  3
_DOTBLANK
  1

  0
CIRCLE
  5
48
330
47
100
AcDbEntity
  8
0
100
AcDbCircle
 10
0.0
 20
0.0
 30
0.0
 40
0.5
  0
LINE
  5
49
330
47
100
AcDbEntity
  8
0
100
AcDbLine
 10
-0.5
 20
0.0
 30
0.0
 11
-1.0
 21
0.0
 31
0.0
  0
ENDBLK
  5
4B
330
47
100
AcDbEntity
  8
0
100
AcDbBlockEnd
  0
BLOCK
  5
4F
330
4C
100
AcDbEntity
  8
0
100
AcDbBlockBegin
  2
_DOT
 70
     0
 10
0.0
 20
0.0
 30
0.0
  3
_DOT
  1

  0
LWPOLYLINE
  5
4D
330
4C
100
AcDbEntity
  8
0
100
AcDbPolyline
 90
        2
 70
     1
 43
0.5
 10
-0.25
 20
0.0
 42
1.0
 10
0.25
 20
0.0
 42
1.0
  0
LINE
  5
4E
330
4C
100
AcDbEntity
  8
0
100
AcDbLine
 10
-0.5
 20
0.0
 30
0.0
 11
-1.0
 21
0.0
 31
0.0
  0
ENDBLK
  5
50
330
4C
100
AcDbEntity
  8
0
100
AcDbBlockEnd
  0
BLOCK
  5
55
330
51
100
AcDbEntity
  8
0
100
AcDbBlockBegin
  2
_OPEN
 70
     0
 10
0.0
 20
0.0
 30
0.0
  3
_OPEN
  1

  0
LINE
  5
52
330
51
100
AcDbEntity
  8
0
100
AcDbLine
 10
0.0
 20
0.0
 30
0.0
 11
-1.0
 21
0.1666666666666667
 31
0.0
  0
LINE
  5
53
330
51
100
AcDbEntity
  8
0
100
AcDbLine
 10
0.0
 20
0.0
 30
0.0
 11
-1.0
 21
-0.1666666666666667
 31
0.0
  0
LINE
  5
54
330
51
100
AcDbEntity
  8
0
100
AcDbLine
 10
0.0
 20
0.0
 30
0.0
 11
-1.0
 21
0.0
 31
0.0
  0
ENDBLK
  5
56
330
51
100
AcDbEntity
  8
0
100
AcDbBlockEnd
  0
BLOCK
  5
5C
330
57
100
AcDbEntity
  8
0
100
AcDbBlockBegin
  2
_CLOSED
 70
     0
 10
0.0
 20
0.0
 30
0.0
  3
_CLOSED
  1

  0
LINE
  5
58
330
57
100
AcDbEntity
  8
0
100
AcDbLine
 10
0.0
 20
0.0
 30
0.0
 11
-1.0
 21
0.1666666666666667
 31
0.0
  0
LINE
  5
59
330
57
100
AcDbEntity
  8
0
100
AcDbLine
 10
0.0
 20
0.0
 30
0.0
 11
-1.0
 21
-0.1666666666666667
 31
0.0
  0
LINE
  5
5A
330
57
100
AcDbEntity
  8
0
100
AcDbLine
 10
-1.0
 20
0.1666666666666667
 30
0.0
 11
-1.0
 21
-0.1666666666666667
 31
0.0
  0
LINE
  5
5B
330
57
100
AcDbEntity
  8
0
100
AcDbLine
 10
0.0
 20
0.0
 30
0.0
 11
-1.0
 21
0.0
 31
0.0
  0
ENDBLK
  5
5D
330
57
100
AcDbEntity
  8
0
100
AcDbBlockEnd
  0
BLOCK
  5
62
330
5E
100
AcDbEntity
  8
0
100
AcDbBlockBegin
  2
_CLOSEDBLANK
 70
     0
 10
0.0
 20
0.0
 30
0.0
  3
_CLOSEDBLANK
  1

  0
LINE
  5
5F
330
5E
100
AcDbEntity
  8
0
100
AcDbLine
 10
0.0
 20
0.0
 30
0.0
 11
-1.0
 21
0.1666666666666667
 31
0.0
  0
LINE
  5
60
330
5E
100
AcDbEntity
  8
0
100
AcDbLine
 10
0.0
 20
0.0
 30
0.0
 11
-1.0
 21
-0.1666666666666667
 31
0.0
  0
LINE
  5
61
330
5E
100
AcDbEntity
  8
0
100
AcDbLine
 10
-1.0
 20
0.1666666666666667
 30
0.0
 11
-1.0
 21
-0.1666666666666667
 31
0.0
  0
ENDBLK
  5
63
330
5E
100
AcDbEntity
  8
0
100
AcDbBlockEnd
  0
BLOCK
  5
66
330
64
100
AcDbEntity
  8
0
100
AcDbBlockBegin
  2
_ARROWFILLED
 70
     0
 10
0.0
 20
0.0
 30
0.0
  3
_ARROWFILLED
  1

  0
SOLID
  5
65
330
64
100
AcDbEntity
  8
0
100
AcDbTrace
 10
0.0
 20
0.0
 30
0.0
 11
-1.0
 21
-0.1666666666666667
 31
0.0
 12
-1.0
 22
0.1666666666666667
 32
0.0
 13
0.0
 23
0.0
 33
0.0
  0
ENDBLK
  5
67
330
64
100
AcDbEntity
  8
0
100
AcDbBlockEnd
  0
BLOCK
  5
6E
330
68
100
AcDbEntity
  8
0
100
AcDbBlockBegin
  2
_BOXBLANK
 70
     0
 10
0.0
 20
0.0
 30
0.0
  3
_BOXBLANK
  1

  0
LINE
  5
69
330
68
100
AcDbEntity
  8
0
100
AcDbLine
 10
-0.5
 20
-0.5
 30
0.0
 11
0.5
 21
-0.5
 31
0.0
  0
LINE
  5
6A
330
68
100
AcDbEntity
  8
0
100
AcDbLine
 10
0.5
 20
-0.5
 30
0.0
 11
0.5
 21
0.5
 31
0.0
  0
LINE
  5
6B
330
68
100
AcDbEntity
  8
0
100
AcDbLine
 10
0.5
 20
0.5
 30
0.0
 11
-0.5
 21
0.5
 31
0.0
  0
LINE
  5
6C
330
68
100
AcDbEntity
  8
0
100
AcDbLine
 10
-0.5
 20
0.5
 30
0.0
 11
-0.5
 21
-0.5
 31
0.0
  0
LINE
  5
6D
330
68
100
AcDbEntity
  8
0
100
AcDbLine
 10
-0.5
 20
0.0
 30
0.0
 11
-1.0
 21
0.0
 31
0.0
  0
ENDBLK
  5
6F
330
68
100
AcDbEntity
  8
0
100
AcDbBlockEnd
  0
BLOCK
  5
73
330
70
100
AcDbEntity
  8
0
100
AcDbBlockBegin
  2
_BOXFILLED
 70
     0
 10
0.0
 20
0.0
 30
0.0
  3
_BOXFILLED
  1

  0
SOLID
  5
71
330
70
100
AcDbEntity
  8
0
100
AcDbTrace
 10
-0.5
 20
0.5
 30
0.0
 11
0.5
 21
0.5
 31
0.0
 12
-0.5
 22
-0.5
 32
0.0
 13
0.5
 23
-0.5
 33
0.0
  0
LINE
  5
72
330
70
100
AcDbEntity
  8
0
100
AcDbLine
 10
-0.5
 20
0.0
 30
0.0
 11
-1.0
 21
0.0
 31
0.0
  0
ENDBLK
  5
74
330
70
100
AcDbEntity
  8
0
100
AcDbBlockEnd
  0
BLOCK
  5
78
330
75
100
AcDbEntity
  8
0
100
AcDbBlockBegin
  2
_INTEGRAL
 70
     0
 10
0.0
 20
0.0
 30
0.0
  3
_INTEGRAL
  1

  0
ARC
  5
76
330
75
100
AcDbEntity
  8
0
100
AcDbCircle
 10
0.444888
 20
-0.0913346
 30
0.0
 40
0.4541666
100
AcDbArc
 50
101.9999999999999
 51
167.9999999999998
  0
ARC
  5
77
330
75
100
AcDbEntity
  8
0
100
AcDbCircle
 10
-0.444888
 20
0.0913346
 30
0.0
 40
0.4541666
100
AcDbArc
 50
281.9999999999997
 51
347.9999999999997
  0
ENDBLK
  5
79
330
75
100
AcDbEntity
  8
0
100
AcDbBlockEnd
  0
BLOCK
  5
7C
330
7A
100
AcDbEntity
  8
0
100
AcDbBlockBegin
  2
_OBLIQUE
 70
     0
 10
0.0
 20
0.0
 30
0.0
  3
_OBLIQUE
  1

  0
LINE
  5
7B
330
7A
100
AcDbEntity
  8
0
100
AcDbLine
 10
-0.5
 20
-0.5
 30
0.0
 11
0.5
 21
0.5
 31
0.0
  0
ENDBLK
  5
7D
330
7A
100
AcDbEntity
  8
0
100
AcDbBlockEnd
  0
BLOCK
  5
7F
330
7E
100
AcDbEntity
  8
0
100
AcDbBlockBegin
  2
_NONE
 70
     0
 10
0.0
 20
0.0
 30
0.0
  3
_NONE
  1

  0
ENDBLK
  5
80
330
7E
100
AcDbEntity
  8
0
100
AcDbBlockEnd
  0
BLOCK
  5
84
330
81
100
AcDbEntity
  8
0
100
AcDbBlockBegin
  2
MARK_OPEN
 70
     0
 10
0.0
 20
0.0
 30
0.0
  3
MARK_OPEN
  1

  0
LINE
  5
82
330
81
100
AcDbEntity
  8
0
100
AcDbLine
 10
0.0
 20
0.0
 30
0.0
 11
-1.0
 21
0.1666666666666667
 31
0.0
  0
LINE
  5
83
330
81
100
AcDbEntity
  8
0
100
AcDbLine
 10
0.0
 20
0.0
 30
0.0
 11
-1.0
 21
-0.1666666666666667
 31
0.0
  0
ENDBLK
  5
85
330
81
100
AcDbEntity
  8
0
100
AcDbBlockEnd
  0
BLOCK
  5
88
330
86
100
AcDbEntity
  8
0
100
AcDbBlockBegin
  2
MARK_ORIGIN
 70
     0
 10
0.0
 20
0.0
 30
0.0
  3
MARK_ORIGIN
  1

  0
CIRCLE
  5
87
330
86
100
AcDbEntity
  8
0
100
AcDbCircle
 10
0.0
 20
0.0
 30
0.0
 40
0.5
  0
ENDBLK
  5
89
330
86
100
AcDbEntity
  8
0
100
AcDbBlockEnd
  0
BLOCK
  5
8C
330
8A
100
AcDbEntity
  8
0
100
AcDbBlockBegin
  2
MARK_DOT
 70
     0
 10
0.0
 20
0.0
 30
0.0
  3
MARK_DOT
  1

  0
LWPOLYLINE
  5
8B
330
8A
100
AcDbEntity
  8
0
100
AcDbPolyline
 90
        2
 70
     1
 43
0.5
 10
-0.25
 20
0.0
 42
1.0
 10
0.25
 20
0.0
 42
1.0
  0
ENDBLK
  5
8D
330
8A
100
AcDbEntity
  8
0
100
AcDbBlockEnd
  0
BLOCK
  5
3F2
330
3F1
100
AcDbEntity
  8
0
100
AcDbBlockBegin
  2
Dim1
 70
     0
 10
0.0
 20
0.0
 30
0.0
  3
Dim1
  1

  0
LINE
  5
3F4
330
3F1
100
AcDbEntity
  8
1
  6
Continuous
 62
     7
370
     9
100
AcDbLine
 10
72.35317779781404
 20
82.22041652523728
 30
0.0
 11
100.1455502033423
 21
118.2458802428971
 31
0.0
  0
MTEXT
  5
3F5
330
3F1
100
AcDbEntity
  8
1
  6
Continuous
 62
     7
370
     9
100
AcDbMText
 10
95.52840077144353
 20
112.2609665798664
 30
0.0
 40
2.0
 41
37.84
 46
2.0
 71
     7
 72
     1
  1
φ25.5
  7
ＭＳ ゴシック
 11
0.6108213715500725
 21
0.7917684333551624
 31
0.0
 73
     1
 44
1.0
1001
ACAD
1000
ACAD_MTEXT_DEFINED_HEIGHT_BEGIN
1070
    46
1040
2.0
1000
ACAD_MTEXT_DEFINED_HEIGHT_END
  0
INSERT
  5
3F6
330
3F1
100
AcDbEntity
  8
1
  6
Continuous
 62
     7
370
     9
100
AcDbBlockReference
  2
_OPEN
 10
77.23974877021462
 20
88.55456399207858
 30
0.0
 41
2.0
 42
2.0
 43
2.0
 50
52.35108280110769
  0
INSERT
  5
3F7
330
3F1
100
AcDbEntity
  8
1
  6
Continuous
 62
     7
370
     9
100
AcDbBlockReference
  2
_OPEN
 10
92.81569374474138
 20
108.7446590426351
 30
0.0
 41
2.0
 42
2.0
 43
2.0
 50
232.3510828011077
  0
ENDBLK
  5
3F3
330
3F1
100
AcDbEntity
  8
0
100
AcDbBlockEnd
  0
BLOCK
  5
3FA
330
3F9
100
AcDbEntity
  8
0
100
AcDbBlockBegin
  2
Dim2
 70
     0
 10
0.0
 20
0.0
 30
0.0
  3
Dim2
  1

  0
LINE
  5
3FC
330
3F9
100
AcDbEntity
  8
1
  6
Continuous
 62
     7
370
     9
100
AcDbLine
 10
164.4433509821162
 20
80.19961151735686
 30
0.0
 11
164.4433509821169
 21
71.62491199205371
 31
0.0
  0
LINE
  5
3FD
330
3F9
100
AcDbEntity
  8
1
  6
Continuous
 62
     7
370
     9
100
AcDbLine
 10
167.7433509821161
 20
80.94961151735686
 30
0.0
 11
167.7433509821169
 21
71.62491199205367
 31
0.0
  0
LINE
  5
3FE
330
3F9
100
AcDbEntity
  8
1
  6
Continuous
 62
     7
370
     9
100
AcDbLine
 10
164.4433509821168
 20
72.62491199205371
 30
0.0
 11
167.7433509821168
 21
72.62491199205367
 31
0.0
  0
MTEXT
  5
3FF
330
3F9
100
AcDbEntity
  8
1
  6
Continuous
 62
     7
370
     9
100
AcDbMText
 10
166.1079103795152
 20
73.26848489738829
 30
0.0
 40
2.0
 41
20.18
 46
2.0
 71
     8
 72
     1
  1
3.3
  7
ＭＳ ゴシック
 73
     1
 44
1.0
1001
ACAD
1000
ACAD_MTEXT_DEFINED_HEIGHT_BEGIN
1070
    46
1040
2.0
1000
ACAD_MTEXT_DEFINED_HEIGHT_END
  0
INSERT
  5
400
330
3F9
100
AcDbEntity
  8
1
  6
Continuous
 62
     7
370
     9
100
AcDbBlockReference
  2
_OPEN
 10
164.4433509821168
 20
72.62491199205371
 30
0.0
 50
179.9999999999991
  0
INSERT
  5
401
330
3F9
100
AcDbEntity
  8
1
  6
Continuous
 62
     7
370
     9
100
AcDbBlockReference
  2
_OPEN
 10
167.7433509821168
 20
72.62491199205367
 30
0.0
 50
359.9999999999991
  0
ENDBLK
  5
3FB
330
3F9
100
AcDbEntity
  8
0
100
AcDbBlockEnd
  0
BLOCK
  5
404
330
403
100
AcDbEntity
  8
0
100
AcDbBlockBegin
  2
Dim3
 70
     0
 10
0.0
 20
0.0
 30
0.0
  3
Dim3
  1

  0
LINE
  5
406
330
403
100
AcDbEntity
  8
1
  6
Continuous
 62
     7
370
     9
100
AcDbLine
 10
143.1433509821161
 20
80.22556879402555
 30
0.0
 11
143.1433509821169
 21
71.62491199205363
 31
0.0
  0
LINE
  5
407
330
403
100
AcDbEntity
  8
1
  6
Continuous
 62
     7
370
     9
100
AcDbLine
 10
135.7433509821162
 20
80.22556879402555
 30
0.0
 11
135.7433509821169
 21
71.62491199205363
 31
0.0
  0
LINE
  5
408
330
403
100
AcDbEntity
  8
1
  6
Continuous
 62
     7
370
     9
100
AcDbLine
 10
143.1433509821168
 20
72.62491199205363
 30
0.0
 11
135.7433509821168
 21
72.62491199205363
 31
0.0
  0
MTEXT
  5
409
330
403
100
AcDbEntity
  8
1
  6
Continuous
 62
     7
370
     9
100
AcDbMText
 10
139.443350982116
 20
73.12491199205363
 30
0.0
 40
2.0
 41
19.99
 46
2.0
 71
     8
 72
     1
  1
7.4
  7
ＭＳ ゴシック
 73
     1
 44
1.0
1001
ACAD
1000
ACAD_MTEXT_DEFINED_HEIGHT_BEGIN
1070
    46
1040
2.0
1000
ACAD_MTEXT_DEFINED_HEIGHT_END
  0
INSERT
  5
40A
330
403
100
AcDbEntity
  8
1
  6
Continuous
 62
     7
370
     9
100
AcDbBlockReference
  2
_OPEN
 10
143.1433509821168
 20
72.62491199205363
 30
0.0
 50
359.9999999999997
  0
INSERT
  5
40B
330
403
100
AcDbEntity
  8
1
  6
Continuous
 62
     7
370
     9
100
AcDbBlockReference
  2
_OPEN
 10
135.7433509821168
 20
72.62491199205363
 30
0.0
 50
179.9999999999998
  0
ENDBLK
  5
405
330
403
100
AcDbEntity
  8
0
100
AcDbBlockEnd
  0
BLOCK
  5
40E
330
40D
100
AcDbEntity
  8
0
100
AcDbBlockBegin
  2
Dim4
 70
     0
 10
0.0
 20
0.0
 30
0.0
  3
Dim4
  1

  0
LINE
  5
410
330
40D
100
AcDbEntity
  8
1
  6
Continuous
 62
     7
370
     9
100
AcDbLine
 10
143.1433509821161
 20
80.19961151735686
 30
0.0
 11
143.1433509821169
 21
71.62491199205374
 31
0.0
  0
LINE
  5
411
330
40D
100
AcDbEntity
  8
1
  6
Continuous
 62
     7
370
     9
100
AcDbLine
 10
155.1433509821162
 20
80.19961151735686
 30
0.0
 11
155.1433509821169
 21
71.62491199205368
 31
0.0
  0
LINE
  5
412
330
40D
100
AcDbEntity
  8
1
  6
Continuous
 62
     7
370
     9
100
AcDbLine
 10
143.1433509821168
 20
72.62491199205374
 30
0.0
 11
155.1433509821168
 21
72.62491199205368
 31
0.0
  0
MTEXT
  5
413
330
40D
100
AcDbEntity
  8
1
  6
Continuous
 62
     7
370
     9
100
AcDbMText
 10
149.143350982116
 20
73.12491199205371
 30
0.0
 40
2.0
 41
13.52
 46
2.0
 71
     8
 72
     1
  1
12
  7
ＭＳ ゴシック
 73
     1
 44
1.0
1001
ACAD
1000
ACAD_MTEXT_DEFINED_HEIGHT_BEGIN
1070
    46
1040
2.0
1000
ACAD_MTEXT_DEFINED_HEIGHT_END
  0
INSERT
  5
414
330
40D
100
AcDbEntity
  8
1
  6
Continuous
 62
     7
370
     9
100
AcDbBlockReference
  2
_OPEN
 10
143.1433509821168
 20
72.62491199205374
 30
0.0
 50
179.9999999999995
  0
INSERT
  5
415
330
40D
100
AcDbEntity
  8
1
  6
Continuous
 62
     7
370
     9
100
AcDbBlockReference
  2
_OPEN
 10
155.1433509821168
 20
72.62491199205368
 30
0.0
 50
359.9999999999996
  0
ENDBLK
  5
40F
330
40D
100
AcDbEntity
  8
0
100
AcDbBlockEnd
  0
BLOCK
  5
418
330
417
100
AcDbEntity
  8
0
100
AcDbBlockBegin
  2
Dim5
 70
     0
 10
0.0
 20
0.0
 30
0.0
  3
Dim5
  1

  0
LINE
  5
41A
330
417
100
AcDbEntity
  8
1
  6
Continuous
 62
     7
370
     9
100
AcDbLine
 10
129.5433509821163
 20
69.99991199205368
 30
0.0
 11
129.543350982117
 21
65.82287017573566
 31
0.0
  0
LINE
  5
41B
330
417
100
AcDbEntity
  8
1
  6
Continuous
 62
     7
370
     9
100
AcDbLine
 10
167.7433509821165
 20
68.13553340474203
 30
0.0
 11
167.743350982117
 21
65.8228701757356
 31
0.0
  0
LINE
  5
41C
330
417
100
AcDbEntity
  8
1
  6
Continuous
 62
     7
370
     9
100
AcDbLine
 10
129.5433509821168
 20
66.82287017573566
 30
0.0
 11
167.7433509821168
 21
66.8228701757356
 31
0.0
  0
MTEXT
  5
41D
330
417
100
AcDbEntity
  8
1
  6
Continuous
 62
     7
370
     9
100
AcDbMText
 10
148.643350982116
 20
67.32287017573563
 30
0.0
 40
2.0
 41
30.18
 46
2.0
 71
     8
 72
     1
  1
38.2
  7
ＭＳ ゴシック
 73
     1
 44
1.0
1001
ACAD
1000
ACAD_MTEXT_DEFINED_HEIGHT_BEGIN
1070
    46
1040
2.0
1000
ACAD_MTEXT_DEFINED_HEIGHT_END
  0
INSERT
  5
41E
330
417
100
AcDbEntity
  8
1
  6
Continuous
 62
     7
370
     9
100
AcDbBlockReference
  2
_OPEN
 10
129.5433509821168
 20
66.82287017573566
 30
0.0
 50
179.9999999999997
  0
INSERT
  5
41F
330
417
100
AcDbEntity
  8
1
  6
Continuous
 62
     7
370
     9
100
AcDbBlockReference
  2
_OPEN
 10
167.7433509821168
 20
66.8228701757356
 30
0.0
 50
359.9999999999998
  0
ENDBLK
  5
419
330
417
100
AcDbEntity
  8
0
100
AcDbBlockEnd
  0
BLOCK
  5
422
330
421
100
AcDbEntity
  8
0
100
AcDbBlockBegin
  2
Dim6
 70
     0
 10
0.0
 20
0.0
 30
0.0
  3
Dim6
  1

  0
LINE
  5
424
330
421
100
AcDbEntity
  8
1
  6
Continuous
 62
     7
370
     9
100
AcDbLine
 10
167.7433509821163
 20
69.99991199205368
 30
0.0
 11
167.7433509821169
 21
65.82287017573572
 31
0.0
  0
LINE
  5
425
330
421
100
AcDbEntity
  8
1
  6
Continuous
 62
     7
370
     9
100
AcDbLine
 10
185.269350982116
 20
96.64961151735686
 30
0.0
 11
185.269350982116
 21
65.82287017573566
 31
0.0
  0
LINE
  5
426
330
421
100
AcDbEntity
  8
1
  6
Continuous
 62
     7
370
     9
100
AcDbLine
 10
167.7433509821168
 20
66.82287017573572
 30
0.0
 11
185.269350982116
 21
66.82287017573566
 31
0.0
  0
MTEXT
  5
427
330
421
100
AcDbEntity
  8
1
  6
Continuous
 62
     7
370
     9
100
AcDbMText
 10
176.506350982116
 20
67.32287017573569
 30
0.0
 40
2.0
 41
46.85000000000001
 46
2.0
 71
     8
 72
     1
  1
17.526
  7
ＭＳ ゴシック
 73
     1
 44
1.0
1001
ACAD
1000
ACAD_MTEXT_DEFINED_HEIGHT_BEGIN
1070
    46
1040
2.0
1000
ACAD_MTEXT_DEFINED_HEIGHT_END
  0
INSERT
  5
428
330
421
100
AcDbEntity
  8
1
  6
Continuous
 62
     7
370
     9
100
AcDbBlockReference
  2
_OPEN
 10
167.7433509821168
 20
66.82287017573572
 30
0.0
 50
179.9999999999996
  0
INSERT
  5
429
330
421
100
AcDbEntity
  8
1
  6
Continuous
 62
     7
370
     9
100
AcDbBlockReference
  2
_OPEN
 10
185.269350982116
 20
66.82287017573566
 30
0.0
 50
359.9999999999997
  0
ENDBLK
  5
423
330
421
100
AcDbEntity
  8
0
100
AcDbBlockEnd
  0
BLOCK
  5
42C
330
42B
100
AcDbEntity
  8
0
100
AcDbBlockBegin
  2
Dim7
 70
     0
 10
0.0
 20
0.0
 30
0.0
  3
Dim7
  1

  0
LINE
  5
42E
330
42B
100
AcDbEntity
  8
1
  6
Continuous
 62
     7
370
     9
100
AcDbLine
 10
155.1433509821162
 20
80.19961151735686
 30
0.0
 11
155.1433509821169
 21
71.62491199205374
 31
0.0
  0
LINE
  5
42F
330
42B
100
AcDbEntity
  8
1
  6
Continuous
 62
     7
370
     9
100
AcDbLine
 10
164.4433509821162
 20
79.88711151735686
 30
0.0
 11
164.4433509821169
 21
71.62491199205374
 31
0.0
  0
LINE
  5
430
330
42B
100
AcDbEntity
  8
1
  6
Continuous
 62
     7
370
     9
100
AcDbLine
 10
155.1433509821168
 20
72.62491199205374
 30
0.0
 11
164.4433509821168
 21
72.62491199205374
 31
0.0
  0
MTEXT
  5
431
330
42B
100
AcDbEntity
  8
1
  6
Continuous
 62
     7
370
     9
100
AcDbMText
 10
159.793350982116
 20
73.12491199205374
 30
0.0
 40
2.0
 41
20.21
 46
2.0
 71
     8
 72
     1
  1
9.3
  7
ＭＳ ゴシック
 73
     1
 44
1.0
1001
ACAD
1000
ACAD_MTEXT_DEFINED_HEIGHT_BEGIN
1070
    46
1040
2.0
1000
ACAD_MTEXT_DEFINED_HEIGHT_END
  0
INSERT
  5
432
330
42B
100
AcDbEntity
  8
1
  6
Continuous
 62
     7
370
     9
100
AcDbBlockReference
  2
_OPEN
 10
155.1433509821168
 20
72.62491199205374
 30
0.0
 50
179.9999999999998
  0
INSERT
  5
433
330
42B
100
AcDbEntity
  8
1
  6
Continuous
 62
     7
370
     9
100
AcDbBlockReference
  2
_OPEN
 10
164.4433509821168
 20
72.62491199205374
 30
0.0
 50
359.9999999999997
  0
ENDBLK
  5
42D
330
42B
100
AcDbEntity
  8
0
100
AcDbBlockEnd
  0
BLOCK
  5
436
330
435
100
AcDbEntity
  8
0
100
AcDbBlockBegin
  2
Dim8
 70
     0
 10
0.0
 20
0.0
 30
0.0
  3
Dim8
  1

  0
LINE
  5
438
330
435
100
AcDbEntity
  8
1
  6
Continuous
 62
     7
370
     9
100
AcDbLine
 10
171.7433509821161
 20
84.44961151735686
 30
0.0
 11
171.7433509821169
 21
71.62491199205368
 31
0.0
  0
LINE
  5
439
330
435
100
AcDbEntity
  8
1
  6
Continuous
 62
     7
370
     9
100
AcDbLine
 10
167.7433509821161
 20
80.94961151735686
 30
0.0
 11
167.7433509821169
 21
71.62491199205368
 31
0.0
  0
LINE
  5
43A
330
435
100
AcDbEntity
  8
1
  6
Continuous
 62
     7
370
     9
100
AcDbLine
 10
171.7433509821168
 20
72.62491199205368
 30
0.0
 11
167.7433509821168
 21
72.62491199205368
 31
0.0
  0
MTEXT
  5
43B
330
435
100
AcDbEntity
  8
1
  6
Continuous
 62
     7
370
     9
100
AcDbMText
 10
169.743350982116
 20
73.12491199205368
 30
0.0
 40
2.0
 41
6.89
 46
2.0
 71
     8
 72
     1
  1
4
  7
ＭＳ ゴシック
 73
     1
 44
1.0
1001
ACAD
1000
ACAD_MTEXT_DEFINED_HEIGHT_BEGIN
1070
    46
1040
2.0
1000
ACAD_MTEXT_DEFINED_HEIGHT_END
  0
INSERT
  5
43C
330
435
100
AcDbEntity
  8
1
  6
Continuous
 62
     7
370
     9
100
AcDbBlockReference
  2
_OPEN
 10
171.7433509821168
 20
72.62491199205368
 30
0.0
 50
359.9999999999997
  0
INSERT
  5
43D
330
435
100
AcDbEntity
  8
1
  6
Continuous
 62
     7
370
     9
100
AcDbBlockReference
  2
_OPEN
 10
167.7433509821168
 20
72.62491199205368
 30
0.0
 50
179.9999999999998
  0
ENDBLK
  5
437
330
435
100
AcDbEntity
  8
0
100
AcDbBlockEnd
  0
BLOCK
  5
440
330
43F
100
AcDbEntity
  8
0
100
AcDbBlockBegin
  2
Dim9
 70
     0
 10
0.0
 20
0.0
 30
0.0
  3
Dim9
  1

  0
LINE
  5
442
330
43F
100
AcDbEntity
  8
1
  6
Continuous
 62
     7
370
     9
100
AcDbLine
 10
174.4650332888843
 20
106.6496115173535
 30
0.0
 11
192.4129329010894
 21
106.6496115173542
 31
0.0
  0
LINE
  5
443
330
43F
100
AcDbEntity
  8
1
  6
Continuous
 62
     7
370
     9
100
AcDbLine
 10
174.4650332888843
 20
90.6496115173604
 30
0.0
 11
192.4129329010894
 21
90.64961151736114
 31
0.0
  0
LINE
  5
444
330
43F
100
AcDbEntity
  8
1
  6
Continuous
 62
     7
370
     9
100
AcDbLine
 10
191.4129329010894
 20
106.6496115173542
 30
0.0
 11
191.4129329010894
 21
90.6496115173611
 31
0.0
  0
MTEXT
  5
445
330
43F
100
AcDbEntity
  8
1
  6
Continuous
 62
     7
370
     9
100
AcDbMText
 10
191.4129329010894
 20
98.68541380887063
 30
0.0
 40
2.0
 41
21.18
 46
2.0
 71
     8
 72
     1
  1
φ16
  7
ＭＳ ゴシック
 11
1.615544574432587E-15
 21
1.0
 31
0.0
 73
     1
 44
1.0
1001
ACAD
1000
ACAD_MTEXT_DEFINED_HEIGHT_BEGIN
1070
    46
1040
2.0
1000
ACAD_MTEXT_DEFINED_HEIGHT_END
  0
INSERT
  5
446
330
43F
100
AcDbEntity
  8
1
  6
Continuous
 62
     7
370
     9
100
AcDbBlockReference
  2
_OPEN
 10
191.4129329010894
 20
106.6496115173542
 30
0.0
 50
89.99999999999991
  0
INSERT
  5
447
330
43F
100
AcDbEntity
  8
1
  6
Continuous
 62
     7
370
     9
100
AcDbBlockReference
  2
_OPEN
 10
191.4129329010894
 20
90.6496115173611
 30
0.0
 50
269.9999999999998
  0
ENDBLK
  5
441
330
43F
100
AcDbEntity
  8
0
100
AcDbBlockEnd
  0
BLOCK
  5
44A
330
449
100
AcDbEntity
  8
0
100
AcDbBlockBegin
  2
Dim10
 70
     0
 10
0.0
 20
0.0
 30
0.0
  3
Dim10
  1

  0
LINE
  5
44C
330
449
100
AcDbEntity
  8
1
  6
Continuous
 62
     7
370
     9
100
AcDbLine
 10
169.443350982116
 20
114.6496115173569
 30
0.0
 11
196.4129329010895
 21
114.6496115173576
 31
0.0
  0
LINE
  5
44D
330
449
100
AcDbEntity
  8
1
  6
Continuous
 62
     7
370
     9
100
AcDbLine
 10
169.443350982116
 20
82.6496115173569
 30
0.0
 11
196.4129329010895
 21
82.64961151735764
 31
0.0
  0
LINE
  5
44E
330
449
100
AcDbEntity
  8
1
  6
Continuous
 62
     7
370
     9
100
AcDbLine
 10
195.4129329010895
 20
114.6496115173576
 30
0.0
 11
195.4129329010895
 21
82.64961151735761
 31
0.0
  0
MTEXT
  5
44F
330
449
100
AcDbEntity
  8
1
  6
Continuous
 62
     7
370
     9
100
AcDbMText
 10
195.4129329010895
 20
98.68541380887063
 30
0.0
 40
2.0
 41
24.51
 46
2.0
 71
     8
 72
     1
  1
φ32
  7
ＭＳ ゴシック
 11
1.615544574432587E-15
 21
1.0
 31
0.0
 73
     1
 44
1.0
1001
ACAD
1000
ACAD_MTEXT_DEFINED_HEIGHT_BEGIN
1070
    46
1040
2.0
1000
ACAD_MTEXT_DEFINED_HEIGHT_END
  0
INSERT
  5
450
330
449
100
AcDbEntity
  8
1
  6
Continuous
 62
     7
370
     9
100
AcDbBlockReference
  2
_OPEN
 10
195.4129329010895
 20
114.6496115173576
 30
0.0
 50
89.99999999999991
  0
INSERT
  5
451
330
449
100
AcDbEntity
  8
1
  6
Continuous
 62
     7
370
     9
100
AcDbBlockReference
  2
_OPEN
 10
195.4129329010895
 20
82.64961151735761
 30
0.0
 50
269.9999999999998
  0
ENDBLK
  5
44B
330
449
100
AcDbEntity
  8
0
100
AcDbBlockEnd
  0
BLOCK
  5
455
330
454
100
AcDbEntity
  8
0
100
AcDbBlockBegin
  2
Dim11
 70
     0
 10
0.0
 20
0.0
 30
0.0
  3
Dim11
  1

  0
LINE
  5
457
330
454
100
AcDbEntity
  8
1
  6
Continuous
 62
     7
370
     9
100
AcDbLine
 10
127.743350982116
 20
114.649611517357
 30
0.0
 11
119.6248355808529
 21
114.6496115173578
 31
0.0
  0
LINE
  5
458
330
454
100
AcDbEntity
  8
1
  6
Continuous
 62
     7
370
     9
100
AcDbLine
 10
127.743350982116
 20
82.64961151735703
 30
0.0
 11
119.6248355808529
 21
82.64961151735776
 31
0.0
  0
LINE
  5
459
330
454
100
AcDbEntity
  8
1
  6
Continuous
 62
     7
370
     9
100
AcDbLine
 10
120.6248355808529
 20
114.6496115173577
 30
0.0
 11
120.6248355808529
 21
82.64961151735767
 31
0.0
  0
MTEXT
  5
45A
330
454
100
AcDbEntity
  8
1
  6
Continuous
 62
     7
370
     9
100
AcDbMText
 10
120.1248355808529
 20
98.84227655396867
 30
0.0
 40
2.0
 41
24.51
 46
2.0
 71
     8
 72
     1
  1
φ32
  7
ＭＳ ゴシック
 11
1.615544574432587E-15
 21
1.0
 31
0.0
 73
     1
 44
1.0
1001
ACAD
1000
ACAD_MTEXT_DEFINED_HEIGHT_BEGIN
1070
    46
1040
2.0
1000
ACAD_MTEXT_DEFINED_HEIGHT_END
  0
INSERT
  5
45B
330
454
100
AcDbEntity
  8
1
  6
Continuous
 62
     7
370
     9
100
AcDbBlockReference
  2
_OPEN
 10
120.6248355808529
 20
114.6496115173577
 30
0.0
 50
89.99999999999991
  0
INSERT
  5
45C
330
454
100
AcDbEntity
  8
1
  6
Continuous
 62
     7
370
     9
100
AcDbBlockReference
  2
_OPEN
 10
120.6248355808529
 20
82.64961151735767
 30
0.0
 50
269.9999999999998
  0
ENDBLK
  5
456
330
454
100
AcDbEntity
  8
0
100
AcDbBlockEnd
  0
BLOCK
  5
45F
330
45E
100
AcDbEntity
  8
0
100
AcDbBlockBegin
  2
Dim12
 70
     0
 10
0.0
 20
0.0
 30
0.0
  3
Dim12
  1

  0
LINE
  5
461
330
45E
100
AcDbEntity
  8
1
  6
Continuous
 62
     7
370
     9
100
AcDbLine
 10
134.043350982116
 20
115.3996115173569
 30
0.0
 11
115.1248355808529
 21
115.3996115173577
 31
0.0
  0
LINE
  5
462
330
45E
100
AcDbEntity
  8
1
  6
Continuous
 62
     7
370
     9
100
AcDbLine
 10
134.043350982116
 20
81.89961151735693
 30
0.0
 11
115.1248355808529
 21
81.89961151735773
 31
0.0
  0
LINE
  5
463
330
45E
100
AcDbEntity
  8
1
  6
Continuous
 62
     7
370
     9
100
AcDbLine
 10
116.1248355808529
 20
115.3996115173577
 30
0.0
 11
116.1248355808529
 21
81.89961151735768
 31
0.0
  0
MTEXT
  5
464
330
45E
100
AcDbEntity
  8
1
  6
Continuous
 62
     7
370
     9
100
AcDbMText
 10
115.6248355808529
 20
98.68541380887063
 30
0.0
 40
2.0
 41
37.84
 46
2.0
 71
     8
 72
     1
  1
φ33.5
  7
ＭＳ ゴシック
 11
1.615544574432587E-15
 21
1.0
 31
0.0
 73
     1
 44
1.0
1001
ACAD
1000
ACAD_MTEXT_DEFINED_HEIGHT_BEGIN
1070
    46
1040
2.0
1000
ACAD_MTEXT_DEFINED_HEIGHT_END
  0
INSERT
  5
465
330
45E
100
AcDbEntity
  8
1
  6
Continuous
 62
     7
370
     9
100
AcDbBlockReference
  2
_OPEN
 10
116.1248355808529
 20
115.3996115173577
 30
0.0
 50
89.9999999999998
  0
INSERT
  5
466
330
45E
100
AcDbEntity
  8
1
  6
Continuous
 62
     7
370
     9
100
AcDbBlockReference
  2
_OPEN
 10
116.1248355808529
 20
81.89961151735768
 30
0.0
 50
269.9999999999998
  0
ENDBLK
  5
460
330
45E
100
AcDbEntity
  8
0
100
AcDbBlockEnd
  0
BLOCK
  5
48E
330
48D
100
AcDbEntity
  8
0
100
AcDbBlockBegin
  2
*G28
 70
     1
 10
0.0
 20
0.0
 30
0.0
  3
*G28
  1

  0
LINE
  5
490
330
48D
100
AcDbEntity
  8
1
  6
Continuous
 62
     7
370
     9
100
AcDbLine
 10
146.9433509821162
 20
108.1146115173569
 30
0.0
 11
146.9433509821162
 21
107.6646115173568
 31
0.0
  0
ENDBLK
  5
48F
330
48D
100
AcDbEntity
  8
0
100
AcDbBlockEnd
  0
BLOCK
  5
49B
330
49A
100
AcDbEntity
  8
0
100
AcDbBlockBegin
  2
*G29
 70
     1
 10
0.0
 20
0.0
 30
0.0
  3
*G29
  1

  0
LINE
  5
49D
330
49A
100
AcDbEntity
  8
1
  6
Continuous
 62
     7
370
     9
100
AcDbLine
 10
146.8808232265428
 20
102.5183773935449
 30
0.0
 11
146.8808232265428
 21
102.0683773935448
 31
0.0
  0
ENDBLK
  5
49C
330
49A
100
AcDbEntity
  8
0
100
AcDbBlockEnd
  0
BLOCK
  5
4A6
330
4A5
100
AcDbEntity
  8
0
100
AcDbBlockBegin
  2
*G30
 70
     1
 10
0.0
 20
0.0
 30
0.0
  3
*G30
  1

  0
LINE
  5
4A8
330
4A5
100
AcDbEntity
  8
1
  6
Continuous
 62
     7
370
     9
100
AcDbLine
 10
132.0694357650798
 20
113.3496115173568
 30
0.0
 11
132.559504387598
 21
113.8396801398749
 31
0.0
  0
LINE
  5
4A9
330
4A5
100
AcDbEntity
  8
1
  6
Continuous
 62
     7
370
     9
100
AcDbLine
 10
131.3623289838933
 20
113.3496115173568
 30
0.0
 11
132.6623289838933
 21
114.6496115173568
 31
0.0
  0
LINE
  5
4AA
330
4A5
100
AcDbEntity
  8
1
  6
Continuous
 62
     7
370
     9
100
AcDbLine
 10
130.6552222027067
 20
113.3496115173568
 30
0.0
 11
131.9552222027068
 21
114.6496115173568
 31
0.0
  0
LINE
  5
4AB
330
4A5
100
AcDbEntity
  8
1
  6
Continuous
 62
     7
370
     9
100
AcDbLine
 10
129.9481154215202
 20
113.3496115173568
 30
0.0
 11
131.2481154215202
 21
114.6496115173568
 31
0.0
  0
LINE
  5
4AC
330
4A5
100
AcDbEntity
  8
1
  6
Continuous
 62
     7
370
     9
100
AcDbLine
 10
129.543350982116
 20
113.6519538591392
 30
0.0
 11
130.5410086403336
 21
114.6496115173568
 31
0.0
  0
LINE
  5
4AD
330
4A5
100
AcDbEntity
  8
1
  6
Continuous
 62
     7
370
     9
100
AcDbLine
 10
129.543350982116
 20
114.3590606403258
 30
0.0
 11
129.8339018591471
 21
114.6496115173568
 31
0.0
  0
ENDBLK
  5
4A7
330
4A5
100
AcDbEntity
  8
0
100
AcDbBlockEnd
  0
BLOCK
  5
4B0
330
4AF
100
AcDbEntity
  8
0
100
AcDbBlockBegin
  2
Dim13
 70
     0
 10
0.0
 20
0.0
 30
0.0
  3
Dim13
  1

  0
LINE
  5
4B2
330
4AF
100
AcDbEntity
  8
1
  6
Continuous
 62
     7
370
     9
100
AcDbLine
 10
129.5433509821162
 20
80.84961151735683
 30
0.0
 11
129.5433509821169
 21
71.62491199205368
 31
0.0
  0
LINE
  5
4B3
330
4AF
100
AcDbEntity
  8
1
  6
Continuous
 62
     7
370
     9
100
AcDbLine
 10
135.7433509821161
 20
80.19961151735686
 30
0.0
 11
135.7433509821168
 21
71.62491199205363
 31
0.0
  0
LINE
  5
4B4
330
4AF
100
AcDbEntity
  8
1
  6
Continuous
 62
     7
370
     9
100
AcDbLine
 10
129.5433509821168
 20
72.62491199205368
 30
0.0
 11
135.7433509821167
 21
72.62491199205363
 31
0.0
  0
MTEXT
  5
4B5
330
4AF
100
AcDbEntity
  8
1
  6
Continuous
 62
     7
370
     9
100
AcDbMText
 10
132.5883959499067
 20
73.31965538680168
 30
0.0
 40
2.0
 41
33.55
 46
2.0
 71
     8
 72
     1
  1
(6.2)
  7
ＭＳ ゴシック
 73
     1
 44
1.0
1001
ACAD
1000
ACAD_MTEXT_DEFINED_HEIGHT_BEGIN
1070
    46
1040
2.0
1000
ACAD_MTEXT_DEFINED_HEIGHT_END
  0
INSERT
  5
4B6
330
4AF
100
AcDbEntity
  8
1
  6
Continuous
 62
     7
370
     9
100
AcDbBlockReference
  2
_OPEN
 10
129.5433509821168
 20
72.62491199205368
 30
0.0
 50
179.9999999999993
  0
INSERT
  5
4B7
330
4AF
100
AcDbEntity
  8
1
  6
Continuous
 62
     7
370
     9
100
AcDbBlockReference
  2
_OPEN
 10
135.7433509821167
 20
72.62491199205363
 30
0.0
 50
359.9999999999993
  0
ENDBLK
  5
4B1
330
4AF
100
AcDbEntity
  8
0
100
AcDbBlockEnd
  0
BLOCK
  5
4BA
330
4B9
100
AcDbEntity
  8
0
100
AcDbBlockBegin
  2
Dim14
 70
     0
 10
0.0
 20
0.0
 30
0.0
  3
Dim14
  1

  0
LINE
  5
4BC
330
4B9
100
AcDbEntity
  8
1
  6
Continuous
 62
     7
370
     9
100
AcDbLine
 10
172.6650332888844
 20
88.8496115173603
 30
0.0
 11
172.6650332888849
 21
71.62491199205368
 31
0.0
  0
LINE
  5
4BD
330
4B9
100
AcDbEntity
  8
1
  6
Continuous
 62
     7
370
     9
100
AcDbLine
 10
171.7433509821161
 20
84.44961151735686
 30
0.0
 11
171.7433509821165
 21
71.62491199205368
 31
0.0
  0
LINE
  5
4BE
330
4B9
100
AcDbEntity
  8
1
  6
Continuous
 62
     7
370
     9
100
AcDbLine
 10
180.6650332888849
 20
72.62491199205368
 30
0.0
 11
163.7433509821164
 21
72.62491199205368
 31
0.0
  0
MTEXT
  5
4BF
330
4B9
100
AcDbEntity
  8
1
  6
Continuous
 62
     7
370
     9
100
AcDbMText
 10
173.6077138289368
 20
73.0695443645084
 30
0.0
 40
2.0
 41
31.89
 46
2.0
 71
     7
 72
     1
  1
(0.9)
  7
ＭＳ ゴシック
 73
     1
 44
1.0
1001
ACAD
1000
ACAD_MTEXT_DEFINED_HEIGHT_BEGIN
1070
    46
1040
2.0
1000
ACAD_MTEXT_DEFINED_HEIGHT_END
  0
INSERT
  5
4C0
330
4B9
100
AcDbEntity
  8
1
  6
Continuous
 62
     7
370
     9
100
AcDbBlockReference
  2
_OPEN
 10
172.6650332888849
 20
72.62491199205368
 30
0.0
 50
179.9999999999995
  0
INSERT
  5
4C1
330
4B9
100
AcDbEntity
  8
1
  6
Continuous
 62
     7
370
     9
100
AcDbBlockReference
  2
_OPEN
 10
171.7433509821164
 20
72.62491199205368
 30
0.0
 50
359.9999999999997
  0
ENDBLK
  5
4BB
330
4B9
100
AcDbEntity
  8
0
100
AcDbBlockEnd
  0
ENDSEC
  0
SECTION
  2
ENTITIES
  0
LINE
  5
B4
330
1F
100
AcDbEntity
  8
2
  6
Continuous
 62
   134
370
    30
100
AcDbLine
 10
155.443350982116
 20
115.3996115173568
 30
0.0
 11
164.143350982116
 21
115.3996115173568
 31
0.0
  0
LINE
  5
B5
330
1F
100
AcDbEntity
  8
2
  6
Continuous
 62
   134
370
    30
100
AcDbLine
 10
155.443350982116
 20
115.3996115173568
 30
0.0
 11
155.143350982116
 21
115.0996115173568
 31
0.0
  0
LINE
  5
B6
330
1F
100
AcDbEntity
  8
2
  6
Continuous
 62
   134
370
    30
100
AcDbLine
 10
164.443350982116
 20
98.64961151735685
 30
0.0
 11
164.443350982116
 21
115.0996115173568
 31
0.0
  0
LINE
  5
B7
330
1F
100
AcDbEntity
  8
2
  6
Continuous
 62
   134
370
    30
100
AcDbLine
 10
164.143350982116
 20
115.3996115173568
 30
0.0
 11
164.443350982116
 21
115.0996115173568
 31
0.0
  0
POLYLINE
  5
B8
330
1F
100
AcDbEntity
  8
1
  6
Continuous
 62
     7
370
     9
100
AcDb2dPolyline
 66
     1
 10
0.0
 20
0.0
 30
0.0
 70
     2
  0
VERTEX
  5
B9
330
B8
100
AcDbEntity
  8
1
  6
Continuous
 62
     7
370
     9
100
AcDbVertex
100
AcDb2dVertex
 10
129.543350982116
 20
111.9086637418004
 30
0.0
  0
VERTEX
  5
BA
330
B8
100
AcDbEntity
  8
1
  6
Continuous
 62
     7
370
     9
100
AcDbVertex
100
AcDb2dVertex
 10
129.5505724197505
 20
111.9055196626138
 30
0.0
  0
VERTEX
  5
BB
330
B8
100
AcDbEntity
  8
1
  6
Continuous
 62
     7
370
     9
100
AcDbVertex
100
AcDb2dVertex
 10
129.5720382429228
 20
111.8961785624457
 30
0.0
  0
VERTEX
  5
BC
330
B8
100
AcDbEntity
  8
1
  6
Continuous
 62
     7
370
     9
100
AcDbVertex
100
AcDb2dVertex
 10
129.6071499108809
 20
111.8809416196355
 30
0.0
  0
VERTEX
  5
BD
330
B8
100
AcDbEntity
  8
1
  6
Continuous
 62
     7
370
     9
100
AcDbVertex
100
AcDb2dVertex
 10
129.6549027054515
 20
111.8603918835212
 30
0.0
  0
VERTEX
  5
BE
330
B8
100
AcDbEntity
  8
1
  6
Continuous
 62
     7
370
     9
100
AcDbVertex
100
AcDb2dVertex
 10
129.7138849022226
 20
111.8354790282685
 30
0.0
  0
VERTEX
  5
BF
330
B8
100
AcDbEntity
  8
1
  6
Continuous
 62
     7
370
     9
100
AcDbVertex
100
AcDb2dVertex
 10
129.7822933544714
 20
111.8075751734877
 30
0.0
  0
VERTEX
  5
C0
330
B8
100
AcDbEntity
  8
1
  6
Continuous
 62
     7
370
     9
100
AcDbVertex
100
AcDb2dVertex
 10
129.8579759261503
 20
111.7784615279298
 30
0.0
  0
VERTEX
  5
C1
330
B8
100
AcDbEntity
  8
1
  6
Continuous
 62
     7
370
     9
100
AcDbVertex
100
AcDb2dVertex
 10
129.938507050372
 20
111.7502197186092
 30
0.0
  0
VERTEX
  5
C2
330
B8
100
AcDbEntity
  8
1
  6
Continuous
 62
     7
370
     9
100
AcDbVertex
100
AcDb2dVertex
 10
130.0212959375969
 20
111.7250251181997
 30
0.0
  0
VERTEX
  5
C3
330
B8
100
AcDbEntity
  8
1
  6
Continuous
 62
     7
370
     9
100
AcDbVertex
100
AcDb2dVertex
 10
130.1037192243034
 20
111.704866551558
 30
0.0
  0
VERTEX
  5
C4
330
B8
100
AcDbEntity
  8
1
  6
Continuous
 62
     7
370
     9
100
AcDbVertex
100
AcDb2dVertex
 10
130.183263082225
 20
111.6912405313479
 30
0.0
  0
VERTEX
  5
C5
330
B8
100
AcDbEntity
  8
1
  6
Continuous
 62
     7
370
     9
100
AcDbVertex
100
AcDb2dVertex
 10
130.2576557971169
 20
111.6848822472565
 30
0.0
  0
VERTEX
  5
C6
330
B8
100
AcDbEntity
  8
1
  6
Continuous
 62
     7
370
     9
100
AcDbVertex
100
AcDb2dVertex
 10
130.3249717713375
 20
111.6855956524411
 30
0.0
  0
VERTEX
  5
C7
330
B8
100
AcDbEntity
  8
1
  6
Continuous
 62
     7
370
     9
100
AcDbVertex
100
AcDb2dVertex
 10
130.3836920886555
 20
111.6922301501538
 30
0.0
  0
VERTEX
  5
C8
330
B8
100
AcDbEntity
  8
1
  6
Continuous
 62
     7
370
     9
100
AcDbVertex
100
AcDb2dVertex
 10
130.4327144727698
 20
111.7028241827353
 30
0.0
  0
VERTEX
  5
C9
330
B8
100
AcDbEntity
  8
1
  6
Continuous
 62
     7
370
     9
100
AcDbVertex
100
AcDb2dVertex
 10
130.4713150772014
 20
111.7149021475527
 30
0.0
  0
VERTEX
  5
CA
330
B8
100
AcDbEntity
  8
1
  6
Continuous
 62
     7
370
     9
100
AcDbVertex
100
AcDb2dVertex
 10
130.4990739593507
 20
111.7258780011049
 30
0.0
  0
VERTEX
  5
CB
330
B8
100
AcDbEntity
  8
1
  6
Continuous
 62
     7
370
     9
100
AcDbVertex
100
AcDb2dVertex
 10
130.515783189477
 20
111.7334942295106
 30
0.0
  0
VERTEX
  5
CC
330
B8
100
AcDbEntity
  8
1
  6
Continuous
 62
     7
370
     9
100
AcDbVertex
100
AcDb2dVertex
 10
130.5213596774911
 20
111.7362144214383
 30
0.0
  0
VERTEX
  5
CD
330
B8
100
AcDbEntity
  8
1
  6
Continuous
 62
     7
370
     9
100
AcDbVertex
100
AcDb2dVertex
 10
130.5269136524003
 20
111.7390148810818
 30
0.0
  0
VERTEX
  5
CE
330
B8
100
AcDbEntity
  8
1
  6
Continuous
 62
     7
370
     9
100
AcDbVertex
100
AcDb2dVertex
 10
130.5432936432928
 20
111.7478053550508
 30
0.0
  0
VERTEX
  5
CF
330
B8
100
AcDbEntity
  8
1
  6
Continuous
 62
     7
370
     9
100
AcDbVertex
100
AcDb2dVertex
 10
130.5696925966924
 20
111.7636344862653
 30
0.0
  0
VERTEX
  5
D0
330
B8
100
AcDbEntity
  8
1
  6
Continuous
 62
     7
370
     9
100
AcDbVertex
100
AcDb2dVertex
 10
130.6048860817499
 20
111.7878833630856
 30
0.0
  0
VERTEX
  5
D1
330
B8
100
AcDbEntity
  8
1
  6
Continuous
 62
     7
370
     9
100
AcDbVertex
100
AcDb2dVertex
 10
130.6473855433048
 20
111.8218095238447
 30
0.0
  0
VERTEX
  5
D2
330
B8
100
AcDbEntity
  8
1
  6
Continuous
 62
     7
370
     9
100
AcDbVertex
100
AcDb2dVertex
 10
130.6956041804842
 20
111.8660733210266
 30
0.0
  0
VERTEX
  5
D3
330
B8
100
AcDbEntity
  8
1
  6
Continuous
 62
     7
370
     9
100
AcDbVertex
100
AcDb2dVertex
 10
130.7480009600206
 20
111.9203629483782
 30
0.0
  0
VERTEX
  5
D4
330
B8
100
AcDbEntity
  8
1
  6
Continuous
 62
     7
370
     9
100
AcDbVertex
100
AcDb2dVertex
 10
130.8031748070199
 20
111.9832116644329
 30
0.0
  0
VERTEX
  5
D5
330
B8
100
AcDbEntity
  8
1
  6
Continuous
 62
     7
370
     9
100
AcDbVertex
100
AcDb2dVertex
 10
130.8598940769731
 20
112.0520556408707
 30
0.0
  0
VERTEX
  5
D6
330
B8
100
AcDbEntity
  8
1
  6
Continuous
 62
     7
370
     9
100
AcDbVertex
100
AcDb2dVertex
 10
130.9170628250655
 20
112.1235242550163
 30
0.0
  0
VERTEX
  5
D7
330
B8
100
AcDbEntity
  8
1
  6
Continuous
 62
     7
370
     9
100
AcDbVertex
100
AcDb2dVertex
 10
130.9736411775449
 20
112.1939001009245
 30
0.0
  0
VERTEX
  5
D8
330
B8
100
AcDbEntity
  8
1
  6
Continuous
 62
     7
370
     9
100
AcDbVertex
100
AcDb2dVertex
 10
131.0285484601914
 20
112.2596465540936
 30
0.0
  0
VERTEX
  5
D9
330
B8
100
AcDbEntity
  8
1
  6
Continuous
 62
     7
370
     9
100
AcDbVertex
100
AcDb2dVertex
 10
131.0805819148799
 20
112.3178857714242
 30
0.0
  0
VERTEX
  5
DA
330
B8
100
AcDbEntity
  8
1
  6
Continuous
 62
     7
370
     9
100
AcDbVertex
100
AcDb2dVertex
 10
131.128379838601
 20
112.3667230120912
 30
0.0
  0
VERTEX
  5
DB
330
B8
100
AcDbEntity
  8
1
  6
Continuous
 62
     7
370
     9
100
AcDbVertex
100
AcDb2dVertex
 10
131.1704467889186
 20
112.4053508662757
 30
0.0
  0
VERTEX
  5
DC
330
B8
100
AcDbEntity
  8
1
  6
Continuous
 62
     7
370
     9
100
AcDbVertex
100
AcDb2dVertex
 10
131.2052428342634
 20
112.4339201850247
 30
0.0
  0
VERTEX
  5
DD
330
B8
100
AcDbEntity
  8
1
  6
Continuous
 62
     7
370
     9
100
AcDbVertex
100
AcDb2dVertex
 10
131.2313224882346
 20
112.4532203197497
 30
0.0
  0
VERTEX
  5
DE
330
B8
100
AcDbEntity
  8
1
  6
Continuous
 62
     7
370
     9
100
AcDbVertex
100
AcDb2dVertex
 10
131.2474959210307
 20
112.4642562217224
 30
0.0
  0
VERTEX
  5
DF
330
B8
100
AcDbEntity
  8
1
  6
Continuous
 62
     7
370
     9
100
AcDbVertex
100
AcDb2dVertex
 10
131.2529784629501
 20
112.4678332068972
 30
0.0
  0
VERTEX
  5
E0
330
B8
100
AcDbEntity
  8
1
  6
Continuous
 62
     7
370
     9
100
AcDbVertex
100
AcDb2dVertex
 10
131.2584825051974
 20
112.471340642622
 30
0.0
  0
VERTEX
  5
E1
330
B8
100
AcDbEntity
  8
1
  6
Continuous
 62
     7
370
     9
100
AcDbVertex
100
AcDb2dVertex
 10
131.274968712239
 20
112.4813633108375
 30
0.0
  0
VERTEX
  5
E2
330
B8
100
AcDbEntity
  8
1
  6
Continuous
 62
     7
370
     9
100
AcDbVertex
100
AcDb2dVertex
 10
131.3023271972293
 20
112.4965089792689
 30
0.0
  0
VERTEX
  5
E3
330
B8
100
AcDbEntity
  8
1
  6
Continuous
 62
     7
370
     9
100
AcDbVertex
100
AcDb2dVertex
 10
131.340276827616
 20
112.514788002986
 30
0.0
  0
VERTEX
  5
E4
330
B8
100
AcDbEntity
  8
1
  6
Continuous
 62
     7
370
     9
100
AcDbVertex
100
AcDb2dVertex
 10
131.3882478440052
 20
112.5340283036767
 30
0.0
  0
VERTEX
  5
E5
330
B8
100
AcDbEntity
  8
1
  6
Continuous
 62
     7
370
     9
100
AcDbVertex
100
AcDb2dVertex
 10
131.4452691227544
 20
112.5523139717355
 30
0.0
  0
VERTEX
  5
E6
330
B8
100
AcDbEntity
  8
1
  6
Continuous
 62
     7
370
     9
100
AcDbVertex
100
AcDb2dVertex
 10
131.5098958231776
 20
112.5683466884371
 30
0.0
  0
VERTEX
  5
E7
330
B8
100
AcDbEntity
  8
1
  6
Continuous
 62
     7
370
     9
100
AcDbVertex
100
AcDb2dVertex
 10
131.5802051168131
 20
112.5816484206605
 30
0.0
  0
VERTEX
  5
E8
330
B8
100
AcDbEntity
  8
1
  6
Continuous
 62
     7
370
     9
100
AcDbVertex
100
AcDb2dVertex
 10
131.6538724908071
 20
112.5925622937784
 30
0.0
  0
VERTEX
  5
E9
330
B8
100
AcDbEntity
  8
1
  6
Continuous
 62
     7
370
     9
100
AcDbVertex
100
AcDb2dVertex
 10
131.7283223881428
 20
112.6020569333516
 30
0.0
  0
VERTEX
  5
EA
330
B8
100
AcDbEntity
  8
1
  6
Continuous
 62
     7
370
     9
100
AcDbVertex
100
AcDb2dVertex
 10
131.8009292173061
 20
112.6113862678317
 30
0.0
  0
VERTEX
  5
EB
330
B8
100
AcDbEntity
  8
1
  6
Continuous
 62
     7
370
     9
100
AcDbVertex
100
AcDb2dVertex
 10
131.869232347769
 20
112.6216906321276
 30
0.0
  0
VERTEX
  5
EC
330
B8
100
AcDbEntity
  8
1
  6
Continuous
 62
     7
370
     9
100
AcDbVertex
100
AcDb2dVertex
 10
131.9311246655859
 20
112.6336379629357
 30
0.0
  0
VERTEX
  5
ED
330
B8
100
AcDbEntity
  8
1
  6
Continuous
 62
     7
370
     9
100
AcDbVertex
100
AcDb2dVertex
 10
131.9849796550789
 20
112.6471929420881
 30
0.0
  0
VERTEX
  5
EE
330
B8
100
AcDbEntity
  8
1
  6
Continuous
 62
     7
370
     9
100
AcDbVertex
100
AcDb2dVertex
 10
132.0296955921332
 20
112.6615698944065
 30
0.0
  0
VERTEX
  5
EF
330
B8
100
AcDbEntity
  8
1
  6
Continuous
 62
     7
370
     9
100
AcDbVertex
100
AcDb2dVertex
 10
132.0646540914596
 20
112.6753799295444
 30
0.0
  0
VERTEX
  5
F0
330
B8
100
AcDbEntity
  8
1
  6
Continuous
 62
     7
370
     9
100
AcDbVertex
100
AcDb2dVertex
 10
132.0896095291271
 20
112.6869352534456
 30
0.0
  0
VERTEX
  5
F1
330
B8
100
AcDbEntity
  8
1
  6
Continuous
 62
     7
370
     9
100
AcDbVertex
100
AcDb2dVertex
 10
132.1045411800478
 20
112.6946352907197
 30
0.0
  0
VERTEX
  5
F2
330
B8
100
AcDbEntity
  8
1
  6
Continuous
 62
     7
370
     9
100
AcDbVertex
100
AcDb2dVertex
 10
132.1095076176532
 20
112.6973395021936
 30
0.0
  0
VERTEX
  5
F3
330
B8
100
AcDbEntity
  8
1
  6
Continuous
 62
     7
370
     9
100
AcDbVertex
100
AcDb2dVertex
 10
132.1144451257458
 20
112.7001022830231
 30
0.0
  0
VERTEX
  5
F4
330
B8
100
AcDbEntity
  8
1
  6
Continuous
 62
     7
370
     9
100
AcDbVertex
100
AcDb2dVertex
 10
132.1289519933217
 20
112.7086555889993
 30
0.0
  0
VERTEX
  5
F5
330
B8
100
AcDbEntity
  8
1
  6
Continuous
 62
     7
370
     9
100
AcDbVertex
100
AcDb2dVertex
 10
132.1521393345919
 20
112.7237094806092
 30
0.0
  0
VERTEX
  5
F6
330
B8
100
AcDbEntity
  8
1
  6
Continuous
 62
     7
370
     9
100
AcDbVertex
100
AcDb2dVertex
 10
132.1826160878333
 20
112.7461851651576
 30
0.0
  0
VERTEX
  5
F7
330
B8
100
AcDbEntity
  8
1
  6
Continuous
 62
     7
370
     9
100
AcDbVertex
100
AcDb2dVertex
 10
132.2186138598259
 20
112.7768886440361
 30
0.0
  0
VERTEX
  5
F8
330
B8
100
AcDbEntity
  8
1
  6
Continuous
 62
     7
370
     9
100
AcDbVertex
100
AcDb2dVertex
 10
132.2581416069899
 20
112.8161713228144
 30
0.0
  0
VERTEX
  5
F9
330
B8
100
AcDbEntity
  8
1
  6
Continuous
 62
     7
370
     9
100
AcDbVertex
100
AcDb2dVertex
 10
132.299153218334
 20
112.8636606797206
 30
0.0
  0
VERTEX
  5
FA
330
B8
100
AcDbEntity
  8
1
  6
Continuous
 62
     7
370
     9
100
AcDbVertex
100
AcDb2dVertex
 10
132.3397102095076
 20
112.9181280425263
 30
0.0
  0
VERTEX
  5
FB
330
B8
100
AcDbEntity
  8
1
  6
Continuous
 62
     7
370
     9
100
AcDbVertex
100
AcDb2dVertex
 10
132.3781230269688
 20
112.9775285729464
 30
0.0
  0
VERTEX
  5
FC
330
B8
100
AcDbEntity
  8
1
  6
Continuous
 62
     7
370
     9
100
AcDbVertex
100
AcDb2dVertex
 10
132.4130576242318
 20
113.0392083646706
 30
0.0
  0
VERTEX
  5
FD
330
B8
100
AcDbEntity
  8
1
  6
Continuous
 62
     7
370
     9
100
AcDbVertex
100
AcDb2dVertex
 10
132.4435985028132
 20
113.1002347369022
 30
0.0
  0
VERTEX
  5
FE
330
B8
100
AcDbEntity
  8
1
  6
Continuous
 62
     7
370
     9
100
AcDbVertex
100
AcDb2dVertex
 10
132.4692646629506
 20
113.157777598143
 30
0.0
  0
VERTEX
  5
FF
330
B8
100
AcDbEntity
  8
1
  6
Continuous
 62
     7
370
     9
100
AcDbVertex
100
AcDb2dVertex
 10
132.4899802036999
 20
113.2094588321312
 30
0.0
  0
VERTEX
  5
100
330
B8
100
AcDbEntity
  8
1
  6
Continuous
 62
     7
370
     9
100
AcDbVertex
100
AcDb2dVertex
 10
132.5060060348854
 20
113.2535955117129
 30
0.0
  0
VERTEX
  5
101
330
B8
100
AcDbEntity
  8
1
  6
Continuous
 62
     7
370
     9
100
AcDbVertex
100
AcDb2dVertex
 10
132.5178428427819
 20
113.2892891088117
 30
0.0
  0
VERTEX
  5
102
330
B8
100
AcDbEntity
  8
1
  6
Continuous
 62
     7
370
     9
100
AcDbVertex
100
AcDb2dVertex
 10
132.5261177991654
 20
113.3163502722582
 30
0.0
  0
VERTEX
  5
103
330
B8
100
AcDbEntity
  8
1
  6
Continuous
 62
     7
370
     9
100
AcDbVertex
100
AcDb2dVertex
 10
132.5314684200019
 20
113.3350880956546
 30
0.0
  0
VERTEX
  5
104
330
B8
100
AcDbEntity
  8
1
  6
Continuous
 62
     7
370
     9
100
AcDbVertex
100
AcDb2dVertex
 10
132.5344365289922
 20
113.3460245751344
 30
0.0
  0
VERTEX
  5
105
330
B8
100
AcDbEntity
  8
1
  6
Continuous
 62
     7
370
     9
100
AcDbVertex
100
AcDb2dVertex
 10
132.5353836438828
 20
113.3496115173568
 30
0.0
  0
VERTEX
  5
106
330
B8
100
AcDbEntity
  8
1
  6
Continuous
 62
     7
370
     9
100
AcDbVertex
100
AcDb2dVertex
 10
132.5363049928983
 20
113.3531511530661
 30
0.0
  0
VERTEX
  5
107
330
B8
100
AcDbEntity
  8
1
  6
Continuous
 62
     7
370
     9
100
AcDbVertex
100
AcDb2dVertex
 10
132.538894137526
 20
113.3633982849162
 30
0.0
  0
VERTEX
  5
108
330
B8
100
AcDbEntity
  8
1
  6
Continuous
 62
     7
370
     9
100
AcDbVertex
100
AcDb2dVertex
 10
132.542662379415
 20
113.3793083630569
 30
0.0
  0
VERTEX
  5
109
330
B8
100
AcDbEntity
  8
1
  6
Continuous
 62
     7
370
     9
100
AcDbVertex
100
AcDb2dVertex
 10
132.5469072659124
 20
113.3993604628189
 30
0.0
  0
VERTEX
  5
10A
330
B8
100
AcDbEntity
  8
1
  6
Continuous
 62
     7
370
     9
100
AcDbVertex
100
AcDb2dVertex
 10
132.5508545578983
 20
113.4218352652463
 30
0.0
  0
VERTEX
  5
10B
330
B8
100
AcDbEntity
  8
1
  6
Continuous
 62
     7
370
     9
100
AcDbVertex
100
AcDb2dVertex
 10
132.5538110047339
 20
113.4451127934621
 30
0.0
  0
VERTEX
  5
10C
330
B8
100
AcDbEntity
  8
1
  6
Continuous
 62
     7
370
     9
100
AcDbVertex
100
AcDb2dVertex
 10
132.5552949560133
 20
113.4679247600037
 30
0.0
  0
VERTEX
  5
10D
330
B8
100
AcDbEntity
  8
1
  6
Continuous
 62
     7
370
     9
100
AcDbVertex
100
AcDb2dVertex
 10
132.5551175131525
 20
113.4895082100062
 30
0.0
  0
VERTEX
  5
10E
330
B8
100
AcDbEntity
  8
1
  6
Continuous
 62
     7
370
     9
100
AcDbVertex
100
AcDb2dVertex
 10
132.553398717093
 20
113.5096312157632
 30
0.0
  0
VERTEX
  5
10F
330
B8
100
AcDbEntity
  8
1
  6
Continuous
 62
     7
370
     9
100
AcDbVertex
100
AcDb2dVertex
 10
132.5505183517196
 20
113.5284918909613
 30
0.0
  0
VERTEX
  5
110
330
B8
100
AcDbEntity
  8
1
  6
Continuous
 62
     7
370
     9
100
AcDbVertex
100
AcDb2dVertex
 10
132.5470157417355
 20
113.5465216554382
 30
0.0
  0
VERTEX
  5
111
330
B8
100
AcDbEntity
  8
1
  6
Continuous
 62
     7
370
     9
100
AcDbVertex
100
AcDb2dVertex
 10
132.5434639749434
 20
113.5641454580533
 30
0.0
  0
VERTEX
  5
112
330
B8
100
AcDbEntity
  8
1
  6
Continuous
 62
     7
370
     9
100
AcDbVertex
100
AcDb2dVertex
 10
132.5403487526403
 20
113.5815604603346
 30
0.0
  0
VERTEX
  5
113
330
B8
100
AcDbEntity
  8
1
  6
Continuous
 62
     7
370
     9
100
AcDbVertex
100
AcDb2dVertex
 10
132.5379795680638
 20
113.5985885522375
 30
0.0
  0
VERTEX
  5
114
330
B8
100
AcDbEntity
  8
1
  6
Continuous
 62
     7
370
     9
100
AcDbVertex
100
AcDb2dVertex
 10
132.5364518856069
 20
113.614638669694
 30
0.0
  0
VERTEX
  5
115
330
B8
100
AcDbEntity
  8
1
  6
Continuous
 62
     7
370
     9
100
AcDbVertex
100
AcDb2dVertex
 10
132.5356657530646
 20
113.6287870501327
 30
0.0
  0
VERTEX
  5
116
330
B8
100
AcDbEntity
  8
1
  6
Continuous
 62
     7
370
     9
100
AcDbVertex
100
AcDb2dVertex
 10
132.5353921202945
 20
113.6399541341923
 30
0.0
  0
VERTEX
  5
117
330
B8
100
AcDbEntity
  8
1
  6
Continuous
 62
     7
370
     9
100
AcDbVertex
100
AcDb2dVertex
 10
132.5353665344792
 20
113.6471329742071
 30
0.0
  0
VERTEX
  5
118
330
B8
100
AcDbEntity
  8
1
  6
Continuous
 62
     7
370
     9
100
AcDbVertex
100
AcDb2dVertex
 10
132.5353836438828
 20
113.6496115173568
 30
0.0
  0
VERTEX
  5
119
330
B8
100
AcDbEntity
  8
1
  6
Continuous
 62
     7
370
     9
100
AcDbVertex
100
AcDb2dVertex
 10
132.5354140980501
 20
113.6521228621398
 30
0.0
  0
VERTEX
  5
11A
330
B8
100
AcDbEntity
  8
1
  6
Continuous
 62
     7
370
     9
100
AcDbVertex
100
AcDb2dVertex
 10
132.535583683701
 20
113.6597797466206
 30
0.0
  0
VERTEX
  5
11B
330
B8
100
AcDbEntity
  8
1
  6
Continuous
 62
     7
370
     9
100
AcDbVertex
100
AcDb2dVertex
 10
132.5361163143055
 20
113.6729082827259
 30
0.0
  0
VERTEX
  5
11C
330
B8
100
AcDbEntity
  8
1
  6
Continuous
 62
     7
370
     9
100
AcDbVertex
100
AcDb2dVertex
 10
132.5373505668645
 20
113.6919203457522
 30
0.0
  0
VERTEX
  5
11D
330
B8
100
AcDbEntity
  8
1
  6
Continuous
 62
     7
370
     9
100
AcDbVertex
100
AcDb2dVertex
 10
132.5396919679338
 20
113.7171481944459
 30
0.0
  0
VERTEX
  5
11E
330
B8
100
AcDbEntity
  8
1
  6
Continuous
 62
     7
370
     9
100
AcDbVertex
100
AcDb2dVertex
 10
132.543554115298
 20
113.7486694683304
 30
0.0
  0
VERTEX
  5
11F
330
B8
100
AcDbEntity
  8
1
  6
Continuous
 62
     7
370
     9
100
AcDbVertex
100
AcDb2dVertex
 10
132.5492954768082
 20
113.7861630922235
 30
0.0
  0
VERTEX
  5
120
330
B8
100
AcDbEntity
  8
1
  6
Continuous
 62
     7
370
     9
100
AcDbVertex
100
AcDb2dVertex
 10
132.5571592596448
 20
113.8288296242685
 30
0.0
  0
VERTEX
  5
121
330
B8
100
AcDbEntity
  8
1
  6
Continuous
 62
     7
370
     9
100
AcDbVertex
100
AcDb2dVertex
 10
132.5672234686148
 20
113.8753950393229
 30
0.0
  0
VERTEX
  5
122
330
B8
100
AcDbEntity
  8
1
  6
Continuous
 62
     7
370
     9
100
AcDbVertex
100
AcDb2dVertex
 10
132.5793672043165
 20
113.9241983095282
 30
0.0
  0
VERTEX
  5
123
330
B8
100
AcDbEntity
  8
1
  6
Continuous
 62
     7
370
     9
100
AcDbVertex
100
AcDb2dVertex
 10
132.5932575121788
 20
113.9733448123143
 30
0.0
  0
VERTEX
  5
124
330
B8
100
AcDbEntity
  8
1
  6
Continuous
 62
     7
370
     9
100
AcDbVertex
100
AcDb2dVertex
 10
132.6083588756169
 20
114.0208938189173
 30
0.0
  0
VERTEX
  5
125
330
B8
100
AcDbEntity
  8
1
  6
Continuous
 62
     7
370
     9
100
AcDbVertex
100
AcDb2dVertex
 10
132.6239649952772
 20
114.0650422123167
 30
0.0
  0
VERTEX
  5
126
330
B8
100
AcDbEntity
  8
1
  6
Continuous
 62
     7
370
     9
100
AcDbVertex
100
AcDb2dVertex
 10
132.6392500787269
 20
114.1042694031209
 30
0.0
  0
VERTEX
  5
127
330
B8
100
AcDbEntity
  8
1
  6
Continuous
 62
     7
370
     9
100
AcDbVertex
100
AcDb2dVertex
 10
132.653334741447
 20
114.1374192604793
 30
0.0
  0
VERTEX
  5
128
330
B8
100
AcDbEntity
  8
1
  6
Continuous
 62
     7
370
     9
100
AcDbVertex
100
AcDb2dVertex
 10
132.665360016607
 20
114.1637109513541
 30
0.0
  0
VERTEX
  5
129
330
B8
100
AcDbEntity
  8
1
  6
Continuous
 62
     7
370
     9
100
AcDbVertex
100
AcDb2dVertex
 10
132.6745620560237
 20
114.1826878738593
 30
0.0
  0
VERTEX
  5
12A
330
B8
100
AcDbEntity
  8
1
  6
Continuous
 62
     7
370
     9
100
AcDbVertex
100
AcDb2dVertex
 10
132.6803399717336
 20
114.1941281398778
 30
0.0
  0
VERTEX
  5
12B
330
B8
100
AcDbEntity
  8
1
  6
Continuous
 62
     7
370
     9
100
AcDbVertex
100
AcDb2dVertex
 10
132.6823099276227
 20
114.1979478732415
 30
0.0
  0
VERTEX
  5
12C
330
B8
100
AcDbEntity
  8
1
  6
Continuous
 62
     7
370
     9
100
AcDbVertex
100
AcDb2dVertex
 10
132.6842931130475
 20
114.201752697783
 30
0.0
  0
VERTEX
  5
12D
330
B8
100
AcDbEntity
  8
1
  6
Continuous
 62
     7
370
     9
100
AcDbVertex
100
AcDb2dVertex
 10
132.6902658961883
 20
114.2129759282817
 30
0.0
  0
VERTEX
  5
12E
330
B8
100
AcDbEntity
  8
1
  6
Continuous
 62
     7
370
     9
100
AcDbVertex
100
AcDb2dVertex
 10
132.7002838737016
 20
114.2310642652395
 30
0.0
  0
VERTEX
  5
12F
330
B8
100
AcDbEntity
  8
1
  6
Continuous
 62
     7
370
     9
100
AcDbVertex
100
AcDb2dVertex
 10
132.7143958243666
 20
114.2551600539034
 30
0.0
  0
VERTEX
  5
130
330
B8
100
AcDbEntity
  8
1
  6
Continuous
 62
     7
370
     9
100
AcDbVertex
100
AcDb2dVertex
 10
132.73258794151
 20
114.2841862507257
 30
0.0
  0
VERTEX
  5
131
330
B8
100
AcDbEntity
  8
1
  6
Continuous
 62
     7
370
     9
100
AcDbVertex
100
AcDb2dVertex
 10
132.754723615653
 20
114.3169443380902
 30
0.0
  0
VERTEX
  5
132
330
B8
100
AcDbEntity
  8
1
  6
Continuous
 62
     7
370
     9
100
AcDbVertex
100
AcDb2dVertex
 10
132.7804918879854
 20
114.352209534035
 30
0.0
  0
VERTEX
  5
133
330
B8
100
AcDbEntity
  8
1
  6
Continuous
 62
     7
370
     9
100
AcDbVertex
100
AcDb2dVertex
 10
132.8093759000399
 20
114.3888094804886
 30
0.0
  0
VERTEX
  5
134
330
B8
100
AcDbEntity
  8
1
  6
Continuous
 62
     7
370
     9
100
AcDbVertex
100
AcDb2dVertex
 10
132.8406485386205
 20
114.4256770944127
 30
0.0
  0
VERTEX
  5
135
330
B8
100
AcDbEntity
  8
1
  6
Continuous
 62
     7
370
     9
100
AcDbVertex
100
AcDb2dVertex
 10
132.8733969833006
 20
114.4618743434873
 30
0.0
  0
VERTEX
  5
136
330
B8
100
AcDbEntity
  8
1
  6
Continuous
 62
     7
370
     9
100
AcDbVertex
100
AcDb2dVertex
 10
132.9065722524784
 20
114.4965899561434
 30
0.0
  0
VERTEX
  5
137
330
B8
100
AcDbEntity
  8
1
  6
Continuous
 62
     7
370
     9
100
AcDbVertex
100
AcDb2dVertex
 10
132.9390553461795
 20
114.5291191027904
 30
0.0
  0
VERTEX
  5
138
330
B8
100
AcDbEntity
  8
1
  6
Continuous
 62
     7
370
     9
100
AcDbVertex
100
AcDb2dVertex
 10
132.969729134866
 20
114.5588358347139
 30
0.0
  0
VERTEX
  5
139
330
B8
100
AcDbEntity
  8
1
  6
Continuous
 62
     7
370
     9
100
AcDbVertex
100
AcDb2dVertex
 10
132.9975451712569
 20
114.5851690560123
 30
0.0
  0
VERTEX
  5
13A
330
B8
100
AcDbEntity
  8
1
  6
Continuous
 62
     7
370
     9
100
AcDbVertex
100
AcDb2dVertex
 10
133.0215769411524
 20
114.607590218654
 30
0.0
  0
VERTEX
  5
13B
330
B8
100
AcDbEntity
  8
1
  6
Continuous
 62
     7
370
     9
100
AcDbVertex
100
AcDb2dVertex
 10
133.0410550180865
 20
114.6256165629641
 30
0.0
  0
VERTEX
  5
13C
330
B8
100
AcDbEntity
  8
1
  6
Continuous
 62
     7
370
     9
100
AcDbVertex
100
AcDb2dVertex
 10
133.0553840923407
 20
114.6388287638676
 30
0.0
  0
VERTEX
  5
13D
330
B8
100
AcDbEntity
  8
1
  6
Continuous
 62
     7
370
     9
100
AcDbVertex
100
AcDb2dVertex
 10
133.0641457684686
 20
114.6468975716142
 30
0.0
  0
VERTEX
  5
13E
330
B8
100
AcDbEntity
  8
1
  6
Continuous
 62
     7
370
     9
100
AcDbVertex
100
AcDb2dVertex
 10
133.0670934232975
 20
114.6496115173568
 30
0.0
  0
SEQEND
  5
13F
330
B8
100
AcDbEntity
  8
1
  6
Continuous
 62
     7
370
     9
  0
CIRCLE
  5
140
330
1F
100
AcDbEntity
  8
1
  6
Continuous
 62
     7
370
     9
100
AcDbCircle
 10
85.02772125747799
 20
98.64961151735685
 30
0.0
 40
15.25
  0
CIRCLE
  5
141
330
1F
100
AcDbEntity
  8
1
  6
Continuous
 62
     7
370
     9
100
AcDbCircle
 10
85.02772125747799
 20
98.64961151735685
 30
0.0
 40
15.8
  0
CIRCLE
  5
142
330
1F
100
AcDbEntity
  8
1
  6
Continuous
 62
     7
370
     9
100
AcDbCircle
 10
85.02772125747799
 20
98.64961151735685
 30
0.0
 40
16.0
  0
CIRCLE
  5
143
330
1F
100
AcDbEntity
  8
1
  6
Continuous
 62
     7
370
     9
100
AcDbCircle
 10
85.02772125747799
 20
98.64961151735685
 30
0.0
 40
15.0
  0
CIRCLE
  5
144
330
1F
100
AcDbEntity
  8
1
  6
Continuous
 62
     7
370
     9
100
AcDbCircle
 10
85.02772125747799
 20
98.64961151735685
 30
0.0
 40
13.4999999999999
  0
CIRCLE
  5
145
330
1F
100
AcDbEntity
  8
1
  6
Continuous
 62
     7
370
     9
100
AcDbCircle
 10
85.02772125747799
 20
98.64961151735685
 30
0.0
 40
12.74999999999991
  0
LINE
  5
146
330
1F
100
AcDbEntity
  8
1
  6
Continuous
 62
     7
370
     9
100
AcDbLine
 10
77.655456707643
 20
91.19979862963675
 30
0.0
 11
80.87711901596624
 21
94.59349997217271
 31
0.0
  0
LINE
  5
147
330
1F
100
AcDbEntity
  8
1
  6
Continuous
 62
     7
370
     9
100
AcDbLine
 10
79.29399071968902
 20
91.38178598453578
 30
0.0
 11
80.70820428206213
 21
92.79599954690889
 31
0.0
  0
LINE
  5
148
330
1F
100
AcDbEntity
  8
1
  6
Continuous
 62
     7
370
     9
100
AcDbLine
 10
77.85861060992897
 20
92.81716609429583
 30
0.0
 11
79.27282417230208
 21
94.23137965666893
 31
0.0
  0
LINE
  5
149
330
1F
100
AcDbEntity
  8
1
  6
Continuous
 62
     7
370
     9
100
AcDbLine
 10
90.29399071968902
 20
91.38178598453578
 30
0.0
 11
91.70820428206213
 21
92.79599954690889
 31
0.0
  0
LINE
  5
14A
330
1F
100
AcDbEntity
  8
1
  6
Continuous
 62
     7
370
     9
100
AcDbLine
 10
88.85861060992897
 20
92.81716609429583
 30
0.0
 11
90.27282417230208
 21
94.23137965666893
 31
0.0
  0
LINE
  5
14B
330
1F
100
AcDbEntity
  8
1
  6
Continuous
 62
     7
370
     9
100
AcDbLine
 10
88.655456707643
 20
91.19979862963675
 30
0.0
 11
91.87711901596624
 21
94.59349997217271
 31
0.0
  0
LINE
  5
14C
330
1F
100
AcDbEntity
  8
1
  6
Continuous
 62
     7
370
     9
100
AcDbLine
 10
79.29399071968902
 20
102.3817859845358
 30
0.0
 11
80.70820428206213
 21
103.7959995469089
 31
0.0
  0
LINE
  5
14D
330
1F
100
AcDbEntity
  8
1
  6
Continuous
 62
     7
370
     9
100
AcDbLine
 10
77.655456707643
 20
102.1997986296367
 30
0.0
 11
80.87711901596624
 21
105.5934999721727
 31
0.0
  0
LINE
  5
14E
330
1F
100
AcDbEntity
  8
1
  6
Continuous
 62
     7
370
     9
100
AcDbLine
 10
77.85861060992897
 20
103.8171660942958
 30
0.0
 11
79.27282417230208
 21
105.2313796566689
 31
0.0
  0
LINE
  5
14F
330
1F
100
AcDbEntity
  8
1
  6
Continuous
 62
     7
370
     9
100
AcDbLine
 10
88.655456707643
 20
102.1997986296367
 30
0.0
 11
91.87711901596624
 21
105.5934999721727
 31
0.0
  0
LINE
  5
150
330
1F
100
AcDbEntity
  8
1
  6
Continuous
 62
     7
370
     9
100
AcDbLine
 10
90.29399071968902
 20
102.3817859845358
 30
0.0
 11
91.70820428206213
 21
103.7959995469089
 31
0.0
  0
LINE
  5
151
330
1F
100
AcDbEntity
  8
1
  6
Continuous
 62
     7
370
     9
100
AcDbLine
 10
88.85861060992897
 20
103.8171660942958
 30
0.0
 11
90.27282417230208
 21
105.2313796566689
 31
0.0
  0
LINE
  5
152
330
1F
100
AcDbEntity
  8
1
  6
Continuous
 62
     7
370
     9
100
AcDbLine
 10
129.543350982116
 20
82.84961151735683
 30
0.0
 11
129.543350982116
 21
98.64961151735685
 31
0.0
  0
LINE
  5
153
330
1F
100
AcDbEntity
  8
1
  6
Continuous
 62
     7
370
     9
100
AcDbLine
 10
134.943350982116
 20
98.64961151735685
 30
0.0
 11
134.943350982116
 21
82.84961151735683
 31
0.0
  0
LINE
  5
154
330
1F
100
AcDbEntity
  8
1
  6
Continuous
 62
     7
370
     9
100
AcDbLine
 10
139.2686766290951
 20
84.1436860039675
 30
0.0
 11
137.0339176736696
 21
84.1436860039675
 31
0.0
  0
LINE
  5
155
330
1F
100
AcDbEntity
  8
1
  6
Continuous
 62
     7
370
     9
100
AcDbLine
 10
129.743350982116
 20
82.64961151735685
 30
0.0
 11
134.743350982116
 21
82.64961151735685
 31
0.0
  0
LINE
  5
156
330
1F
100
AcDbEntity
  8
1
  6
Continuous
 62
     7
370
     9
100
AcDbLine
 10
129.743350982116
 20
82.64961151735685
 30
0.0
 11
129.543350982116
 21
82.84961151735683
 31
0.0
  0
LINE
  5
157
330
1F
100
AcDbEntity
  8
1
  6
Continuous
 62
     7
370
     9
100
AcDbLine
 10
134.943350982116
 20
84.14961151735685
 30
0.0
 11
135.743350982116
 21
84.65870242644775
 31
0.0
  0
LINE
  5
158
330
1F
100
AcDbEntity
  8
1
  6
Continuous
 62
     7
370
     9
100
AcDbLine
 10
134.743350982116
 20
82.64961151735685
 30
0.0
 11
134.943350982116
 21
82.84961151735683
 31
0.0
  0
LINE
  5
159
330
1F
100
AcDbEntity
  8
1
  6
Continuous
 62
     7
370
     9
100
AcDbLine
 10
138.143350982116
 20
83.11642934106936
 30
0.0
 11
138.143350982116
 21
85.19100767439926
 31
0.0
  0
LINE
  5
15A
330
1F
100
AcDbEntity
  8
1
  6
Continuous
 62
     7
370
     9
100
AcDbLine
 10
137.9934564879709
 20
82.27640643659998
 30
0.0
 11
138.2932454762611
 21
82.27640643659998
 31
0.0
  0
LINE
  5
15B
330
1F
100
AcDbEntity
  8
1
  6
Continuous
 62
     7
370
     9
100
AcDbLine
 10
129.543350982116
 20
114.4496115173569
 30
0.0
 11
129.543350982116
 21
98.64961151735685
 31
0.0
  0
LINE
  5
15C
330
1F
100
AcDbEntity
  8
1
  6
Continuous
 62
     7
370
     9
100
AcDbLine
 10
134.943350982116
 20
98.64961151735685
 30
0.0
 11
134.943350982116
 21
114.4496115173569
 31
0.0
  0
LINE
  5
15D
330
1F
100
AcDbEntity
  8
1
  6
Continuous
 62
     7
370
     9
100
AcDbLine
 10
139.2686766290952
 20
113.1555373368978
 30
0.0
 11
137.0339176736696
 21
113.1555373368978
 31
0.0
  0
LINE
  5
15E
330
1F
100
AcDbEntity
  8
1
  6
Continuous
 62
     7
370
     9
100
AcDbLine
 10
129.743350982116
 20
114.6496115173568
 30
0.0
 11
134.743350982116
 21
114.6496115173568
 31
0.0
  0
LINE
  5
15F
330
1F
100
AcDbEntity
  8
1
  6
Continuous
 62
     7
370
     9
100
AcDbLine
 10
129.543350982116
 20
113.6496115173568
 30
0.0
 11
132.5353836438828
 21
113.6496115173568
 31
0.0
  0
LINE
  5
160
330
1F
100
AcDbEntity
  8
1
  6
Continuous
 62
     7
370
     9
100
AcDbLine
 10
129.743350982116
 20
114.6496115173568
 30
0.0
 11
129.543350982116
 21
114.4496115173569
 31
0.0
  0
LINE
  5
161
330
1F
100
AcDbEntity
  8
1
  6
Continuous
 62
     7
370
     9
100
AcDbLine
 10
129.543350982116
 20
113.6496115173568
 30
0.0
 11
129.843350982116
 21
113.3496115173568
 31
0.0
  0
LINE
  5
162
330
1F
100
AcDbEntity
  8
1
  6
Continuous
 62
     7
370
     9
100
AcDbLine
 10
129.843350982116
 20
113.3496115173568
 30
0.0
 11
132.5353836438828
 21
113.3496115173568
 31
0.0
  0
LINE
  5
163
330
1F
100
AcDbEntity
  8
1
  6
Continuous
 62
     7
370
     9
100
AcDbLine
 10
129.843350982116
 20
113.3496115173568
 30
0.0
 11
129.843350982116
 21
111.7885815769583
 31
0.0
  0
LINE
  5
164
330
1F
100
AcDbEntity
  8
1
  6
Continuous
 62
     7
370
     9
100
AcDbLine
 10
134.743350982116
 20
114.6496115173568
 30
0.0
 11
134.943350982116
 21
114.4496115173569
 31
0.0
  0
LINE
  5
165
330
1F
100
AcDbEntity
  8
1
  6
Continuous
 62
     7
370
     9
100
AcDbLine
 10
134.943350982116
 20
113.1496115173568
 30
0.0
 11
135.743350982116
 21
112.6405206082659
 31
0.0
  0
LINE
  5
166
330
1F
100
AcDbEntity
  8
1
  6
Continuous
 62
     7
370
     9
100
AcDbLine
 10
138.143350982116
 20
114.1827939997959
 30
0.0
 11
138.143350982116
 21
112.108215666466
 31
0.0
  0
LINE
  5
167
330
1F
100
AcDbEntity
  8
1
  6
Continuous
 62
     7
370
     9
100
AcDbLine
 10
151.037858659483
 20
113.0256332201786
 30
0.0
 11
147.5782085755909
 21
113.0256332201786
 31
0.0
  0
LINE
  5
168
330
1F
100
AcDbEntity
  8
1
  6
Continuous
 62
     7
370
     9
100
AcDbLine
 10
149.3354048128497
 20
114.0528898830767
 30
0.0
 11
149.3354048128497
 21
111.9783115497468
 31
0.0
  0
LINE
  5
169
330
1F
100
AcDbEntity
  8
1
  6
Continuous
 62
     7
370
     9
100
AcDbLine
 10
172.6650332888844
 20
98.64961151735685
 30
0.0
 11
172.6650332888844
 21
90.8496115173603
 31
0.0
  0
LINE
  5
16A
330
1F
100
AcDbEntity
  8
1
  6
Continuous
 62
     7
370
     9
100
AcDbLine
 10
172.4650332888843
 20
90.64961151736031
 30
0.0
 11
172.6650332888844
 21
90.8496115173603
 31
0.0
  0
LINE
  5
16B
330
1F
100
AcDbEntity
  8
1
  6
Continuous
 62
     7
370
     9
100
AcDbLine
 10
171.743350982116
 20
90.64961151736031
 30
0.0
 11
172.4650332888843
 21
90.64961151736031
 31
0.0
  0
LINE
  5
16C
330
1F
100
AcDbEntity
  8
1
  6
Continuous
 62
     7
370
     9
100
AcDbLine
 10
172.4650332888843
 20
106.6496115173534
 30
0.0
 11
172.6650332888844
 21
106.4496115173534
 31
0.0
  0
LINE
  5
16D
330
1F
100
AcDbEntity
  8
1
  6
Continuous
 62
     7
370
     9
100
AcDbLine
 10
171.743350982116
 20
106.6496115173534
 30
0.0
 11
172.4650332888843
 21
106.6496115173534
 31
0.0
  0
LINE
  5
16E
330
1F
100
AcDbEntity
  8
1
  6
Continuous
 62
     7
370
     9
100
AcDbLine
 10
172.6650332888844
 20
98.64961151735685
 30
0.0
 11
172.6650332888844
 21
106.4496115173534
 31
0.0
  0
LINE
  5
16F
330
1F
100
AcDbEntity
  8
1
  6
Continuous
 62
     7
370
     9
100
AcDbLine
 10
168.943350982116
 20
110.8496115173568
 30
0.0
 11
171.743350982116
 21
110.8496115173568
 31
0.0
  0
LINE
  5
170
330
1F
100
AcDbEntity
  8
1
  6
Continuous
 62
     7
370
     9
100
AcDbLine
 10
182.9836018540932
 20
122.2098557455972
 30
0.0
 11
184.7524379055081
 21
122.2098557455972
 31
0.0
  0
LINE
  5
171
330
1F
100
AcDbEntity
  8
1
  6
Continuous
 62
     7
370
     9
100
AcDbLine
 10
85.02772125747799
 20
78.96179608885615
 30
0.0
 11
85.02772125747799
 21
118.0812824104249
 31
0.0
  0
LINE
  5
172
330
1F
100
AcDbEntity
  8
1
  6
Continuous
 62
     7
370
     9
100
AcDbLine
 10
109.2622947147131
 20
98.64961151735685
 30
0.0
 11
63.38145715179415
 21
98.64961151735685
 31
0.0
  0
LINE
  5
173
330
1F
100
AcDbEntity
  8
1
  6
Continuous
 62
     7
370
     9
100
AcDbLine
 10
186.5628773062083
 20
98.64961151735686
 30
0.0
 11
126.846191610577
 21
98.64961151735685
 31
0.0
  0
ELLIPSE
  5
174
330
1F
100
AcDbEntity
  8
1
  6
Continuous
 62
     7
370
     9
100
AcDbEllipse
 10
138.143350982116
 20
113.1555373368978
 30
0.0
 11
-0.8499999999999943
 21
2.746425776535379E-15
 31
0.0
210
0.0
220
0.0
230
1.0
 40
0.5219879437762297
 41
0.0
 42
6.283185307179586
  0
ELLIPSE
  5
175
330
1F
100
AcDbEntity
  8
1
  6
Continuous
 62
     7
370
     9
100
AcDbEllipse
 10
138.143350982116
 20
84.1436860039675
 30
0.0
 11
-0.8499999999999943
 21
2.746425776535379E-15
 31
0.0
210
0.0
220
0.0
230
1.0
 40
0.5219879437762297
 41
0.0
 42
6.283185307179586
  0
ARC
  5
176
330
1F
100
AcDbEntity
  8
1
  6
Continuous
 62
     7
370
     9
100
AcDbCircle
 10
85.02772125747799
 20
98.64961151735685
 30
0.0
 40
16.75
100
AcDbArc
 50
50.19426159436734
 51
69.8053344278519
  0
ARC
  5
177
330
1F
100
AcDbEntity
  8
1
  6
Continuous
 62
     7
370
     9
100
AcDbCircle
 10
85.02772125747799
 20
98.64961151735685
 30
0.0
 40
16.75
100
AcDbArc
 50
290.1942615943665
 51
309.8053344278508
  0
CIRCLE
  5
178
330
1F
100
AcDbEntity
  8
1
  6
Continuous
 62
     7
370
     9
100
AcDbCircle
 10
85.02772125747799
 20
98.64961151735685
 30
0.0
 40
16.45
  0
ARC
  5
179
330
1F
100
AcDbEntity
  8
1
  6
Continuous
 62
     7
370
     9
100
AcDbCircle
 10
85.02772125747799
 20
98.64961151735685
 30
0.0
 40
16.75
100
AcDbArc
 50
234.1942615943686
 51
237.8053344278522
  0
LINE
  5
17A
330
1F
100
AcDbEntity
  8
1
  6
Continuous
 62
     7
370
     9
100
AcDbLine
 10
71.86358093281679
 20
88.29258928542993
 30
0.0
 11
71.92805658725544
 21
88.69967254630166
 31
0.0
  0
ARC
  5
17B
330
1F
100
AcDbEntity
  8
1
  6
Continuous
 62
     7
370
     9
100
AcDbCircle
 10
85.02772125747799
 20
98.64961151735685
 30
0.0
 40
16.75
100
AcDbArc
 50
226.1942615943682
 51
229.805334427851
  0
LINE
  5
17C
330
1F
100
AcDbEntity
  8
1
  6
Continuous
 62
     7
370
     9
100
AcDbLine
 10
73.43311234226232
 20
86.5612888833765
 30
0.0
 11
73.44030548429969
 21
86.97338371470164
 31
0.0
  0
LINE
  5
17D
330
1F
100
AcDbEntity
  8
1
  6
Continuous
 62
     7
370
     9
100
AcDbLine
 10
74.2174961601792
 20
85.85502151432308
 30
0.0
 11
74.62657884065811
 21
85.90525055161868
 31
0.0
  0
ARC
  5
17E
330
1F
100
AcDbEntity
  8
1
  6
Continuous
 62
     7
370
     9
100
AcDbCircle
 10
85.02772125747799
 20
98.64961151735685
 30
0.0
 40
16.75
100
AcDbArc
 50
218.1942615943669
 51
221.8053344278536
  0
LINE
  5
17F
330
1F
100
AcDbEntity
  8
1
  6
Continuous
 62
     7
370
     9
100
AcDbLine
 10
72.54203776147939
 20
87.48403013357978
 30
0.0
 11
72.95412980831156
 21
87.47683704014594
 31
0.0
  0
LINE
  5
180
330
1F
100
AcDbEntity
  8
1
  6
Continuous
 62
     7
370
     9
100
AcDbLine
 10
75.22831962557038
 20
85.06527393113032
 30
0.0
 11
75.17809024887876
 21
85.47435937576807
 31
0.0
  0
ARC
  5
181
330
1F
100
AcDbEntity
  8
1
  6
Continuous
 62
     7
370
     9
100
AcDbCircle
 10
85.02772125747799
 20
98.64961151735685
 30
0.0
 40
16.75
100
AcDbArc
 50
210.1942615943683
 51
213.8053344278499
  0
ARC
  5
182
330
1F
100
AcDbEntity
  8
1
  6
Continuous
 62
     7
370
     9
100
AcDbCircle
 10
85.02772125747799
 20
98.64961151735685
 30
0.0
 40
16.75
100
AcDbArc
 50
194.1942615943678
 51
197.8053344278502
  0
LINE
  5
183
330
1F
100
AcDbEntity
  8
1
  6
Continuous
 62
     7
370
     9
100
AcDbLine
 10
68.78910020523858
 20
94.54233914730804
 30
0.0
 11
69.01357732545887
 21
94.88800359991325
 31
0.0
  0
LINE
  5
184
330
1F
100
AcDbEntity
  8
1
  6
Continuous
 62
     7
370
     9
100
AcDbLine
 10
70.55027454080312
 20
90.22547734428957
 30
0.0
 11
70.67077776236938
 21
90.61962562208544
 31
0.0
  0
LINE
  5
185
330
1F
100
AcDbEntity
  8
1
  6
Continuous
 62
     7
370
     9
100
AcDbLine
 10
69.51875518127795
 20
92.3223315925174
 30
0.0
 11
69.69294051183442
 21
92.69587323934707
 31
0.0
  0
ARC
  5
186
330
1F
100
AcDbEntity
  8
1
  6
Continuous
 62
     7
370
     9
100
AcDbCircle
 10
85.02772125747799
 20
98.64961151735685
 30
0.0
 40
16.75
100
AcDbArc
 50
202.1942615943672
 51
205.8053344278529
  0
LINE
  5
187
330
1F
100
AcDbEntity
  8
1
  6
Continuous
 62
     7
370
     9
100
AcDbLine
 10
69.9480606363815
 20
91.358086604655
 30
0.0
 11
70.34220625094783
 21
91.23758419731973
 31
0.0
  0
LINE
  5
188
330
1F
100
AcDbEntity
  8
1
  6
Continuous
 62
     7
370
     9
100
AcDbLine
 10
69.08003072411817
 20
93.5277303539379
 30
0.0
 11
69.45356984695573
 21
93.35354620033826
 31
0.0
  0
LINE
  5
189
330
1F
100
AcDbEntity
  8
1
  6
Continuous
 62
     7
370
     9
100
AcDbLine
 10
71.10959898977474
 20
89.33036409381117
 30
0.0
 11
71.51667950001631
 21
89.26588887502953
 31
0.0
  0
ARC
  5
18A
330
1F
100
AcDbEntity
  8
1
  6
Continuous
 62
     7
370
     9
100
AcDbCircle
 10
85.02772125747799
 20
98.64961151735685
 30
0.0
 40
16.75
100
AcDbArc
 50
266.1942615943674
 51
269.8053344278514
  0
ARC
  5
18B
330
1F
100
AcDbEntity
  8
1
  6
Continuous
 62
     7
370
     9
100
AcDbCircle
 10
85.02772125747799
 20
98.64961151735685
 30
0.0
 40
16.75
100
AcDbArc
 50
250.1942615943663
 51
253.8053344278518
  0
LINE
  5
18C
330
1F
100
AcDbEntity
  8
1
  6
Continuous
 62
     7
370
     9
100
AcDbLine
 10
79.35228271840269
 20
82.89042697661432
 30
0.0
 11
79.19123991231503
 21
83.26982005233481
 31
0.0
  0
LINE
  5
18D
330
1F
100
AcDbEntity
  8
1
  6
Continuous
 62
     7
370
     9
100
AcDbLine
 10
78.16293290417241
 20
83.37096037059916
 30
0.0
 11
78.54232341636319
 21
83.53200208853303
 31
0.0
  0
LINE
  5
18E
330
1F
100
AcDbEntity
  8
1
  6
Continuous
 62
     7
370
     9
100
AcDbLine
 10
77.21426111498936
 20
83.83366265804511
 30
0.0
 11
77.107586877251
 21
84.23177633314327
 31
0.0
  0
LINE
  5
18F
330
1F
100
AcDbEntity
  8
1
  6
Continuous
 62
     7
370
     9
100
AcDbLine
 10
76.10336329394913
 20
84.47504503584503
 30
0.0
 11
76.50147427902395
 21
84.5817185527938
 31
0.0
  0
ARC
  5
190
330
1F
100
AcDbEntity
  8
1
  6
Continuous
 62
     7
370
     9
100
AcDbCircle
 10
85.02772125747799
 20
98.64961151735685
 30
0.0
 40
16.75
100
AcDbArc
 50
242.1942615943664
 51
245.8053344278515
  0
LINE
  5
191
330
1F
100
AcDbEntity
  8
1
  6
Continuous
 62
     7
370
     9
100
AcDbLine
 10
83.91595953885516
 20
81.93654818710513
 30
0.0
 11
83.65658035374979
 21
82.25685480525613
 31
0.0
  0
ARC
  5
192
330
1F
100
AcDbEntity
  8
1
  6
Continuous
 62
     7
370
     9
100
AcDbCircle
 10
85.02772125747799
 20
98.64961151735685
 30
0.0
 40
16.75
100
AcDbArc
 50
258.1942615943676
 51
261.8053344278516
  0
LINE
  5
193
330
1F
100
AcDbEntity
  8
1
  6
Continuous
 62
     7
370
     9
100
AcDbLine
 10
82.6402301652645
 20
82.07063729442615
 30
0.0
 11
82.96053461912838
 21
82.33001472692638
 31
0.0
  0
LINE
  5
194
330
1F
100
AcDbEntity
  8
1
  6
Continuous
 62
     7
370
     9
100
AcDbLine
 10
80.35611781111177
 20
82.56425727071684
 30
0.0
 11
80.70940344564902
 21
82.77653269577849
 31
0.0
  0
LINE
  5
195
330
1F
100
AcDbEntity
  8
1
  6
Continuous
 62
     7
370
     9
100
AcDbLine
 10
81.60077027726348
 20
82.25392589646236
 30
0.0
 11
81.38849341786351
 21
82.60721391813951
 31
0.0
  0
ARC
  5
196
330
1F
100
AcDbEntity
  8
1
  6
Continuous
 62
     7
370
     9
100
AcDbCircle
 10
85.02772125747799
 20
98.64961151735685
 30
0.0
 40
16.75
100
AcDbArc
 50
282.1942615943676
 51
285.805334427852
  0
LINE
  5
197
330
1F
100
AcDbEntity
  8
1
  6
Continuous
 62
     7
370
     9
100
AcDbLine
 10
88.56577188630794
 20
82.27754085577482
 30
0.0
 11
88.22815214166462
 21
82.51394474602245
 31
0.0
  0
ARC
  5
198
330
1F
100
AcDbEntity
  8
1
  6
Continuous
 62
     7
370
     9
100
AcDbCircle
 10
85.02772125747799
 20
98.64961151735685
 30
0.0
 40
16.75
100
AcDbArc
 50
274.1942615943674
 51
277.8053344278518
  0
LINE
  5
199
330
1F
100
AcDbEntity
  8
1
  6
Continuous
 62
     7
370
     9
100
AcDbLine
 10
86.25278797768965
 20
81.94447124464347
 30
0.0
 11
85.95135498767749
 21
82.2255620552894
 31
0.0
  0
LINE
  5
19A
330
1F
100
AcDbEntity
  8
1
  6
Continuous
 62
     7
370
     9
100
AcDbLine
 10
84.97081231779629
 20
81.89970819308104
 30
0.0
 11
85.25190122913328
 21
82.20113914633379
 31
0.0
  0
LINE
  5
19B
330
1F
100
AcDbEntity
  8
1
  6
Continuous
 62
     7
370
     9
100
AcDbLine
 10
87.30250213810604
 20
82.0547969072104
 30
0.0
 11
87.53890443099087
 21
82.3924143705832
 31
0.0
  0
LINE
  5
19C
330
1F
100
AcDbEntity
  8
1
  6
Continuous
 62
     7
370
     9
100
AcDbLine
 10
90.80989166390901
 20
82.92927419937945
 30
0.0
 11
90.44265654892726
 21
83.11638983641063
 31
0.0
  0
LINE
  5
19D
330
1F
100
AcDbEntity
  8
1
  6
Continuous
 62
     7
370
     9
100
AcDbLine
 10
89.58991593609923
 20
82.53288481140441
 30
0.0
 11
89.77703030880451
 21
82.90011744500686
 31
0.0
  0
ARC
  5
19E
330
1F
100
AcDbEntity
  8
1
  6
Continuous
 62
     7
370
     9
100
AcDbCircle
 10
85.02772125747799
 20
98.64961151735685
 30
0.0
 40
16.75
100
AcDbArc
 50
122.1942615943662
 51
125.8053344278512
  0
ARC
  5
19F
330
1F
100
AcDbEntity
  8
1
  6
Continuous
 62
     7
370
     9
100
AcDbCircle
 10
85.02772125747799
 20
98.64961151735685
 30
0.0
 40
16.75
100
AcDbArc
 50
138.1942615943682
 51
141.8053344278506
  0
LINE
  5
1A0
330
1F
100
AcDbEntity
  8
1
  6
Continuous
 62
     7
370
     9
100
AcDbLine
 10
68.78912916496148
 20
102.7569983816369
 30
0.0
 11
69.01360476840722
 21
102.4113362646597
 31
0.0
  0
LINE
  5
1A1
330
1F
100
AcDbEntity
  8
1
  6
Continuous
 62
     7
370
     9
100
AcDbLine
 10
68.52240446785757
 20
95.79706569401333
 30
0.0
 11
68.86806658483478
 21
95.57259009056764
 31
0.0
  0
ARC
  5
1A2
330
1F
100
AcDbEntity
  8
1
  6
Continuous
 62
     7
370
     9
100
AcDbCircle
 10
85.02772125747799
 20
98.64961151735685
 30
0.0
 40
16.75
100
AcDbArc
 50
170.1942615943659
 51
189.8053344278508
  0
LINE
  5
1A3
330
1F
100
AcDbEntity
  8
1
  6
Continuous
 62
     7
370
     9
100
AcDbLine
 10
68.52242458083353
 20
101.5022737153657
 30
0.0
 11
68.86808903343875
 21
101.726750835586
 31
0.0
  0
ARC
  5
1A4
330
1F
100
AcDbEntity
  8
1
  6
Continuous
 62
     7
370
     9
100
AcDbCircle
 10
85.02772125747799
 20
98.64961151735685
 30
0.0
 40
16.75
100
AcDbArc
 50
146.194261594369
 51
149.8053344278503
  0
LINE
  5
1A5
330
1F
100
AcDbEntity
  8
1
  6
Continuous
 62
     7
370
     9
100
AcDbLine
 10
70.55033393756264
 20
107.0738477669616
 30
0.0
 11
70.67083634489796
 21
106.6797021523952
 31
0.0
  0
LINE
  5
1A6
330
1F
100
AcDbEntity
  8
1
  6
Continuous
 62
     7
370
     9
100
AcDbLine
 10
69.08006683757907
 20
103.7716051237057
 30
0.0
 11
69.45360848440869
 21
103.9457904542622
 31
0.0
  0
LINE
  5
1A7
330
1F
100
AcDbEntity
  8
1
  6
Continuous
 62
     7
370
     9
100
AcDbLine
 10
69.51879979368402
 20
104.9770007917631
 30
0.0
 11
69.6929839472837
 21
104.6034616689255
 31
0.0
  0
ARC
  5
1A8
330
1F
100
AcDbEntity
  8
1
  6
Continuous
 62
     7
370
     9
100
AcDbCircle
 10
85.02772125747799
 20
98.64961151735685
 30
0.0
 40
16.75
100
AcDbArc
 50
162.1942615943692
 51
165.8053344278526
  0
ARC
  5
1A9
330
1F
100
AcDbEntity
  8
1
  6
Continuous
 62
     7
370
     9
100
AcDbCircle
 10
85.02772125747799
 20
98.64961151735685
 30
0.0
 40
16.75
100
AcDbArc
 50
154.1942615943669
 51
157.8053344278535
  0
LINE
  5
1AA
330
1F
100
AcDbEntity
  8
1
  6
Continuous
 62
     7
370
     9
100
AcDbLine
 10
69.94811204741991
 20
105.9412427526794
 30
0.0
 11
70.34226032521573
 21
106.0617459742456
 31
0.0
  0
LINE
  5
1AB
330
1F
100
AcDbEntity
  8
1
  6
Continuous
 62
     7
370
     9
100
AcDbLine
 10
71.8636539578394
 20
109.0067265659882
 30
0.0
 11
71.92812917662106
 21
108.5996460557466
 31
0.0
  0
LINE
  5
1AC
330
1F
100
AcDbEntity
  8
1
  6
Continuous
 62
     7
370
     9
100
AcDbLine
 10
71.1096646977333
 20
107.9689570737651
 30
0.0
 11
71.51674795860504
 21
108.0334327282038
 31
0.0
  0
ARC
  5
1AD
330
1F
100
AcDbEntity
  8
1
  6
Continuous
 62
     7
370
     9
100
AcDbCircle
 10
85.02772125747799
 20
98.64961151735685
 30
0.0
 40
16.75
100
AcDbArc
 50
130.1942615943657
 51
133.8053344278497
  0
LINE
  5
1AE
330
1F
100
AcDbEntity
  8
1
  6
Continuous
 62
     7
370
     9
100
AcDbLine
 10
73.43319757419901
 20
110.738015901637
 30
0.0
 11
73.44039066763288
 21
110.3259238548048
 31
0.0
  0
LINE
  5
1AF
330
1F
100
AcDbEntity
  8
1
  6
Continuous
 62
     7
370
     9
100
AcDbLine
 10
74.21758637180565
 20
111.4442777401846
 30
0.0
 11
74.62667181644338
 21
111.394048363493
 31
0.0
  0
LINE
  5
1B0
330
1F
100
AcDbEntity
  8
1
  6
Continuous
 62
     7
370
     9
100
AcDbLine
 10
75.22841540547844
 20
112.2340181963019
 30
0.0
 11
75.17818636818285
 21
111.824935515823
 31
0.0
  0
LINE
  5
1B1
330
1F
100
AcDbEntity
  8
1
  6
Continuous
 62
     7
370
     9
100
AcDbLine
 10
72.54211648742742
 20
109.8152809341939
 30
0.0
 11
72.95421131875256
 21
109.8224740762313
 31
0.0
  0
ARC
  5
1B2
330
1F
100
AcDbEntity
  8
1
  6
Continuous
 62
     7
370
     9
100
AcDbCircle
 10
85.02772125747799
 20
98.64961151735685
 30
0.0
 40
16.75
100
AcDbArc
 50
90.1942615943674
 51
93.80533442785188
  0
ARC
  5
1B3
330
1F
100
AcDbEntity
  8
1
  6
Continuous
 62
     7
370
     9
100
AcDbCircle
 10
85.02772125747799
 20
98.64961151735685
 30
0.0
 40
16.75
100
AcDbArc
 50
106.1942615943674
 51
109.805334427851
  0
LINE
  5
1B4
330
1F
100
AcDbEntity
  8
1
  6
Continuous
 62
     7
370
     9
100
AcDbLine
 10
79.3523938324938
 20
114.4088360737626
 30
0.0
 11
79.19135211455998
 21
114.0294455615718
 31
0.0
  0
LINE
  5
1B5
330
1F
100
AcDbEntity
  8
1
  6
Continuous
 62
     7
370
     9
100
AcDbLine
 10
78.16304063017594
 20
113.9283110655888
 30
0.0
 11
78.54243370589646
 21
113.7672682595011
 31
0.0
  0
LINE
  5
1B6
330
1F
100
AcDbEntity
  8
1
  6
Continuous
 62
     7
370
     9
100
AcDbLine
 10
76.10346323538731
 20
112.8242409218651
 30
0.0
 11
76.50157691048553
 21
112.7175666841268
 31
0.0
  0
LINE
  5
1B7
330
1F
100
AcDbEntity
  8
1
  6
Continuous
 62
     7
370
     9
100
AcDbLine
 10
77.21436557862182
 20
113.4656154669947
 30
0.0
 11
77.10769206167308
 21
113.0675044819199
 31
0.0
  0
ARC
  5
1B8
330
1F
100
AcDbEntity
  8
1
  6
Continuous
 62
     7
370
     9
100
AcDbCircle
 10
85.02772125747799
 20
98.64961151735685
 30
0.0
 40
16.75
100
AcDbArc
 50
114.1942615943676
 51
117.8053344278523
  0
LINE
  5
1B9
330
1F
100
AcDbEntity
  8
1
  6
Continuous
 62
     7
370
     9
100
AcDbLine
 10
83.91607737838646
 20
115.3626826859386
 30
0.0
 11
83.65669994588623
 21
115.0423782320747
 31
0.0
  0
ARC
  5
1BA
330
1F
100
AcDbEntity
  8
1
  6
Continuous
 62
     7
370
     9
100
AcDbCircle
 10
85.02772125747799
 20
98.64961151735685
 30
0.0
 40
16.75
100
AcDbArc
 50
98.19426159436695
 51
101.8053344278507
  0
LINE
  5
1BB
330
1F
100
AcDbEntity
  8
1
  6
Continuous
 62
     7
370
     9
100
AcDbLine
 10
82.64034705939974
 20
115.22860257346
 30
0.0
 11
82.96065367755075
 21
114.9692233883547
 31
0.0
  0
LINE
  5
1BC
330
1F
100
AcDbEntity
  8
1
  6
Continuous
 62
     7
370
     9
100
AcDbLine
 10
80.35623122491651
 20
114.7349987018693
 30
0.0
 11
80.70951924659366
 21
114.5227218424694
 31
0.0
  0
LINE
  5
1BD
330
1F
100
AcDbEntity
  8
1
  6
Continuous
 62
     7
370
     9
100
AcDbLine
 10
81.60088587910384
 20
115.0453213003922
 30
0.0
 11
81.38861045404225
 21
114.692035665855
 31
0.0
  0
ARC
  5
1BE
330
1F
100
AcDbEntity
  8
1
  6
Continuous
 62
     7
370
     9
100
AcDbCircle
 10
85.02772125747799
 20
98.64961151735685
 30
0.0
 40
16.75
100
AcDbArc
 50
74.19426159436793
 51
77.80533442785189
  0
LINE
  5
1BF
330
1F
100
AcDbEntity
  8
1
  6
Continuous
 62
     7
370
     9
100
AcDbLine
 10
88.56588732147222
 20
115.0216572326485
 30
0.0
 11
88.22826985809945
 21
114.7852549397637
 31
0.0
  0
ARC
  5
1C0
330
1F
100
AcDbEntity
  8
1
  6
Continuous
 62
     7
370
     9
100
AcDbCircle
 10
85.02772125747799
 20
98.64961151735685
 30
0.0
 40
16.75
100
AcDbArc
 50
82.19426159436787
 51
85.80533442785213
  0
LINE
  5
1C1
330
1F
100
AcDbEntity
  8
1
  6
Continuous
 62
     7
370
     9
100
AcDbLine
 10
86.25290576129942
 20
115.3547431520252
 30
0.0
 11
85.9514748080467
 21
115.0736542406881
 31
0.0
  0
LINE
  5
1C2
330
1F
100
AcDbEntity
  8
1
  6
Continuous
 62
     7
370
     9
100
AcDbLine
 10
84.97093041705067
 20
115.3995152424665
 30
0.0
 11
85.2520212276966
 21
115.0980822524544
 31
0.0
  0
LINE
  5
1C3
330
1F
100
AcDbEntity
  8
1
  6
Continuous
 62
     7
370
     9
100
AcDbLine
 10
87.30261914381188
 20
115.2444100881968
 30
0.0
 11
87.53902303405957
 21
114.9067903435535
 31
0.0
  0
LINE
  5
1C4
330
1F
100
AcDbEntity
  8
1
  6
Continuous
 62
     7
370
     9
100
AcDbLine
 10
90.81000250381359
 20
114.3699080663497
 30
0.0
 11
90.44276987021118
 21
114.1827936936443
 31
0.0
  0
LINE
  5
1C5
330
1F
100
AcDbEntity
  8
1
  6
Continuous
 62
     7
370
     9
100
AcDbLine
 10
89.59002957087361
 20
114.7663060560494
 30
0.0
 11
89.77714520790482
 21
114.3990709410676
 31
0.0
  0
LINE
  5
1C6
330
1F
100
AcDbEntity
  8
1
  6
Continuous
 62
     7
370
     9
100
AcDbLine
 10
135.743350982116
 20
82.19961151735686
 30
0.0
 11
135.743350982116
 21
98.64961151735685
 31
0.0
  0
LINE
  5
1C7
330
1F
100
AcDbEntity
  8
1
  6
Continuous
 62
     7
370
     9
100
AcDbLine
 10
143.143350982116
 20
82.19961151735686
 30
0.0
 11
143.143350982116
 21
98.64961151735685
 31
0.0
  0
LINE
  5
1C8
330
1F
100
AcDbEntity
  8
1
  6
Continuous
 62
     7
370
     9
100
AcDbLine
 10
142.843350982116
 20
94.65266165499696
 30
0.0
 11
142.843350982116
 21
95.68509319944212
 31
0.0
  0
LINE
  5
1C9
330
1F
100
AcDbEntity
  8
1
  6
Continuous
 62
     7
370
     9
100
AcDbLine
 10
136.043350982116
 20
94.65266165499702
 30
0.0
 11
136.043350982116
 21
95.68509319944212
 31
0.0
  0
ARC
  5
1CA
330
1F
100
AcDbEntity
  8
1
  6
Continuous
 62
     7
370
     9
100
AcDbCircle
 10
85.02772125747799
 20
98.64961151735685
 30
0.0
 40
16.75
100
AcDbArc
 50
346.1942615943678
 51
349.8053344278534
  0
ARC
  5
1CB
330
1F
100
AcDbEntity
  8
1
  6
Continuous
 62
     7
370
     9
100
AcDbCircle
 10
85.02772125747799
 20
98.64961151735685
 30
0.0
 40
16.75
100
AcDbArc
 50
322.1942615943683
 51
325.8053344278502
  0
LINE
  5
1CC
330
1F
100
AcDbEntity
  8
1
  6
Continuous
 62
     7
370
     9
100
AcDbLine
 10
97.43724572684364
 20
87.39944696548406
 30
0.0
 11
97.40132406737884
 21
87.81003341196856
 31
0.0
  0
LINE
  5
1CD
330
1F
100
AcDbEntity
  8
1
  6
Continuous
 62
     7
370
     9
100
AcDbLine
 10
96.70403399632185
 20
86.64018934871308
 30
0.0
 11
96.29244123907036
 21
86.6617600110896
 31
0.0
  0
ARC
  5
1CE
330
1F
100
AcDbEntity
  8
1
  6
Continuous
 62
     7
370
     9
100
AcDbCircle
 10
85.02772125747799
 20
98.64961151735685
 30
0.0
 40
16.75
100
AcDbArc
 50
314.194261594367
 51
317.80533442785
  0
LINE
  5
1CF
330
1F
100
AcDbEntity
  8
1
  6
Continuous
 62
     7
370
     9
100
AcDbLine
 10
95.75075680076284
 20
85.78186079170746
 30
0.0
 11
95.77232731738806
 21
86.19345076785851
 31
0.0
  0
LINE
  5
1D0
330
1F
100
AcDbEntity
  8
1
  6
Continuous
 62
     7
370
     9
100
AcDbLine
 10
98.26178944734421
 20
88.38209287135618
 30
0.0
 11
97.85120022654004
 21
88.34617096916992
 31
0.0
  0
LINE
  5
1D1
330
1F
100
AcDbEntity
  8
1
  6
Continuous
 62
     7
370
     9
100
AcDbLine
 10
101.2938202052552
 20
94.65254696682467
 30
0.0
 11
100.9333390415407
 21
94.45272899489947
 31
0.0
  0
ARC
  5
1D2
330
1F
100
AcDbEntity
  8
1
  6
Continuous
 62
     7
370
     9
100
AcDbCircle
 10
85.02772125747799
 20
98.64961151735685
 30
0.0
 40
16.75
100
AcDbArc
 50
338.194261594369
 51
341.8053344278517
  0
LINE
  5
1D3
330
1F
100
AcDbEntity
  8
1
  6
Continuous
 62
     7
370
     9
100
AcDbLine
 10
100.5792357802175
 20
92.42764269318053
 30
0.0
 11
100.1944535076278
 21
92.27993861741419
 31
0.0
  0
ARC
  5
1D4
330
1F
100
AcDbEntity
  8
1
  6
Continuous
 62
     7
370
     9
100
AcDbCircle
 10
85.02772125747799
 20
98.64961151735685
 30
0.0
 40
16.75
100
AcDbArc
 50
330.1942615943681
 51
333.8053344278536
  0
LINE
  5
1D5
330
1F
100
AcDbEntity
  8
1
  6
Continuous
 62
     7
370
     9
100
AcDbLine
 10
99.56195881458027
 20
90.32384196531439
 30
0.0
 11
99.16036478236806
 21
90.23112667753071
 31
0.0
  0
LINE
  5
1D6
330
1F
100
AcDbEntity
  8
1
  6
Continuous
 62
     7
370
     9
100
AcDbLine
 10
100.0574874042728
 20
91.25578777232073
 30
0.0
 11
99.90978432653151
 21
91.64056744496628
 31
0.0
  0
LINE
  5
1D7
330
1F
100
AcDbEntity
  8
1
  6
Continuous
 62
     7
370
     9
100
AcDbLine
 10
98.88219737475312
 20
89.23600479539033
 30
0.0
 11
98.7894827134395
 21
89.63759611406266
 31
0.0
  0
LINE
  5
1D8
330
1F
100
AcDbEntity
  8
1
  6
Continuous
 62
     7
370
     9
100
AcDbLine
 10
100.9402401318508
 20
93.41948311809841
 30
0.0
 11
100.7404235100802
 21
93.77996184606951
 31
0.0
  0
LINE
  5
1D9
330
1F
100
AcDbEntity
  8
1
  6
Continuous
 62
     7
370
     9
100
AcDbLine
 10
136.043350982116
 20
81.89961151735685
 30
0.0
 11
142.843350982116
 21
81.89961151735685
 31
0.0
  0
LINE
  5
1DA
330
1F
100
AcDbEntity
  8
1
  6
Continuous
 62
     7
370
     9
100
AcDbLine
 10
135.743350982116
 20
93.78007647701395
 30
0.0
 11
143.143350982116
 21
93.78007647701389
 31
0.0
  0
LINE
  5
1DB
330
1F
100
AcDbEntity
  8
1
  6
Continuous
 62
     7
370
     9
100
AcDbLine
 10
143.143350982116
 20
94.45284503322642
 30
0.0
 11
135.743350982116
 21
94.45284503322648
 31
0.0
  0
LINE
  5
1DC
330
1F
100
AcDbEntity
  8
1
  6
Continuous
 62
     7
370
     9
100
AcDbLine
 10
136.043350982116
 20
94.65266165499702
 30
0.0
 11
142.843350982116
 21
94.65266165499696
 31
0.0
  0
LINE
  5
1DD
330
1F
100
AcDbEntity
  8
1
  6
Continuous
 62
     7
370
     9
100
AcDbLine
 10
136.043350982116
 20
85.78193639738834
 30
0.0
 11
142.843350982116
 21
85.78193639738828
 31
0.0
  0
LINE
  5
1DE
330
1F
100
AcDbEntity
  8
1
  6
Continuous
 62
     7
370
     9
100
AcDbLine
 10
135.743350982116
 20
86.1935291546398
 30
0.0
 11
143.143350982116
 21
86.1935291546398
 31
0.0
  0
LINE
  5
1DF
330
1F
100
AcDbEntity
  8
1
  6
Continuous
 62
     7
370
     9
100
AcDbLine
 10
136.043350982116
 20
86.64027167568452
 30
0.0
 11
142.843350982116
 21
86.64027167568452
 31
0.0
  0
LINE
  5
1E0
330
1F
100
AcDbEntity
  8
1
  6
Continuous
 62
     7
370
     9
100
AcDbLine
 10
136.043350982116
 20
87.39953446212365
 30
0.0
 11
142.843350982116
 21
87.3995344621236
 31
0.0
  0
LINE
  5
1E1
330
1F
100
AcDbEntity
  8
1
  6
Continuous
 62
     7
370
     9
100
AcDbLine
 10
143.143350982116
 20
87.81012368292778
 30
0.0
 11
135.743350982116
 21
87.81012368292778
 31
0.0
  0
LINE
  5
1E2
330
1F
100
AcDbEntity
  8
1
  6
Continuous
 62
     7
370
     9
100
AcDbLine
 10
142.843350982116
 20
88.3821861816167
 30
0.0
 11
136.043350982116
 21
88.3821861816167
 31
0.0
  0
LINE
  5
1E3
330
1F
100
AcDbEntity
  8
1
  6
Continuous
 62
     7
370
     9
100
AcDbLine
 10
135.743350982116
 20
88.3462645221519
 30
0.0
 11
143.143350982116
 21
88.3462645221519
 31
0.0
  0
LINE
  5
1E4
330
1F
100
AcDbEntity
  8
1
  6
Continuous
 62
     7
370
     9
100
AcDbLine
 10
143.143350982116
 20
90.23122978137224
 30
0.0
 11
135.743350982116
 21
90.23122978137229
 31
0.0
  0
LINE
  5
1E5
330
1F
100
AcDbEntity
  8
1
  6
Continuous
 62
     7
370
     9
100
AcDbLine
 10
136.043350982116
 20
90.32394444268584
 30
0.0
 11
142.843350982116
 21
90.32394444268584
 31
0.0
  0
LINE
  5
1E6
330
1F
100
AcDbEntity
  8
1
  6
Continuous
 62
     7
370
     9
100
AcDbLine
 10
142.843350982116
 20
91.25589374351347
 30
0.0
 11
136.043350982116
 21
91.25589374351347
 31
0.0
  0
LINE
  5
1E7
330
1F
100
AcDbEntity
  8
1
  6
Continuous
 62
     7
370
     9
100
AcDbLine
 10
135.743350982116
 20
91.6406760161031
 30
0.0
 11
143.143350982116
 21
91.6406760161031
 31
0.0
  0
LINE
  5
1E8
330
1F
100
AcDbEntity
  8
1
  6
Continuous
 62
     7
370
     9
100
AcDbLine
 10
143.143350982116
 20
92.28004926531622
 30
0.0
 11
135.743350982116
 21
92.28004926531622
 31
0.0
  0
LINE
  5
1E9
330
1F
100
AcDbEntity
  8
1
  6
Continuous
 62
     7
370
     9
100
AcDbLine
 10
136.043350982116
 20
92.42775234305753
 30
0.0
 11
142.843350982116
 21
92.42775234305748
 31
0.0
  0
LINE
  5
1EA
330
1F
100
AcDbEntity
  8
1
  6
Continuous
 62
     7
370
     9
100
AcDbLine
 10
135.743350982116
 20
89.63769651217825
 30
0.0
 11
142.843350982116
 21
89.63769651217825
 31
0.0
  0
LINE
  5
1EB
330
1F
100
AcDbEntity
  8
1
  6
Continuous
 62
     7
370
     9
100
AcDbLine
 10
142.543350982116
 20
89.23610247996606
 30
0.0
 11
136.043350982116
 21
89.23610247996606
 31
0.0
  0
LINE
  5
1EC
330
1F
100
AcDbEntity
  8
1
  6
Continuous
 62
     7
370
     9
100
AcDbLine
 10
142.843350982116
 20
93.4195953132994
 30
0.0
 11
136.043350982116
 21
93.41959531329945
 31
0.0
  0
LINE
  5
1ED
330
1F
100
AcDbEntity
  8
1
  6
Continuous
 62
     7
370
     9
100
AcDbLine
 10
136.043350982116
 20
81.94447988268854
 30
0.0
 11
142.843350982116
 21
81.94447988268854
 31
0.0
  0
LINE
  5
1EE
330
1F
100
AcDbEntity
  8
1
  6
Continuous
 62
     7
370
     9
100
AcDbLine
 10
136.043350982116
 20
82.05481294651685
 30
0.0
 11
142.843350982116
 21
82.05481294651685
 31
0.0
  0
LINE
  5
1EF
330
1F
100
AcDbEntity
  8
1
  6
Continuous
 62
     7
370
     9
100
AcDbLine
 10
136.043350982116
 20
82.27756580206523
 30
0.0
 11
142.843350982116
 21
82.27756580206517
 31
0.0
  0
LINE
  5
1F0
330
1F
100
AcDbEntity
  8
1
  6
Continuous
 62
     7
370
     9
100
AcDbLine
 10
136.043350982116
 20
82.53291697866433
 30
0.0
 11
142.843350982116
 21
82.53291697866433
 31
0.0
  0
LINE
  5
1F1
330
1F
100
AcDbEntity
  8
1
  6
Continuous
 62
     7
370
     9
100
AcDbLine
 10
135.743350982116
 20
82.90015209364606
 30
0.0
 11
143.143350982116
 21
82.90015209364606
 31
0.0
  0
LINE
  5
1F2
330
1F
100
AcDbEntity
  8
1
  6
Continuous
 62
     7
370
     9
100
AcDbLine
 10
136.043350982116
 20
82.92931496836405
 30
0.0
 11
142.843350982116
 21
82.92931496836405
 31
0.0
  0
LINE
  5
1F3
330
1F
100
AcDbEntity
  8
1
  6
Continuous
 62
     7
370
     9
100
AcDbLine
 10
136.043350982116
 20
88.3821861816167
 30
0.0
 11
136.043350982116
 21
89.23610247996606
 31
0.0
  0
LINE
  5
1F4
330
1F
100
AcDbEntity
  8
1
  6
Continuous
 62
     7
370
     9
100
AcDbLine
 10
136.043350982116
 20
81.89961151735685
 30
0.0
 11
135.743350982116
 21
82.19961151735686
 31
0.0
  0
LINE
  5
1F5
330
1F
100
AcDbEntity
  8
1
  6
Continuous
 62
     7
370
     9
100
AcDbLine
 10
136.043350982116
 20
88.3821861816167
 30
0.0
 11
135.743350982116
 21
88.3462645221519
 31
0.0
  0
LINE
  5
1F6
330
1F
100
AcDbEntity
  8
1
  6
Continuous
 62
     7
370
     9
100
AcDbLine
 10
136.043350982116
 20
87.39953446212365
 30
0.0
 11
135.743350982116
 21
87.81012368292778
 31
0.0
  0
LINE
  5
1F7
330
1F
100
AcDbEntity
  8
1
  6
Continuous
 62
     7
370
     9
100
AcDbLine
 10
135.743350982116
 20
86.1935291546398
 30
0.0
 11
136.043350982116
 21
85.78193639738834
 31
0.0
  0
LINE
  5
1F8
330
1F
100
AcDbEntity
  8
1
  6
Continuous
 62
     7
370
     9
100
AcDbLine
 10
136.043350982116
 20
86.64027167568452
 30
0.0
 11
135.743350982116
 21
86.66184219230979
 31
0.0
  0
LINE
  5
1F9
330
1F
100
AcDbEntity
  8
1
  6
Continuous
 62
     7
370
     9
100
AcDbLine
 10
136.043350982116
 20
86.64027167568452
 30
0.0
 11
136.043350982116
 21
87.39953446212365
 31
0.0
  0
LINE
  5
1FA
330
1F
100
AcDbEntity
  8
1
  6
Continuous
 62
     7
370
     9
100
AcDbLine
 10
136.043350982116
 20
81.94447988268854
 30
0.0
 11
136.043350982116
 21
82.05481294651685
 31
0.0
  0
LINE
  5
1FB
330
1F
100
AcDbEntity
  8
1
  6
Continuous
 62
     7
370
     9
100
AcDbLine
 10
135.743350982116
 20
82.22556879402555
 30
0.0
 11
136.043350982116
 21
81.94447988268854
 31
0.0
  0
LINE
  5
1FC
330
1F
100
AcDbEntity
  8
1
  6
Continuous
 62
     7
370
     9
100
AcDbLine
 10
136.043350982116
 20
82.92931496836405
 30
0.0
 11
135.743350982116
 21
83.11642934106936
 31
0.0
  0
LINE
  5
1FD
330
1F
100
AcDbEntity
  8
1
  6
Continuous
 62
     7
370
     9
100
AcDbLine
 10
135.743350982116
 20
82.90015209364606
 30
0.0
 11
136.043350982116
 21
82.53291697866433
 31
0.0
  0
LINE
  5
1FE
330
1F
100
AcDbEntity
  8
1
  6
Continuous
 62
     7
370
     9
100
AcDbLine
 10
136.043350982116
 20
82.27756580206523
 30
0.0
 11
135.743350982116
 21
82.51396809495003
 31
0.0
  0
LINE
  5
1FF
330
1F
100
AcDbEntity
  8
1
  6
Continuous
 62
     7
370
     9
100
AcDbLine
 10
135.743350982116
 20
82.39243269116014
 30
0.0
 11
136.043350982116
 21
82.05481294651685
 31
0.0
  0
LINE
  5
200
330
1F
100
AcDbEntity
  8
1
  6
Continuous
 62
     7
370
     9
100
AcDbLine
 10
135.743350982116
 20
82.39243269116014
 30
0.0
 11
135.8975822321264
 21
82.39243269116014
 31
0.0
  0
LINE
  5
201
330
1F
100
AcDbEntity
  8
1
  6
Continuous
 62
     7
370
     9
100
AcDbLine
 10
136.043350982116
 20
82.27756580206523
 30
0.0
 11
136.043350982116
 21
82.53291697866433
 31
0.0
  0
LINE
  5
202
330
1F
100
AcDbEntity
  8
1
  6
Continuous
 62
     7
370
     9
100
AcDbLine
 10
136.043350982116
 20
82.92931496836405
 30
0.0
 11
136.043350982116
 21
85.78193639738834
 31
0.0
  0
LINE
  5
203
330
1F
100
AcDbEntity
  8
1
  6
Continuous
 62
     7
370
     9
100
AcDbLine
 10
135.743350982116
 20
94.45284503322648
 30
0.0
 11
136.043350982116
 21
94.65266165499702
 31
0.0
  0
LINE
  5
204
330
1F
100
AcDbEntity
  8
1
  6
Continuous
 62
     7
370
     9
100
AcDbLine
 10
136.043350982116
 20
92.42775234305753
 30
0.0
 11
135.743350982116
 21
92.28004926531622
 31
0.0
  0
LINE
  5
205
330
1F
100
AcDbEntity
  8
1
  6
Continuous
 62
     7
370
     9
100
AcDbLine
 10
136.043350982116
 20
92.42775234305753
 30
0.0
 11
136.043350982116
 21
93.41959531329945
 31
0.0
  0
LINE
  5
206
330
1F
100
AcDbEntity
  8
1
  6
Continuous
 62
     7
370
     9
100
AcDbLine
 10
135.743350982116
 20
90.23122978137229
 30
0.0
 11
136.043350982116
 21
90.32394444268584
 31
0.0
  0
LINE
  5
207
330
1F
100
AcDbEntity
  8
1
  6
Continuous
 62
     7
370
     9
100
AcDbLine
 10
136.043350982116
 20
90.32394444268584
 30
0.0
 11
136.043350982116
 21
91.25589374351347
 31
0.0
  0
LINE
  5
208
330
1F
100
AcDbEntity
  8
1
  6
Continuous
 62
     7
370
     9
100
AcDbLine
 10
136.043350982116
 20
91.25589374351347
 30
0.0
 11
135.743350982116
 21
91.6406760161031
 31
0.0
  0
LINE
  5
209
330
1F
100
AcDbEntity
  8
1
  6
Continuous
 62
     7
370
     9
100
AcDbLine
 10
135.743350982116
 20
89.63769651217825
 30
0.0
 11
136.043350982116
 21
89.23610247996606
 31
0.0
  0
LINE
  5
20A
330
1F
100
AcDbEntity
  8
1
  6
Continuous
 62
     7
370
     9
100
AcDbLine
 10
135.743350982116
 20
93.78007647701395
 30
0.0
 11
136.043350982116
 21
93.41959531329945
 31
0.0
  0
LINE
  5
20B
330
1F
100
AcDbEntity
  8
1
  6
Continuous
 62
     7
370
     9
100
AcDbLine
 10
142.843350982116
 20
88.3821861816167
 30
0.0
 11
142.843350982116
 21
89.23610247996606
 31
0.0
  0
LINE
  5
20C
330
1F
100
AcDbEntity
  8
1
  6
Continuous
 62
     7
370
     9
100
AcDbLine
 10
142.843350982116
 20
81.89961151735685
 30
0.0
 11
143.143350982116
 21
82.19961151735686
 31
0.0
  0
LINE
  5
20D
330
1F
100
AcDbEntity
  8
1
  6
Continuous
 62
     7
370
     9
100
AcDbLine
 10
142.843350982116
 20
88.3821861816167
 30
0.0
 11
143.143350982116
 21
88.3462645221519
 31
0.0
  0
LINE
  5
20E
330
1F
100
AcDbEntity
  8
1
  6
Continuous
 62
     7
370
     9
100
AcDbLine
 10
142.843350982116
 20
87.3995344621236
 30
0.0
 11
143.143350982116
 21
87.81012368292778
 31
0.0
  0
LINE
  5
20F
330
1F
100
AcDbEntity
  8
1
  6
Continuous
 62
     7
370
     9
100
AcDbLine
 10
143.143350982116
 20
86.1935291546398
 30
0.0
 11
142.843350982116
 21
85.78193639738828
 31
0.0
  0
LINE
  5
210
330
1F
100
AcDbEntity
  8
1
  6
Continuous
 62
     7
370
     9
100
AcDbLine
 10
142.843350982116
 20
86.64027167568452
 30
0.0
 11
143.143350982116
 21
86.66184219230973
 31
0.0
  0
LINE
  5
211
330
1F
100
AcDbEntity
  8
1
  6
Continuous
 62
     7
370
     9
100
AcDbLine
 10
142.843350982116
 20
86.64027167568452
 30
0.0
 11
143.143350982116
 21
86.66184219230973
 31
0.0
  0
LINE
  5
212
330
1F
100
AcDbEntity
  8
1
  6
Continuous
 62
     7
370
     9
100
AcDbLine
 10
142.843350982116
 20
86.64027167568452
 30
0.0
 11
142.843350982116
 21
87.3995344621236
 31
0.0
  0
LINE
  5
213
330
1F
100
AcDbEntity
  8
1
  6
Continuous
 62
     7
370
     9
100
AcDbLine
 10
142.843350982116
 20
81.94447988268854
 30
0.0
 11
142.843350982116
 21
82.05481294651685
 31
0.0
  0
LINE
  5
214
330
1F
100
AcDbEntity
  8
1
  6
Continuous
 62
     7
370
     9
100
AcDbLine
 10
143.143350982116
 20
82.22556879402555
 30
0.0
 11
142.843350982116
 21
81.94447988268854
 31
0.0
  0
LINE
  5
215
330
1F
100
AcDbEntity
  8
1
  6
Continuous
 62
     7
370
     9
100
AcDbLine
 10
142.843350982116
 20
82.92931496836405
 30
0.0
 11
143.143350982116
 21
83.1164293410693
 31
0.0
  0
LINE
  5
216
330
1F
100
AcDbEntity
  8
1
  6
Continuous
 62
     7
370
     9
100
AcDbLine
 10
143.143350982116
 20
82.90015209364606
 30
0.0
 11
142.843350982116
 21
82.53291697866433
 31
0.0
  0
LINE
  5
217
330
1F
100
AcDbEntity
  8
1
  6
Continuous
 62
     7
370
     9
100
AcDbLine
 10
142.843350982116
 20
82.27756580206517
 30
0.0
 11
143.143350982116
 21
82.51396809495003
 31
0.0
  0
LINE
  5
218
330
1F
100
AcDbEntity
  8
1
  6
Continuous
 62
     7
370
     9
100
AcDbLine
 10
143.143350982116
 20
82.39243269116014
 30
0.0
 11
142.843350982116
 21
82.05481294651685
 31
0.0
  0
LINE
  5
219
330
1F
100
AcDbEntity
  8
1
  6
Continuous
 62
     7
370
     9
100
AcDbLine
 10
143.143350982116
 20
82.39243269116014
 30
0.0
 11
142.9891197321055
 21
82.39243269116014
 31
0.0
  0
LINE
  5
21A
330
1F
100
AcDbEntity
  8
1
  6
Continuous
 62
     7
370
     9
100
AcDbLine
 10
142.843350982116
 20
82.27756580206517
 30
0.0
 11
142.843350982116
 21
82.53291697866433
 31
0.0
  0
LINE
  5
21B
330
1F
100
AcDbEntity
  8
1
  6
Continuous
 62
     7
370
     9
100
AcDbLine
 10
143.143350982116
 20
82.84961182350844
 30
0.0
 11
143.643350982116
 21
82.84961182350844
 31
0.0
  0
LINE
  5
21C
330
1F
100
AcDbEntity
  8
1
  6
Continuous
 62
     7
370
     9
100
AcDbLine
 10
142.843350982116
 20
82.92931496836405
 30
0.0
 11
142.843350982116
 21
85.78193639738828
 31
0.0
  0
LINE
  5
21D
330
1F
100
AcDbEntity
  8
1
  6
Continuous
 62
     7
370
     9
100
AcDbLine
 10
143.143350982116
 20
94.45284503322642
 30
0.0
 11
142.843350982116
 21
94.65266165499696
 31
0.0
  0
LINE
  5
21E
330
1F
100
AcDbEntity
  8
1
  6
Continuous
 62
     7
370
     9
100
AcDbLine
 10
142.843350982116
 20
92.42775234305748
 30
0.0
 11
143.143350982116
 21
92.28004926531622
 31
0.0
  0
LINE
  5
21F
330
1F
100
AcDbEntity
  8
1
  6
Continuous
 62
     7
370
     9
100
AcDbLine
 10
142.843350982116
 20
92.42775234305753
 30
0.0
 11
142.843350982116
 21
93.4195953132994
 31
0.0
  0
LINE
  5
220
330
1F
100
AcDbEntity
  8
1
  6
Continuous
 62
     7
370
     9
100
AcDbLine
 10
143.143350982116
 20
90.23122978137224
 30
0.0
 11
142.843350982116
 21
90.32394444268584
 31
0.0
  0
LINE
  5
221
330
1F
100
AcDbEntity
  8
1
  6
Continuous
 62
     7
370
     9
100
AcDbLine
 10
142.843350982116
 20
90.32394444268584
 30
0.0
 11
142.843350982116
 21
91.25589374351347
 31
0.0
  0
LINE
  5
222
330
1F
100
AcDbEntity
  8
1
  6
Continuous
 62
     7
370
     9
100
AcDbLine
 10
142.843350982116
 20
91.25589374351347
 30
0.0
 11
143.143350982116
 21
91.6406760161031
 31
0.0
  0
LINE
  5
223
330
1F
100
AcDbEntity
  8
1
  6
Continuous
 62
     7
370
     9
100
AcDbLine
 10
143.143350982116
 20
89.63769651217825
 30
0.0
 11
142.843350982116
 21
89.23610247996606
 31
0.0
  0
LINE
  5
224
330
1F
100
AcDbEntity
  8
1
  6
Continuous
 62
     7
370
     9
100
AcDbLine
 10
143.143350982116
 20
93.78007647701389
 30
0.0
 11
142.843350982116
 21
93.4195953132994
 31
0.0
  0
LINE
  5
225
330
1F
100
AcDbEntity
  8
1
  6
Continuous
 62
     7
370
     9
100
AcDbLine
 10
97.43732504854702
 20
109.89968857259
 30
0.0
 11
97.40140314636072
 21
109.4890993517859
 31
0.0
  0
ARC
  5
226
330
1F
100
AcDbEntity
  8
1
  6
Continuous
 62
     7
370
     9
100
AcDbCircle
 10
85.02772125747799
 20
98.64961151735685
 30
0.0
 40
16.75
100
AcDbArc
 50
10.19426159436833
 51
13.80533442785031
  0
LINE
  5
227
330
1F
100
AcDbEntity
  8
1
  6
Continuous
 62
     7
370
     9
100
AcDbLine
 10
101.5132946822257
 20
101.6141298352716
 30
0.0
 11
101.2652520436757
 21
101.2849661362427
 31
0.0
  0
LINE
  5
228
330
1F
100
AcDbEntity
  8
1
  6
Continuous
 62
     7
370
     9
100
AcDbLine
 10
101.6918154627832
 20
100.3438559851695
 30
0.0
 11
101.362653987888
 21
100.5918969477145
 31
0.0
  0
LINE
  5
229
330
1F
100
AcDbEntity
  8
1
  6
Continuous
 62
     7
370
     9
100
AcDbLine
 10
101.6918035166877
 20
96.95524955535137
 30
0.0
 11
101.3626398176588
 21
96.70720691680128
 31
0.0
  0
LINE
  5
22A
330
1F
100
AcDbEntity
  8
1
  6
Continuous
 62
     7
370
     9
100
AcDbLine
 10
101.513273779761
 20
95.68497696398481
 30
0.0
 11
101.2652328172159
 21
96.01413843887997
 31
0.0
  0
ARC
  5
22B
330
1F
100
AcDbEntity
  8
1
  6
Continuous
 62
     7
370
     9
100
AcDbCircle
 10
85.02772125747799
 20
98.64961151735685
 30
0.0
 40
16.75
100
AcDbArc
 50
354.1942615943685
 51
5.805334427851561
  0
ARC
  5
22C
330
1F
100
AcDbEntity
  8
1
  6
Continuous
 62
     7
370
     9
100
AcDbCircle
 10
85.02772125747799
 20
98.64961151735685
 30
0.0
 40
16.75
100
AcDbArc
 50
26.19426159436705
 51
29.8053344278533
  0
LINE
  5
22D
330
1F
100
AcDbEntity
  8
1
  6
Continuous
 62
     7
370
     9
100
AcDbLine
 10
99.56201751707512
 20
106.9752785920279
 30
0.0
 11
99.16042619840279
 21
107.0679932533415
 31
0.0
  0
ARC
  5
22E
330
1F
100
AcDbEntity
  8
1
  6
Continuous
 62
     7
370
     9
100
AcDbCircle
 10
85.02772125747799
 20
98.64961151735685
 30
0.0
 40
16.75
100
AcDbArc
 50
18.1942615943685
 51
21.80533442785032
  0
LINE
  5
22F
330
1F
100
AcDbEntity
  8
1
  6
Continuous
 62
     7
370
     9
100
AcDbLine
 10
100.5792796493301
 20
104.8714706916562
 30
0.0
 11
100.1944999766846
 21
105.0191737693975
 31
0.0
  0
LINE
  5
230
330
1F
100
AcDbEntity
  8
1
  6
Continuous
 62
     7
370
     9
100
AcDbLine
 10
101.2938483871232
 20
102.6465613797167
 30
0.0
 11
100.9333696591521
 21
102.8463780014873
 31
0.0
  0
LINE
  5
231
330
1F
100
AcDbEntity
  8
1
  6
Continuous
 62
     7
370
     9
100
AcDbLine
 10
100.9402770077431
 20
103.8796277214143
 30
0.0
 11
100.740459035818
 21
103.5191465576998
 31
0.0
  0
LINE
  5
232
330
1F
100
AcDbEntity
  8
1
  6
Continuous
 62
     7
370
     9
100
AcDbLine
 10
100.0575395358456
 20
106.0433292912002
 30
0.0
 11
99.90983546007921
 21
105.6585470186106
 31
0.0
  0
ARC
  5
233
330
1F
100
AcDbEntity
  8
1
  6
Continuous
 62
     7
370
     9
100
AcDbCircle
 10
85.02772125747799
 20
98.64961151735685
 30
0.0
 40
16.75
100
AcDbArc
 50
34.19426159436605
 51
37.80533442785246
  0
LINE
  5
234
330
1F
100
AcDbEntity
  8
1
  6
Continuous
 62
     7
370
     9
100
AcDbLine
 10
98.26186184064399
 20
108.917036853097
 30
0.0
 11
97.85127539415949
 21
108.9529585125618
 31
0.0
  0
LINE
  5
235
330
1F
100
AcDbEntity
  8
1
  6
Continuous
 62
     7
370
     9
100
AcDbLine
 10
98.88226374732447
 20
108.0631205547476
 30
0.0
 11
98.78954845954082
 21
107.6615265225354
 31
0.0
  0
ARC
  5
236
330
1F
100
AcDbEntity
  8
1
  6
Continuous
 62
     7
370
     9
100
AcDbCircle
 10
85.02772125747799
 20
98.64961151735685
 30
0.0
 40
16.75
100
AcDbArc
 50
42.19426159436939
 51
45.8053344278529
  0
LINE
  5
237
330
1F
100
AcDbEntity
  8
1
  6
Continuous
 62
     7
370
     9
100
AcDbLine
 10
96.70411867137331
 20
110.6589513590292
 30
0.0
 11
96.2925286952223
 21
110.637380842404
 31
0.0
  0
LINE
  5
238
330
1F
100
AcDbEntity
  8
1
  6
Continuous
 62
     7
370
     9
100
AcDbLine
 10
95.75084752769149
 20
111.5172866373254
 30
0.0
 11
95.77241819006804
 21
111.1056938800738
 31
0.0
  0
LINE
  5
239
330
1F
100
AcDbEntity
  8
1
  6
Continuous
 62
     7
370
     9
100
AcDbLine
 10
135.7433509821161
 20
115.0996115173568
 30
0.0
 11
135.743350982116
 21
98.64961151735685
 31
0.0
  0
LINE
  5
23A
330
1F
100
AcDbEntity
  8
1
  6
Continuous
 62
     7
370
     9
100
AcDbLine
 10
143.143350982116
 20
115.0996115173568
 30
0.0
 11
143.143350982116
 21
98.64961151735685
 31
0.0
  0
LINE
  5
23B
330
1F
100
AcDbEntity
  8
1
  6
Continuous
 62
     7
370
     9
100
AcDbLine
 10
142.8433509821161
 20
109.89968857259
 30
0.0
 11
143.143350982116
 21
109.4890993517859
 31
0.0
  0
LINE
  5
23C
330
1F
100
AcDbEntity
  8
1
  6
Continuous
 62
     7
370
     9
100
AcDbLine
 10
136.043350982116
 20
109.89968857259
 30
0.0
 11
135.743350982116
 21
109.4890993517859
 31
0.0
  0
LINE
  5
23D
330
1F
100
AcDbEntity
  8
1
  6
Continuous
 62
     7
370
     9
100
AcDbLine
 10
143.143350982116
 20
109.4890993517859
 30
0.0
 11
135.743350982116
 21
109.4890993517859
 31
0.0
  0
LINE
  5
23E
330
1F
100
AcDbEntity
  8
1
  6
Continuous
 62
     7
370
     9
100
AcDbLine
 10
142.843350982116
 20
108.917036853097
 30
0.0
 11
136.043350982116
 21
108.917036853097
 31
0.0
  0
LINE
  5
23F
330
1F
100
AcDbEntity
  8
1
  6
Continuous
 62
     7
370
     9
100
AcDbLine
 10
135.743350982116
 20
108.9529585125618
 30
0.0
 11
143.143350982116
 21
108.9529585125617
 31
0.0
  0
LINE
  5
240
330
1F
100
AcDbEntity
  8
1
  6
Continuous
 62
     7
370
     9
100
AcDbLine
 10
143.143350982116
 20
107.0679932533414
 30
0.0
 11
135.743350982116
 21
107.0679932533414
 31
0.0
  0
LINE
  5
241
330
1F
100
AcDbEntity
  8
1
  6
Continuous
 62
     7
370
     9
100
AcDbLine
 10
136.043350982116
 20
106.9752785920278
 30
0.0
 11
142.843350982116
 21
106.9752785920278
 31
0.0
  0
LINE
  5
242
330
1F
100
AcDbEntity
  8
1
  6
Continuous
 62
     7
370
     9
100
AcDbLine
 10
142.843350982116
 20
106.0433292912002
 30
0.0
 11
136.043350982116
 21
106.0433292912002
 31
0.0
  0
LINE
  5
243
330
1F
100
AcDbEntity
  8
1
  6
Continuous
 62
     7
370
     9
100
AcDbLine
 10
135.743350982116
 20
105.6585470186106
 30
0.0
 11
143.143350982116
 21
105.6585470186105
 31
0.0
  0
LINE
  5
244
330
1F
100
AcDbEntity
  8
1
  6
Continuous
 62
     7
370
     9
100
AcDbLine
 10
143.143350982116
 20
105.0191737693975
 30
0.0
 11
135.743350982116
 21
105.0191737693975
 31
0.0
  0
LINE
  5
245
330
1F
100
AcDbEntity
  8
1
  6
Continuous
 62
     7
370
     9
100
AcDbLine
 10
136.043350982116
 20
104.8714706916562
 30
0.0
 11
142.843350982116
 21
104.8714706916562
 31
0.0
  0
LINE
  5
246
330
1F
100
AcDbEntity
  8
1
  6
Continuous
 62
     7
370
     9
100
AcDbLine
 10
135.743350982116
 20
103.5191465576997
 30
0.0
 11
143.143350982116
 21
103.5191465576997
 31
0.0
  0
LINE
  5
247
330
1F
100
AcDbEntity
  8
1
  6
Continuous
 62
     7
370
     9
100
AcDbLine
 10
143.143350982116
 20
102.8463780014872
 30
0.0
 11
135.743350982116
 21
102.8463780014872
 31
0.0
  0
LINE
  5
248
330
1F
100
AcDbEntity
  8
1
  6
Continuous
 62
     7
370
     9
100
AcDbLine
 10
142.843350982116
 20
103.8796277214142
 30
0.0
 11
136.043350982116
 21
103.8796277214142
 31
0.0
  0
LINE
  5
249
330
1F
100
AcDbEntity
  8
1
  6
Continuous
 62
     7
370
     9
100
AcDbLine
 10
136.043350982116
 20
102.6465613797167
 30
0.0
 11
142.843350982116
 21
102.6465613797167
 31
0.0
  0
LINE
  5
24A
330
1F
100
AcDbEntity
  8
1
  6
Continuous
 62
     7
370
     9
100
AcDbLine
 10
142.843350982116
 20
108.0631205547476
 30
0.0
 11
136.043350982116
 21
108.0631205547476
 31
0.0
  0
LINE
  5
24B
330
1F
100
AcDbEntity
  8
1
  6
Continuous
 62
     7
370
     9
100
AcDbLine
 10
135.743350982116
 20
107.6615265225354
 30
0.0
 11
143.143350982116
 21
107.6615265225354
 31
0.0
  0
LINE
  5
24C
330
1F
100
AcDbEntity
  8
1
  6
Continuous
 62
     7
370
     9
100
AcDbLine
 10
143.143350982116
 20
101.2849661362426
 30
0.0
 11
135.743350982116
 21
101.2849661362426
 31
0.0
  0
LINE
  5
24D
330
1F
100
AcDbEntity
  8
1
  6
Continuous
 62
     7
370
     9
100
AcDbLine
 10
135.743350982116
 20
100.5918969477145
 30
0.0
 11
143.143350982116
 21
100.5918969477145
 31
0.0
  0
LINE
  5
24E
330
1F
100
AcDbEntity
  8
1
  6
Continuous
 62
     7
370
     9
100
AcDbLine
 10
142.843350982116
 20
100.3438559851694
 30
0.0
 11
136.043350982116
 21
100.3438559851695
 31
0.0
  0
LINE
  5
24F
330
1F
100
AcDbEntity
  8
1
  6
Continuous
 62
     7
370
     9
100
AcDbLine
 10
136.043350982116
 20
101.6141298352716
 30
0.0
 11
142.843350982116
 21
101.6141298352716
 31
0.0
  0
LINE
  5
250
330
1F
100
AcDbEntity
  8
1
  6
Continuous
 62
     7
370
     9
100
AcDbLine
 10
143.143350982116
 20
96.01425689847099
 30
0.0
 11
135.743350982116
 21
96.01425689847105
 31
0.0
  0
LINE
  5
251
330
1F
100
AcDbEntity
  8
1
  6
Continuous
 62
     7
370
     9
100
AcDbLine
 10
135.743350982116
 20
96.70732608699922
 30
0.0
 11
143.143350982116
 21
96.70732608699922
 31
0.0
  0
LINE
  5
252
330
1F
100
AcDbEntity
  8
1
  6
Continuous
 62
     7
370
     9
100
AcDbLine
 10
142.843350982116
 20
96.95536704954424
 30
0.0
 11
136.043350982116
 21
96.95536704954424
 31
0.0
  0
LINE
  5
253
330
1F
100
AcDbEntity
  8
1
  6
Continuous
 62
     7
370
     9
100
AcDbLine
 10
136.043350982116
 20
95.68509319944212
 30
0.0
 11
142.843350982116
 21
95.68509319944212
 31
0.0
  0
LINE
  5
254
330
1F
100
AcDbEntity
  8
1
  6
Continuous
 62
     7
370
     9
100
AcDbLine
 10
136.043350982116
 20
102.6465613797167
 30
0.0
 11
136.043350982116
 21
101.6141298352716
 31
0.0
  0
LINE
  5
255
330
1F
100
AcDbEntity
  8
1
  6
Continuous
 62
     7
370
     9
100
AcDbLine
 10
136.043350982116
 20
101.6141298352716
 30
0.0
 11
135.743350982116
 21
101.2849661362426
 31
0.0
  0
LINE
  5
256
330
1F
100
AcDbEntity
  8
1
  6
Continuous
 62
     7
370
     9
100
AcDbLine
 10
135.743350982116
 20
100.5918969477145
 30
0.0
 11
136.043350982116
 21
100.3438559851695
 31
0.0
  0
LINE
  5
257
330
1F
100
AcDbEntity
  8
1
  6
Continuous
 62
     7
370
     9
100
AcDbLine
 10
136.043350982116
 20
100.3438559851695
 30
0.0
 11
136.043350982116
 21
98.64961151735685
 31
0.0
  0
LINE
  5
258
330
1F
100
AcDbEntity
  8
1
  6
Continuous
 62
     7
370
     9
100
AcDbLine
 10
136.043350982116
 20
95.68509319944212
 30
0.0
 11
135.743350982116
 21
96.01425689847105
 31
0.0
  0
LINE
  5
259
330
1F
100
AcDbEntity
  8
1
  6
Continuous
 62
     7
370
     9
100
AcDbLine
 10
135.743350982116
 20
96.70732608699922
 30
0.0
 11
136.043350982116
 21
96.95536704954424
 31
0.0
  0
LINE
  5
25A
330
1F
100
AcDbEntity
  8
1
  6
Continuous
 62
     7
370
     9
100
AcDbLine
 10
136.043350982116
 20
96.95536704954424
 30
0.0
 11
136.043350982116
 21
98.64961151735685
 31
0.0
  0
LINE
  5
25B
330
1F
100
AcDbEntity
  8
1
  6
Continuous
 62
     7
370
     9
100
AcDbLine
 10
136.043350982116
 20
108.917036853097
 30
0.0
 11
135.743350982116
 21
108.9529585125618
 31
0.0
  0
LINE
  5
25C
330
1F
100
AcDbEntity
  8
1
  6
Continuous
 62
     7
370
     9
100
AcDbLine
 10
136.043350982116
 20
108.917036853097
 30
0.0
 11
136.043350982116
 21
108.0631205547476
 31
0.0
  0
LINE
  5
25D
330
1F
100
AcDbEntity
  8
1
  6
Continuous
 62
     7
370
     9
100
AcDbLine
 10
135.743350982116
 20
107.0679932533414
 30
0.0
 11
136.043350982116
 21
106.9752785920278
 31
0.0
  0
LINE
  5
25E
330
1F
100
AcDbEntity
  8
1
  6
Continuous
 62
     7
370
     9
100
AcDbLine
 10
136.043350982116
 20
106.9752785920278
 30
0.0
 11
136.043350982116
 21
106.0433292912002
 31
0.0
  0
LINE
  5
25F
330
1F
100
AcDbEntity
  8
1
  6
Continuous
 62
     7
370
     9
100
AcDbLine
 10
135.743350982116
 20
107.6615265225354
 30
0.0
 11
136.043350982116
 21
108.0631205547476
 31
0.0
  0
LINE
  5
260
330
1F
100
AcDbEntity
  8
1
  6
Continuous
 62
     7
370
     9
100
AcDbLine
 10
136.043350982116
 20
104.8714706916562
 30
0.0
 11
135.743350982116
 21
105.0191737693975
 31
0.0
  0
LINE
  5
261
330
1F
100
AcDbEntity
  8
1
  6
Continuous
 62
     7
370
     9
100
AcDbLine
 10
136.043350982116
 20
104.8714706916562
 30
0.0
 11
136.043350982116
 21
103.8796277214142
 31
0.0
  0
LINE
  5
262
330
1F
100
AcDbEntity
  8
1
  6
Continuous
 62
     7
370
     9
100
AcDbLine
 10
135.743350982116
 20
102.8463780014872
 30
0.0
 11
136.043350982116
 21
102.6465613797167
 31
0.0
  0
LINE
  5
263
330
1F
100
AcDbEntity
  8
1
  6
Continuous
 62
     7
370
     9
100
AcDbLine
 10
135.743350982116
 20
103.5191465576997
 30
0.0
 11
136.043350982116
 21
103.8796277214142
 31
0.0
  0
LINE
  5
264
330
1F
100
AcDbEntity
  8
1
  6
Continuous
 62
     7
370
     9
100
AcDbLine
 10
136.043350982116
 20
106.0433292912002
 30
0.0
 11
135.743350982116
 21
105.6585470186106
 31
0.0
  0
LINE
  5
265
330
1F
100
AcDbEntity
  8
1
  6
Continuous
 62
     7
370
     9
100
AcDbLine
 10
142.843350982116
 20
102.6465613797167
 30
0.0
 11
142.843350982116
 21
101.6141298352716
 31
0.0
  0
CIRCLE
  5
266
330
1F
100
AcDbEntity
  8
1
  6
Continuous
 62
     7
370
     9
100
AcDbCircle
 10
141.643350982116
 20
98.64961151735685
 30
0.0
 40
0.75
  0
LINE
  5
267
330
1F
100
AcDbEntity
  8
1
  6
Continuous
 62
     7
370
     9
100
AcDbLine
 10
142.843350982116
 20
101.6141298352716
 30
0.0
 11
143.143350982116
 21
101.2849661362426
 31
0.0
  0
LINE
  5
268
330
1F
100
AcDbEntity
  8
1
  6
Continuous
 62
     7
370
     9
100
AcDbLine
 10
143.143350982116
 20
100.5918969477145
 30
0.0
 11
142.843350982116
 21
100.3438559851694
 31
0.0
  0
LINE
  5
269
330
1F
100
AcDbEntity
  8
1
  6
Continuous
 62
     7
370
     9
100
AcDbLine
 10
142.843350982116
 20
100.3438559851694
 30
0.0
 11
142.843350982116
 21
98.64961151735685
 31
0.0
  0
LINE
  5
26A
330
1F
100
AcDbEntity
  8
1
  6
Continuous
 62
     7
370
     9
100
AcDbLine
 10
142.843350982116
 20
95.68509319944212
 30
0.0
 11
143.143350982116
 21
96.01425689847099
 31
0.0
  0
LINE
  5
26B
330
1F
100
AcDbEntity
  8
1
  6
Continuous
 62
     7
370
     9
100
AcDbLine
 10
143.143350982116
 20
96.70732608699922
 30
0.0
 11
142.843350982116
 21
96.95536704954424
 31
0.0
  0
LINE
  5
26C
330
1F
100
AcDbEntity
  8
1
  6
Continuous
 62
     7
370
     9
100
AcDbLine
 10
142.843350982116
 20
96.95536704954424
 30
0.0
 11
142.843350982116
 21
98.64961151735685
 31
0.0
  0
LINE
  5
26D
330
1F
100
AcDbEntity
  8
1
  6
Continuous
 62
     7
370
     9
100
AcDbLine
 10
142.843350982116
 20
108.917036853097
 30
0.0
 11
142.843350982116
 21
108.0631205547476
 31
0.0
  0
LINE
  5
26E
330
1F
100
AcDbEntity
  8
1
  6
Continuous
 62
     7
370
     9
100
AcDbLine
 10
142.843350982116
 20
108.917036853097
 30
0.0
 11
143.143350982116
 21
108.9529585125617
 31
0.0
  0
LINE
  5
26F
330
1F
100
AcDbEntity
  8
1
  6
Continuous
 62
     7
370
     9
100
AcDbLine
 10
143.143350982116
 20
107.0679932533414
 30
0.0
 11
142.843350982116
 21
106.9752785920278
 31
0.0
  0
LINE
  5
270
330
1F
100
AcDbEntity
  8
1
  6
Continuous
 62
     7
370
     9
100
AcDbLine
 10
142.843350982116
 20
106.9752785920278
 30
0.0
 11
142.843350982116
 21
106.0433292912002
 31
0.0
  0
LINE
  5
271
330
1F
100
AcDbEntity
  8
1
  6
Continuous
 62
     7
370
     9
100
AcDbLine
 10
143.143350982116
 20
107.6615265225354
 30
0.0
 11
142.843350982116
 21
108.0631205547476
 31
0.0
  0
LINE
  5
272
330
1F
100
AcDbEntity
  8
1
  6
Continuous
 62
     7
370
     9
100
AcDbLine
 10
142.843350982116
 20
104.8714706916562
 30
0.0
 11
143.143350982116
 21
105.0191737693975
 31
0.0
  0
LINE
  5
273
330
1F
100
AcDbEntity
  8
1
  6
Continuous
 62
     7
370
     9
100
AcDbLine
 10
142.843350982116
 20
104.8714706916562
 30
0.0
 11
142.843350982116
 21
103.8796277214142
 31
0.0
  0
LINE
  5
274
330
1F
100
AcDbEntity
  8
1
  6
Continuous
 62
     7
370
     9
100
AcDbLine
 10
143.143350982116
 20
102.8463780014872
 30
0.0
 11
142.843350982116
 21
102.6465613797167
 31
0.0
  0
LINE
  5
275
330
1F
100
AcDbEntity
  8
1
  6
Continuous
 62
     7
370
     9
100
AcDbLine
 10
143.143350982116
 20
103.5191465576997
 30
0.0
 11
142.843350982116
 21
103.8796277214142
 31
0.0
  0
LINE
  5
276
330
1F
100
AcDbEntity
  8
1
  6
Continuous
 62
     7
370
     9
100
AcDbLine
 10
142.843350982116
 20
106.0433292912002
 30
0.0
 11
143.143350982116
 21
105.6585470186105
 31
0.0
  0
LINE
  5
277
330
1F
100
AcDbEntity
  8
1
  6
Continuous
 62
     7
370
     9
100
AcDbLine
 10
136.043350982116
 20
115.3996115173568
 30
0.0
 11
142.8433509821161
 21
115.3996115173568
 31
0.0
  0
LINE
  5
278
330
1F
100
AcDbEntity
  8
1
  6
Continuous
 62
     7
370
     9
100
AcDbLine
 10
136.043350982116
 20
115.3547431520252
 30
0.0
 11
142.8433509821161
 21
115.3547431520252
 31
0.0
  0
LINE
  5
279
330
1F
100
AcDbEntity
  8
1
  6
Continuous
 62
     7
370
     9
100
AcDbLine
 10
136.043350982116
 20
115.2444100881968
 30
0.0
 11
142.8433509821161
 21
115.2444100881968
 31
0.0
  0
LINE
  5
27A
330
1F
100
AcDbEntity
  8
1
  6
Continuous
 62
     7
370
     9
100
AcDbLine
 10
136.043350982116
 20
115.0216572326485
 30
0.0
 11
142.8433509821161
 21
115.0216572326485
 31
0.0
  0
LINE
  5
27B
330
1F
100
AcDbEntity
  8
1
  6
Continuous
 62
     7
370
     9
100
AcDbLine
 10
136.043350982116
 20
114.7663060560494
 30
0.0
 11
142.8433509821161
 21
114.7663060560494
 31
0.0
  0
LINE
  5
27C
330
1F
100
AcDbEntity
  8
1
  6
Continuous
 62
     7
370
     9
100
AcDbLine
 10
135.7433509821161
 20
114.3990709410676
 30
0.0
 11
143.143350982116
 21
114.3990709410676
 31
0.0
  0
LINE
  5
27D
330
1F
100
AcDbEntity
  8
1
  6
Continuous
 62
     7
370
     9
100
AcDbLine
 10
136.043350982116
 20
114.3699080663496
 30
0.0
 11
142.8433509821161
 21
114.3699080663496
 31
0.0
  0
LINE
  5
27E
330
1F
100
AcDbEntity
  8
1
  6
Continuous
 62
     7
370
     9
100
AcDbLine
 10
136.043350982116
 20
111.5172866373254
 30
0.0
 11
142.8433509821161
 21
111.5172866373254
 31
0.0
  0
LINE
  5
27F
330
1F
100
AcDbEntity
  8
1
  6
Continuous
 62
     7
370
     9
100
AcDbLine
 10
135.7433509821161
 20
111.1056938800739
 30
0.0
 11
143.143350982116
 21
111.1056938800738
 31
0.0
  0
LINE
  5
280
330
1F
100
AcDbEntity
  8
1
  6
Continuous
 62
     7
370
     9
100
AcDbLine
 10
136.043350982116
 20
110.6589513590292
 30
0.0
 11
142.8433509821161
 21
110.6589513590292
 31
0.0
  0
LINE
  5
281
330
1F
100
AcDbEntity
  8
1
  6
Continuous
 62
     7
370
     9
100
AcDbLine
 10
136.043350982116
 20
109.89968857259
 30
0.0
 11
142.8433509821161
 21
109.89968857259
 31
0.0
  0
LINE
  5
282
330
1F
100
AcDbEntity
  8
1
  6
Continuous
 62
     7
370
     9
100
AcDbLine
 10
136.043350982116
 20
115.3996115173568
 30
0.0
 11
135.7433509821161
 21
115.0996115173568
 31
0.0
  0
LINE
  5
283
330
1F
100
AcDbEntity
  8
1
  6
Continuous
 62
     7
370
     9
100
AcDbLine
 10
136.043350982116
 20
115.3547431520252
 30
0.0
 11
136.043350982116
 21
115.2444100881968
 31
0.0
  0
LINE
  5
284
330
1F
100
AcDbEntity
  8
1
  6
Continuous
 62
     7
370
     9
100
AcDbLine
 10
135.7433509821161
 20
115.0736542406881
 30
0.0
 11
136.043350982116
 21
115.3547431520252
 31
0.0
  0
LINE
  5
285
330
1F
100
AcDbEntity
  8
1
  6
Continuous
 62
     7
370
     9
100
AcDbLine
 10
136.043350982116
 20
114.3699080663496
 30
0.0
 11
135.7433509821161
 21
114.1827936936443
 31
0.0
  0
LINE
  5
286
330
1F
100
AcDbEntity
  8
1
  6
Continuous
 62
     7
370
     9
100
AcDbLine
 10
135.7433509821161
 20
114.3990709410676
 30
0.0
 11
136.043350982116
 21
114.7663060560494
 31
0.0
  0
LINE
  5
287
330
1F
100
AcDbEntity
  8
1
  6
Continuous
 62
     7
370
     9
100
AcDbLine
 10
136.043350982116
 20
115.0216572326485
 30
0.0
 11
135.7433509821161
 21
114.7852549397637
 31
0.0
  0
LINE
  5
288
330
1F
100
AcDbEntity
  8
1
  6
Continuous
 62
     7
370
     9
100
AcDbLine
 10
135.7433509821161
 20
114.9067903435536
 30
0.0
 11
136.043350982116
 21
115.2444100881968
 31
0.0
  0
LINE
  5
289
330
1F
100
AcDbEntity
  8
1
  6
Continuous
 62
     7
370
     9
100
AcDbLine
 10
135.7433509821161
 20
114.9067903435536
 30
0.0
 11
135.8975822321265
 21
114.9067903435536
 31
0.0
  0
LINE
  5
28A
330
1F
100
AcDbEntity
  8
1
  6
Continuous
 62
     7
370
     9
100
AcDbLine
 10
136.043350982116
 20
115.0216572326485
 30
0.0
 11
136.043350982116
 21
114.7663060560494
 31
0.0
  0
LINE
  5
28B
330
1F
100
AcDbEntity
  8
1
  6
Continuous
 62
     7
370
     9
100
AcDbLine
 10
135.7433509821161
 20
111.1056938800739
 30
0.0
 11
136.043350982116
 21
111.5172866373254
 31
0.0
  0
LINE
  5
28C
330
1F
100
AcDbEntity
  8
1
  6
Continuous
 62
     7
370
     9
100
AcDbLine
 10
136.043350982116
 20
110.6589513590292
 30
0.0
 11
135.7433509821161
 21
110.6373808424039
 31
0.0
  0
LINE
  5
28D
330
1F
100
AcDbEntity
  8
1
  6
Continuous
 62
     7
370
     9
100
AcDbLine
 10
136.043350982116
 20
110.6589513590292
 30
0.0
 11
136.043350982116
 21
109.89968857259
 31
0.0
  0
LINE
  5
28E
330
1F
100
AcDbEntity
  8
1
  6
Continuous
 62
     7
370
     9
100
AcDbLine
 10
136.043350982116
 20
114.3699080663496
 30
0.0
 11
136.043350982116
 21
111.5172866373254
 31
0.0
  0
LINE
  5
28F
330
1F
100
AcDbEntity
  8
1
  6
Continuous
 62
     7
370
     9
100
AcDbLine
 10
143.143350982116
 20
114.4496115173568
 30
0.0
 11
143.643350982116
 21
114.4496115173568
 31
0.0
  0
LINE
  5
290
330
1F
100
AcDbEntity
  8
1
  6
Continuous
 62
     7
370
     9
100
AcDbLine
 10
142.8433509821161
 20
115.3996115173568
 30
0.0
 11
143.143350982116
 21
115.0996115173568
 31
0.0
  0
LINE
  5
291
330
1F
100
AcDbEntity
  8
1
  6
Continuous
 62
     7
370
     9
100
AcDbLine
 10
142.8433509821161
 20
115.3547431520252
 30
0.0
 11
142.8433509821161
 21
115.2444100881968
 31
0.0
  0
LINE
  5
292
330
1F
100
AcDbEntity
  8
1
  6
Continuous
 62
     7
370
     9
100
AcDbLine
 10
143.143350982116
 20
115.0736542406881
 30
0.0
 11
142.8433509821161
 21
115.3547431520252
 31
0.0
  0
LINE
  5
293
330
1F
100
AcDbEntity
  8
1
  6
Continuous
 62
     7
370
     9
100
AcDbLine
 10
142.8433509821161
 20
114.3699080663496
 30
0.0
 11
143.143350982116
 21
114.1827936936443
 31
0.0
  0
LINE
  5
294
330
1F
100
AcDbEntity
  8
1
  6
Continuous
 62
     7
370
     9
100
AcDbLine
 10
143.143350982116
 20
114.3990709410676
 30
0.0
 11
142.8433509821161
 21
114.7663060560494
 31
0.0
  0
LINE
  5
295
330
1F
100
AcDbEntity
  8
1
  6
Continuous
 62
     7
370
     9
100
AcDbLine
 10
142.8433509821161
 20
115.0216572326485
 30
0.0
 11
143.143350982116
 21
114.7852549397637
 31
0.0
  0
LINE
  5
296
330
1F
100
AcDbEntity
  8
1
  6
Continuous
 62
     7
370
     9
100
AcDbLine
 10
143.143350982116
 20
114.9067903435536
 30
0.0
 11
142.8433509821161
 21
115.2444100881968
 31
0.0
  0
LINE
  5
297
330
1F
100
AcDbEntity
  8
1
  6
Continuous
 62
     7
370
     9
100
AcDbLine
 10
143.143350982116
 20
114.9067903435536
 30
0.0
 11
142.9891197321056
 21
114.9067903435536
 31
0.0
  0
LINE
  5
298
330
1F
100
AcDbEntity
  8
1
  6
Continuous
 62
     7
370
     9
100
AcDbLine
 10
142.8433509821161
 20
115.0216572326485
 30
0.0
 11
142.8433509821161
 21
114.7663060560494
 31
0.0
  0
LINE
  5
299
330
1F
100
AcDbEntity
  8
1
  6
Continuous
 62
     7
370
     9
100
AcDbLine
 10
143.143350982116
 20
111.1056938800738
 30
0.0
 11
142.8433509821161
 21
111.5172866373254
 31
0.0
  0
LINE
  5
29A
330
1F
100
AcDbEntity
  8
1
  6
Continuous
 62
     7
370
     9
100
AcDbLine
 10
142.8433509821161
 20
110.6589513590292
 30
0.0
 11
142.8433509821161
 21
109.89968857259
 31
0.0
  0
LINE
  5
29B
330
1F
100
AcDbEntity
  8
1
  6
Continuous
 62
     7
370
     9
100
AcDbLine
 10
142.8433509821161
 20
110.6589513590292
 30
0.0
 11
143.143350982116
 21
110.6373808424039
 31
0.0
  0
LINE
  5
29C
330
1F
100
AcDbEntity
  8
1
  6
Continuous
 62
     7
370
     9
100
AcDbLine
 10
142.8433509821161
 20
110.6589513590292
 30
0.0
 11
143.143350982116
 21
110.6373808424039
 31
0.0
  0
LINE
  5
29D
330
1F
100
AcDbEntity
  8
1
  6
Continuous
 62
     7
370
     9
100
AcDbLine
 10
142.8433509821161
 20
114.3699080663496
 30
0.0
 11
142.8433509821161
 21
111.5172866373254
 31
0.0
  0
ELLIPSE
  5
29E
330
1F
100
AcDbEntity
  8
1
  6
Continuous
 62
     7
370
     9
100
AcDbEllipse
 10
149.343350982116
 20
80.2032704167483
 30
0.0
 11
1.700000000000003
 21
0.0
 31
0.0
210
0.0
220
0.0
230
1.0
 40
0.5000000000000376
 41
0.0
 42
6.283185307179586
  0
ELLIPSE
  5
29F
330
1F
100
AcDbEntity
  8
1
  6
Continuous
 62
     7
370
     9
100
AcDbEllipse
 10
149.343350982116
 20
83.66737203188603
 30
0.0
 11
2.000000000000014
 21
0.0
 31
0.0
210
0.0
220
0.0
230
1.0
 40
0.5000000000000249
 41
0.0
 42
3.14159265358979
  0
LINE
  5
2A0
330
1F
100
AcDbEntity
  8
1
  6
Continuous
 62
     7
370
     9
100
AcDbLine
 10
93.82198419357314
 20
79.47827028487143
 30
0.0
 11
91.97198419357312
 21
82.68256427887388
 31
0.0
  0
LINE
  5
2A1
330
1F
100
AcDbEntity
  8
1
  6
Continuous
 62
     7
370
     9
100
AcDbLine
 10
94.82323272637072
 20
80.05634139480787
 30
0.0
 11
92.97323272637072
 21
83.26063538881027
 31
0.0
  0
LINE
  5
2A2
330
1F
100
AcDbEntity
  8
1
  6
Continuous
 62
     7
370
     9
100
AcDbLine
 10
94.60987416791659
 20
79.93315877365046
 30
0.0
 11
92.75987416791659
 21
83.13745276765286
 31
0.0
  0
LINE
  5
2A3
330
1F
100
AcDbEntity
  8
1
  6
Continuous
 62
     7
370
     9
100
AcDbLine
 10
94.41438045902518
 20
79.8202904281971
 30
0.0
 11
92.56438045902519
 21
83.02458442219955
 31
0.0
  0
LINE
  5
2A4
330
1F
100
AcDbEntity
  8
1
  6
Continuous
 62
     7
370
     9
100
AcDbLine
 10
94.24055666236927
 20
79.71993321240626
 30
0.0
 11
92.39055666236925
 21
82.92422720640866
 31
0.0
  0
LINE
  5
2A5
330
1F
100
AcDbEntity
  8
1
  6
Continuous
 62
     7
370
     9
100
AcDbLine
 10
94.09178606042914
 20
79.63404046532861
 30
0.0
 11
92.24178606042912
 21
82.83833445933107
 31
0.0
  0
LINE
  5
2A6
330
1F
100
AcDbEntity
  8
1
  6
Continuous
 62
     7
370
     9
100
AcDbLine
 10
93.97096430374748
 20
79.56428399158449
 30
0.0
 11
92.12096430374746
 21
82.76857798558689
 31
0.0
  0
LINE
  5
2A7
330
1F
100
AcDbEntity
  8
1
  6
Continuous
 62
     7
370
     9
100
AcDbLine
 10
93.88044305038537
 20
79.51202152158851
 30
0.0
 11
92.03044305038537
 21
82.7163155155909
 31
0.0
  0
LINE
  5
2A8
330
1F
100
AcDbEntity
  8
1
  6
Continuous
 62
     7
370
     9
100
AcDbLine
 10
95.40977206504691
 20
84.66737203188609
 30
0.0
 11
91.94567044990916
 21
82.66737203188609
 31
0.0
  0
LINE
  5
2A9
330
1F
100
AcDbEntity
  8
1
  6
Continuous
 62
     7
370
     9
100
AcDbLine
 10
91.94567044990916
 20
82.66737203188609
 30
0.0
 11
93.79567044990915
 21
79.46307803788369
 31
0.0
  0
LINE
  5
2AA
330
1F
100
AcDbEntity
  8
1
  6
Continuous
 62
     7
370
     9
100
AcDbLine
 10
92.94159966426125
 20
83.24237203188608
 30
0.0
 11
92.65580913079185
 21
83.7373757561773
 31
0.0
  0
CIRCLE
  5
2AB
330
1F
100
AcDbEntity
  8
1
  6
Continuous
 62
     7
370
     9
100
AcDbCircle
 10
162.2433509821161
 20
98.64961151735685
 30
0.0
 40
1.700000000000045
  0
CIRCLE
  5
2AC
330
1F
100
AcDbEntity
  8
1
  6
Continuous
 62
     7
370
     9
100
AcDbCircle
 10
162.2433509821161
 20
98.64961151735685
 30
0.0
 40
2.000000000000028
  0
LINE
  5
2AD
330
1F
100
AcDbEntity
  8
1
  6
Continuous
 62
     7
370
     9
100
AcDbLine
 10
96.8148858525868
 20
81.20622286336106
 30
0.0
 11
94.9648858525868
 21
84.41051685736346
 31
0.0
  0
LINE
  5
2AE
330
1F
100
AcDbEntity
  8
1
  6
Continuous
 62
     7
370
     9
100
AcDbLine
 10
96.96365645452694
 20
81.29211561043871
 30
0.0
 11
95.11365645452693
 21
84.49640960444111
 31
0.0
  0
LINE
  5
2AF
330
1F
100
AcDbEntity
  8
1
  6
Continuous
 62
     7
370
     9
100
AcDbLine
 10
93.67772125747803
 20
83.66737203188609
 30
0.0
 11
95.52772125747803
 21
80.46307803788369
 31
0.0
  0
LINE
  5
2B0
330
1F
100
AcDbEntity
  8
1
  6
Continuous
 62
     7
370
     9
100
AcDbLine
 10
95.7687761393878
 20
80.60225113884371
 30
0.0
 11
93.91877613938777
 21
83.80654513284617
 31
0.0
  0
LINE
  5
2B1
330
1F
100
AcDbEntity
  8
1
  6
Continuous
 62
     7
370
     9
100
AcDbLine
 10
96.00513916221703
 20
80.73871539370066
 30
0.0
 11
94.15513916221701
 21
83.94300938770306
 31
0.0
  0
LINE
  5
2B2
330
1F
100
AcDbEntity
  8
1
  6
Continuous
 62
     7
370
     9
100
AcDbLine
 10
96.23220978858535
 20
80.86981468095945
 30
0.0
 11
94.38220978858533
 21
84.0741086749619
 31
0.0
  0
LINE
  5
2B3
330
1F
100
AcDbEntity
  8
1
  6
Continuous
 62
     7
370
     9
100
AcDbLine
 10
96.44556834703948
 20
80.99299730211686
 30
0.0
 11
94.59556834703946
 21
84.19729129611932
 31
0.0
  0
LINE
  5
2B4
330
1F
100
AcDbEntity
  8
1
  6
Continuous
 62
     7
370
     9
100
AcDbLine
 10
96.64106205593089
 20
81.10586564757023
 30
0.0
 11
94.79106205593087
 21
84.31015964157262
 31
0.0
  0
LINE
  5
2B5
330
1F
100
AcDbEntity
  8
1
  6
Continuous
 62
     7
370
     9
100
AcDbLine
 10
95.28666637556827
 20
80.32390493692361
 30
0.0
 11
93.43666637556828
 21
83.52819893092601
 31
0.0
  0
LINE
  5
2B6
330
1F
100
AcDbEntity
  8
1
  6
Continuous
 62
     7
370
     9
100
AcDbLine
 10
95.05030335273904
 20
80.18744068206666
 30
0.0
 11
93.20030335273904
 21
83.39173467606906
 31
0.0
  0
LINE
  5
2B7
330
1F
100
AcDbEntity
  8
1
  6
Continuous
 62
     7
370
     9
100
AcDbLine
 10
97.25977206504692
 20
81.46307803788369
 30
0.0
 11
93.79567044990915
 21
79.46307803788369
 31
0.0
  0
LINE
  5
2B8
330
1F
100
AcDbEntity
  8
1
  6
Continuous
 62
     7
370
     9
100
AcDbLine
 10
97.14996444391157
 20
81.05327041674832
 30
0.0
 11
97.25977206504692
 21
81.46307803788369
 31
0.0
  0
LINE
  5
2B9
330
1F
100
AcDbEntity
  8
1
  6
Continuous
 62
     7
370
     9
100
AcDbLine
 10
94.20547807104447
 20
79.35327041674833
 30
0.0
 11
93.79567044990915
 21
79.46307803788369
 31
0.0
  0
LINE
  5
2BA
330
1F
100
AcDbEntity
  8
1
  6
Continuous
 62
     7
370
     9
100
AcDbLine
 10
97.14996444391157
 20
81.05327041674832
 30
0.0
 11
94.20547807104447
 21
79.35327041674833
 31
0.0
  0
LINE
  5
2BB
330
1F
100
AcDbEntity
  8
1
  6
Continuous
 62
     7
370
     9
100
AcDbLine
 10
97.1749994645707
 20
81.41413455417882
 30
0.0
 11
95.32499946457068
 21
84.61842854818121
 31
0.0
  0
LINE
  5
2BC
330
1F
100
AcDbEntity
  8
1
  6
Continuous
 62
     7
370
     9
100
AcDbLine
 10
97.23345832138293
 20
81.4478857908959
 30
0.0
 11
95.38345832138292
 21
84.6521797848983
 31
0.0
  0
LINE
  5
2BD
330
1F
100
AcDbEntity
  8
1
  6
Continuous
 62
     7
370
     9
100
AcDbLine
 10
97.0844782112086
 20
81.36187208418283
 30
0.0
 11
95.2344782112086
 21
84.56616607818523
 31
0.0
  0
LINE
  5
2BE
330
1F
100
AcDbEntity
  8
1
  6
Continuous
 62
     7
370
     9
100
AcDbLine
 10
94.4138428506948
 20
84.0923720318861
 30
0.0
 11
94.12805231722538
 21
84.58737575617732
 31
0.0
  0
LINE
  5
2BF
330
1F
100
AcDbEntity
  8
1
  6
Continuous
 62
     7
370
     9
100
AcDbLine
 10
95.40977206504691
 20
84.66737203188609
 30
0.0
 11
97.25977206504692
 21
81.46307803788369
 31
0.0
  0
LINE
  5
2C0
330
1F
100
AcDbEntity
  8
1
  6
Continuous
 62
     7
370
     9
100
AcDbLine
 10
147.3737354760916
 20
83.84102020955294
 30
0.0
 11
147.3737354760916
 21
80.63672621555065
 31
0.0
  0
LINE
  5
2C1
330
1F
100
AcDbEntity
  8
1
  6
Continuous
 62
     7
370
     9
100
AcDbLine
 10
151.3129664881404
 20
83.84102020955294
 30
0.0
 11
151.3129664881404
 21
80.63672621555065
 31
0.0
  0
LINE
  5
2C2
330
1F
100
AcDbEntity
  8
1
  6
Continuous
 62
     7
370
     9
100
AcDbLine
 10
151.2454640147063
 20
83.97638902626096
 30
0.0
 11
151.2454640147063
 21
80.77209503225856
 31
0.0
  0
LINE
  5
2C3
330
1F
100
AcDbEntity
  8
1
  6
Continuous
 62
     7
370
     9
100
AcDbLine
 10
150.6289262014891
 20
84.43341647500506
 30
0.0
 11
150.6289262014891
 21
81.22912248100266
 31
0.0
  0
LINE
  5
2C4
330
1F
100
AcDbEntity
  8
1
  6
Continuous
 62
     7
370
     9
100
AcDbLine
 10
150.4031895105824
 20
84.51542012804254
 30
0.0
 11
150.4031895105824
 21
81.31112613404014
 31
0.0
  0
LINE
  5
2C5
330
1F
100
AcDbEntity
  8
1
  6
Continuous
 62
     7
370
     9
100
AcDbLine
 10
148.2835124536496
 20
84.51542012804254
 30
0.0
 11
148.2835124536496
 21
81.31112613404014
 31
0.0
  0
LINE
  5
2C6
330
1F
100
AcDbEntity
  8
1
  6
Continuous
 62
     7
370
     9
100
AcDbLine
 10
148.0577757627429
 20
84.43341647500506
 30
0.0
 11
148.0577757627429
 21
81.22912248100266
 31
0.0
  0
LINE
  5
2C7
330
1F
100
AcDbEntity
  8
1
  6
Continuous
 62
     7
370
     9
100
AcDbLine
 10
151.1409390747143
 20
84.10574317867514
 30
0.0
 11
151.1409390747143
 21
80.90144918467269
 31
0.0
  0
LINE
  5
2C8
330
1F
100
AcDbEntity
  8
1
  6
Continuous
 62
     7
370
     9
100
AcDbLine
 10
151.0014261272261
 20
84.22656493535698
 30
0.0
 11
151.0014261272261
 21
81.0222709413544
 31
0.0
  0
LINE
  5
2C9
330
1F
100
AcDbEntity
  8
1
  6
Continuous
 62
     7
370
     9
100
AcDbLine
 10
150.8296406330708
 20
84.33650263824512
 30
0.0
 11
150.8296406330708
 21
81.13220864424255
 31
0.0
  0
LINE
  5
2CA
330
1F
100
AcDbEntity
  8
1
  6
Continuous
 62
     7
370
     9
100
AcDbLine
 10
147.4412379495257
 20
83.97638902626096
 30
0.0
 11
147.4412379495257
 21
80.77209503225856
 31
0.0
  0
LINE
  5
2CB
330
1F
100
AcDbEntity
  8
1
  6
Continuous
 62
     7
370
     9
100
AcDbLine
 10
147.5457628895177
 20
84.10574317867514
 30
0.0
 11
147.5457628895177
 21
80.90144918467269
 31
0.0
  0
LINE
  5
2CC
330
1F
100
AcDbEntity
  8
1
  6
Continuous
 62
     7
370
     9
100
AcDbLine
 10
147.6852758370059
 20
84.22656493535698
 30
0.0
 11
147.6852758370059
 21
81.0222709413544
 31
0.0
  0
LINE
  5
2CD
330
1F
100
AcDbEntity
  8
1
  6
Continuous
 62
     7
370
     9
100
AcDbLine
 10
147.8570613311612
 20
84.33650263824512
 30
0.0
 11
147.8570613311612
 21
81.13220864424255
 31
0.0
  0
LINE
  5
2CE
330
1F
100
AcDbEntity
  8
1
  6
Continuous
 62
     7
370
     9
100
AcDbLine
 10
151.343350982116
 20
83.66737203188603
 30
0.0
 11
151.343350982116
 21
80.46307803788363
 31
0.0
  0
LINE
  5
2CF
330
1F
100
AcDbEntity
  8
1
  6
Continuous
 62
     7
370
     9
100
AcDbLine
 10
147.343350982116
 20
83.66737203188603
 30
0.0
 11
147.343350982116
 21
80.46307803788363
 31
0.0
  0
LINE
  5
2D0
330
1F
100
AcDbEntity
  8
1
  6
Continuous
 62
     7
370
     9
100
AcDbLine
 10
150.1568242682676
 20
84.5809174895287
 30
0.0
 11
150.1568242682676
 21
81.37662349552625
 31
0.0
  0
LINE
  5
2D1
330
1F
100
AcDbEntity
  8
1
  6
Continuous
 62
     7
370
     9
100
AcDbLine
 10
149.89462569375
 20
84.62863372782448
 30
0.0
 11
149.89462569375
 21
81.42433973382197
 31
0.0
  0
LINE
  5
2D2
330
1F
100
AcDbEntity
  8
1
  6
Continuous
 62
     7
370
     9
100
AcDbLine
 10
149.6216971840362
 20
84.65764010062759
 30
0.0
 11
149.6216971840362
 21
81.45334610662519
 31
0.0
  0
LINE
  5
2D3
330
1F
100
AcDbEntity
  8
1
  6
Continuous
 62
     7
370
     9
100
AcDbLine
 10
149.343350982116
 20
81.46307803788358
 30
0.0
 11
149.343350982116
 21
84.66737203188609
 31
0.0
  0
LINE
  5
2D4
330
1F
100
AcDbEntity
  8
1
  6
Continuous
 62
     7
370
     9
100
AcDbLine
 10
148.5298776959644
 20
84.5809174895287
 30
0.0
 11
148.5298776959644
 21
81.37662349552625
 31
0.0
  0
LINE
  5
2D5
330
1F
100
AcDbEntity
  8
1
  6
Continuous
 62
     7
370
     9
100
AcDbLine
 10
148.792076270482
 20
84.62863372782448
 30
0.0
 11
148.792076270482
 21
81.42433973382197
 31
0.0
  0
LINE
  5
2D6
330
1F
100
AcDbEntity
  8
1
  6
Continuous
 62
     7
370
     9
100
AcDbLine
 10
149.0650047801959
 20
84.65764010062759
 30
0.0
 11
149.0650047801959
 21
81.45334610662519
 31
0.0
  0
LINE
  5
2D7
330
1F
100
AcDbEntity
  8
1
  6
Continuous
 62
     7
370
     9
100
AcDbLine
 10
102.327721257478
 20
99.49961151735687
 30
0.0
 11
101.7561401905392
 21
99.49961151735687
 31
0.0
  0
LINE
  5
2D8
330
1F
100
AcDbEntity
  8
1
  6
Continuous
 62
     7
370
     9
100
AcDbLine
 10
102.327721257478
 20
97.79961151735688
 30
0.0
 11
101.7561401905392
 21
97.79961151735688
 31
0.0
  0
LINE
  5
2D9
330
1F
100
AcDbEntity
  8
1
  6
Continuous
 62
     7
370
     9
100
AcDbLine
 10
106.327721257478
 20
100.3496115173569
 30
0.0
 11
106.027721257478
 21
100.6496115173569
 31
0.0
  0
LINE
  5
2DA
330
1F
100
AcDbEntity
  8
1
  6
Continuous
 62
     7
370
     9
100
AcDbLine
 10
106.327721257478
 20
96.94961151735686
 30
0.0
 11
106.027721257478
 21
96.6496115173569
 31
0.0
  0
LINE
  5
2DB
330
1F
100
AcDbEntity
  8
1
  6
Continuous
 62
     7
370
     9
100
AcDbLine
 10
106.027721257478
 20
96.67999601133243
 30
0.0
 11
102.327721257478
 21
96.67999601133243
 31
0.0
  0
LINE
  5
2DC
330
1F
100
AcDbEntity
  8
1
  6
Continuous
 62
     7
370
     9
100
AcDbLine
 10
106.027721257478
 20
100.4471996099552
 30
0.0
 11
102.327721257478
 21
100.4471996099552
 31
0.0
  0
LINE
  5
2DD
330
1F
100
AcDbEntity
  8
1
  6
Continuous
 62
     7
370
     9
100
AcDbLine
 10
106.027721257478
 20
100.5517245499472
 30
0.0
 11
102.327721257478
 21
100.5517245499472
 31
0.0
  0
LINE
  5
2DE
330
1F
100
AcDbEntity
  8
1
  6
Continuous
 62
     7
370
     9
100
AcDbLine
 10
106.027721257478
 20
100.6192270233813
 30
0.0
 11
102.327721257478
 21
100.6192270233813
 31
0.0
  0
LINE
  5
2DF
330
1F
100
AcDbEntity
  8
1
  6
Continuous
 62
     7
370
     9
100
AcDbLine
 10
102.327721257478
 20
98.64961151735685
 30
0.0
 11
106.027721257478
 21
98.6496115173569
 31
0.0
  0
LINE
  5
2E0
330
1F
100
AcDbEntity
  8
1
  6
Continuous
 62
     7
370
     9
100
AcDbLine
 10
106.027721257478
 20
98.927957719277
 30
0.0
 11
102.327721257478
 21
98.927957719277
 31
0.0
  0
LINE
  5
2E1
330
1F
100
AcDbEntity
  8
1
  6
Continuous
 62
     7
370
     9
100
AcDbLine
 10
106.027721257478
 20
99.2008862289909
 30
0.0
 11
102.327721257478
 21
99.2008862289909
 31
0.0
  0
LINE
  5
2E2
330
1F
100
AcDbEntity
  8
1
  6
Continuous
 62
     7
370
     9
100
AcDbLine
 10
106.027721257478
 20
99.46308480350848
 30
0.0
 11
102.327721257478
 21
99.46308480350848
 31
0.0
  0
LINE
  5
2E3
330
1F
100
AcDbEntity
  8
1
  6
Continuous
 62
     7
370
     9
100
AcDbLine
 10
106.027721257478
 20
99.7094500458233
 30
0.0
 11
102.327721257478
 21
99.7094500458233
 31
0.0
  0
LINE
  5
2E4
330
1F
100
AcDbEntity
  8
1
  6
Continuous
 62
     7
370
     9
100
AcDbLine
 10
106.027721257478
 20
99.93518673672997
 30
0.0
 11
102.327721257478
 21
99.93518673672997
 31
0.0
  0
LINE
  5
2E5
330
1F
100
AcDbEntity
  8
1
  6
Continuous
 62
     7
370
     9
100
AcDbLine
 10
106.027721257478
 20
100.1359011683117
 30
0.0
 11
102.327721257478
 21
100.1359011683117
 31
0.0
  0
LINE
  5
2E6
330
1F
100
AcDbEntity
  8
1
  6
Continuous
 62
     7
370
     9
100
AcDbLine
 10
106.027721257478
 20
100.3076866624669
 30
0.0
 11
102.327721257478
 21
100.3076866624669
 31
0.0
  0
LINE
  5
2E7
330
1F
100
AcDbEntity
  8
1
  6
Continuous
 62
     7
370
     9
100
AcDbLine
 10
106.027721257478
 20
98.37126531543674
 30
0.0
 11
102.327721257478
 21
98.37126531543674
 31
0.0
  0
LINE
  5
2E8
330
1F
100
AcDbEntity
  8
1
  6
Continuous
 62
     7
370
     9
100
AcDbLine
 10
106.027721257478
 20
98.09833680572285
 30
0.0
 11
102.327721257478
 21
98.09833680572285
 31
0.0
  0
LINE
  5
2E9
330
1F
100
AcDbEntity
  8
1
  6
Continuous
 62
     7
370
     9
100
AcDbLine
 10
106.027721257478
 20
97.83613823120527
 30
0.0
 11
102.327721257478
 21
97.83613823120527
 31
0.0
  0
LINE
  5
2EA
330
1F
100
AcDbEntity
  8
1
  6
Continuous
 62
     7
370
     9
100
AcDbLine
 10
106.027721257478
 20
97.58977298889045
 30
0.0
 11
102.327721257478
 21
97.58977298889045
 31
0.0
  0
LINE
  5
2EB
330
1F
100
AcDbEntity
  8
1
  6
Continuous
 62
     7
370
     9
100
AcDbLine
 10
106.027721257478
 20
97.36403629798377
 30
0.0
 11
102.327721257478
 21
97.36403629798377
 31
0.0
  0
LINE
  5
2EC
330
1F
100
AcDbEntity
  8
1
  6
Continuous
 62
     7
370
     9
100
AcDbLine
 10
106.027721257478
 20
97.1633218664021
 30
0.0
 11
102.327721257478
 21
97.1633218664021
 31
0.0
  0
LINE
  5
2ED
330
1F
100
AcDbEntity
  8
1
  6
Continuous
 62
     7
370
     9
100
AcDbLine
 10
106.027721257478
 20
96.9915363722468
 30
0.0
 11
102.327721257478
 21
96.9915363722468
 31
0.0
  0
LINE
  5
2EE
330
1F
100
AcDbEntity
  8
1
  6
Continuous
 62
     7
370
     9
100
AcDbLine
 10
106.027721257478
 20
96.85202342475856
 30
0.0
 11
102.327721257478
 21
96.85202342475856
 31
0.0
  0
LINE
  5
2EF
330
1F
100
AcDbEntity
  8
1
  6
Continuous
 62
     7
370
     9
100
AcDbLine
 10
106.027721257478
 20
96.7474984847666
 30
0.0
 11
102.327721257478
 21
96.7474984847666
 31
0.0
  0
LINE
  5
2F0
330
1F
100
AcDbEntity
  8
1
  6
Continuous
 62
     7
370
     9
100
AcDbLine
 10
106.027721257478
 20
100.6496115173569
 30
0.0
 11
106.027721257478
 21
96.6496115173569
 31
0.0
  0
LINE
  5
2F1
330
1F
100
AcDbEntity
  8
1
  6
Continuous
 62
     7
370
     9
100
AcDbLine
 10
102.327721257478
 20
100.6496115173568
 30
0.0
 11
102.327721257478
 21
96.64961151735685
 31
0.0
  0
LINE
  5
2F2
330
1F
100
AcDbEntity
  8
1
  6
Continuous
 62
     7
370
     9
100
AcDbLine
 10
102.327721257478
 20
96.64961151735685
 30
0.0
 11
106.027721257478
 21
96.6496115173569
 31
0.0
  0
LINE
  5
2F3
330
1F
100
AcDbEntity
  8
1
  6
Continuous
 62
     7
370
     9
100
AcDbLine
 10
102.327721257478
 20
100.6496115173568
 30
0.0
 11
106.027721257478
 21
100.6496115173569
 31
0.0
  0
LINE
  5
2F4
330
1F
100
AcDbEntity
  8
1
  6
Continuous
 62
     7
370
     9
100
AcDbLine
 10
106.327721257478
 20
100.3496115173569
 30
0.0
 11
106.327721257478
 21
96.94961151735686
 31
0.0
  0
LINE
  5
2F5
330
1F
100
AcDbEntity
  8
1
  6
Continuous
 62
     7
370
     9
100
AcDbLine
 10
168.943350982116
 20
86.44961151735686
 30
0.0
 11
171.743350982116
 21
86.44961151735686
 31
0.0
  0
LINE
  5
2F6
330
1F
100
AcDbEntity
  8
1
  6
Continuous
 62
     7
370
     9
100
AcDbLine
 10
164.1433509821161
 20
81.8996115173569
 30
0.0
 11
155.443350982116
 21
81.89961151735685
 31
0.0
  0
LINE
  5
2F7
330
1F
100
AcDbEntity
  8
1
  6
Continuous
 62
     7
370
     9
100
AcDbLine
 10
164.143350982116
 20
115.3996115173568
 30
0.0
 11
155.443350982116
 21
115.3996115173568
 31
0.0
  0
LINE
  5
2F8
330
1F
100
AcDbEntity
  8
1
  6
Continuous
 62
     7
370
     9
100
AcDbLine
 10
155.443350982116
 20
112.8241779988687
 30
0.0
 11
164.143350982116
 21
112.8241779988687
 31
0.0
  0
LINE
  5
2F9
330
1F
100
AcDbEntity
  8
1
  6
Continuous
 62
     7
370
     9
100
AcDbLine
 10
164.143350982116
 20
113.4656154669947
 30
0.0
 11
155.443350982116
 21
113.4656154669947
 31
0.0
  0
LINE
  5
2FA
330
1F
100
AcDbEntity
  8
1
  6
Continuous
 62
     7
370
     9
100
AcDbLine
 10
164.143350982116
 20
113.9282626641145
 30
0.0
 11
155.443350982116
 21
113.9282626641145
 31
0.0
  0
LINE
  5
2FB
330
1F
100
AcDbEntity
  8
1
  6
Continuous
 62
     7
370
     9
100
AcDbLine
 10
164.143350982116
 20
115.2285857402875
 30
0.0
 11
155.443350982116
 21
115.2285857402875
 31
0.0
  0
LINE
  5
2FC
330
1F
100
AcDbEntity
  8
1
  6
Continuous
 62
     7
370
     9
100
AcDbLine
 10
164.143350982116
 20
115.3626826859386
 30
0.0
 11
155.443350982116
 21
115.3626826859386
 31
0.0
  0
LINE
  5
2FD
330
1F
100
AcDbEntity
  8
1
  6
Continuous
 62
     7
370
     9
100
AcDbLine
 10
164.143350982116
 20
114.4088360737626
 30
0.0
 11
155.443350982116
 21
114.4088360737626
 31
0.0
  0
LINE
  5
2FE
330
1F
100
AcDbEntity
  8
1
  6
Continuous
 62
     7
370
     9
100
AcDbLine
 10
164.143350982116
 20
115.0453213003922
 30
0.0
 11
155.443350982116
 21
115.0453213003922
 31
0.0
  0
LINE
  5
2FF
330
1F
100
AcDbEntity
  8
1
  6
Continuous
 62
     7
370
     9
100
AcDbLine
 10
164.143350982116
 20
114.7349657639969
 30
0.0
 11
155.443350982116
 21
114.7349657639969
 31
0.0
  0
LINE
  5
300
330
1F
100
AcDbEntity
  8
1
  6
Continuous
 62
     7
370
     9
100
AcDbLine
 10
164.443350982116
 20
114.0294455615718
 30
0.0
 11
155.143350982116
 21
114.0294455615718
 31
0.0
  0
LINE
  5
301
330
1F
100
AcDbEntity
  8
1
  6
Continuous
 62
     7
370
     9
100
AcDbLine
 10
164.443350982116
 20
113.0675044819199
 30
0.0
 11
155.143350982116
 21
113.0675044819199
 31
0.0
  0
LINE
  5
302
330
1F
100
AcDbEntity
  8
1
  6
Continuous
 62
     7
370
     9
100
AcDbLine
 10
164.143350982116
 20
112.2340181963019
 30
0.0
 11
155.443350982116
 21
112.2340181963019
 31
0.0
  0
LINE
  5
303
330
1F
100
AcDbEntity
  8
1
  6
Continuous
 62
     7
370
     9
100
AcDbLine
 10
164.443350982116
 20
111.824935515823
 30
0.0
 11
155.143350982116
 21
111.824935515823
 31
0.0
  0
LINE
  5
304
330
1F
100
AcDbEntity
  8
1
  6
Continuous
 62
     7
370
     9
100
AcDbLine
 10
164.143350982116
 20
111.4442015203905
 30
0.0
 11
155.443350982116
 21
111.4442015203905
 31
0.0
  0
LINE
  5
305
330
1F
100
AcDbEntity
  8
1
  6
Continuous
 62
     7
370
     9
100
AcDbLine
 10
164.143350982116
 20
110.738015901637
 30
0.0
 11
155.443350982116
 21
110.738015901637
 31
0.0
  0
LINE
  5
306
330
1F
100
AcDbEntity
  8
1
  6
Continuous
 62
     7
370
     9
100
AcDbLine
 10
164.443350982116
 20
110.3259238548048
 30
0.0
 11
155.143350982116
 21
110.3259238548048
 31
0.0
  0
LINE
  5
307
330
1F
100
AcDbEntity
  8
1
  6
Continuous
 62
     7
370
     9
100
AcDbLine
 10
155.443350982116
 20
94.5422246530768
 30
0.0
 11
164.143350982116
 21
94.5422246530768
 31
0.0
  0
LINE
  5
308
330
1F
100
AcDbEntity
  8
1
  6
Continuous
 62
     7
370
     9
100
AcDbLine
 10
164.443350982116
 20
94.88788677005402
 30
0.0
 11
155.143350982116
 21
94.88788677005397
 31
0.0
  0
LINE
  5
309
330
1F
100
AcDbEntity
  8
1
  6
Continuous
 62
     7
370
     9
100
AcDbLine
 10
164.143350982116
 20
93.52773035393801
 30
0.0
 11
155.443350982116
 21
93.52773035393795
 31
0.0
  0
LINE
  5
30A
330
1F
100
AcDbEntity
  8
1
  6
Continuous
 62
     7
370
     9
100
AcDbLine
 10
164.443350982116
 20
95.57259009056764
 30
0.0
 11
155.143350982116
 21
95.57259009056764
 31
0.0
  0
LINE
  5
30B
330
1F
100
AcDbEntity
  8
1
  6
Continuous
 62
     7
370
     9
100
AcDbLine
 10
155.443350982116
 20
95.79706569401333
 30
0.0
 11
164.143350982116
 21
95.79706569401338
 31
0.0
  0
LINE
  5
30C
330
1F
100
AcDbEntity
  8
1
  6
Continuous
 62
     7
370
     9
100
AcDbLine
 10
155.143350982116
 20
109.8151929011339
 30
0.0
 11
164.443350982116
 21
109.8151929011339
 31
0.0
  0
LINE
  5
30D
330
1F
100
AcDbEntity
  8
1
  6
Continuous
 62
     7
370
     9
100
AcDbLine
 10
155.143350982116
 20
104.6034616689255
 30
0.0
 11
164.443350982116
 21
104.6034616689255
 31
0.0
  0
LINE
  5
30E
330
1F
100
AcDbEntity
  8
1
  6
Continuous
 62
     7
370
     9
100
AcDbLine
 10
164.143350982116
 20
104.9770007917631
 30
0.0
 11
155.443350982116
 21
104.9770007917631
 31
0.0
  0
LINE
  5
30F
330
1F
100
AcDbEntity
  8
1
  6
Continuous
 62
     7
370
     9
100
AcDbLine
 10
155.443350982116
 20
105.9411364300586
 30
0.0
 11
164.143350982116
 21
105.9411364300586
 31
0.0
  0
LINE
  5
310
330
1F
100
AcDbEntity
  8
1
  6
Continuous
 62
     7
370
     9
100
AcDbLine
 10
164.443350982116
 20
106.061638837394
 30
0.0
 11
155.143350982116
 21
106.061638837394
 31
0.0
  0
LINE
  5
311
330
1F
100
AcDbEntity
  8
1
  6
Continuous
 62
     7
370
     9
100
AcDbLine
 10
155.143350982116
 20
106.6797021523952
 30
0.0
 11
164.443350982116
 21
106.6797021523952
 31
0.0
  0
LINE
  5
312
330
1F
100
AcDbEntity
  8
1
  6
Continuous
 62
     7
370
     9
100
AcDbLine
 10
164.143350982116
 20
107.0738477669615
 30
0.0
 11
155.443350982116
 21
107.0738477669615
 31
0.0
  0
LINE
  5
313
330
1F
100
AcDbEntity
  8
1
  6
Continuous
 62
     7
370
     9
100
AcDbLine
 10
155.443350982116
 20
107.9688589409025
 30
0.0
 11
164.143350982116
 21
107.9688589409025
 31
0.0
  0
LINE
  5
314
330
1F
100
AcDbEntity
  8
1
  6
Continuous
 62
     7
370
     9
100
AcDbLine
 10
164.443350982116
 20
108.0333341596842
 30
0.0
 11
155.143350982116
 21
108.0333341596842
 31
0.0
  0
LINE
  5
315
330
1F
100
AcDbEntity
  8
1
  6
Continuous
 62
     7
370
     9
100
AcDbLine
 10
164.443350982116
 20
108.5996460557466
 30
0.0
 11
155.143350982116
 21
108.5996460557466
 31
0.0
  0
LINE
  5
316
330
1F
100
AcDbEntity
  8
1
  6
Continuous
 62
     7
370
     9
100
AcDbLine
 10
155.443350982116
 20
109.0067265659882
 30
0.0
 11
164.143350982116
 21
109.0067265659882
 31
0.0
  0
LINE
  5
317
330
1F
100
AcDbEntity
  8
1
  6
Continuous
 62
     7
370
     9
100
AcDbLine
 10
155.443350982116
 20
102.7569983816369
 30
0.0
 11
164.143350982116
 21
102.7569983816369
 31
0.0
  0
LINE
  5
318
330
1F
100
AcDbEntity
  8
1
  6
Continuous
 62
     7
370
     9
100
AcDbLine
 10
164.443350982116
 20
102.4113362646597
 30
0.0
 11
155.143350982116
 21
102.4113362646597
 31
0.0
  0
LINE
  5
319
330
1F
100
AcDbEntity
  8
1
  6
Continuous
 62
     7
370
     9
100
AcDbLine
 10
155.143350982116
 20
103.9456768343754
 30
0.0
 11
164.443350982116
 21
103.9456768343754
 31
0.0
  0
LINE
  5
31A
330
1F
100
AcDbEntity
  8
1
  6
Continuous
 62
     7
370
     9
100
AcDbLine
 10
164.143350982116
 20
103.7714926807757
 30
0.0
 11
155.443350982116
 21
103.7714926807757
 31
0.0
  0
LINE
  5
31B
330
1F
100
AcDbEntity
  8
1
  6
Continuous
 62
     7
370
     9
100
AcDbLine
 10
164.443350982116
 20
101.726632944146
 30
0.0
 11
155.143350982116
 21
101.726632944146
 31
0.0
  0
LINE
  5
31C
330
1F
100
AcDbEntity
  8
1
  6
Continuous
 62
     7
370
     9
100
AcDbLine
 10
155.443350982116
 20
101.5021573407003
 30
0.0
 11
164.143350982116
 21
101.5021573407004
 31
0.0
  0
LINE
  5
31D
330
1F
100
AcDbEntity
  8
1
  6
Continuous
 62
     7
370
     9
100
AcDbLine
 10
155.143350982116
 20
87.48403013357984
 30
0.0
 11
164.443350982116
 21
87.48403013357984
 31
0.0
  0
LINE
  5
31E
330
1F
100
AcDbEntity
  8
1
  6
Continuous
 62
     7
370
     9
100
AcDbLine
 10
155.443350982116
 20
84.47504503584503
 30
0.0
 11
164.1433509821161
 21
84.47504503584503
 31
0.0
  0
LINE
  5
31F
330
1F
100
AcDbEntity
  8
1
  6
Continuous
 62
     7
370
     9
100
AcDbLine
 10
164.1433509821161
 20
83.83360756771896
 30
0.0
 11
155.443350982116
 21
83.83360756771896
 31
0.0
  0
LINE
  5
320
330
1F
100
AcDbEntity
  8
1
  6
Continuous
 62
     7
370
     9
100
AcDbLine
 10
164.1433509821161
 20
83.37096037059922
 30
0.0
 11
155.443350982116
 21
83.37096037059916
 31
0.0
  0
LINE
  5
321
330
1F
100
AcDbEntity
  8
1
  6
Continuous
 62
     7
370
     9
100
AcDbLine
 10
164.1433509821161
 20
82.07063729442615
 30
0.0
 11
155.443350982116
 21
82.07063729442615
 31
0.0
  0
LINE
  5
322
330
1F
100
AcDbEntity
  8
1
  6
Continuous
 62
     7
370
     9
100
AcDbLine
 10
164.1433509821161
 20
81.93654034877511
 30
0.0
 11
155.443350982116
 21
81.93654034877511
 31
0.0
  0
LINE
  5
323
330
1F
100
AcDbEntity
  8
1
  6
Continuous
 62
     7
370
     9
100
AcDbLine
 10
164.1433509821161
 20
82.89038696095116
 30
0.0
 11
155.443350982116
 21
82.8903869609511
 31
0.0
  0
LINE
  5
324
330
1F
100
AcDbEntity
  8
1
  6
Continuous
 62
     7
370
     9
100
AcDbLine
 10
164.1433509821161
 20
82.25390173432146
 30
0.0
 11
155.443350982116
 21
82.25390173432146
 31
0.0
  0
LINE
  5
325
330
1F
100
AcDbEntity
  8
1
  6
Continuous
 62
     7
370
     9
100
AcDbLine
 10
164.1433509821161
 20
82.5642572707169
 30
0.0
 11
155.443350982116
 21
82.56425727071684
 31
0.0
  0
LINE
  5
326
330
1F
100
AcDbEntity
  8
1
  6
Continuous
 62
     7
370
     9
100
AcDbLine
 10
164.443350982116
 20
83.26977747314191
 30
0.0
 11
155.1433509821161
 21
83.26977747314186
 31
0.0
  0
LINE
  5
327
330
1F
100
AcDbEntity
  8
1
  6
Continuous
 62
     7
370
     9
100
AcDbLine
 10
164.443350982116
 20
84.23171855279384
 30
0.0
 11
155.1433509821161
 21
84.23171855279378
 31
0.0
  0
LINE
  5
328
330
1F
100
AcDbEntity
  8
1
  6
Continuous
 62
     7
370
     9
100
AcDbLine
 10
164.1433509821161
 20
85.06520483841183
 30
0.0
 11
155.443350982116
 21
85.06520483841183
 31
0.0
  0
LINE
  5
329
330
1F
100
AcDbEntity
  8
1
  6
Continuous
 62
     7
370
     9
100
AcDbLine
 10
164.443350982116
 20
85.47428751889078
 30
0.0
 11
155.1433509821161
 21
85.47428751889072
 31
0.0
  0
LINE
  5
32A
330
1F
100
AcDbEntity
  8
1
  6
Continuous
 62
     7
370
     9
100
AcDbLine
 10
164.1433509821161
 20
85.85502151432314
 30
0.0
 11
155.443350982116
 21
85.85502151432308
 31
0.0
  0
LINE
  5
32B
330
1F
100
AcDbEntity
  8
1
  6
Continuous
 62
     7
370
     9
100
AcDbLine
 10
164.1433509821161
 20
86.56120713307678
 30
0.0
 11
155.443350982116
 21
86.56120713307672
 31
0.0
  0
LINE
  5
32C
330
1F
100
AcDbEntity
  8
1
  6
Continuous
 62
     7
370
     9
100
AcDbLine
 10
164.443350982116
 20
86.97329917990896
 30
0.0
 11
155.1433509821161
 21
86.9732991799089
 31
0.0
  0
LINE
  5
32D
330
1F
100
AcDbEntity
  8
1
  6
Continuous
 62
     7
370
     9
100
AcDbLine
 10
155.143350982116
 20
92.69576136578814
 30
0.0
 11
164.443350982116
 21
92.6957613657882
 31
0.0
  0
LINE
  5
32E
330
1F
100
AcDbEntity
  8
1
  6
Continuous
 62
     7
370
     9
100
AcDbLine
 10
164.143350982116
 20
92.32222224295066
 30
0.0
 11
155.443350982116
 21
92.3222222429506
 31
0.0
  0
LINE
  5
32F
330
1F
100
AcDbEntity
  8
1
  6
Continuous
 62
     7
370
     9
100
AcDbLine
 10
155.443350982116
 20
91.35808660465506
 30
0.0
 11
164.143350982116
 21
91.35808660465506
 31
0.0
  0
LINE
  5
330
330
1F
100
AcDbEntity
  8
1
  6
Continuous
 62
     7
370
     9
100
AcDbLine
 10
164.443350982116
 20
91.23758419731973
 30
0.0
 11
155.143350982116
 21
91.23758419731973
 31
0.0
  0
LINE
  5
331
330
1F
100
AcDbEntity
  8
1
  6
Continuous
 62
     7
370
     9
100
AcDbLine
 10
155.143350982116
 20
90.61952088231845
 30
0.0
 11
164.443350982116
 21
90.61952088231851
 31
0.0
  0
LINE
  5
332
330
1F
100
AcDbEntity
  8
1
  6
Continuous
 62
     7
370
     9
100
AcDbLine
 10
164.1433509821161
 20
90.22537526775216
 30
0.0
 11
155.443350982116
 21
90.22537526775216
 31
0.0
  0
LINE
  5
333
330
1F
100
AcDbEntity
  8
1
  6
Continuous
 62
     7
370
     9
100
AcDbLine
 10
155.443350982116
 20
89.33036409381117
 30
0.0
 11
164.1433509821161
 21
89.33036409381123
 31
0.0
  0
LINE
  5
334
330
1F
100
AcDbEntity
  8
1
  6
Continuous
 62
     7
370
     9
100
AcDbLine
 10
164.443350982116
 20
89.26588887502953
 30
0.0
 11
155.1433509821161
 21
89.26588887502953
 31
0.0
  0
LINE
  5
335
330
1F
100
AcDbEntity
  8
1
  6
Continuous
 62
     7
370
     9
100
AcDbLine
 10
164.443350982116
 20
88.69957697896712
 30
0.0
 11
155.1433509821161
 21
88.69957697896712
 31
0.0
  0
LINE
  5
336
330
1F
100
AcDbEntity
  8
1
  6
Continuous
 62
     7
370
     9
100
AcDbLine
 10
155.443350982116
 20
88.29249646872552
 30
0.0
 11
164.1433509821161
 21
88.29249646872557
 31
0.0
  0
LINE
  5
337
330
1F
100
AcDbEntity
  8
1
  6
Continuous
 62
     7
370
     9
100
AcDbLine
 10
155.143350982116
 20
93.35354620033831
 30
0.0
 11
164.443350982116
 21
93.35354620033831
 31
0.0
  0
LINE
  5
338
330
1F
100
AcDbEntity
  8
1
  6
Continuous
 62
     7
370
     9
100
AcDbLine
 10
155.143350982116
 20
82.19961151735686
 30
0.0
 11
155.143350982116
 21
98.64961151735685
 31
0.0
  0
CIRCLE
  5
339
330
1F
100
AcDbEntity
  8
1
  6
Continuous
 62
     7
370
     9
100
AcDbCircle
 10
152.3433509821162
 20
93.22961151735683
 30
0.0
 40
0.25
  0
LINE
  5
33A
330
1F
100
AcDbEntity
  8
1
  6
Continuous
 62
     7
370
     9
100
AcDbLine
 10
155.443350982116
 20
88.29249646872552
 30
0.0
 11
155.143350982116
 21
88.69957697896712
 31
0.0
  0
LINE
  5
33B
330
1F
100
AcDbEntity
  8
1
  6
Continuous
 62
     7
370
     9
100
AcDbLine
 10
155.443350982116
 20
81.89961151735685
 30
0.0
 11
155.143350982116
 21
82.19961151735686
 31
0.0
  0
LINE
  5
33C
330
1F
100
AcDbEntity
  8
1
  6
Continuous
 62
     7
370
     9
100
AcDbLine
 10
155.443350982116
 20
87.48403013357984
 30
0.0
 11
155.443350982116
 21
88.29249646872552
 31
0.0
  0
LINE
  5
33D
330
1F
100
AcDbEntity
  8
1
  6
Continuous
 62
     7
370
     9
100
AcDbLine
 10
155.443350982116
 20
85.85502151432308
 30
0.0
 11
155.443350982116
 21
86.56120713307672
 31
0.0
  0
LINE
  5
33E
330
1F
100
AcDbEntity
  8
1
  6
Continuous
 62
     7
370
     9
100
AcDbLine
 10
155.443350982116
 20
86.56120713307672
 30
0.0
 11
155.143350982116
 21
86.9732991799089
 31
0.0
  0
LINE
  5
33F
330
1F
100
AcDbEntity
  8
1
  6
Continuous
 62
     7
370
     9
100
AcDbLine
 10
155.443350982116
 20
85.85502151432308
 30
0.0
 11
155.1433509821161
 21
85.90525055161868
 31
0.0
  0
LINE
  5
340
330
1F
100
AcDbEntity
  8
1
  6
Continuous
 62
     7
370
     9
100
AcDbLine
 10
155.443350982116
 20
84.47504503584503
 30
0.0
 11
155.443350982116
 21
85.06520483841183
 31
0.0
  0
LINE
  5
341
330
1F
100
AcDbEntity
  8
1
  6
Continuous
 62
     7
370
     9
100
AcDbLine
 10
155.443350982116
 20
83.37096037059916
 30
0.0
 11
155.443350982116
 21
83.83360756771896
 31
0.0
  0
LINE
  5
342
330
1F
100
AcDbEntity
  8
1
  6
Continuous
 62
     7
370
     9
100
AcDbLine
 10
155.443350982116
 20
83.37096037059916
 30
0.0
 11
155.143350982116
 21
83.53200208853303
 31
0.0
  0
LINE
  5
343
330
1F
100
AcDbEntity
  8
1
  6
Continuous
 62
     7
370
     9
100
AcDbLine
 10
155.143350982116
 20
84.23171855279378
 30
0.0
 11
155.443350982116
 21
83.83360756771896
 31
0.0
  0
LINE
  5
344
330
1F
100
AcDbEntity
  8
1
  6
Continuous
 62
     7
370
     9
100
AcDbLine
 10
155.443350982116
 20
84.47504503584503
 30
0.0
 11
155.143350982116
 21
84.5817185527938
 31
0.0
  0
LINE
  5
345
330
1F
100
AcDbEntity
  8
1
  6
Continuous
 62
     7
370
     9
100
AcDbLine
 10
155.443350982116
 20
82.07063729442615
 30
0.0
 11
155.443350982116
 21
82.25390173432146
 31
0.0
  0
LINE
  5
346
330
1F
100
AcDbEntity
  8
1
  6
Continuous
 62
     7
370
     9
100
AcDbLine
 10
155.443350982116
 20
81.89961151735685
 30
0.0
 11
155.443350982116
 21
81.93654034877511
 31
0.0
  0
LINE
  5
347
330
1F
100
AcDbEntity
  8
1
  6
Continuous
 62
     7
370
     9
100
AcDbLine
 10
155.443350982116
 20
82.56425727071684
 30
0.0
 11
155.443350982116
 21
82.8903869609511
 31
0.0
  0
LINE
  5
348
330
1F
100
AcDbEntity
  8
1
  6
Continuous
 62
     7
370
     9
100
AcDbLine
 10
155.443350982116
 20
81.93654034877511
 30
0.0
 11
155.143350982116
 21
82.19961151735686
 31
0.0
  0
LINE
  5
349
330
1F
100
AcDbEntity
  8
1
  6
Continuous
 62
     7
370
     9
100
AcDbLine
 10
155.443350982116
 20
82.25390173432146
 30
0.0
 11
155.143350982116
 21
82.60718736885866
 31
0.0
  0
LINE
  5
34A
330
1F
100
AcDbEntity
  8
1
  6
Continuous
 62
     7
370
     9
100
AcDbLine
 10
155.443350982116
 20
82.07063729442615
 30
0.0
 11
155.143350982116
 21
82.33001472692638
 31
0.0
  0
LINE
  5
34B
330
1F
100
AcDbEntity
  8
1
  6
Continuous
 62
     7
370
     9
100
AcDbLine
 10
155.143350982116
 20
82.77653269577843
 30
0.0
 11
155.443350982116
 21
82.56425727071684
 31
0.0
  0
LINE
  5
34C
330
1F
100
AcDbEntity
  8
1
  6
Continuous
 62
     7
370
     9
100
AcDbLine
 10
155.143350982116
 20
83.26977747314186
 30
0.0
 11
155.443350982116
 21
82.8903869609511
 31
0.0
  0
LINE
  5
34D
330
1F
100
AcDbEntity
  8
1
  6
Continuous
 62
     7
370
     9
100
AcDbLine
 10
155.443350982116
 20
85.06520483841183
 30
0.0
 11
155.143350982116
 21
85.47428751889072
 31
0.0
  0
LINE
  5
34E
330
1F
100
AcDbEntity
  8
1
  6
Continuous
 62
     7
370
     9
100
AcDbLine
 10
155.443350982116
 20
93.52773035393795
 30
0.0
 11
155.443350982116
 21
94.5422246530768
 31
0.0
  0
LINE
  5
34F
330
1F
100
AcDbEntity
  8
1
  6
Continuous
 62
     7
370
     9
100
AcDbLine
 10
155.143350982116
 20
94.88788677005397
 30
0.0
 11
155.443350982116
 21
94.5422246530768
 31
0.0
  0
LINE
  5
350
330
1F
100
AcDbEntity
  8
1
  6
Continuous
 62
     7
370
     9
100
AcDbLine
 10
155.143350982116
 20
92.69576136578814
 30
0.0
 11
155.443350982116
 21
92.3222222429506
 31
0.0
  0
LINE
  5
351
330
1F
100
AcDbEntity
  8
1
  6
Continuous
 62
     7
370
     9
100
AcDbLine
 10
155.443350982116
 20
91.35808660465506
 30
0.0
 11
155.143350982116
 21
91.23758419731973
 31
0.0
  0
LINE
  5
352
330
1F
100
AcDbEntity
  8
1
  6
Continuous
 62
     7
370
     9
100
AcDbLine
 10
155.443350982116
 20
90.22537526775216
 30
0.0
 11
155.143350982116
 21
90.61952088231845
 31
0.0
  0
LINE
  5
353
330
1F
100
AcDbEntity
  8
1
  6
Continuous
 62
     7
370
     9
100
AcDbLine
 10
155.443350982116
 20
91.35808660465506
 30
0.0
 11
155.443350982116
 21
92.3222222429506
 31
0.0
  0
LINE
  5
354
330
1F
100
AcDbEntity
  8
1
  6
Continuous
 62
     7
370
     9
100
AcDbLine
 10
155.443350982116
 20
89.33036409381117
 30
0.0
 11
155.143350982116
 21
89.26588887502953
 31
0.0
  0
LINE
  5
355
330
1F
100
AcDbEntity
  8
1
  6
Continuous
 62
     7
370
     9
100
AcDbLine
 10
155.443350982116
 20
89.33036409381117
 30
0.0
 11
155.443350982116
 21
90.22537526775216
 31
0.0
  0
LINE
  5
356
330
1F
100
AcDbEntity
  8
1
  6
Continuous
 62
     7
370
     9
100
AcDbLine
 10
155.443350982116
 20
93.52773035393795
 30
0.0
 11
155.143350982116
 21
93.35354620033831
 31
0.0
  0
LINE
  5
357
330
1F
100
AcDbEntity
  8
1
  6
Continuous
 62
     7
370
     9
100
AcDbLine
 10
146.7933509821162
 20
108.2646115173569
 30
0.0
 11
145.5933509821162
 21
108.2646115173569
 31
0.0
  0
LINE
  5
358
330
1F
100
AcDbEntity
  8
1
  6
Continuous
 62
     7
370
     9
100
AcDbLine
 10
146.7933509821162
 20
107.5146115173569
 30
0.0
 11
145.5933509821162
 21
107.5146115173569
 31
0.0
  0
ARC
  5
359
330
1F
100
AcDbEntity
  8
1
  6
Continuous
 62
     7
370
     9
100
AcDbCircle
 10
145.5933509821162
 20
108.1146115173568
 30
0.0
 40
0.1500000000000057
100
AcDbArc
 50
89.99999999999991
 51
179.9999999999892
  0
LINE
  5
35A
330
1F
100
AcDbEntity
  8
1
  6
Continuous
 62
     7
370
     9
100
AcDbLine
 10
145.4433509821162
 20
107.6646115173568
 30
0.0
 11
145.4433509821162
 21
108.1146115173569
 31
0.0
  0
ARC
  5
35B
330
1F
100
AcDbEntity
  8
1
  6
Continuous
 62
     7
370
     9
100
AcDbCircle
 10
145.5933509821162
 20
107.6646115173568
 30
0.0
 40
0.1500000000000057
100
AcDbArc
 50
179.9999999999892
 51
269.9999999999998
  0
LINE
  5
35C
330
1F
100
AcDbEntity
  8
1
  6
Continuous
 62
     7
370
     9
100
AcDbLine
 10
155.143350982116
 20
115.0996115173568
 30
0.0
 11
155.143350982116
 21
98.64961151735685
 31
0.0
  0
LINE
  5
35D
330
1F
100
AcDbEntity
  8
1
  6
Continuous
 62
     7
370
     9
100
AcDbLine
 10
155.443350982116
 20
109.8151929011339
 30
0.0
 11
155.443350982116
 21
109.0067265659882
 31
0.0
  0
CIRCLE
  5
35E
330
1F
100
AcDbEntity
  8
1
  6
Continuous
 62
     7
370
     9
100
AcDbCircle
 10
152.3433509821162
 20
98.85361151735685
 30
0.0
 40
0.25
  0
CIRCLE
  5
35F
330
1F
100
AcDbEntity
  8
1
  6
Continuous
 62
     7
370
     9
100
AcDbCircle
 10
152.3433509821162
 20
95.92961151735688
 30
0.0
 40
0.25
  0
ARC
  5
360
330
1F
100
AcDbEntity
  8
1
  6
Continuous
 62
     7
370
     9
100
AcDbCircle
 10
146.7933509821162
 20
108.1146115173568
 30
0.0
 40
0.1500000000000057
100
AcDbArc
 50
0.0000000000108563
 51
89.99999999999991
  0
ARC
  5
361
330
1F
100
AcDbEntity
  8
1
  6
Continuous
 62
     7
370
     9
100
AcDbCircle
 10
146.7933509821162
 20
107.6646115173568
 30
0.0
 40
0.1500000000000057
100
AcDbArc
 50
269.9999999999998
 51
0.0000000000108563
  0
LINE
  5
362
330
1F
100
AcDbEntity
  8
1
  6
Continuous
 62
     7
370
     9
100
AcDbLine
 10
155.143350982116
 20
102.4113362646597
 30
0.0
 11
155.443350982116
 21
102.7569983816369
 31
0.0
  0
CIRCLE
  5
363
330
1F
100
AcDbEntity
  8
1
  6
Continuous
 62
     7
370
     9
100
AcDbCircle
 10
156.743350982116
 20
98.64961151735685
 30
0.0
 40
0.75
  0
LINE
  5
364
330
1F
100
AcDbEntity
  8
1
  6
Continuous
 62
     7
370
     9
100
AcDbLine
 10
155.443350982116
 20
101.5021573407003
 30
0.0
 11
155.443350982116
 21
98.64961151735685
 31
0.0
  0
LINE
  5
365
330
1F
100
AcDbEntity
  8
1
  6
Continuous
 62
     7
370
     9
100
AcDbLine
 10
155.443350982116
 20
95.79706569401333
 30
0.0
 11
155.143350982116
 21
95.57259009056764
 31
0.0
  0
LINE
  5
366
330
1F
100
AcDbEntity
  8
1
  6
Continuous
 62
     7
370
     9
100
AcDbLine
 10
155.443350982116
 20
95.79706569401333
 30
0.0
 11
155.443350982116
 21
98.64961151735685
 31
0.0
  0
LINE
  5
367
330
1F
100
AcDbEntity
  8
1
  6
Continuous
 62
     7
370
     9
100
AcDbLine
 10
155.443350982116
 20
101.5021573407003
 30
0.0
 11
155.143350982116
 21
101.726632944146
 31
0.0
  0
LINE
  5
368
330
1F
100
AcDbEntity
  8
1
  6
Continuous
 62
     7
370
     9
100
AcDbLine
 10
155.443350982116
 20
107.9688589409025
 30
0.0
 11
155.143350982116
 21
108.0333341596842
 31
0.0
  0
LINE
  5
369
330
1F
100
AcDbEntity
  8
1
  6
Continuous
 62
     7
370
     9
100
AcDbLine
 10
155.443350982116
 20
109.0067265659882
 30
0.0
 11
155.143350982116
 21
108.5996460557466
 31
0.0
  0
LINE
  5
36A
330
1F
100
AcDbEntity
  8
1
  6
Continuous
 62
     7
370
     9
100
AcDbLine
 10
155.443350982116
 20
105.9411364300586
 30
0.0
 11
155.143350982116
 21
106.061638837394
 31
0.0
  0
LINE
  5
36B
330
1F
100
AcDbEntity
  8
1
  6
Continuous
 62
     7
370
     9
100
AcDbLine
 10
155.443350982116
 20
107.0738477669615
 30
0.0
 11
155.143350982116
 21
106.6797021523952
 31
0.0
  0
LINE
  5
36C
330
1F
100
AcDbEntity
  8
1
  6
Continuous
 62
     7
370
     9
100
AcDbLine
 10
155.443350982116
 20
107.9688589409025
 30
0.0
 11
155.443350982116
 21
107.0738477669615
 31
0.0
  0
LINE
  5
36D
330
1F
100
AcDbEntity
  8
1
  6
Continuous
 62
     7
370
     9
100
AcDbLine
 10
155.143350982116
 20
104.6034616689255
 30
0.0
 11
155.443350982116
 21
104.9770007917631
 31
0.0
  0
LINE
  5
36E
330
1F
100
AcDbEntity
  8
1
  6
Continuous
 62
     7
370
     9
100
AcDbLine
 10
155.443350982116
 20
103.7714926807757
 30
0.0
 11
155.143350982116
 21
103.9456768343754
 31
0.0
  0
LINE
  5
36F
330
1F
100
AcDbEntity
  8
1
  6
Continuous
 62
     7
370
     9
100
AcDbLine
 10
155.443350982116
 20
103.7714926807757
 30
0.0
 11
155.443350982116
 21
102.7569983816369
 31
0.0
  0
LINE
  5
370
330
1F
100
AcDbEntity
  8
1
  6
Continuous
 62
     7
370
     9
100
AcDbLine
 10
155.443350982116
 20
105.9411364300586
 30
0.0
 11
155.443350982116
 21
104.9770007917631
 31
0.0
  0
LINE
  5
371
330
1F
100
AcDbEntity
  8
1
  6
Continuous
 62
     7
370
     9
100
AcDbLine
 10
155.443350982116
 20
115.3996115173568
 30
0.0
 11
155.143350982116
 21
115.0996115173568
 31
0.0
  0
LINE
  5
372
330
1F
100
AcDbEntity
  8
1
  6
Continuous
 62
     7
370
     9
100
AcDbLine
 10
155.443350982116
 20
115.2285857402875
 30
0.0
 11
155.443350982116
 21
115.0453213003922
 31
0.0
  0
LINE
  5
373
330
1F
100
AcDbEntity
  8
1
  6
Continuous
 62
     7
370
     9
100
AcDbLine
 10
155.443350982116
 20
115.3996115173568
 30
0.0
 11
155.443350982116
 21
115.3626826859386
 31
0.0
  0
LINE
  5
374
330
1F
100
AcDbEntity
  8
1
  6
Continuous
 62
     7
370
     9
100
AcDbLine
 10
155.443350982116
 20
114.7349657639969
 30
0.0
 11
155.443350982116
 21
114.4088360737626
 31
0.0
  0
LINE
  5
375
330
1F
100
AcDbEntity
  8
1
  6
Continuous
 62
     7
370
     9
100
AcDbLine
 10
155.443350982116
 20
115.3626826859386
 30
0.0
 11
155.143350982116
 21
115.0996115173568
 31
0.0
  0
LINE
  5
376
330
1F
100
AcDbEntity
  8
1
  6
Continuous
 62
     7
370
     9
100
AcDbLine
 10
155.443350982116
 20
115.0453213003922
 30
0.0
 11
155.143350982116
 21
114.692035665855
 31
0.0
  0
LINE
  5
377
330
1F
100
AcDbEntity
  8
1
  6
Continuous
 62
     7
370
     9
100
AcDbLine
 10
155.443350982116
 20
115.2285857402875
 30
0.0
 11
155.143350982116
 21
114.9692083077874
 31
0.0
  0
LINE
  5
378
330
1F
100
AcDbEntity
  8
1
  6
Continuous
 62
     7
370
     9
100
AcDbLine
 10
155.143350982116
 20
114.5226903389352
 30
0.0
 11
155.443350982116
 21
114.7349657639969
 31
0.0
  0
LINE
  5
379
330
1F
100
AcDbEntity
  8
1
  6
Continuous
 62
     7
370
     9
100
AcDbLine
 10
155.143350982116
 20
114.0294455615718
 30
0.0
 11
155.443350982116
 21
114.4088360737626
 31
0.0
  0
LINE
  5
37A
330
1F
100
AcDbEntity
  8
1
  6
Continuous
 62
     7
370
     9
100
AcDbLine
 10
155.443350982116
 20
112.8241779988687
 30
0.0
 11
155.443350982116
 21
112.2340181963019
 31
0.0
  0
LINE
  5
37B
330
1F
100
AcDbEntity
  8
1
  6
Continuous
 62
     7
370
     9
100
AcDbLine
 10
155.443350982116
 20
113.9282626641145
 30
0.0
 11
155.443350982116
 21
113.4656154669947
 31
0.0
  0
LINE
  5
37C
330
1F
100
AcDbEntity
  8
1
  6
Continuous
 62
     7
370
     9
100
AcDbLine
 10
155.443350982116
 20
113.9282626641145
 30
0.0
 11
155.143350982116
 21
113.7672209461807
 31
0.0
  0
LINE
  5
37D
330
1F
100
AcDbEntity
  8
1
  6
Continuous
 62
     7
370
     9
100
AcDbLine
 10
155.143350982116
 20
113.0675044819199
 30
0.0
 11
155.443350982116
 21
113.4656154669947
 31
0.0
  0
LINE
  5
37E
330
1F
100
AcDbEntity
  8
1
  6
Continuous
 62
     7
370
     9
100
AcDbLine
 10
155.443350982116
 20
112.8241779988687
 30
0.0
 11
155.143350982116
 21
112.7175044819199
 31
0.0
  0
LINE
  5
37F
330
1F
100
AcDbEntity
  8
1
  6
Continuous
 62
     7
370
     9
100
AcDbLine
 10
155.443350982116
 20
111.4442015203905
 30
0.0
 11
155.443350982116
 21
110.738015901637
 31
0.0
  0
LINE
  5
380
330
1F
100
AcDbEntity
  8
1
  6
Continuous
 62
     7
370
     9
100
AcDbLine
 10
155.443350982116
 20
110.738015901637
 30
0.0
 11
155.143350982116
 21
110.3259238548048
 31
0.0
  0
LINE
  5
381
330
1F
100
AcDbEntity
  8
1
  6
Continuous
 62
     7
370
     9
100
AcDbLine
 10
155.443350982116
 20
111.4442015203905
 30
0.0
 11
155.143350982116
 21
111.393972483095
 31
0.0
  0
LINE
  5
382
330
1F
100
AcDbEntity
  8
1
  6
Continuous
 62
     7
370
     9
100
AcDbLine
 10
155.443350982116
 20
112.2340181963019
 30
0.0
 11
155.143350982116
 21
111.824935515823
 31
0.0
  0
LINE
  5
383
330
1F
100
AcDbEntity
  8
1
  6
Continuous
 62
     7
370
     9
100
AcDbLine
 10
164.443350982116
 20
82.19961151735686
 30
0.0
 11
164.443350982116
 21
98.64961151735685
 31
0.0
  0
LINE
  5
384
330
1F
100
AcDbEntity
  8
1
  6
Continuous
 62
     7
370
     9
100
AcDbLine
 10
164.643350982116
 20
98.64961151735685
 30
0.0
 11
164.643350982116
 21
82.64961151735685
 31
0.0
  0
LINE
  5
385
330
1F
100
AcDbEntity
  8
1
  6
Continuous
 62
     7
370
     9
100
AcDbLine
 10
167.743350982116
 20
98.64961151735685
 30
0.0
 11
167.743350982116
 21
82.94961151735686
 31
0.0
  0
LINE
  5
386
330
1F
100
AcDbEntity
  8
1
  6
Continuous
 62
     7
370
     9
100
AcDbLine
 10
171.743350982116
 20
98.64961151735685
 30
0.0
 11
171.743350982116
 21
86.44961151735686
 31
0.0
  0
LINE
  5
387
330
1F
100
AcDbEntity
  8
1
  6
Continuous
 62
     7
370
     9
100
AcDbLine
 10
168.943350982116
 20
85.94961151735686
 30
0.0
 11
168.943350982116
 21
98.64961151735685
 31
0.0
  0
LINE
  5
388
330
1F
100
AcDbEntity
  8
1
  6
Continuous
 62
     7
370
     9
100
AcDbLine
 10
171.243350982116
 20
98.64961151735685
 30
0.0
 11
171.243350982116
 21
85.94961151735686
 31
0.0
  0
LINE
  5
389
330
1F
100
AcDbEntity
  8
1
  6
Continuous
 62
     7
370
     9
100
AcDbLine
 10
164.1433509821161
 20
88.29249646872557
 30
0.0
 11
164.443350982116
 21
88.69957697896712
 31
0.0
  0
LINE
  5
38A
330
1F
100
AcDbEntity
  8
1
  6
Continuous
 62
     7
370
     9
100
AcDbLine
 10
167.743350982116
 20
86.44961151735686
 30
0.0
 11
168.943350982116
 21
86.44961151735686
 31
0.0
  0
LINE
  5
38B
330
1F
100
AcDbEntity
  8
1
  6
Continuous
 62
     7
370
     9
100
AcDbLine
 10
164.1433509821161
 20
81.8996115173569
 30
0.0
 11
164.443350982116
 21
82.19961151735686
 31
0.0
  0
LINE
  5
38C
330
1F
100
AcDbEntity
  8
1
  6
Continuous
 62
     7
370
     9
100
AcDbLine
 10
164.643350982116
 20
82.64961151735685
 30
0.0
 11
167.443350982116
 21
82.64961151735685
 31
0.0
  0
LINE
  5
38D
330
1F
100
AcDbEntity
  8
1
  6
Continuous
 62
     7
370
     9
100
AcDbLine
 10
164.1433509821161
 20
87.48403013357984
 30
0.0
 11
164.1433509821161
 21
88.29249646872557
 31
0.0
  0
LINE
  5
38E
330
1F
100
AcDbEntity
  8
1
  6
Continuous
 62
     7
370
     9
100
AcDbLine
 10
164.1433509821161
 20
85.85502151432314
 30
0.0
 11
164.1433509821161
 21
86.56120713307678
 31
0.0
  0
LINE
  5
38F
330
1F
100
AcDbEntity
  8
1
  6
Continuous
 62
     7
370
     9
100
AcDbLine
 10
164.1433509821161
 20
86.56120713307678
 30
0.0
 11
164.443350982116
 21
86.97329917990896
 31
0.0
  0
LINE
  5
390
330
1F
100
AcDbEntity
  8
1
  6
Continuous
 62
     7
370
     9
100
AcDbLine
 10
164.1433509821161
 20
85.85502151432314
 30
0.0
 11
164.443350982116
 21
85.90525055161874
 31
0.0
  0
LINE
  5
391
330
1F
100
AcDbEntity
  8
1
  6
Continuous
 62
     7
370
     9
100
AcDbLine
 10
164.643350982116
 20
83.39961151735685
 30
0.0
 11
164.443350982116
 21
83.39961151735685
 31
0.0
  0
LINE
  5
392
330
1F
100
AcDbEntity
  8
1
  6
Continuous
 62
     7
370
     9
100
AcDbLine
 10
164.1433509821161
 20
84.47504503584503
 30
0.0
 11
164.1433509821161
 21
85.06520483841183
 31
0.0
  0
LINE
  5
393
330
1F
100
AcDbEntity
  8
1
  6
Continuous
 62
     7
370
     9
100
AcDbLine
 10
164.1433509821161
 20
83.37096037059922
 30
0.0
 11
164.1433509821161
 21
83.83360756771896
 31
0.0
  0
LINE
  5
394
330
1F
100
AcDbEntity
  8
1
  6
Continuous
 62
     7
370
     9
100
AcDbLine
 10
164.1433509821161
 20
83.37096037059922
 30
0.0
 11
164.443350982116
 21
83.53200208853303
 31
0.0
  0
LINE
  5
395
330
1F
100
AcDbEntity
  8
1
  6
Continuous
 62
     7
370
     9
100
AcDbLine
 10
164.443350982116
 20
84.23171855279384
 30
0.0
 11
164.1433509821161
 21
83.83360756771896
 31
0.0
  0
LINE
  5
396
330
1F
100
AcDbEntity
  8
1
  6
Continuous
 62
     7
370
     9
100
AcDbLine
 10
164.1433509821161
 20
84.47504503584503
 30
0.0
 11
164.443350982116
 21
84.5817185527938
 31
0.0
  0
LINE
  5
397
330
1F
100
AcDbEntity
  8
1
  6
Continuous
 62
     7
370
     9
100
AcDbLine
 10
164.1433509821161
 20
81.8996115173569
 30
0.0
 11
164.1433509821161
 21
81.93654034877511
 31
0.0
  0
LINE
  5
398
330
1F
100
AcDbEntity
  8
1
  6
Continuous
 62
     7
370
     9
100
AcDbLine
 10
164.1433509821161
 20
82.25390173432146
 30
0.0
 11
164.1433509821161
 21
82.07063729442615
 31
0.0
  0
LINE
  5
399
330
1F
100
AcDbEntity
  8
1
  6
Continuous
 62
     7
370
     9
100
AcDbLine
 10
164.1433509821161
 20
82.5642572707169
 30
0.0
 11
164.1433509821161
 21
82.89038696095116
 31
0.0
  0
LINE
  5
39A
330
1F
100
AcDbEntity
  8
1
  6
Continuous
 62
     7
370
     9
100
AcDbLine
 10
164.1433509821161
 20
81.93654034877511
 30
0.0
 11
164.443350982116
 21
82.19961151735686
 31
0.0
  0
LINE
  5
39B
330
1F
100
AcDbEntity
  8
1
  6
Continuous
 62
     7
370
     9
100
AcDbLine
 10
164.1433509821161
 20
82.25390173432146
 30
0.0
 11
164.443350982116
 21
82.60718736885872
 31
0.0
  0
LINE
  5
39C
330
1F
100
AcDbEntity
  8
1
  6
Continuous
 62
     7
370
     9
100
AcDbLine
 10
164.1433509821161
 20
82.07063729442615
 30
0.0
 11
164.443350982116
 21
82.33001472692638
 31
0.0
  0
LINE
  5
39D
330
1F
100
AcDbEntity
  8
1
  6
Continuous
 62
     7
370
     9
100
AcDbLine
 10
164.443350982116
 20
82.77653269577849
 30
0.0
 11
164.1433509821161
 21
82.5642572707169
 31
0.0
  0
LINE
  5
39E
330
1F
100
AcDbEntity
  8
1
  6
Continuous
 62
     7
370
     9
100
AcDbLine
 10
164.443350982116
 20
83.26977747314191
 30
0.0
 11
164.1433509821161
 21
82.89038696095116
 31
0.0
  0
LINE
  5
39F
330
1F
100
AcDbEntity
  8
1
  6
Continuous
 62
     7
370
     9
100
AcDbLine
 10
164.1433509821161
 20
85.06520483841183
 30
0.0
 11
164.443350982116
 21
85.47428751889078
 31
0.0
  0
LINE
  5
3A0
330
1F
100
AcDbEntity
  8
1
  6
Continuous
 62
     7
370
     9
100
AcDbLine
 10
167.443350982116
 20
82.64961151735685
 30
0.0
 11
167.743350982116
 21
82.94961151735686
 31
0.0
  0
LINE
  5
3A1
330
1F
100
AcDbEntity
  8
1
  6
Continuous
 62
     7
370
     9
100
AcDbLine
 10
168.943350982116
 20
85.94961151735686
 30
0.0
 11
171.243350982116
 21
85.94961151735686
 31
0.0
  0
LINE
  5
3A2
330
1F
100
AcDbEntity
  8
1
  6
Continuous
 62
     7
370
     9
100
AcDbLine
 10
171.243350982116
 20
85.94961151735686
 30
0.0
 11
171.743350982116
 21
86.44961151735686
 31
0.0
  0
LINE
  5
3A3
330
1F
100
AcDbEntity
  8
1
  6
Continuous
 62
     7
370
     9
100
AcDbLine
 10
164.143350982116
 20
93.52773035393801
 30
0.0
 11
164.143350982116
 21
94.5422246530768
 31
0.0
  0
LINE
  5
3A4
330
1F
100
AcDbEntity
  8
1
  6
Continuous
 62
     7
370
     9
100
AcDbLine
 10
164.443350982116
 20
94.88788677005402
 30
0.0
 11
164.143350982116
 21
94.5422246530768
 31
0.0
  0
LINE
  5
3A5
330
1F
100
AcDbEntity
  8
1
  6
Continuous
 62
     7
370
     9
100
AcDbLine
 10
164.443350982116
 20
92.6957613657882
 30
0.0
 11
164.143350982116
 21
92.32222224295066
 31
0.0
  0
LINE
  5
3A6
330
1F
100
AcDbEntity
  8
1
  6
Continuous
 62
     7
370
     9
100
AcDbLine
 10
164.143350982116
 20
91.35808660465506
 30
0.0
 11
164.443350982116
 21
91.23758419731973
 31
0.0
  0
LINE
  5
3A7
330
1F
100
AcDbEntity
  8
1
  6
Continuous
 62
     7
370
     9
100
AcDbLine
 10
164.1433509821161
 20
90.22537526775216
 30
0.0
 11
164.443350982116
 21
90.61952088231851
 31
0.0
  0
LINE
  5
3A8
330
1F
100
AcDbEntity
  8
1
  6
Continuous
 62
     7
370
     9
100
AcDbLine
 10
164.143350982116
 20
91.35808660465506
 30
0.0
 11
164.143350982116
 21
92.32222224295066
 31
0.0
  0
LINE
  5
3A9
330
1F
100
AcDbEntity
  8
1
  6
Continuous
 62
     7
370
     9
100
AcDbLine
 10
164.1433509821161
 20
89.33036409381123
 30
0.0
 11
164.443350982116
 21
89.26588887502953
 31
0.0
  0
LINE
  5
3AA
330
1F
100
AcDbEntity
  8
1
  6
Continuous
 62
     7
370
     9
100
AcDbLine
 10
164.1433509821161
 20
89.33036409381123
 30
0.0
 11
164.1433509821161
 21
90.22537526775216
 31
0.0
  0
LINE
  5
3AB
330
1F
100
AcDbEntity
  8
1
  6
Continuous
 62
     7
370
     9
100
AcDbLine
 10
164.143350982116
 20
93.52773035393801
 30
0.0
 11
164.443350982116
 21
93.35354620033831
 31
0.0
  0
LINE
  5
3AC
330
1F
100
AcDbEntity
  8
1
  6
Continuous
 62
     7
370
     9
100
AcDbLine
 10
164.443350982116
 20
115.0996115173568
 30
0.0
 11
164.443350982116
 21
98.64961151735685
 31
0.0
  0
LINE
  5
3AD
330
1F
100
AcDbEntity
  8
1
  6
Continuous
 62
     7
370
     9
100
AcDbLine
 10
164.643350982116
 20
98.64961151735685
 30
0.0
 11
164.643350982116
 21
114.6496115173568
 31
0.0
  0
LINE
  5
3AE
330
1F
100
AcDbEntity
  8
1
  6
Continuous
 62
     7
370
     9
100
AcDbLine
 10
164.143350982116
 20
109.8151929011339
 30
0.0
 11
164.143350982116
 21
109.0067265659882
 31
0.0
  0
LINE
  5
3AF
330
1F
100
AcDbEntity
  8
1
  6
Continuous
 62
     7
370
     9
100
AcDbLine
 10
171.743350982116
 20
98.64961151735685
 30
0.0
 11
171.743350982116
 21
110.8496115173568
 31
0.0
  0
LINE
  5
3B0
330
1F
100
AcDbEntity
  8
1
  6
Continuous
 62
     7
370
     9
100
AcDbLine
 10
168.943350982116
 20
111.3496115173568
 30
0.0
 11
168.943350982116
 21
98.64961151735685
 31
0.0
  0
LINE
  5
3B1
330
1F
100
AcDbEntity
  8
1
  6
Continuous
 62
     7
370
     9
100
AcDbLine
 10
171.243350982116
 20
98.64961151735685
 30
0.0
 11
171.243350982116
 21
111.3496115173568
 31
0.0
  0
LINE
  5
3B2
330
1F
100
AcDbEntity
  8
1
  6
Continuous
 62
     7
370
     9
100
AcDbLine
 10
167.743350982116
 20
98.64961151735685
 30
0.0
 11
167.743350982116
 21
114.3496115173568
 31
0.0
  0
LINE
  5
3B3
330
1F
100
AcDbEntity
  8
1
  6
Continuous
 62
     7
370
     9
100
AcDbLine
 10
164.443350982116
 20
102.4113362646597
 30
0.0
 11
164.143350982116
 21
102.7569983816369
 31
0.0
  0
LINE
  5
3B4
330
1F
100
AcDbEntity
  8
1
  6
Continuous
 62
     7
370
     9
100
AcDbLine
 10
164.143350982116
 20
101.5021573407004
 30
0.0
 11
164.143350982116
 21
99.27411131719674
 31
0.0
  0
LINE
  5
3B5
330
1F
100
AcDbEntity
  8
1
  6
Continuous
 62
     7
370
     9
100
AcDbLine
 10
164.143350982116
 20
95.79706569401338
 30
0.0
 11
164.443350982116
 21
95.57259009056764
 31
0.0
  0
LINE
  5
3B6
330
1F
100
AcDbEntity
  8
1
  6
Continuous
 62
     7
370
     9
100
AcDbLine
 10
164.143350982116
 20
95.79706569401338
 30
0.0
 11
164.143350982116
 21
98.02511171751695
 31
0.0
  0
LINE
  5
3B7
330
1F
100
AcDbEntity
  8
1
  6
Continuous
 62
     7
370
     9
100
AcDbLine
 10
164.143350982116
 20
101.5021573407004
 30
0.0
 11
164.443350982116
 21
101.726632944146
 31
0.0
  0
LINE
  5
3B8
330
1F
100
AcDbEntity
  8
1
  6
Continuous
 62
     7
370
     9
100
AcDbLine
 10
164.143350982116
 20
107.9688589409025
 30
0.0
 11
164.443350982116
 21
108.0333341596842
 31
0.0
  0
LINE
  5
3B9
330
1F
100
AcDbEntity
  8
1
  6
Continuous
 62
     7
370
     9
100
AcDbLine
 10
164.143350982116
 20
109.0067265659882
 30
0.0
 11
164.443350982116
 21
108.5996460557466
 31
0.0
  0
LINE
  5
3BA
330
1F
100
AcDbEntity
  8
1
  6
Continuous
 62
     7
370
     9
100
AcDbLine
 10
164.143350982116
 20
105.9411364300586
 30
0.0
 11
164.443350982116
 21
106.061638837394
 31
0.0
  0
LINE
  5
3BB
330
1F
100
AcDbEntity
  8
1
  6
Continuous
 62
     7
370
     9
100
AcDbLine
 10
164.143350982116
 20
107.0738477669615
 30
0.0
 11
164.443350982116
 21
106.6797021523952
 31
0.0
  0
LINE
  5
3BC
330
1F
100
AcDbEntity
  8
1
  6
Continuous
 62
     7
370
     9
100
AcDbLine
 10
164.143350982116
 20
107.9688589409025
 30
0.0
 11
164.143350982116
 21
107.0738477669615
 31
0.0
  0
LINE
  5
3BD
330
1F
100
AcDbEntity
  8
1
  6
Continuous
 62
     7
370
     9
100
AcDbLine
 10
164.443350982116
 20
104.6034616689255
 30
0.0
 11
164.143350982116
 21
104.9770007917631
 31
0.0
  0
LINE
  5
3BE
330
1F
100
AcDbEntity
  8
1
  6
Continuous
 62
     7
370
     9
100
AcDbLine
 10
164.143350982116
 20
103.7714926807757
 30
0.0
 11
164.443350982116
 21
103.9456768343754
 31
0.0
  0
LINE
  5
3BF
330
1F
100
AcDbEntity
  8
1
  6
Continuous
 62
     7
370
     9
100
AcDbLine
 10
164.143350982116
 20
103.7714926807757
 30
0.0
 11
164.143350982116
 21
102.7569983816369
 31
0.0
  0
LINE
  5
3C0
330
1F
100
AcDbEntity
  8
1
  6
Continuous
 62
     7
370
     9
100
AcDbLine
 10
164.143350982116
 20
105.9411364300586
 30
0.0
 11
164.143350982116
 21
104.9770007917631
 31
0.0
  0
LINE
  5
3C1
330
1F
100
AcDbEntity
  8
1
  6
Continuous
 62
     7
370
     9
100
AcDbLine
 10
167.743350982116
 20
110.8496115173568
 30
0.0
 11
168.943350982116
 21
110.8496115173568
 31
0.0
  0
LINE
  5
3C2
330
1F
100
AcDbEntity
  8
1
  6
Continuous
 62
     7
370
     9
100
AcDbLine
 10
164.143350982116
 20
115.3996115173568
 30
0.0
 11
164.443350982116
 21
115.0996115173568
 31
0.0
  0
LINE
  5
3C3
330
1F
100
AcDbEntity
  8
1
  6
Continuous
 62
     7
370
     9
100
AcDbLine
 10
164.143350982116
 20
115.3626826859386
 30
0.0
 11
164.443350982116
 21
115.0996115173568
 31
0.0
  0
LINE
  5
3C4
330
1F
100
AcDbEntity
  8
1
  6
Continuous
 62
     7
370
     9
100
AcDbLine
 10
164.643350982116
 20
113.8996115173568
 30
0.0
 11
164.443350982116
 21
113.8996115173568
 31
0.0
  0
LINE
  5
3C5
330
1F
100
AcDbEntity
  8
1
  6
Continuous
 62
     7
370
     9
100
AcDbLine
 10
164.643350982116
 20
114.6496115173568
 30
0.0
 11
167.443350982116
 21
114.6496115173568
 31
0.0
  0
LINE
  5
3C6
330
1F
100
AcDbEntity
  8
1
  6
Continuous
 62
     7
370
     9
100
AcDbLine
 10
164.143350982116
 20
115.3996115173568
 30
0.0
 11
164.143350982116
 21
115.3626826859386
 31
0.0
  0
LINE
  5
3C7
330
1F
100
AcDbEntity
  8
1
  6
Continuous
 62
     7
370
     9
100
AcDbLine
 10
164.143350982116
 20
115.0453213003922
 30
0.0
 11
164.143350982116
 21
115.2285857402875
 31
0.0
  0
LINE
  5
3C8
330
1F
100
AcDbEntity
  8
1
  6
Continuous
 62
     7
370
     9
100
AcDbLine
 10
164.143350982116
 20
114.7349657639969
 30
0.0
 11
164.143350982116
 21
114.4088360737626
 31
0.0
  0
LINE
  5
3C9
330
1F
100
AcDbEntity
  8
1
  6
Continuous
 62
     7
370
     9
100
AcDbLine
 10
164.143350982116
 20
115.0453213003922
 30
0.0
 11
164.443350982116
 21
114.692035665855
 31
0.0
  0
LINE
  5
3CA
330
1F
100
AcDbEntity
  8
1
  6
Continuous
 62
     7
370
     9
100
AcDbLine
 10
164.143350982116
 20
115.2285857402875
 30
0.0
 11
164.443350982116
 21
114.9692083077874
 31
0.0
  0
LINE
  5
3CB
330
1F
100
AcDbEntity
  8
1
  6
Continuous
 62
     7
370
     9
100
AcDbLine
 10
164.443350982116
 20
114.5226903389352
 30
0.0
 11
164.143350982116
 21
114.7349657639969
 31
0.0
  0
LINE
  5
3CC
330
1F
100
AcDbEntity
  8
1
  6
Continuous
 62
     7
370
     9
100
AcDbLine
 10
164.443350982116
 20
114.0294455615718
 30
0.0
 11
164.143350982116
 21
114.4088360737626
 31
0.0
  0
LINE
  5
3CD
330
1F
100
AcDbEntity
  8
1
  6
Continuous
 62
     7
370
     9
100
AcDbLine
 10
164.143350982116
 20
112.8241779988687
 30
0.0
 11
164.143350982116
 21
112.2340181963019
 31
0.0
  0
LINE
  5
3CE
330
1F
100
AcDbEntity
  8
1
  6
Continuous
 62
     7
370
     9
100
AcDbLine
 10
164.143350982116
 20
113.9282626641145
 30
0.0
 11
164.143350982116
 21
113.4656154669947
 31
0.0
  0
LINE
  5
3CF
330
1F
100
AcDbEntity
  8
1
  6
Continuous
 62
     7
370
     9
100
AcDbLine
 10
164.143350982116
 20
113.9282626641145
 30
0.0
 11
164.443350982116
 21
113.7672209461807
 31
0.0
  0
LINE
  5
3D0
330
1F
100
AcDbEntity
  8
1
  6
Continuous
 62
     7
370
     9
100
AcDbLine
 10
164.443350982116
 20
113.0675044819199
 30
0.0
 11
164.143350982116
 21
113.4656154669947
 31
0.0
  0
LINE
  5
3D1
330
1F
100
AcDbEntity
  8
1
  6
Continuous
 62
     7
370
     9
100
AcDbLine
 10
164.143350982116
 20
112.8241779988687
 30
0.0
 11
164.443350982116
 21
112.7175044819199
 31
0.0
  0
LINE
  5
3D2
330
1F
100
AcDbEntity
  8
1
  6
Continuous
 62
     7
370
     9
100
AcDbLine
 10
164.143350982116
 20
111.4442015203905
 30
0.0
 11
164.143350982116
 21
110.738015901637
 31
0.0
  0
LINE
  5
3D3
330
1F
100
AcDbEntity
  8
1
  6
Continuous
 62
     7
370
     9
100
AcDbLine
 10
164.143350982116
 20
110.738015901637
 30
0.0
 11
164.443350982116
 21
110.3259238548048
 31
0.0
  0
LINE
  5
3D4
330
1F
100
AcDbEntity
  8
1
  6
Continuous
 62
     7
370
     9
100
AcDbLine
 10
164.143350982116
 20
111.4442015203905
 30
0.0
 11
164.443350982116
 21
111.393972483095
 31
0.0
  0
LINE
  5
3D5
330
1F
100
AcDbEntity
  8
1
  6
Continuous
 62
     7
370
     9
100
AcDbLine
 10
164.143350982116
 20
112.2340181963019
 30
0.0
 11
164.443350982116
 21
111.824935515823
 31
0.0
  0
LINE
  5
3D6
330
1F
100
AcDbEntity
  8
1
  6
Continuous
 62
     7
370
     9
100
AcDbLine
 10
167.443350982116
 20
114.6496115173568
 30
0.0
 11
167.743350982116
 21
114.3496115173568
 31
0.0
  0
LINE
  5
3D7
330
1F
100
AcDbEntity
  8
1
  6
Continuous
 62
     7
370
     9
100
AcDbLine
 10
168.943350982116
 20
111.3496115173568
 30
0.0
 11
171.243350982116
 21
111.3496115173568
 31
0.0
  0
LINE
  5
3D8
330
1F
100
AcDbEntity
  8
1
  6
Continuous
 62
     7
370
     9
100
AcDbLine
 10
171.243350982116
 20
111.3496115173568
 30
0.0
 11
171.743350982116
 21
110.8496115173568
 31
0.0
  0
LINE
  5
3D9
330
1F
100
AcDbEntity
  8
1
  6
Continuous
 62
     7
370
     9
100
AcDbLine
 10
162.2433509821161
 20
100.4960796541259
 30
0.0
 11
162.2433509821161
 21
96.69594728406128
 31
0.0
  0
LINE
  5
3DA
330
1F
100
AcDbEntity
  8
1
  6
Continuous
 62
     7
370
     9
100
AcDbLine
 10
143.643350982116
 20
98.64961151735685
 30
0.0
 11
143.643350982116
 21
82.34961151735683
 31
0.0
  0
LINE
  5
3DB
330
1F
100
AcDbEntity
  8
1
  6
Continuous
 62
     7
370
     9
100
AcDbLine
 10
154.943350982116
 20
98.64961151735685
 30
0.0
 11
154.943350982116
 21
82.34961151735683
 31
0.0
  0
LINE
  5
3DC
330
1F
100
AcDbEntity
  8
1
  6
Continuous
 62
     7
370
     9
100
AcDbLine
 10
144.4433509821162
 20
98.64961151735685
 30
0.0
 11
144.4433509821162
 21
82.04961151735682
 31
0.0
  0
LINE
  5
3DD
330
1F
100
AcDbEntity
  8
1
  6
Continuous
 62
     7
370
     9
100
AcDbLine
 10
154.343350982116
 20
98.64961151735685
 30
0.0
 11
154.343350982116
 21
82.04961151735682
 31
0.0
  0
LINE
  5
3DE
330
1F
100
AcDbEntity
  8
1
  6
Continuous
 62
     7
370
     9
100
AcDbLine
 10
144.4433509821162
 20
82.04961151735682
 30
0.0
 11
143.943350982116
 21
82.04961151735682
 31
0.0
  0
LINE
  5
3DF
330
1F
100
AcDbEntity
  8
1
  6
Continuous
 62
     7
370
     9
100
AcDbLine
 10
143.943350982116
 20
82.04961151735682
 30
0.0
 11
143.643350982116
 21
82.34961151735683
 31
0.0
  0
LINE
  5
3E0
330
1F
100
AcDbEntity
  8
1
  6
Continuous
 62
     7
370
     9
100
AcDbLine
 10
154.643350982116
 20
82.04961151735682
 30
0.0
 11
154.943350982116
 21
82.34961151735683
 31
0.0
  0
LINE
  5
3E1
330
1F
100
AcDbEntity
  8
1
  6
Continuous
 62
     7
370
     9
100
AcDbLine
 10
154.343350982116
 20
82.04961151735682
 30
0.0
 11
154.643350982116
 21
82.04961151735682
 31
0.0
  0
LINE
  5
3E2
330
1F
100
AcDbEntity
  8
1
  6
Continuous
 62
     7
370
     9
100
AcDbLine
 10
155.143350982116
 20
83.14961151735685
 30
0.0
 11
154.943350982116
 21
83.14961151735685
 31
0.0
  0
LINE
  5
3E3
330
1F
100
AcDbEntity
  8
1
  6
Continuous
 62
     7
370
     9
100
AcDbLine
 10
143.643350982116
 20
98.64961151735685
 30
0.0
 11
143.643350982116
 21
114.9496115173569
 31
0.0
  0
LINE
  5
3E4
330
1F
100
AcDbEntity
  8
1
  6
Continuous
 62
     7
370
     9
100
AcDbLine
 10
144.4433509821162
 20
98.64961151735685
 30
0.0
 11
144.4433509821162
 21
115.2496115173569
 31
0.0
  0
LINE
  5
3E5
330
1F
100
AcDbEntity
  8
1
  6
Continuous
 62
     7
370
     9
100
AcDbLine
 10
144.4433509821162
 20
115.2496115173569
 30
0.0
 11
143.943350982116
 21
115.2496115173569
 31
0.0
  0
LINE
  5
3E6
330
1F
100
AcDbEntity
  8
1
  6
Continuous
 62
     7
370
     9
100
AcDbLine
 10
143.943350982116
 20
115.2496115173569
 30
0.0
 11
143.643350982116
 21
114.9496115173569
 31
0.0
  0
LINE
  5
3E7
330
1F
100
AcDbEntity
  8
1
  6
Continuous
 62
     7
370
     9
100
AcDbLine
 10
154.943350982116
 20
98.64961151735685
 30
0.0
 11
154.943350982116
 21
114.9496115173569
 31
0.0
  0
LINE
  5
3E8
330
1F
100
AcDbEntity
  8
1
  6
Continuous
 62
     7
370
     9
100
AcDbLine
 10
154.343350982116
 20
98.64961151735685
 30
0.0
 11
154.343350982116
 21
115.2496115173569
 31
0.0
  0
LINE
  5
3E9
330
1F
100
AcDbEntity
  8
1
  6
Continuous
 62
     7
370
     9
100
AcDbLine
 10
154.643350982116
 20
115.2496115173569
 30
0.0
 11
154.943350982116
 21
114.9496115173569
 31
0.0
  0
LINE
  5
3EA
330
1F
100
AcDbEntity
  8
1
  6
Continuous
 62
     7
370
     9
100
AcDbLine
 10
154.343350982116
 20
115.2496115173569
 30
0.0
 11
154.643350982116
 21
115.2496115173569
 31
0.0
  0
LINE
  5
3EB
330
1F
100
AcDbEntity
  8
1
  6
Continuous
 62
     7
370
     9
100
AcDbLine
 10
155.143350982116
 20
114.1496115173568
 30
0.0
 11
154.943350982116
 21
114.1496115173568
 31
0.0
  0
ELLIPSE
  5
3EC
330
1F
100
AcDbEntity
  8
1
  6
Continuous
 62
     7
370
     9
100
AcDbEllipse
 10
149.343350982116
 20
113.0256332201786
 30
0.0
 11
1.25
 21
0.0
 31
0.0
210
0.0
220
0.0
230
1.0
 40
0.467039104197238
 41
0.0
 42
6.283185307179586
  0
LINE
  5
3ED
330
1F
100
AcDbEntity
  8
1
  6
Continuous
 62
     7
370
     9
100
AcDbLine
 10
144.4433509821162
 20
82.04961151735682
 30
0.0
 11
147.343350982116
 21
82.04961151735682
 31
0.0
  0
LINE
  5
3EE
330
1F
100
AcDbEntity
  8
1
  6
Continuous
 62
     7
370
     9
100
AcDbLine
 10
151.343350982116
 20
82.04961151735682
 30
0.0
 11
154.343350982116
 21
82.04961151735682
 31
0.0
  0
LINE
  5
3EF
330
1F
100
AcDbEntity
  8
1
  6
Continuous
 62
     7
370
     9
100
AcDbLine
 10
144.4433509821162
 20
115.2496115173569
 30
0.0
 11
154.343350982116
 21
115.2496115173569
 31
0.0
  0
DIMENSION
  5
3F8
330
1F
100
AcDbEntity
  8
1
  6
Continuous
 62
     7
370
     9
100
AcDbDimension
280
     0
  2
Dim1
 10
77.23974877021462
 20
88.55456399207858
 30
0.0
 11
96.56909645273858
 21
115.247093251482
 31
0.0
 70
   163
  1
<>
 71
     5
 42
-1.0
 73
     0
 74
     0
 75
     0
  3
Standard
100
AcDbDiametricDimension
 15
92.81569374474138
 25
108.7446590426351
 35
0.0
 40
0.0
1001
ACAD
1000
DSTYLE
1002
{
1070
   340
1005
3F0
1070
   140
1040
2.0
1070
    40
1040
1.0
1070
   147
1040
0.0
1070
    76
1070
     1
1070
    75
1070
     1
1070
   344
1005
51
1070
   343
1005
51
1070
   173
1070
     1
1070
   289
1070
     2
1070
   288
1070
     1
1070
    77
1070
     1
1070
   172
1070
     1
1070
   174
1070
     0
1070
    74
1070
     0
1070
    73
1070
     0
1070
   284
1070
     8
1070
    78
1070
     8
1070
    42
1040
0.0
1070
    44
1040
0.0
1070
    43
1040
10.0
1070
   271
1070
     2
1070
    41
1040
2.0
1002
}
  0
DIMENSION
  5
402
330
1F
100
AcDbEntity
  8
1
  6
Continuous
 62
     7
370
     9
100
AcDbDimension
280
     0
  2
Dim2
 10
167.7433509821168
 20
72.62491199205367
 30
0.0
 11
166.1079103795152
 21
74.26848489738829
 31
0.0
 70
   160
  1
<>
 71
     5
 42
-1.0
 73
     0
 74
     0
 75
     0
  3
Standard
100
AcDbAlignedDimension
 13
164.443350982116
 23
82.19961151735686
 33
0.0
 14
167.743350982116
 24
82.94961151735686
 34
0.0
 50
-0.0000000000007402
100
AcDbRotatedDimension
1001
ACAD
1000
DSTYLE
1002
{
1070
   279
1070
     2
1070
   340
1005
3F0
1070
   140
1040
2.0
1070
    40
1040
1.0
1070
   147
1040
0.0
1070
    76
1070
     0
1070
    75
1070
     0
1070
   344
1005
51
1070
   343
1005
51
1070
   173
1070
     1
1070
   289
1070
     2
1070
   288
1070
     1
1070
    77
1070
     1
1070
   172
1070
     1
1070
   174
1070
     0
1070
    74
1070
     0
1070
    73
1070
     0
1070
   284
1070
     8
1070
    78
1070
     8
1070
    42
1040
2.0
1070
    44
1040
1.0
1070
    43
1040
10.0
1070
   271
1070
     2
1070
    41
1040
1.0
1002
}
  0
DIMENSION
  5
40C
330
1F
100
AcDbEntity
  8
1
  6
Continuous
 62
     7
370
     9
100
AcDbDimension
280
     0
  2
Dim3
 10
135.7433509821168
 20
72.62491199205363
 30
0.0
 11
139.443350982116
 21
74.12491199205363
 31
0.0
 70
   160
  1
<>
 71
     5
 42
-1.0
 73
     0
 74
     0
 75
     0
  3
Standard
100
AcDbAlignedDimension
 13
143.143350982116
 23
82.22556879402555
 33
0.0
 14
135.743350982116
 24
82.22556879402555
 34
0.0
 50
179.9999999999998
100
AcDbRotatedDimension
1001
ACAD
1000
DSTYLE
1002
{
1070
   279
1070
     2
1070
   340
1005
3F0
1070
   140
1040
2.0
1070
    40
1040
1.0
1070
   147
1040
0.0
1070
    76
1070
     0
1070
    75
1070
     0
1070
   344
1005
51
1070
   343
1005
51
1070
   173
1070
     1
1070
   289
1070
     2
1070
   288
1070
     1
1070
    77
1070
     1
1070
   172
1070
     1
1070
   174
1070
     0
1070
    74
1070
     0
1070
    73
1070
     0
1070
   284
1070
     8
1070
    78
1070
     8
1070
    42
1040
2.0
1070
    44
1040
1.0
1070
    43
1040
10.0
1070
   271
1070
     2
1070
    41
1040
1.0
1002
}
  0
DIMENSION
  5
416
330
1F
100
AcDbEntity
  8
1
  6
Continuous
 62
     7
370
     9
100
AcDbDimension
280
     0
  2
Dim4
 10
155.1433509821168
 20
72.62491199205368
 30
0.0
 11
149.143350982116
 21
74.12491199205371
 31
0.0
 70
   160
  1
<>
 71
     5
 42
-1.0
 73
     0
 74
     0
 75
     0
  3
Standard
100
AcDbAlignedDimension
 13
143.143350982116
 23
82.19961151735686
 33
0.0
 14
155.143350982116
 24
82.19961151735686
 34
0.0
 50
-0.0000000000002714
100
AcDbRotatedDimension
1001
ACAD
1000
DSTYLE
1002
{
1070
   279
1070
     2
1070
   340
1005
3F0
1070
   140
1040
2.0
1070
    40
1040
1.0
1070
   147
1040
0.0
1070
    76
1070
     0
1070
    75
1070
     0
1070
   344
1005
51
1070
   343
1005
51
1070
   173
1070
     1
1070
   289
1070
     2
1070
   288
1070
     1
1070
    77
1070
     1
1070
   172
1070
     1
1070
   174
1070
     0
1070
    74
1070
     0
1070
    73
1070
     0
1070
   284
1070
     8
1070
    78
1070
     8
1070
    42
1040
2.0
1070
    44
1040
1.0
1070
    43
1040
10.0
1070
   271
1070
     2
1070
    41
1040
1.0
1002
}
  0
DIMENSION
  5
420
330
1F
100
AcDbEntity
  8
1
  6
Continuous
 62
     7
370
     9
100
AcDbDimension
280
     0
  2
Dim5
 10
167.7433509821168
 20
66.8228701757356
 30
0.0
 11
148.643350982116
 21
68.32287017573563
 31
0.0
 70
   160
  1
<>
 71
     5
 42
-1.0
 73
     0
 74
     0
 75
     0
  3
Standard
100
AcDbAlignedDimension
 13
129.543350982116
 23
71.99991199205368
 33
0.0
 14
167.743350982116
 24
70.13553340474203
 34
0.0
 50
-0.0000000000000853
100
AcDbRotatedDimension
1001
ACAD
1000
DSTYLE
1002
{
1070
   279
1070
     2
1070
   340
1005
3F0
1070
   140
1040
2.0
1070
    40
1040
1.0
1070
   147
1040
0.0
1070
    76
1070
     0
1070
    75
1070
     0
1070
   344
1005
51
1070
   343
1005
51
1070
   173
1070
     1
1070
   289
1070
     2
1070
   288
1070
     1
1070
    77
1070
     1
1070
   172
1070
     1
1070
   174
1070
     0
1070
    74
1070
     0
1070
    73
1070
     0
1070
   284
1070
     8
1070
    78
1070
     8
1070
    42
1040
2.0
1070
    44
1040
1.0
1070
    43
1040
10.0
1070
   271
1070
     2
1070
    41
1040
1.0
1002
}
  0
DIMENSION
  5
42A
330
1F
100
AcDbEntity
  8
1
  6
Continuous
 62
     7
370
     9
100
AcDbDimension
280
     0
  2
Dim6
 10
185.269350982116
 20
66.82287017573566
 30
0.0
 11
176.506350982116
 21
68.32287017573569
 31
0.0
 70
   160
  1
<>
 71
     5
 42
-1.0
 73
     0
 74
     0
 75
     0
  3
Standard
100
AcDbAlignedDimension
 13
167.743350982116
 23
71.99991199205368
 33
0.0
 14
185.269350982116
 24
98.64961151735686
 34
0.0
 50
-0.0000000000001858
100
AcDbRotatedDimension
1001
ACAD
1000
DSTYLE
1002
{
1070
   279
1070
     2
1070
   340
1005
3F0
1070
   140
1040
2.0
1070
    40
1040
1.0
1070
   147
1040
0.0
1070
    76
1070
     0
1070
    75
1070
     0
1070
   344
1005
51
1070
   343
1005
51
1070
   173
1070
     1
1070
   289
1070
     2
1070
   288
1070
     1
1070
    77
1070
     1
1070
   172
1070
     1
1070
   174
1070
     0
1070
    74
1070
     0
1070
    73
1070
     0
1070
   284
1070
     8
1070
    78
1070
     8
1070
    42
1040
2.0
1070
    44
1040
1.0
1070
    43
1040
10.0
1070
   271
1070
     2
1070
    41
1040
1.0
1002
}
  0
DIMENSION
  5
434
330
1F
100
AcDbEntity
  8
1
  6
Continuous
 62
     7
370
     9
100
AcDbDimension
280
     0
  2
Dim7
 10
164.4433509821168
 20
72.62491199205374
 30
0.0
 11
159.793350982116
 21
74.12491199205374
 31
0.0
 70
   160
  1
<>
 71
     5
 42
-1.0
 73
     0
 74
     0
 75
     0
  3
Standard
100
AcDbAlignedDimension
 13
155.143350982116
 23
82.19961151735686
 33
0.0
 14
164.443350982116
 24
81.88711151735686
 34
0.0
100
AcDbRotatedDimension
1001
ACAD
1000
DSTYLE
1002
{
1070
   279
1070
     2
1070
   340
1005
3F0
1070
   140
1040
2.0
1070
    40
1040
1.0
1070
   147
1040
0.0
1070
    76
1070
     0
1070
    75
1070
     0
1070
   344
1005
51
1070
   343
1005
51
1070
   173
1070
     1
1070
   289
1070
     2
1070
   288
1070
     1
1070
    77
1070
     1
1070
   172
1070
     1
1070
   174
1070
     0
1070
    74
1070
     0
1070
    73
1070
     0
1070
   284
1070
     8
1070
    78
1070
     8
1070
    42
1040
2.0
1070
    44
1040
1.0
1070
    43
1040
10.0
1070
   271
1070
     2
1070
    41
1040
1.0
1002
}
  0
DIMENSION
  5
43E
330
1F
100
AcDbEntity
  8
1
  6
Continuous
 62
     7
370
     9
100
AcDbDimension
280
     0
  2
Dim8
 10
167.7433509821168
 20
72.62491199205368
 30
0.0
 11
169.743350982116
 21
74.12491199205368
 31
0.0
 70
   160
  1
<>
 71
     5
 42
-1.0
 73
     0
 74
     0
 75
     0
  3
Standard
100
AcDbAlignedDimension
 13
171.743350982116
 23
86.44961151735686
 33
0.0
 14
167.743350982116
 24
82.94961151735686
 34
0.0
 50
179.9999999999998
100
AcDbRotatedDimension
1001
ACAD
1000
DSTYLE
1002
{
1070
   279
1070
     2
1070
   340
1005
3F0
1070
   140
1040
2.0
1070
    40
1040
1.0
1070
   147
1040
0.0
1070
    76
1070
     0
1070
    75
1070
     0
1070
   344
1005
51
1070
   343
1005
51
1070
   173
1070
     1
1070
   289
1070
     2
1070
   288
1070
     1
1070
    77
1070
     1
1070
   172
1070
     1
1070
   174
1070
     0
1070
    74
1070
     0
1070
    73
1070
     0
1070
   284
1070
     8
1070
    78
1070
     8
1070
    42
1040
2.0
1070
    44
1040
1.0
1070
    43
1040
10.0
1070
   271
1070
     2
1070
    41
1040
1.0
1002
}
  0
DIMENSION
  5
448
330
1F
100
AcDbEntity
  8
1
  6
Continuous
 62
     7
370
     9
100
AcDbDimension
280
     0
  2
Dim9
 10
191.4129329010894
 20
90.6496115173611
 30
0.0
 11
191.4129329010894
 21
98.68541380887063
 31
0.0
 70
   160
  1
φ<>
 71
     8
 42
-1.0
 73
     0
 74
     0
 75
     0
 53
89.99999999999991
  3
Standard
100
AcDbAlignedDimension
 13
172.4650332888843
 23
106.6496115173534
 33
0.0
 14
172.4650332888843
 24
90.64961151736031
 34
0.0
 50
-89.99999999999991
100
AcDbRotatedDimension
1001
ACAD
1000
DSTYLE
1002
{
1070
   279
1070
     1
1070
   340
1005
3F0
1070
   140
1040
2.0
1070
    40
1040
1.0
1070
   147
1040
0.0
1070
    76
1070
     0
1070
    75
1070
     0
1070
   344
1005
51
1070
   343
1005
51
1070
   173
1070
     1
1070
   289
1070
     2
1070
   288
1070
     1
1070
    77
1070
     1
1070
   172
1070
     1
1070
   174
1070
     0
1070
    74
1070
     0
1070
    73
1070
     0
1070
   284
1070
     8
1070
    78
1070
     8
1070
    42
1040
2.0
1070
    44
1040
1.0
1070
    43
1040
10.0
1070
   271
1070
     2
1070
    41
1040
1.0
1002
}
  0
DIMENSION
  5
452
330
1F
100
AcDbEntity
  8
1
  6
Continuous
 62
     7
370
     9
100
AcDbDimension
280
     0
  2
Dim10
 10
195.4129329010895
 20
82.64961151735761
 30
0.0
 11
195.4129329010895
 21
98.68541380887063
 31
0.0
 70
   160
  1
φ<>
 71
     8
 42
-1.0
 73
     0
 74
     0
 75
     0
 53
89.99999999999991
  3
Standard
100
AcDbAlignedDimension
 13
167.443350982116
 23
114.6496115173568
 33
0.0
 14
167.443350982116
 24
82.64961151735685
 34
0.0
 50
-89.99999999999991
100
AcDbRotatedDimension
1001
ACAD
1000
DSTYLE
1002
{
1070
   279
1070
     1
1070
   340
1005
3F0
1070
   140
1040
2.0
1070
    40
1040
1.0
1070
   147
1040
0.0
1070
    76
1070
     0
1070
    75
1070
     0
1070
   344
1005
51
1070
   343
1005
51
1070
   173
1070
     1
1070
   289
1070
     2
1070
   288
1070
     1
1070
    77
1070
     1
1070
   172
1070
     1
1070
   174
1070
     0
1070
    74
1070
     0
1070
    73
1070
     0
1070
   284
1070
     8
1070
    78
1070
     8
1070
    42
1040
2.0
1070
    44
1040
1.0
1070
    43
1040
10.0
1070
   271
1070
     2
1070
    41
1040
1.0
1002
}
  0
MTEXT
  5
453
330
1F
100
AcDbEntity
  8
1
  6
Continuous
 62
     7
370
     9
100
AcDbMText
 10
173.5595899814108
 20
66.37745372581884
 30
0.0
 40
1.25
 41
7.097318799424426
 46
1.25
 71
     1
 72
     1
  1
{\fＭＳ 明朝;\T0.761675;(IN AIR)}
 73
     1
 44
1.0
1001
ACAD
1000
ACAD_MTEXT_DEFINED_HEIGHT_BEGIN
1070
    46
1040
1.25
1000
ACAD_MTEXT_DEFINED_HEIGHT_END
  0
DIMENSION
  5
45D
330
1F
100
AcDbEntity
  8
1
  6
Continuous
 62
     7
370
     9
100
AcDbDimension
280
     0
  2
Dim11
 10
120.6248355808529
 20
82.64961151735767
 30
0.0
 11
119.1248355808529
 21
98.84227655396867
 31
0.0
 70
   160
  1
φ<>
 71
     5
 42
-1.0
 73
     0
 74
     0
 75
     0
 53
89.99999999999991
  3
Standard
100
AcDbAlignedDimension
 13
129.743350982116
 23
114.6496115173568
 33
0.0
 14
129.743350982116
 24
82.64961151735685
 34
0.0
 50
-89.99999999999991
100
AcDbRotatedDimension
1001
ACAD
1000
DSTYLE
1002
{
1070
   279
1070
     2
1070
   340
1005
3F0
1070
   140
1040
2.0
1070
    40
1040
1.0
1070
   147
1040
0.0
1070
    76
1070
     0
1070
    75
1070
     0
1070
   344
1005
51
1070
   343
1005
51
1070
   173
1070
     1
1070
   289
1070
     2
1070
   288
1070
     1
1070
    77
1070
     1
1070
   172
1070
     1
1070
   174
1070
     0
1070
    74
1070
     0
1070
    73
1070
     0
1070
   284
1070
     8
1070
    78
1070
     8
1070
    42
1040
2.0
1070
    44
1040
1.0
1070
    43
1040
10.0
1070
   271
1070
     2
1070
    41
1040
1.0
1002
}
  0
DIMENSION
  5
467
330
1F
100
AcDbEntity
  8
1
  6
Continuous
 62
     7
370
     9
100
AcDbDimension
280
     0
  2
Dim12
 10
116.1248355808529
 20
81.89961151735768
 30
0.0
 11
114.6248355808529
 21
98.68541380887063
 31
0.0
 70
   160
  1
φ<>
 71
     5
 42
-1.0
 73
     0
 74
     0
 75
     0
 53
89.99999999999991
  3
Standard
100
AcDbAlignedDimension
 13
136.043350982116
 23
115.3996115173568
 33
0.0
 14
136.043350982116
 24
81.89961151735685
 34
0.0
 50
-90.00000000000001
100
AcDbRotatedDimension
1001
ACAD
1000
DSTYLE
1002
{
1070
   279
1070
     2
1070
   340
1005
3F0
1070
   140
1040
2.0
1070
    40
1040
1.0
1070
   147
1040
0.0
1070
    76
1070
     0
1070
    75
1070
     0
1070
   344
1005
51
1070
   343
1005
51
1070
   173
1070
     1
1070
   289
1070
     2
1070
   288
1070
     1
1070
    77
1070
     1
1070
   172
1070
     1
1070
   174
1070
     0
1070
    74
1070
     0
1070
    73
1070
     0
1070
   284
1070
     8
1070
    78
1070
     8
1070
    42
1040
2.0
1070
    44
1040
1.0
1070
    43
1040
10.0
1070
   271
1070
     2
1070
    41
1040
1.0
1002
}
  0
INSERT
  5
468
330
1F
100
AcDbEntity
  8
1
  6
Continuous
 62
     7
370
     9
100
AcDbBlockReference
  2
MARK_OPEN
 10
170.093350982116
 20
111.3496115173568
 30
0.0
 50
229.9999999999998
  0
POLYLINE
  5
469
330
1F
100
AcDbEntity
  8
1
  6
Continuous
 62
     7
370
     9
100
AcDb2dPolyline
 66
     1
 10
0.0
 20
0.0
 30
0.0
  0
VERTEX
  5
46A
330
469
100
AcDbEntity
  8
1
  6
Continuous
 62
     7
370
     9
100
AcDbVertex
100
AcDb2dVertex
 10
170.093350982116
 20
111.3496115173568
 30
0.0
  0
VERTEX
  5
46B
330
469
100
AcDbEntity
  8
1
  6
Continuous
 62
     7
370
     9
100
AcDbVertex
100
AcDb2dVertex
 10
179.2061779085277
 20
122.2098557455972
 30
0.0
  0
VERTEX
  5
46C
330
469
100
AcDbEntity
  8
1
  6
Continuous
 62
     7
370
     9
100
AcDbVertex
100
AcDb2dVertex
 10
183.1334052275286
 20
122.2098557455972
 30
0.0
  0
SEQEND
  5
46D
330
469
100
AcDbEntity
  8
1
  6
Continuous
 62
     7
370
     9
  0
INSERT
  5
46E
330
1F
100
AcDbEntity
  8
1
  6
Continuous
 62
     7
370
     9
100
AcDbBlockReference
  2
MARK_OPEN
 10
159.793350982116
 20
115.3996115173568
 30
0.0
 50
229.9999999999998
  0
POLYLINE
  5
46F
330
1F
100
AcDbEntity
  8
1
  6
Continuous
 62
     7
370
     9
100
AcDb2dPolyline
 66
     1
 10
0.0
 20
0.0
 30
0.0
  0
VERTEX
  5
470
330
46F
100
AcDbEntity
  8
1
  6
Continuous
 62
     7
370
     9
100
AcDbVertex
100
AcDb2dVertex
 10
159.793350982116
 20
115.3996115173568
 30
0.0
  0
VERTEX
  5
471
330
46F
100
AcDbEntity
  8
1
  6
Continuous
 62
     7
370
     9
100
AcDbVertex
100
AcDb2dVertex
 10
168.9061779085277
 20
126.2598557455972
 30
0.0
  0
VERTEX
  5
472
330
46F
100
AcDbEntity
  8
1
  6
Continuous
 62
     7
370
     9
100
AcDbVertex
100
AcDb2dVertex
 10
172.8334052275286
 20
126.2598557455972
 30
0.0
  0
SEQEND
  5
473
330
46F
100
AcDbEntity
  8
1
  6
Continuous
 62
     7
370
     9
  0
INSERT
  5
474
330
1F
100
AcDbEntity
  8
1
  6
Continuous
 62
     7
370
     9
100
AcDbBlockReference
  2
MARK_OPEN
 10
131.0393673129994
 20
113.6496115173568
 30
0.0
 50
314.9999999999998
  0
POLYLINE
  5
475
330
1F
100
AcDbEntity
  8
1
  6
Continuous
 62
     7
370
     9
100
AcDb2dPolyline
 66
     1
 10
0.0
 20
0.0
 30
0.0
  0
VERTEX
  5
476
330
475
100
AcDbEntity
  8
1
  6
Continuous
 62
     7
370
     9
100
AcDbVertex
100
AcDb2dVertex
 10
131.0393673129994
 20
113.6496115173568
 30
0.0
  0
VERTEX
  5
477
330
475
100
AcDbEntity
  8
1
  6
Continuous
 62
     7
370
     9
100
AcDbVertex
100
AcDb2dVertex
 10
124.8430859031574
 20
119.8458929271988
 30
0.0
  0
VERTEX
  5
478
330
475
100
AcDbEntity
  8
1
  6
Continuous
 62
     7
370
     9
100
AcDbVertex
100
AcDb2dVertex
 10
123.5003656665287
 20
119.8458929271988
 30
0.0
  0
SEQEND
  5
479
330
475
100
AcDbEntity
  8
1
  6
Continuous
 62
     7
370
     9
  0
INSERT
  5
47A
330
1F
100
AcDbEntity
  8
1
  6
Continuous
 62
     7
370
     9
100
AcDbBlockReference
  2
MARK_OPEN
 10
140.9459787682113
 20
115.3996115173568
 30
0.0
 50
313.5445872475236
  0
POLYLINE
  5
47B
330
1F
100
AcDbEntity
  8
1
  6
Continuous
 62
     7
370
     9
100
AcDb2dPolyline
 66
     1
 10
0.0
 20
0.0
 30
0.0
  0
VERTEX
  5
47C
330
47B
100
AcDbEntity
  8
1
  6
Continuous
 62
     7
370
     9
100
AcDbVertex
100
AcDb2dVertex
 10
140.9459787682113
 20
115.3996115173568
 30
0.0
  0
VERTEX
  5
47D
330
47B
100
AcDbEntity
  8
1
  6
Continuous
 62
     7
370
     9
100
AcDbVertex
100
AcDb2dVertex
 10
133.308562712975
 20
123.4352357900926
 30
0.0
  0
VERTEX
  5
47E
330
47B
100
AcDbEntity
  8
1
  6
Continuous
 62
     7
370
     9
100
AcDbVertex
100
AcDb2dVertex
 10
131.9658424763463
 20
123.4352357900926
 30
0.0
  0
SEQEND
  5
47F
330
47B
100
AcDbEntity
  8
1
  6
Continuous
 62
     7
370
     9
  0
INSERT
  5
480
330
1F
100
AcDbEntity
  8
1
  6
Continuous
 62
     7
370
     9
100
AcDbBlockReference
  2
MARK_OPEN
 10
151.1287923318629
 20
115.2496115173569
 30
0.0
 50
312.3382688001406
  0
POLYLINE
  5
481
330
1F
100
AcDbEntity
  8
1
  6
Continuous
 62
     7
370
     9
100
AcDb2dPolyline
 66
     1
 10
0.0
 20
0.0
 30
0.0
  0
VERTEX
  5
482
330
481
100
AcDbEntity
  8
1
  6
Continuous
 62
     7
370
     9
100
AcDbVertex
100
AcDb2dVertex
 10
151.1287923318629
 20
115.2496115173569
 30
0.0
  0
VERTEX
  5
483
330
481
100
AcDbEntity
  8
1
  6
Continuous
 62
     7
370
     9
100
AcDbVertex
100
AcDb2dVertex
 10
139.3906980223558
 20
128.1323123598057
 30
0.0
  0
VERTEX
  5
484
330
481
100
AcDbEntity
  8
1
  6
Continuous
 62
     7
370
     9
100
AcDbVertex
100
AcDb2dVertex
 10
138.1335133857996
 20
128.1323123598057
 30
0.0
  0
SEQEND
  5
485
330
481
100
AcDbEntity
  8
1
  6
Continuous
 62
     7
370
     9
  0
MTEXT
  5
486
330
1F
100
AcDbEntity
  8
1
  6
Continuous
 62
     7
370
     9
100
AcDbMText
 10
153.6152260880232
 20
102.2444355305619
 30
0.0
 40
2.200000000000003
 41
3.147034114224004
 46
2.200000000000003
 71
     1
 72
     1
  1
{\fＭＳ ゴシック;\T0.855848;16}
 11
-1.608122649676637E-16
 21
-1.0
 31
0.0
 73
     1
 44
1.0
1001
ACAD
1000
ACAD_MTEXT_DEFINED_HEIGHT_BEGIN
1070
    46
1040
2.200000000000003
1000
ACAD_MTEXT_DEFINED_HEIGHT_END
  0
MTEXT
  5
487
330
1F
100
AcDbEntity
  8
1
  6
Continuous
 62
     7
370
     9
100
AcDbMText
 10
153.6352956502042
 20
98.14692255844548
 30
0.0
 40
2.200000000000003
 41
1.649472000000002
 46
2.200000000000003
 71
     1
 72
     1
  1
{\fＭＳ ゴシック;\T0.750000;8}
 11
-1.608122649676637E-16
 21
-1.0
 31
0.0
 73
     1
 44
1.0
1001
ACAD
1000
ACAD_MTEXT_DEFINED_HEIGHT_BEGIN
1070
    46
1040
2.200000000000003
1000
ACAD_MTEXT_DEFINED_HEIGHT_END
  0
MTEXT
  5
488
330
1F
100
AcDbEntity
  8
1
  6
Continuous
 62
     7
370
     9
100
AcDbMText
 10
153.6352956502042
 20
95.39792447058429
 30
0.0
 40
2.200000000000003
 41
1.758812000000002
 46
2.200000000000003
 71
     1
 72
     1
  1
{\fＭＳ ゴシック;\T0.750000;4}
 11
-1.608122649676637E-16
 21
-1.0
 31
0.0
 73
     1
 44
1.0
1001
ACAD
1000
ACAD_MTEXT_DEFINED_HEIGHT_BEGIN
1070
    46
1040
2.200000000000003
1000
ACAD_MTEXT_DEFINED_HEIGHT_END
  0
MTEXT
  5
489
330
1F
100
AcDbEntity
  8
1
  6
Continuous
 62
     7
370
     9
100
AcDbMText
 10
153.6433850250448
 20
92.64477458165348
 30
0.0
 40
2.200000000000003
 41
0.8403560000000011
 46
2.200000000000003
 71
     1
 72
     1
  1
{\fＭＳ ゴシック;\T0.750000;1}
 11
-1.608122649676637E-16
 21
-1.0
 31
0.0
 73
     1
 44
1.0
1001
ACAD
1000
ACAD_MTEXT_DEFINED_HEIGHT_BEGIN
1070
    46
1040
2.200000000000003
1000
ACAD_MTEXT_DEFINED_HEIGHT_END
  0
MTEXT
  5
48A
330
1F
100
AcDbEntity
  8
1
  6
Continuous
 62
     7
370
     9
100
AcDbMText
 10
153.6152260880232
 20
107.6292278242159
 30
0.0
 40
2.200000000000003
 41
1.743192000000002
 46
2.200000000000003
 71
     1
 72
     1
  1
{\fＭＳ ゴシック;\T0.750000;C}
 11
-1.608122649676637E-16
 21
-1.0
 31
0.0
 73
     1
 44
1.0
1001
ACAD
1000
ACAD_MTEXT_DEFINED_HEIGHT_BEGIN
1070
    46
1040
2.200000000000003
1000
ACAD_MTEXT_DEFINED_HEIGHT_END
  0
MTEXT
  5
48B
330
1F
100
AcDbEntity
  8
1
  6
Continuous
 62
     7
370
     9
100
AcDbMText
 10
153.659564687645
 20
91.16183335206293
 30
0.0
 40
2.200000000000003
 41
1.649472000000002
 46
2.200000000000003
 71
     1
 72
     1
  1
{\fＭＳ ゴシック;\T0.750000;8}
 11
-1.608122649676637E-16
 21
-1.0
 31
0.0
 73
     1
 44
1.0
1001
ACAD
1000
ACAD_MTEXT_DEFINED_HEIGHT_BEGIN
1070
    46
1040
2.200000000000003
1000
ACAD_MTEXT_DEFINED_HEIGHT_END
  0
MTEXT
  5
48C
330
1F
100
AcDbEntity
  8
1
  6
Continuous
 62
     7
370
     9
100
AcDbMText
 10
153.6595646876451
 20
91.71604605330131
 30
0.0
 40
2.200000000000003
 41
0.3623840000000004
 46
2.200000000000003
 71
     1
 72
     1
  1
{\fＭＳ ゴシック;\T0.750000;.}
 11
-1.608122649676637E-16
 21
-1.0
 31
0.0
 73
     1
 44
1.0
1001
ACAD
1000
ACAD_MTEXT_DEFINED_HEIGHT_BEGIN
1070
    46
1040
2.200000000000003
1000
ACAD_MTEXT_DEFINED_HEIGHT_END
  0
INSERT
  5
491
330
1F
100
AcDbEntity
  8
0
100
AcDbBlockReference
  2
*G28
 10
0.0
 20
0.0
 30
0.0
  0
HATCH
  5
492
330
1F
100
AcDbEntity
  8
1
  6
Continuous
 62
     7
370
     9
100
AcDbHatch
 10
0.0
 20
0.0
 30
0.0
210
0.0
220
0.0
230
1.0
  2
SOLID
 70
     1
 71
     0
 91
        1
 92
        0
 93
        8
 72
     2
 10
146.7933509821162
 20
108.1146115173568
 40
0.1500000000000057
 50
0.0
 51
89.99999999999991
 73
     1
 72
     1
 10
146.7933509821162
 20
108.2646115173569
 11
145.5933509821162
 21
108.2646115173569
 72
     2
 10
145.5933509821162
 20
108.1146115173568
 40
0.1500000000000057
 50
89.99999999999991
 51
179.9999999999998
 73
     1
 72
     1
 10
145.4433509821162
 20
108.1146115173568
 11
145.4433509821162
 21
107.6646115173568
 72
     2
 10
145.5933509821162
 20
107.6646115173568
 40
0.1500000000000057
 50
179.9999999999998
 51
270.0000000000001
 73
     1
 72
     1
 10
145.5933509821162
 20
107.5146115173569
 11
146.7933509821162
 21
107.5146115173569
 72
     2
 10
146.7933509821162
 20
107.6646115173568
 40
0.1500000000000057
 50
270.0000000000001
 51
360.0
 73
     1
 72
     1
 10
146.9433509821162
 20
107.6646115173568
 11
146.9433509821162
 21
108.1146115173568
 97
        0
 75
     0
 76
     1
 98
        0
  0
LINE
  5
493
330
1F
100
AcDbEntity
  8
1
  6
Continuous
 62
     7
370
     9
100
AcDbLine
 10
146.7308232265429
 20
102.6683773935448
 30
0.0
 11
145.5308232265429
 21
102.6683773935448
 31
0.0
  0
LINE
  5
494
330
1F
100
AcDbEntity
  8
1
  6
Continuous
 62
     7
370
     9
100
AcDbLine
 10
146.7308232265429
 20
101.9183773935448
 30
0.0
 11
145.5308232265429
 21
101.9183773935448
 31
0.0
  0
ARC
  5
495
330
1F
100
AcDbEntity
  8
1
  6
Continuous
 62
     7
370
     9
100
AcDbCircle
 10
145.5308232265429
 20
102.5183773935448
 30
0.0
 40
0.1500000000000057
100
AcDbArc
 50
89.99999999999991
 51
179.9999999999892
  0
LINE
  5
496
330
1F
100
AcDbEntity
  8
1
  6
Continuous
 62
     7
370
     9
100
AcDbLine
 10
145.3808232265428
 20
102.0683773935448
 30
0.0
 11
145.3808232265428
 21
102.5183773935449
 31
0.0
  0
ARC
  5
497
330
1F
100
AcDbEntity
  8
1
  6
Continuous
 62
     7
370
     9
100
AcDbCircle
 10
145.5308232265429
 20
102.0683773935448
 30
0.0
 40
0.1500000000000057
100
AcDbArc
 50
179.9999999999892
 51
269.9999999999998
  0
ARC
  5
498
330
1F
100
AcDbEntity
  8
1
  6
Continuous
 62
     7
370
     9
100
AcDbCircle
 10
146.7308232265429
 20
102.5183773935448
 30
0.0
 40
0.1500000000000057
100
AcDbArc
 50
0.0000000000108563
 51
89.99999999999991
  0
ARC
  5
499
330
1F
100
AcDbEntity
  8
1
  6
Continuous
 62
     7
370
     9
100
AcDbCircle
 10
146.7308232265429
 20
102.0683773935448
 30
0.0
 40
0.1500000000000057
100
AcDbArc
 50
269.9999999999998
 51
0.0000000000108563
  0
INSERT
  5
49E
330
1F
100
AcDbEntity
  8
0
100
AcDbBlockReference
  2
*G29
 10
0.0
 20
0.0
 30
0.0
  0
HATCH
  5
49F
330
1F
100
AcDbEntity
  8
1
  6
Continuous
 62
     7
370
     9
100
AcDbHatch
 10
0.0
 20
0.0
 30
0.0
210
0.0
220
0.0
230
1.0
  2
SOLID
 70
     1
 71
     0
 91
        1
 92
        0
 93
        8
 72
     2
 10
146.7308232265429
 20
102.5183773935448
 40
0.1500000000000057
 50
0.0
 51
89.99999999999991
 73
     1
 72
     1
 10
146.7308232265429
 20
102.6683773935448
 11
145.5308232265429
 21
102.6683773935448
 72
     2
 10
145.5308232265429
 20
102.5183773935448
 40
0.1500000000000057
 50
89.99999999999991
 51
179.9999999999998
 73
     1
 72
     1
 10
145.3808232265428
 20
102.5183773935448
 11
145.3808232265428
 21
102.0683773935448
 72
     2
 10
145.5308232265429
 20
102.0683773935448
 40
0.1500000000000057
 50
179.9999999999998
 51
270.0000000000001
 73
     1
 72
     1
 10
145.5308232265429
 20
101.9183773935448
 11
146.7308232265429
 21
101.9183773935448
 72
     2
 10
146.7308232265429
 20
102.0683773935448
 40
0.1500000000000057
 50
270.0000000000001
 51
360.0
 73
     1
 72
     1
 10
146.8808232265428
 20
102.0683773935448
 11
146.8808232265428
 21
102.5183773935448
 97
        0
 75
     0
 76
     1
 98
        0
  0
HATCH
  5
4A0
330
1F
100
AcDbEntity
  8
1
  6
Continuous
 62
     7
370
     9
100
AcDbHatch
 10
0.0
 20
0.0
 30
0.0
210
0.0
220
0.0
230
1.0
  2
SOLID
 70
     1
 71
     0
 91
        1
 92
        0
 93
        1
 72
     2
 10
156.743350982116
 20
98.64961151735685
 40
0.75
 50
0.0
 51
360.0
 73
     1
 97
        0
 75
     0
 76
     1
 98
        0
  0
HATCH
  5
4A1
330
1F
100
AcDbEntity
  8
1
  6
Continuous
 62
     7
370
     9
100
AcDbHatch
 10
0.0
 20
0.0
 30
0.0
210
0.0
220
0.0
230
1.0
  2
SOLID
 70
     1
 71
     0
 91
        1
 92
        0
 93
        1
 72
     2
 10
141.643350982116
 20
98.64961151735685
 40
0.75
 50
0.0
 51
360.0
 73
     1
 97
        0
 75
     0
 76
     1
 98
        0
  0
HATCH
  5
4A2
330
1F
100
AcDbEntity
  8
1
  6
Continuous
 62
     7
370
     9
100
AcDbHatch
 10
0.0
 20
0.0
 30
0.0
210
0.0
220
0.0
230
1.0
  2
SOLID
 70
     1
 71
     0
 91
        1
 92
        0
 93
        1
 72
     2
 10
152.3433509821162
 20
98.85361151735685
 40
0.25
 50
0.0
 51
360.0
 73
     1
 97
        0
 75
     0
 76
     1
 98
        0
  0
HATCH
  5
4A3
330
1F
100
AcDbEntity
  8
1
  6
Continuous
 62
     7
370
     9
100
AcDbHatch
 10
0.0
 20
0.0
 30
0.0
210
0.0
220
0.0
230
1.0
  2
SOLID
 70
     1
 71
     0
 91
        1
 92
        0
 93
        1
 72
     2
 10
152.3433509821162
 20
93.22961151735683
 40
0.25
 50
0.0
 51
360.0
 73
     1
 97
        0
 75
     0
 76
     1
 98
        0
  0
HATCH
  5
4A4
330
1F
100
AcDbEntity
  8
1
  6
Continuous
 62
     7
370
     9
100
AcDbHatch
 10
0.0
 20
0.0
 30
0.0
210
0.0
220
0.0
230
1.0
  2
SOLID
 70
     1
 71
     0
 91
        1
 92
        0
 93
        1
 72
     2
 10
152.3433509821162
 20
95.92961151735688
 40
0.25
 50
0.0
 51
360.0
 73
     1
 97
        0
 75
     0
 76
     1
 98
        0
  0
INSERT
  5
4AE
330
1F
100
AcDbEntity
  8
0
100
AcDbBlockReference
  2
*G30
 10
0.0
 20
0.0
 30
0.0
  0
DIMENSION
  5
4B8
330
1F
100
AcDbEntity
  8
1
  6
Continuous
 62
     7
370
     9
100
AcDbDimension
280
     0
  2
Dim13
 10
135.7433509821167
 20
72.62491199205363
 30
0.0
 11
132.5883959499067
 21
74.31965538680168
 31
0.0
 70
   160
  1
(<>
 71
     5
 42
-1.0
 73
     0
 74
     0
 75
     0
  3
Standard
100
AcDbAlignedDimension
 13
129.543350982116
 23
82.84961151735683
 33
0.0
 14
135.743350982116
 24
82.19961151735686
 34
0.0
 50
-0.0000000000005253
100
AcDbRotatedDimension
1001
ACAD
1000
DSTYLE
1002
{
1070
   279
1070
     2
1070
   340
1005
3F0
1070
   140
1040
2.0
1070
    40
1040
1.0
1070
   147
1040
0.0
1070
    76
1070
     0
1070
    75
1070
     0
1070
   344
1005
51
1070
   343
1005
51
1070
   173
1070
     1
1070
   289
1070
     2
1070
   288
1070
     1
1070
    77
1070
     1
1070
   172
1070
     1
1070
   174
1070
     0
1070
    74
1070
     0
1070
    73
1070
     0
1070
   284
1070
     8
1070
    78
1070
     8
1070
    42
1040
2.0
1070
    44
1040
1.0
1070
    43
1040
10.0
1070
   271
1070
     2
1070
    41
1040
1.0
1002
}
  0
DIMENSION
  5
4C2
330
1F
100
AcDbEntity
  8
1
  6
Continuous
 62
     7
370
     9
100
AcDbDimension
280
     0
  2
Dim14
 10
171.7433509821164
 20
72.62491199205368
 30
0.0
 11
176.1077138289368
 21
74.0695443645084
 31
0.0
 70
   160
  1
(0.9)
 71
     5
 42
-1.0
 73
     0
 74
     0
 75
     0
  3
Standard
100
AcDbAlignedDimension
 13
172.6650332888844
 23
90.8496115173603
 33
0.0
 14
171.743350982116
 24
86.44961151735686
 34
0.0
 50
179.9999999999998
100
AcDbRotatedDimension
1001
ACAD
1000
DSTYLE
1002
{
1070
   279
1070
     2
1070
   340
1005
3F0
1070
   140
1040
2.0
1070
    40
1040
1.0
1070
   147
1040
0.0
1070
    76
1070
     0
1070
    75
1070
     0
1070
   344
1005
51
1070
   343
1005
51
1070
   173
1070
     1
1070
   289
1070
     2
1070
   288
1070
     1
1070
    77
1070
     1
1070
   172
1070
     1
1070
   174
1070
     0
1070
    74
1070
     0
1070
    73
1070
     0
1070
   284
1070
     8
1070
    78
1070
     8
1070
    42
1040
2.0
1070
    44
1040
1.0
1070
    43
1040
10.0
1070
   271
1070
     2
1070
    41
1040
1.0
1002
}
  0
MTEXT
  5
4C3
330
1F
100
AcDbEntity
  8
1
  6
Continuous
 62
     7
370
     9
100
AcDbMText
 10
169.7994999987704
 20
126.6769309089959
 30
0.0
 40
1.5
 41
16.9372275
 46
1.5
 71
     7
 72
     1
  1
{\fＭＳ ゴシック;\T0.750000;アイリスリング}
 73
     1
 44
1.0
1001
ACAD
1000
ACAD_MTEXT_DEFINED_HEIGHT_BEGIN
1070
    46
1040
1.5
1000
ACAD_MTEXT_DEFINED_HEIGHT_END
  0
MTEXT
  5
4C4
330
1F
100
AcDbEntity
  8
1
  6
Continuous
 62
     7
370
     9
100
AcDbMText
 10
132.8215184861211
 20
123.9608111480396
 30
0.0
 40
1.5
 41
19.17718875
 46
1.5
 71
     9
 72
     1
  1
{\fＭＳ ゴシック;\T0.750000;フォーカスリング}
 73
     1
 44
1.0
1001
ACAD
1000
ACAD_MTEXT_DEFINED_HEIGHT_BEGIN
1070
    46
1040
1.5
1000
ACAD_MTEXT_DEFINED_HEIGHT_END
  0
MTEXT
  5
4C5
330
1F
100
AcDbEntity
  8
1
  6
Continuous
 62
     7
370
     9
100
AcDbMText
 10
138.6576146929892
 20
128.7585378500018
 30
0.0
 40
1.5
 41
21.79416
 46
1.5
 71
     9
 72
     1
  1
{\fＭＳ ゴシック;\T0.750000;インデックスリング}
 73
     1
 44
1.0
1001
ACAD
1000
ACAD_MTEXT_DEFINED_HEIGHT_BEGIN
1070
    46
1040
1.5
1000
ACAD_MTEXT_DEFINED_HEIGHT_END
  0
MTEXT
  5
4C6
330
1F
100
AcDbEntity
  8
1
  6
Continuous
 62
     7
370
     9
100
AcDbMText
 10
124.2336173005156
 20
120.3675432539962
 30
0.0
 40
1.5
 41
11.69384870595
 46
1.5
 71
     9
 72
     1
  1
{\fＭＳ ゴシック;\T0.764137;M30.5 P=0.5}
 73
     1
 44
1.0
1001
ACAD
1000
ACAD_MTEXT_DEFINED_HEIGHT_BEGIN
1070
    46
1040
1.5
1000
ACAD_MTEXT_DEFINED_HEIGHT_END
  0
LINE
  5
4C7
330
1F
100
AcDbEntity
  8
1
  6
Continuous
 62
     7
370
     9
100
AcDbLine
 10
138.1335133857996
 20
128.1323123598057
 30
0.0
 11
125.2389885140966
 21
128.1323123598057
 31
0.0
  0
LINE
  5
4C8
330
1F
100
AcDbEntity
  8
1
  6
Continuous
 62
     7
370
     9
100
AcDbLine
 10
124.057338222593
 20
119.8458929271988
 30
0.0
 11
115.966782704519
 21
119.8458929271988
 31
0.0
  0
LINE
  5
4C9
330
1F
100
AcDbEntity
  8
1
  6
Continuous
 62
     7
370
     9
100
AcDbLine
 10
172.6421845067854
 20
126.2598557455972
 30
0.0
 11
180.3108501166368
 21
126.2598557455972
 31
0.0
  0
MTEXT
  5
4CA
330
1F
100
AcDbEntity
  8
1
  6
Continuous
 62
     7
370
     9
100
AcDbMText
 10
179.2765261174563
 20
122.7918520659089
 30
0.0
 40
1.5
 41
7.4245522677
 46
1.5
 71
     7
 72
     1
  1
{\fＭＳ ゴシック;\T0.772570;1-32UNF}
 73
     1
 44
1.0
1001
ACAD
1000
ACAD_MTEXT_DEFINED_HEIGHT_BEGIN
1070
    46
1040
1.5
1000
ACAD_MTEXT_DEFINED_HEIGHT_END
  0
LINE
  5
4CB
330
1F
100
AcDbEntity
  8
1
  6
Continuous
 62
     7
370
     9
100
AcDbLine
 10
132.1823550331581
 20
123.4352357900926
 30
0.0
 11
120.2679264851277
 21
123.4352357900926
 31
0.0
  0
MTEXT
  5
4CC
330
1F
100
AcDbEntity
  8
1
  6
Continuous
 62
     7
370
     9
100
AcDbMText
 10
144.7557691277151
 20
100.3616168813908
 30
0.0
 40
3.5
 41
5.850570570570571
 46
3.5
 71
     7
 72
     1
  1
{\fＭＳ 明朝;\T0.750000;∞}
 11
1.615544574432587E-15
 21
-1.0
 31
0.0
 73
     1
 44
1.0
1001
ACAD
1000
ACAD_MTEXT_DEFINED_HEIGHT_BEGIN
1070
    46
1040
3.5
1000
ACAD_MTEXT_DEFINED_HEIGHT_END
  0
LINE
  5
4CD
330
1F
100
AcDbEntity
  8
25
  6
Continuous
 62
     7
370
     9
100
AcDbLine
 10
185.269350982116
 20
98.64961151735686
 30
0.0
 11
184.969350982116
 21
98.34961151735688
 31
0.0
  0
LINE
  5
4CE
330
1F
100
AcDbEntity
  8
25
  6
Continuous
 62
     7
370
     9
100
AcDbLine
 10
185.269350982116
 20
98.64961151735686
 30
0.0
 11
185.569350982116
 21
98.34961151735688
 31
0.0
  0
LINE
  5
4CF
330
1F
100
AcDbEntity
  8
25
  6
Continuous
 62
     7
370
     9
100
AcDbLine
 10
185.269350982116
 20
98.64961151735686
 30
0.0
 11
184.969350982116
 21
98.94961151735684
 31
0.0
  0
LINE
  5
4D0
330
1F
100
AcDbEntity
  8
25
  6
Continuous
 62
     7
370
     9
100
AcDbLine
 10
185.269350982116
 20
98.64961151735686
 30
0.0
 11
185.569350982116
 21
98.94961151735684
 31
0.0
  0
ELLIPSE
  5
4D1
330
1F
100
AcDbEntity
  8
1
  6
Continuous
 62
     7
370
     9
100
AcDbEllipse
 10
149.343350982116
 20
80.46307803788363
 30
0.0
 11
2.000000000000014
 21
0.0
 31
0.0
210
0.0
220
0.0
230
1.0
 40
0.5000000000000249
 41
-0.6891931552431645
 42
3.931470053037454
  0
VIEWPORT
  5
3F
330
1B
100
AcDbEntity
 67
     1
  8
0
100
AcDbViewport
 10
210.0
 20
148.5
 30
0.0
 40
420.0
 41
297.0
 68
     1
 69
     1
 12
210.0
 22
148.5
 13
0.0
 23
0.0
 14
0.5
 24
0.5
 15
0.5
 25
0.5
 16
0.0
 26
0.0
 36
1.0
 17
0.0
 27
0.0
 37
0.0
 42
50.0
 43
0.0
 44
0.0
 45
9.0
 50
0.0
 51
0.0
 72
   100
 90
   557152
  1

281
     0
 71
     1
 74
     0
110
0.0
120
0.0
130
0.0
111
1.0
121
0.0
131
0.0
112
0.0
122
1.0
132
0.0
 79
     0
146
0.0
170
     0
 61
     5
292
     1
282
     1
141
0.0
142
0.0
 63
   256
  0
ENDSEC
  0
SECTION
  2
OBJECTS
  0
DICTIONARY
  5
C
330
0
100
AcDbDictionary
281
     1
  3
ACAD_GROUP
350
D
  3
ACAD_LAYOUT
350
1A
  3
ACAD_MATERIAL
350
3B
  3
ACAD_MLEADERSTYLE
350
4D3
  3
ACAD_MLINESTYLE
350
17
  3
ACAD_PLOTSETTINGS
350
19
  3
ACAD_PLOTSTYLENAME
350
E
  3
ACAD_TABLESTYLE
350
4D2
  3
ACAD_VISUALSTYLE
350
2A
  0
DICTIONARY
  5
D
102
{ACAD_REACTORS
330
C
102
}
330
C
100
AcDbDictionary
281
     1
  0
DICTIONARY
  5
1A
102
{ACAD_REACTORS
330
C
102
}
330
C
100
AcDbDictionary
281
     1
  3
Layout1
350
1E
  3
Layout2
350
26
  3
Model
350
22
  0
DICTIONARY
  5
3B
102
{ACAD_REACTORS
330
C
102
}
330
C
100
AcDbDictionary
281
     1
  3
ByBlock
350
3D
  3
ByLayer
350
3C
  3
Global
350
3E
  0
DICTIONARY
  5
4D3
102
{ACAD_REACTORS
330
C
102
}
330
C
100
AcDbDictionary
281
     1
  0
DICTIONARY
  5
17
102
{ACAD_REACTORS
330
C
102
}
330
C
100
AcDbDictionary
281
     1
  3
Standard
350
18
  0
DICTIONARY
  5
19
102
{ACAD_REACTORS
330
C
102
}
330
C
100
AcDbDictionary
281
     1
  0
ACDBDICTIONARYWDFLT
  5
E
102
{ACAD_REACTORS
330
C
102
}
330
C
100
AcDbDictionary
281
     1
  3
Normal
350
F
100
AcDbDictionaryWithDefault
340
F
  0
DICTIONARY
  5
4D2
102
{ACAD_REACTORS
330
C
102
}
330
C
100
AcDbDictionary
281
     1
  0
DICTIONARY
  5
2A
102
{ACAD_REACTORS
330
C
102
}
330
C
100
AcDbDictionary
281
     1
  3
2dWireframe
350
2F
  3
3D Hidden
350
31
  3
3dWireframe
350
30
  3
Basic
350
32
  3
Brighten
350
36
  3
ColorChange
350
3A
  3
Conceptual
350
34
  3
Dim
350
35
  3
Facepattern
350
39
  3
Flat
350
2B
  3
FlatWithEdges
350
2C
  3
Gouraud
350
2D
  3
GouraudWithEdges
350
2E
  3
Linepattern
350
38
  3
Realistic
350
33
  3
Thicken
350
37
  0
LAYOUT
  5
1E
102
{ACAD_REACTORS
330
1A
102
}
330
1A
100
AcDbPlotSettings
  1

  2
none_device
  4

  6

 40
0.0
 41
0.0
 42
0.0
 43
0.0
 44
0.0
 45
0.0
 46
0.0
 47
0.0
 48
0.0
 49
0.0
140
0.0
141
0.0
142
1.0
143
1.0
 70
   688
 72
     0
 73
     0
 74
     5
  7

 75
    16
 76
     0
 77
     2
 78
   300
147
1.0
148
0.0
149
0.0
100
AcDbLayout
  1
Layout1
 70
     1
 71
     1
 10
0.0
 20
0.0
 11
420.0
 21
297.0
 12
0.0
 22
0.0
 32
0.0
 14
0.0
 24
0.0
 34
0.0
 15
420.0
 25
297.0
 35
0.0
146
0.0
 13
0.0
 23
0.0
 33
0.0
 16
1.0
 26
0.0
 36
0.0
 17
0.0
 27
1.0
 37
0.0
 76
     0
330
1B
331
3F
  0
LAYOUT
  5
26
102
{ACAD_REACTORS
330
1A
102
}
330
1A
100
AcDbPlotSettings
  1

  2
none_device
  4

  6

 40
0.0
 41
0.0
 42
0.0
 43
0.0
 44
0.0
 45
0.0
 46
0.0
 47
0.0
 48
0.0
 49
0.0
140
0.0
141
0.0
142
1.0
143
1.0
 70
   688
 72
     0
 73
     0
 74
     5
  7

 75
    16
 76
     0
 77
     2
 78
   300
147
1.0
148
0.0
149
0.0
100
AcDbLayout
  1
Layout2
 70
     1
 71
     2
 10
0.0
 20
0.0
 11
0.0
 21
0.0
 12
0.0
 22
0.0
 32
0.0
 14
0.0
 24
0.0
 34
0.0
 15
0.0
 25
0.0
 35
0.0
146
0.0
 13
0.0
 23
0.0
 33
0.0
 16
1.0
 26
0.0
 36
0.0
 17
0.0
 27
1.0
 37
0.0
 76
     0
330
23
  0
LAYOUT
  5
22
102
{ACAD_REACTORS
330
1A
102
}
330
1A
100
AcDbPlotSettings
  1

  2
none_device
  4

  6

 40
0.0
 41
0.0
 42
0.0
 43
0.0
 44
0.0
 45
0.0
 46
0.0
 47
0.0
 48
0.0
 49
0.0
140
0.0
141
0.0
142
1.0
143
1.0
 70
  1712
 72
     0
 73
     0
 74
     0
  7

 75
     0
 76
     0
 77
     2
 78
   300
147
1.0
148
0.0
149
0.0
100
AcDbLayout
  1
Model
 70
     1
 71
     0
 10
0.0
 20
0.0
 11
420.0
 21
297.0
 12
0.0
 22
0.0
 32
0.0
 14
63.38145715179415
 24
65.12745372581884
 34
0.0
 15
196.4129329010895
 25
130.2585378500018
 35
0.0
146
0.0
 13
0.0
 23
0.0
 33
0.0
 16
1.0
 26
0.0
 36
0.0
 17
0.0
 27
1.0
 37
0.0
 76
     0
330
1F
331
29
  0
MATERIAL
  5
3D
102
{ACAD_REACTORS
330
3B
102
}
330
3B
100
AcDbMaterial
  1
ByBlock
 72
     1
 94
      127
  0
MATERIAL
  5
3C
102
{ACAD_REACTORS
330
3B
102
}
330
3B
100
AcDbMaterial
  1
ByLayer
 72
     1
 94
      127
  0
MATERIAL
  5
3E
102
{ACAD_REACTORS
330
3B
102
}
330
3B
100
AcDbMaterial
  1
Global
 72
     1
 94
      127
  0
MLINESTYLE
  5
18
102
{ACAD_REACTORS
330
17
102
}
330
17
100
AcDbMlineStyle
  2
Standard
 70
     0
  3

 62
   256
 51
90.0
 52
90.0
 71
     2
 49
0.5
 62
   256
  6
BYLAYER
 49
-0.5
 62
   256
  6
BYLAYER
  0
ACDBPLACEHOLDER
  5
F
102
{ACAD_REACTORS
330
E
102
}
330
E
  0
VISUALSTYLE
  5
2F
102
{ACAD_REACTORS
330
2A
102
}
330
2A
100
AcDbVisualStyle
  2
2dWireframe
 70
     4
177
     2
291
     0
 71
     0
176
     1
 72
     2
176
     1
 73
     0
176
     1
 90
        0
176
     1
 40
-0.6
176
     1
 41
-30.0
176
     1
 62
     5
 63
     7
421
 16777215
176
     1
 74
     1
176
     1
 91
        4
176
     1
 64
     7
176
     1
 65
   257
176
     1
 75
     1
176
     1
175
     1
176
     1
 42
1.0
176
     1
 92
        0
176
     1
 66
   257
176
     1
 43
1.0
176
     1
 76
     1
176
     1
 77
     6
176
     1
 78
     2
176
     1
 67
     7
176
     1
 79
     5
176
     1
170
     0
176
     1
171
     0
176
     1
290
     0
176
     1
 93
        1
176
     1
 44
0.0
176
     1
173
     0
176
     1
  0
VISUALSTYLE
  5
31
102
{ACAD_REACTORS
330
2A
102
}
330
2A
100
AcDbVisualStyle
  2
3D Hidden
 70
     6
177
     2
291
     0
 71
     1
176
     1
 72
     2
176
     1
 73
     2
176
     1
 90
        0
176
     1
 40
-0.6
176
     1
 41
-30.0
176
     1
 62
     5
 63
     7
421
 16777215
176
     1
 74
     2
176
     1
 91
        2
176
     1
 64
     7
176
     1
 65
   257
176
     1
 75
     2
176
     1
175
     1
176
     1
 42
40.0
176
     1
 92
        0
176
     1
 66
   257
176
     1
 43
1.0
176
     1
 76
     1
176
     1
 77
     6
176
     1
 78
     2
176
     1
 67
     7
176
     1
 79
     3
176
     1
170
     0
176
     1
171
     0
176
     1
290
     0
176
     1
 93
        1
176
     1
 44
0.0
176
     1
173
     0
176
     1
  0
VISUALSTYLE
  5
30
102
{ACAD_REACTORS
330
2A
102
}
330
2A
100
AcDbVisualStyle
  2
3dWireframe
 70
     5
177
     2
291
     0
 71
     0
176
     1
 72
     2
176
     1
 73
     0
176
     1
 90
        0
176
     1
 40
-0.6
176
     1
 41
-30.0
176
     1
 62
     5
 63
     7
421
 16777215
176
     1
 74
     1
176
     1
 91
        4
176
     1
 64
     7
176
     1
 65
   257
176
     1
 75
     1
176
     1
175
     1
176
     1
 42
1.0
176
     1
 92
        0
176
     1
 66
   257
176
     1
 43
1.0
176
     1
 76
     1
176
     1
 77
     6
176
     1
 78
     2
176
     1
 67
     7
176
     1
 79
     5
176
     1
170
     0
176
     1
171
     0
176
     1
290
     0
176
     1
 93
        1
176
     1
 44
0.0
176
     1
173
     0
176
     1
  0
VISUALSTYLE
  5
32
102
{ACAD_REACTORS
330
2A
102
}
330
2A
100
AcDbVisualStyle
  2
Basic
 70
     7
177
     2
291
     1
 71
     1
176
     1
 72
     0
176
     1
 73
     1
176
     1
 90
        0
176
     1
 40
-0.6
176
     1
 41
-30.0
176
     1
 62
     5
 63
     7
421
 16777215
176
     1
 74
     0
176
     1
 91
        4
176
     1
 64
     7
176
     1
 65
   257
176
     1
 75
     1
176
     1
175
     1
176
     1
 42
1.0
176
     1
 92
        8
176
     1
 66
     7
176
     1
 43
1.0
176
     1
 76
     1
176
     1
 77
     6
176
     1
 78
     2
176
     1
 67
     7
176
     1
 79
     5
176
     1
170
     0
176
     1
171
     0
176
     1
290
     0
176
     1
 93
        1
176
     1
 44
0.0
176
     1
173
     0
176
     1
  0
VISUALSTYLE
  5
36
102
{ACAD_REACTORS
330
2A
102
}
330
2A
100
AcDbVisualStyle
  2
Brighten
 70
    12
177
     2
291
     1
 71
     2
176
     1
 72
     2
176
     1
 73
     0
176
     1
 90
        0
176
     1
 40
-0.6
176
     1
 41
-30.0
176
     1
 62
     5
 63
     7
421
 16777215
176
     1
 74
     1
176
     1
 91
        4
176
     1
 64
     7
176
     1
 65
   257
176
     1
 75
     1
176
     1
175
     1
176
     1
 42
1.0
176
     1
 92
        8
176
     1
 66
     7
176
     1
 43
1.0
176
     1
 76
     1
176
     1
 77
     6
176
     1
 78
     2
176
     1
 67
     7
176
     1
 79
     5
176
     1
170
     0
176
     1
171
     0
176
     1
290
     0
176
     1
 93
        1
176
     1
 44
50.0
176
     1
173
     0
176
     1
  0
VISUALSTYLE
  5
3A
102
{ACAD_REACTORS
330
2A
102
}
330
2A
100
AcDbVisualStyle
  2
ColorChange
 70
    16
177
     2
291
     1
 71
     2
176
     1
 72
     2
176
     1
 73
     3
176
     1
 90
        0
176
     1
 40
-0.6
176
     1
 41
-30.0
176
     1
 62
     5
 63
     8
421
  8421504
176
     1
 74
     1
176
     1
 91
        4
176
     1
 64
     7
176
     1
 65
   257
176
     1
 75
     1
176
     1
175
     1
176
     1
 42
1.0
176
     1
 92
        8
176
     1
 66
     8
424
  8421504
176
     1
 43
1.0
176
     1
 76
     1
176
     1
 77
     6
176
     1
 78
     2
176
     1
 67
     7
176
     1
 79
     5
176
     1
170
     0
176
     1
171
     0
176
     1
290
     0
176
     1
 93
        1
176
     1
 44
0.0
176
     1
173
     0
176
     1
  0
VISUALSTYLE
  5
34
102
{ACAD_REACTORS
330
2A
102
}
330
2A
100
AcDbVisualStyle
  2
Conceptual
 70
     9
177
     2
291
     0
 71
     3
176
     1
 72
     2
176
     1
 73
     0
176
     1
 90
        0
176
     1
 40
-0.6
176
     1
 41
-30.0
176
     1
 62
     5
 63
     7
421
 16777215
176
     1
 74
     2
176
     1
 91
        2
176
     1
 64
     7
176
     1
 65
   257
176
     1
 75
     1
176
     1
175
     1
176
     1
 42
40.0
176
     1
 92
        8
176
     1
 66
     7
176
     1
 43
1.0
176
     1
 76
     1
176
     1
 77
     6
176
     1
 78
     2
176
     1
 67
     7
176
     1
 79
     3
176
     1
170
     0
176
     1
171
     0
176
     1
290
     0
176
     1
 93
        1
176
     1
 44
0.0
176
     1
173
     0
176
     1
  0
VISUALSTYLE
  5
35
102
{ACAD_REACTORS
330
2A
102
}
330
2A
100
AcDbVisualStyle
  2
Dim
 70
    11
177
     2
291
     1
 71
     2
176
     1
 72
     2
176
     1
 73
     0
176
     1
 90
        0
176
     1
 40
-0.6
176
     1
 41
-30.0
176
     1
 62
     5
 63
     7
421
 16777215
176
     1
 74
     1
176
     1
 91
        4
176
     1
 64
     7
176
     1
 65
   257
176
     1
 75
     1
176
     1
175
     1
176
     1
 42
1.0
176
     1
 92
        8
176
     1
 66
     7
176
     1
 43
1.0
176
     1
 76
     1
176
     1
 77
     6
176
     1
 78
     2
176
     1
 67
     7
176
     1
 79
     5
176
     1
170
     0
176
     1
171
     0
176
     1
290
     0
176
     1
 93
        1
176
     1
 44
-50.0
176
     1
173
     0
176
     1
  0
VISUALSTYLE
  5
39
102
{ACAD_REACTORS
330
2A
102
}
330
2A
100
AcDbVisualStyle
  2
Facepattern
 70
    15
177
     2
291
     1
 71
     2
176
     1
 72
     2
176
     1
 73
     0
176
     1
 90
        0
176
     1
 40
-0.6
176
     1
 41
-30.0
176
     1
 62
     5
 63
     7
421
 16777215
176
     1
 74
     1
176
     1
 91
        4
176
     1
 64
     7
176
     1
 65
   257
176
     1
 75
     1
176
     1
175
     1
176
     1
 42
1.0
176
     1
 92
        8
176
     1
 66
     7
176
     1
 43
1.0
176
     1
 76
     1
176
     1
 77
     6
176
     1
 78
     2
176
     1
 67
     7
176
     1
 79
     5
176
     1
170
     0
176
     1
171
     0
176
     1
290
     0
176
     1
 93
        1
176
     1
 44
0.0
176
     1
173
     0
176
     1
  0
VISUALSTYLE
  5
2B
102
{ACAD_REACTORS
330
2A
102
}
330
2A
100
AcDbVisualStyle
  2
Flat
 70
     0
177
     2
291
     1
 71
     2
176
     1
 72
     1
176
     1
 73
     1
176
     1
 90
        2
176
     1
 40
-0.6
176
     1
 41
30.0
176
     1
 62
     5
 63
     7
421
 16777215
176
     1
 74
     0
176
     1
 91
        4
176
     1
 64
     7
176
     1
 65
   257
176
     1
 75
     1
176
     1
175
     1
176
     1
 42
1.0
176
     1
 92
        8
176
     1
 66
     7
176
     1
 43
1.0
176
     1
 76
     1
176
     1
 77
     6
176
     1
 78
     2
176
     1
 67
     7
176
     1
 79
     5
176
     1
170
     0
176
     1
171
     0
176
     1
290
     0
176
     1
 93
       13
176
     1
 44
0.0
176
     1
173
     0
176
     1
  0
VISUALSTYLE
  5
2C
102
{ACAD_REACTORS
330
2A
102
}
330
2A
100
AcDbVisualStyle
  2
FlatWithEdges
 70
     1
177
     2
291
     1
 71
     2
176
     1
 72
     1
176
     1
 73
     1
176
     1
 90
        2
176
     1
 40
-0.6
176
     1
 41
30.0
176
     1
 62
     5
 63
     7
421
 16777215
176
     1
 74
     1
176
     1
 91
        4
176
     1
 64
     7
176
     1
 65
   257
176
     1
 75
     1
176
     1
175
     1
176
     1
 42
1.0
176
     1
 92
        0
176
     1
 66
   257
176
     1
 43
1.0
176
     1
 76
     1
176
     1
 77
     6
176
     1
 78
     2
176
     1
 67
     7
176
     1
 79
     5
176
     1
170
     0
176
     1
171
     0
176
     1
290
     0
176
     1
 93
       13
176
     1
 44
0.0
176
     1
173
     0
176
     1
  0
VISUALSTYLE
  5
2D
102
{ACAD_REACTORS
330
2A
102
}
330
2A
100
AcDbVisualStyle
  2
Gouraud
 70
     2
177
     2
291
     1
 71
     2
176
     1
 72
     2
176
     1
 73
     1
176
     1
 90
        2
176
     1
 40
-0.6
176
     1
 41
30.0
176
     1
 62
     5
 63
     7
421
 16777215
176
     1
 74
     0
176
     1
 91
        4
176
     1
 64
     7
176
     1
 65
   257
176
     1
 75
     1
176
     1
175
     1
176
     1
 42
1.0
176
     1
 92
        0
176
     1
 66
     7
176
     1
 43
1.0
176
     1
 76
     1
176
     1
 77
     6
176
     1
 78
     2
176
     1
 67
     7
176
     1
 79
     5
176
     1
170
     0
176
     1
171
     0
176
     1
290
     0
176
     1
 93
       13
176
     1
 44
0.0
176
     1
173
     0
176
     1
  0
VISUALSTYLE
  5
2E
102
{ACAD_REACTORS
330
2A
102
}
330
2A
100
AcDbVisualStyle
  2
GouraudWithEdges
 70
     3
177
     2
291
     1
 71
     2
176
     1
 72
     2
176
     1
 73
     1
176
     1
 90
        2
176
     1
 40
-0.6
176
     1
 41
30.0
176
     1
 62
     5
 63
     7
421
 16777215
176
     1
 74
     1
176
     1
 91
        4
176
     1
 64
     7
176
     1
 65
   257
176
     1
 75
     1
176
     1
175
     1
176
     1
 42
1.0
176
     1
 92
        0
176
     1
 66
   257
176
     1
 43
1.0
176
     1
 76
     1
176
     1
 77
     6
176
     1
 78
     2
176
     1
 67
     7
176
     1
 79
     5
176
     1
170
     0
176
     1
171
     0
176
     1
290
     0
176
     1
 93
       13
176
     1
 44
0.0
176
     1
173
     0
176
     1
  0
VISUALSTYLE
  5
38
102
{ACAD_REACTORS
330
2A
102
}
330
2A
100
AcDbVisualStyle
  2
Linepattern
 70
    14
177
     2
291
     1
 71
     2
176
     1
 72
     2
176
     1
 73
     0
176
     1
 90
        0
176
     1
 40
-0.6
176
     1
 41
-30.0
176
     1
 62
     5
 63
     7
421
 16777215
176
     1
 74
     1
176
     1
 91
        4
176
     1
 64
     7
176
     1
 65
   257
176
     1
 75
     7
176
     1
175
     7
176
     1
 42
1.0
176
     1
 92
        8
176
     1
 66
     7
176
     1
 43
1.0
176
     1
 76
     1
176
     1
 77
     6
176
     1
 78
     2
176
     1
 67
     7
176
     1
 79
     5
176
     1
170
     0
176
     1
171
     0
176
     1
290
     0
176
     1
 93
        1
176
     1
 44
0.0
176
     1
173
     0
176
     1
  0
VISUALSTYLE
  5
33
102
{ACAD_REACTORS
330
2A
102
}
330
2A
100
AcDbVisualStyle
  2
Realistic
 70
     8
177
     2
291
     0
 71
     2
176
     1
 72
     2
176
     1
 73
     0
176
     1
 90
        0
176
     1
 40
-0.6
176
     1
 41
-30.0
176
     1
 62
     5
 63
     7
421
 16777215
176
     1
 74
     1
176
     1
 91
        0
176
     1
 64
     7
176
     1
 65
   257
176
     1
 75
     1
176
     1
175
     1
176
     1
 42
1.0
176
     1
 92
        8
176
     1
 66
     8
424
  7895160
176
     1
 43
1.0
176
     1
 76
     1
176
     1
 77
     6
176
     1
 78
     2
176
     1
 67
     7
176
     1
 79
     5
176
     1
170
     0
176
     1
171
     0
176
     1
290
     0
176
     1
 93
       13
176
     1
 44
0.0
176
     1
173
     0
176
     1
  0
VISUALSTYLE
  5
37
102
{ACAD_REACTORS
330
2A
102
}
330
2A
100
AcDbVisualStyle
  2
Thicken
 70
    13
177
     2
291
     1
 71
     2
176
     1
 72
     2
176
     1
 73
     0
176
     1
 90
        0
176
     1
 40
-0.6
176
     1
 41
-30.0
176
     1
 62
     5
 63
     7
421
 16777215
176
     1
 74
     1
176
     1
 91
        4
176
     1
 64
     7
176
     1
 65
   257
176
     1
 75
     1
176
     1
175
     1
176
     1
 42
1.0
176
     1
 92
       12
176
     1
 66
     7
176
     1
 43
1.0
176
     1
 76
     1
176
     1
 77
     6
176
     1
 78
     2
176
     1
 67
     7
176
     1
 79
     5
176
     1
170
     0
176
     1
171
     0
176
     1
290
     0
176
     1
 93
        1
176
     1
 44
0.0
176
     1
173
     0
176
     1
  0
ENDSEC
  0
EOF
