  0
SECTION
  2
HEADER
  9
$ACADVER
  1
AC1024
  9
$ACADMAINTVER
 70
     6
  9
$DWGCODEPAGE
  3
ANSI_932
  9
$INSBASE
 10
0.0
 20
0.0
 30
0.0
  9
$EXTMIN
 10
86.72450422827816
 20
146.2575804349948
 30
0.0
  9
$EXTMAX
 10
218.7849070701316
 20
207.2343209876545
 30
0.0
  9
$LIMMIN
 10
0.0
 20
0.0
  9
$LIMMAX
 10
420.0
 20
297.0
  9
$ORTHOMODE
 70
     0
  9
$REGENMODE
 70
     1
  9
$FILLMODE
 70
     1
  9
$QTEXTMODE
 70
     0
  9
$MIRRTEXT
 70
     1
  9
$LTSCALE
 40
0.25
  9
$ATTMODE
 70
     1
  9
$TEXTSIZE
 40
5.0
  9
$TRACEWID
 40
0.05
  9
$TEXTSTYLE
  7
Standard
  9
$CLAYER
  8
0
  9
$CELTYPE
  6
ByLayer
  9
$CECOLOR
 62
   256
  9
$CELTSCALE
 40
1.0
  9
$DISPSILH
 70
     0
  9
$DIMSCALE
 40
1.0
  9
$DIMASZ
 40
4.0
  9
$DIMEXO
 40
2.0
  9
$DIMDLI
 40
10.0
  9
$DIMRND
 40
0.0
  9
$DIMDLE
 40
0.0
  9
$DIMEXE
 40
2.0
  9
$DIMTP
 40
0.0
  9
$DIMTM
 40
0.0
  9
$DIMTXT
 40
3.5
  9
$DIMCEN
 40
0.09
  9
$DIMTSZ
 40
0.0
  9
$DIMTOL
 70
     0
  9
$DIMLIM
 70
     0
  9
$DIMTIH
 70
     0
  9
$DIMTOH
 70
     0
  9
$DIMSE1
 70
     0
  9
$DIMSE2
 70
     0
  9
$DIMTAD
 70
     3
  9
$DIMZIN
 70
     8
  9
$DIMBLK
  1

  9
$DIMASO
 70
     1
  9
$DIMSHO
 70
     1
  9
$DIMPOST
  1

  9
$DIMAPOST
  1

  9
$DIMALT
 70
     0
  9
$DIMALTD
 70
     2
  9
$DIMALTF
 40
25.4
  9
$DIMLFAC
 40
1.0
  9
$DIMTOFL
 70
     1
  9
$DIMTVP
 40
0.7
  9
$DIMTIX
 70
     0
  9
$DIMSOXD
 70
     0
  9
$DIMSAH
 70
     0
  9
$DIMBLK1
  1

  9
$DIMBLK2
  1

  9
$DIMSTYLE
  2
Standard
  9
$DIMCLRD
 70
     0
  9
$DIMCLRE
 70
     0
  9
$DIMCLRT
 70
     0
  9
$DIMTFAC
 40
0.5
  9
$DIMGAP
 40
0.09
  9
$DIMJUST
 70
     0
  9
$DIMSD1
 70
     0
  9
$DIMSD2
 70
     0
  9
$DIMTOLJ
 70
     1
  9
$DIMTZIN
 70
     8
  9
$DIMALTZ
 70
     0
  9
$DIMALTTZ
 70
     0
  9
$DIMUPT
 70
     1
  9
$DIMDEC
 70
     2
  9
$DIMTDEC
 70
     4
  9
$DIMALTU
 70
     2
  9
$DIMALTTD
 70
     2
  9
$DIMTXSTY
  7
Standard
  9
$DIMAUNIT
 70
     0
  9
$DIMADEC
 70
     0
  9
$DIMALTRND
 40
0.0
  9
$DIMAZIN
 70
     0
  9
$DIMDSEP
 70
    46
  9
$DIMATFIT
 70
     2
  9
$DIMFRAC
 70
     0
  9
$DIMLDRBLK
  1

  9
$DIMLUNIT
 70
     2
  9
$DIMLWD
 70
    -2
  9
$DIMLWE
 70
    -2
  9
$DIMTMOVE
 70
     2
  9
$DIMFXL
 40
1.0
  9
$DIMFXLON
 70
     0
  9
$DIMJOGANG
 40
0.7853981633974483
  9
$DIMTFILL
 70
     0
  9
$DIMTFILLCLR
 70
     0
  9
$DIMARCSYM
 70
     0
  9
$DIMLTYPE
  6

  9
$DIMLTEX1
  6

  9
$DIMLTEX2
  6

  9
$DIMTXTDIRECTION
 70
     0
  9
$LUNITS
 70
     2
  9
$LUPREC
 70
     4
  9
$SKETCHINC
 40
0.1
  9
$FILLETRAD
 40
0.5
  9
$AUNITS
 70
     0
  9
$AUPREC
 70
     0
  9
$MENU
  1
.
  9
$ELEVATION
 40
0.0
  9
$PELEVATION
 40
0.0
  9
$THICKNESS
 40
0.0
  9
$LIMCHECK
 70
     0
  9
$CHAMFERA
 40
0.5
  9
$CHAMFERB
 40
0.5
  9
$CHAMFERC
 40
1.0
  9
$CHAMFERD
 40
0.0
  9
$SKPOLY
 70
     0
  9
$TDCREATE
 40
2456776.983252315
  9
$TDUCREATE
 40
2456776.608252315
  9
$TDUPDATE
 40
2456776.608257188
  9
$TDUUPDATE
 40
2456776.233257188
  9
$TDINDWG
 40
0.0000000116
  9
$TDUSRTIMER
 40
0.0000000116
  9
$USRTIMER
 70
     1
  9
$ANGBASE
 50
0.0
  9
$ANGDIR
 70
     0
  9
$PDMODE
 70
     0
  9
$PDSIZE
 40
0.0
  9
$PLINEWID
 40
0.0
  9
$SPLFRAME
 70
     0
  9
$SPLINETYPE
 70
     6
  9
$SPLINESEGS
 70
     8
  9
$HANDSEED
  5
4D1
  9
$SURFTAB1
 70
     6
  9
$SURFTAB2
 70
     6
  9
$SURFTYPE
 70
     6
  9
$SURFU
 70
     6
  9
$SURFV
 70
     6
  9
$UCSBASE
  2

  9
$UCSNAME
  2

  9
$UCSORG
 10
0.0
 20
0.0
 30
0.0
  9
$UCSXDIR
 10
1.0
 20
0.0
 30
0.0
  9
$UCSYDIR
 10
0.0
 20
1.0
 30
0.0
  9
$UCSORTHOREF
  2

  9
$UCSORTHOVIEW
 70
     0
  9
$UCSORGTOP
 10
0.0
 20
0.0
 30
0.0
  9
$UCSORGBOTTOM
 10
0.0
 20
0.0
 30
0.0
  9
$UCSORGLEFT
 10
0.0
 20
0.0
 30
0.0
  9
$UCSORGRIGHT
 10
0.0
 20
0.0
 30
0.0
  9
$UCSORGFRONT
 10
0.0
 20
0.0
 30
0.0
  9
$UCSORGBACK
 10
0.0
 20
0.0
 30
0.0
  9
$PUCSBASE
  2

  9
$PUCSNAME
  2

  9
$PUCSORG
 10
0.0
 20
0.0
 30
0.0
  9
$PUCSXDIR
 10
1.0
 20
0.0
 30
0.0
  9
$PUCSYDIR
 10
0.0
 20
1.0
 30
0.0
  9
$PUCSORTHOREF
  2

  9
$PUCSORTHOVIEW
 70
     0
  9
$PUCSORGTOP
 10
0.0
 20
0.0
 30
0.0
  9
$PUCSORGBOTTOM
 10
0.0
 20
0.0
 30
0.0
  9
$PUCSORGLEFT
 10
0.0
 20
0.0
 30
0.0
  9
$PUCSORGRIGHT
 10
0.0
 20
0.0
 30
0.0
  9
$PUCSORGFRONT
 10
0.0
 20
0.0
 30
0.0
  9
$PUCSORGBACK
 10
0.0
 20
0.0
 30
0.0
  9
$USERI1
 70
     0
  9
$USERI2
 70
     0
  9
$USERI3
 70
     0
  9
$USERI4
 70
     0
  9
$USERI5
 70
     0
  9
$USERR1
 40
0.0
  9
$USERR2
 40
0.0
  9
$USERR3
 40
0.0
  9
$USERR4
 40
0.0
  9
$USERR5
 40
0.0
  9
$WORLDVIEW
 70
     1
  9
$SHADEDGE
 70
     3
  9
$SHADEDIF
 70
    70
  9
$TILEMODE
 70
     1
  9
$MAXACTVP
 70
    64
  9
$PINSBASE
 10
0.0
 20
0.0
 30
0.0
  9
$PLIMCHECK
 70
     0
  9
$PEXTMIN
 10
0.0
 20
0.0
 30
0.0
  9
$PEXTMAX
 10
420.0
 20
297.0
 30
0.0
  9
$PLIMMIN
 10
0.0
 20
0.0
  9
$PLIMMAX
 10
420.0
 20
297.0
  9
$UNITMODE
 70
     0
  9
$VISRETAIN
 70
     1
  9
$PLINEGEN
 70
     0
  9
$PSLTSCALE
 70
     1
  9
$TREEDEPTH
 70
  3020
  9
$CMLSTYLE
  2
Standard
  9
$CMLJUST
 70
     0
  9
$CMLSCALE
 40
1.0
  9
$PROXYGRAPHICS
 70
     1
  9
$MEASUREMENT
 70
     1
  9
$CELWEIGHT
370
    -1
  9
$ENDCAPS
280
     0
  9
$JOINSTYLE
280
     0
  9
$LWDISPLAY
290
     0
  9
$INSUNITS
 70
     4
  9
$HYPERLINKBASE
  1

  9
$STYLESHEET
  1

  9
$XEDIT
290
     1
  9
$CEPSNTYPE
380
     0
  9
$PSTYLEMODE
290
     1
  9
$FINGERPRINTGUID
  2
{0E7CA772-B553-4180-8AF6-54B923F8DD77}
  9
$VERSIONGUID
  2
{FAEB1C32-E019-11D5-929B-00C0DF256EC4}
  9
$EXTNAMES
290
     1
  9
$PSVPSCALE
 40
0.0
  9
$OLESTARTUP
290
     0
  9
$SORTENTS
280
   127
  9
$INDEXCTL
280
     0
  9
$HIDETEXT
280
     1
  9
$XCLIPFRAME
280
     2
  9
$HALOGAP
280
     0
  9
$OBSCOLOR
 70
   257
  9
$OBSLTYPE
280
     0
  9
$INTERSECTIONDISPLAY
280
     0
  9
$INTERSECTIONCOLOR
 70
   257
  9
$DIMASSOC
280
     1
  9
$PROJECTNAME
  1

  9
$CAMERADISPLAY
290
     0
  9
$LENSLENGTH
 40
50.0
  9
$CAMERAHEIGHT
 40
0.0
  9
$STEPSPERSEC
 40
2.0
  9
$STEPSIZE
 40
6.0
  9
$3DDWFPREC
 40
2.0
  9
$PSOLWIDTH
 40
0.25
  9
$PSOLHEIGHT
 40
4.0
  9
$LOFTANG1
 40
1.570796326794897
  9
$LOFTANG2
 40
1.570796326794897
  9
$LOFTMAG1
 40
0.0
  9
$LOFTMAG2
 40
0.0
  9
$LOFTPARAM
 70
     7
  9
$LOFTNORMALS
280
     1
  9
$LATITUDE
 40
37.795
  9
$LONGITUDE
 40
-122.394
  9
$NORTHDIRECTION
 40
0.0
  9
$TIMEZONE
 70
 -8000
  9
$LIGHTGLYPHDISPLAY
280
     1
  9
$TILEMODELIGHTSYNCH
280
     1
  9
$SOLIDHIST
280
     1
  9
$SHOWHIST
280
     1
  9
$DWFFRAME
280
     2
  9
$DGNFRAME
280
     2
  9
$REALWORLDSCALE
290
     1
  9
$INTERFERECOLOR
 62
   256
  9
$CSHADOW
280
     0
  9
$SHADOWPLANELOCATION
 40
0.0
  0
ENDSEC
  0
SECTION
  2
CLASSES
  0
CLASS
  1
ACDBDICTIONARYWDFLT
  2
AcDbDictionaryWithDefault
  3
ObjectDBX Classes
 90
        0
 91
        4
280
     0
281
     0
  0
CLASS
  1
VISUALSTYLE
  2
AcDbVisualStyle
  3
ObjectDBX Classes
 90
     4095
 91
        4
280
     0
281
     0
  0
CLASS
  1
MATERIAL
  2
AcDbMaterial
  3
ObjectDBX Classes
 90
     1153
 91
        4
280
     0
281
     0
  0
ENDSEC
  0
SECTION
  2
TABLES
  0
TABLE
  2
VPORT
  5
8
330
0
100
AcDbSymbolTable
 70
     1
  0
VPORT
  5
29
330
8
100
AcDbSymbolTableRecord
100
AcDbViewportTableRecord
  2
*Active
 70
     0
 10
0.0
 20
0.0
 11
1.0
 21
1.0
 12
10.42990654205607
 22
4.5
 13
0.0
 23
0.0
 14
0.5
 24
0.5
 15
0.5
 25
0.5
 16
0.0
 26
0.0
 36
1.0
 17
0.0
 27
0.0
 37
0.0
 40
9.0
 41
1.972972972850329
 42
50.0
 43
0.0
 44
0.0
 50
0.0
 51
0.0
 71
     0
 72
   100
 73
     1
 74
     3
 75
     0
 76
     0
 77
     0
 78
     0
281
     0
 65
     1
110
0.0
120
0.0
130
0.0
111
1.0
121
0.0
131
0.0
112
0.0
122
1.0
132
0.0
 79
     0
146
0.0
 60
     3
 61
     5
292
     1
282
     1
141
0.0
142
0.0
 63
   250
  0
ENDTAB
  0
TABLE
  2
LTYPE
  5
5
330
0
100
AcDbSymbolTable
 70
     9
  0
LTYPE
  5
14
330
5
100
AcDbSymbolTableRecord
100
AcDbLinetypeTableRecord
  2
ByBlock
 70
     0
  3

 72
    65
 73
     0
 40
0.0
  0
LTYPE
  5
15
330
5
100
AcDbSymbolTableRecord
100
AcDbLinetypeTableRecord
  2
ByLayer
 70
     0
  3

 72
    65
 73
     0
 40
0.0
  0
LTYPE
  5
16
330
5
100
AcDbSymbolTableRecord
100
AcDbLinetypeTableRecord
  2
Continuous
 70
     0
  3
Solid line
 72
    65
 73
     0
 40
0.0
  0
LTYPE
  5
8E
330
5
100
AcDbSymbolTableRecord
100
AcDbLinetypeTableRecord
  2
DOT
 70
     0
  3
DOT
 72
    65
 73
     2
 40
4.0
 49
6.0
 74
     0
 49
-2.0
 74
     0
  0
LTYPE
  5
8F
330
5
100
AcDbSymbolTableRecord
100
AcDbLinetypeTableRecord
  2
HIDDEN
 70
     0
  3
HIDDEN
 72
    65
 73
     2
 40
4.2
 49
8.4
 74
     0
 49
-4.2
 74
     0
  0
LTYPE
  5
90
330
5
100
AcDbSymbolTableRecord
100
AcDbLinetypeTableRecord
  2
DASHDOT
 70
     0
  3
DASHDOT
 72
    65
 73
     4
 40
14.5
 49
30.0
 74
     0
 49
-9.0
 74
     0
 49
2.5
 74
     0
 49
-9.0
 74
     0
  0
LTYPE
  5
91
330
5
100
AcDbSymbolTableRecord
100
AcDbLinetypeTableRecord
  2
PHANTOM
 70
     0
  3
PHANTOM
 72
    65
 73
     6
 40
12.0
 49
30.0
 74
     0
 49
-9.0
 74
     0
 49
2.5
 74
     0
 49
-5.0
 74
     0
 49
2.5
 74
     0
 49
-9.0
 74
     0
  0
LTYPE
  5
92
330
5
100
AcDbSymbolTableRecord
100
AcDbLinetypeTableRecord
  2
ACAD_ISO14W100
 70
     0
  3
ACAD_ISO14W100
 72
    65
 73
     8
 40
1.5
 49
12.0
 74
     0
 49
-3.0
 74
     0
 49
0.5
 74
     0
 49
-3.0
 74
     0
 49
0.5
 74
     0
 49
-3.0
 74
     0
 49
0.5
 74
     0
 49
-3.0
 74
     0
  0
LTYPE
  5
93
330
5
100
AcDbSymbolTableRecord
100
AcDbLinetypeTableRecord
  2
ACAD_ISO06W100
 70
     0
  3
ACAD_ISO06W100
 72
    65
 73
     8
 40
13.5
 49
24.0
 74
     0
 49
-3.0
 74
     0
 49
0.5
 74
     0
 49
-3.0
 74
     0
 49
0.5
 74
     0
 49
-3.0
 74
     0
 49
0.5
 74
     0
 49
-3.0
 74
     0
  0
LTYPE
  5
94
330
5
100
AcDbSymbolTableRecord
100
AcDbLinetypeTableRecord
  2
ACAD_ISO11W100
 70
     0
  3
ACAD_ISO11W100
 72
    65
 73
     6
 40
15.5
 49
12.0
 74
     0
 49
-3.0
 74
     0
 49
12.0
 74
     0
 49
-3.0
 74
     0
 49
0.5
 74
     0
 49
-3.0
 74
     0
  0
LTYPE
  5
95
330
5
100
AcDbSymbolTableRecord
100
AcDbLinetypeTableRecord
  2
ACAD_ISO13W100
 70
     0
  3
ACAD_ISO13W100
 72
    65
 73
     8
 40
13.0
 49
12.0
 74
     0
 49
-3.0
 74
     0
 49
12.0
 74
     0
 49
-3.0
 74
     0
 49
0.5
 74
     0
 49
-3.0
 74
     0
 49
0.5
 74
     0
 49
-3.0
 74
     0
  0
ENDTAB
  0
TABLE
  2
LAYER
  5
2
330
0
100
AcDbSymbolTable
 70
    30
  0
LAYER
  5
10
330
2
100
AcDbSymbolTableRecord
100
AcDbLayerTableRecord
  2
0
 70
     0
 62
     7
  6
Continuous
370
    -3
390
F
347
3E
  0
LAYER
  5
96
330
2
100
AcDbSymbolTableRecord
100
AcDbLayerTableRecord
  2
1
 70
     0
 62
     7
  6
Continuous
370
     9
390
F
347
3E
  0
LAYER
  5
97
330
2
100
AcDbSymbolTableRecord
100
AcDbLayerTableRecord
  2
2
 70
     0
 62
   134
  6
Continuous
370
     9
390
F
347
3E
  0
LAYER
  5
98
330
2
100
AcDbSymbolTableRecord
100
AcDbLayerTableRecord
  2
3
 70
     0
 62
   214
  6
Continuous
370
     9
390
F
347
3E
  0
LAYER
  5
99
330
2
100
AcDbSymbolTableRecord
100
AcDbLayerTableRecord
  2
4
 70
     0
 62
    54
  6
Continuous
370
     9
390
F
347
3E
  0
LAYER
  5
9A
330
2
100
AcDbSymbolTableRecord
100
AcDbLayerTableRecord
  2
5
 70
     0
 62
    94
  6
Continuous
370
     9
390
F
347
3E
  0
LAYER
  5
9B
330
2
100
AcDbSymbolTableRecord
100
AcDbLayerTableRecord
  2
6
 70
     0
 62
    14
  6
Continuous
370
     9
390
F
347
3E
  0
LAYER
  5
9C
330
2
100
AcDbSymbolTableRecord
100
AcDbLayerTableRecord
  2
7
 70
     0
 62
     4
  6
Continuous
370
     9
390
F
347
3E
  0
LAYER
  5
9D
330
2
100
AcDbSymbolTableRecord
100
AcDbLayerTableRecord
  2
8
 70
     0
 62
     6
  6
Continuous
370
     9
390
F
347
3E
  0
LAYER
  5
9E
330
2
100
AcDbSymbolTableRecord
100
AcDbLayerTableRecord
  2
9
 70
     0
 62
     2
  6
Continuous
370
     9
390
F
347
3E
  0
LAYER
  5
9F
330
2
100
AcDbSymbolTableRecord
100
AcDbLayerTableRecord
  2
10
 70
     0
 62
     3
  6
Continuous
370
     9
390
F
347
3E
  0
LAYER
  5
A0
330
2
100
AcDbSymbolTableRecord
100
AcDbLayerTableRecord
  2
11
 70
     0
 62
   251
  6
Continuous
370
     9
390
F
347
3E
  0
LAYER
  5
A1
330
2
100
AcDbSymbolTableRecord
100
AcDbLayerTableRecord
  2
12
 70
     0
 62
   136
  6
Continuous
370
     9
390
F
347
3E
  0
LAYER
  5
A2
330
2
100
AcDbSymbolTableRecord
100
AcDbLayerTableRecord
  2
13
 70
     0
 62
   216
  6
Continuous
370
     9
390
F
347
3E
  0
LAYER
  5
A3
330
2
100
AcDbSymbolTableRecord
100
AcDbLayerTableRecord
  2
14
 70
     0
 62
    56
  6
Continuous
370
     9
390
F
347
3E
  0
LAYER
  5
A4
330
2
100
AcDbSymbolTableRecord
100
AcDbLayerTableRecord
  2
15
 70
     0
 62
    96
  6
Continuous
370
     9
390
F
347
3E
  0
LAYER
  5
A5
330
2
100
AcDbSymbolTableRecord
100
AcDbLayerTableRecord
  2
16
 70
     0
 62
    16
  6
Continuous
370
     9
390
F
347
3E
  0
LAYER
  5
A6
330
2
100
AcDbSymbolTableRecord
100
AcDbLayerTableRecord
  2
17
 70
     0
 62
   132
  6
Continuous
370
     9
390
F
347
3E
  0
LAYER
  5
A7
330
2
100
AcDbSymbolTableRecord
100
AcDbLayerTableRecord
  2
18
 70
     0
 62
   212
  6
Continuous
370
     9
390
F
347
3E
  0
LAYER
  5
A8
330
2
100
AcDbSymbolTableRecord
100
AcDbLayerTableRecord
  2
19
 70
     0
 62
    52
  6
Continuous
370
     9
390
F
347
3E
  0
LAYER
  5
A9
330
2
100
AcDbSymbolTableRecord
100
AcDbLayerTableRecord
  2
20
 70
     0
 62
   250
  6
Continuous
370
     9
390
F
347
3E
  0
LAYER
  5
AA
330
2
100
AcDbSymbolTableRecord
100
AcDbLayerTableRecord
  2
21
 70
     0
 62
     7
  6
Continuous
370
     9
390
F
347
3E
  0
LAYER
  5
AB
330
2
100
AcDbSymbolTableRecord
100
AcDbLayerTableRecord
  2
22
 70
     0
 62
     7
  6
Continuous
370
     9
390
F
347
3E
  0
LAYER
  5
AC
330
2
100
AcDbSymbolTableRecord
100
AcDbLayerTableRecord
  2
23
 70
     0
 62
     5
  6
Continuous
370
     9
390
F
347
3E
  0
LAYER
  5
AD
330
2
100
AcDbSymbolTableRecord
100
AcDbLayerTableRecord
  2
24
 70
     0
 62
   104
  6
Continuous
370
     9
390
F
347
3E
  0
LAYER
  5
AE
330
2
100
AcDbSymbolTableRecord
100
AcDbLayerTableRecord
  2
25
 70
     0
 62
     7
  6
Continuous
370
     9
390
F
347
3E
  0
LAYER
  5
AF
330
2
100
AcDbSymbolTableRecord
100
AcDbLayerTableRecord
  2
26
 70
     0
 62
     1
  6
Continuous
370
     9
390
F
347
3E
  0
LAYER
  5
B0
330
2
100
AcDbSymbolTableRecord
100
AcDbLayerTableRecord
  2
27
 70
     0
 62
    12
  6
Continuous
370
     9
390
F
347
3E
  0
LAYER
  5
B1
330
2
100
AcDbSymbolTableRecord
100
AcDbLayerTableRecord
  2
28
 70
     0
 62
   104
  6
Continuous
370
     9
390
F
347
3E
  0
LAYER
  5
B2
330
2
100
AcDbSymbolTableRecord
100
AcDbLayerTableRecord
  2
29
 70
     0
 62
     1
  6
Continuous
370
     9
390
F
347
3E
  0
ENDTAB
  0
TABLE
  2
STYLE
  5
3
330
0
100
AcDbSymbolTable
 70
     3
  0
STYLE
  5
11
330
3
100
AcDbSymbolTableRecord
100
AcDbTextStyleTableRecord
  2
Standard
 70
     0
 40
0.0
 41
1.0
 50
0.0
 71
     0
 42
5.0
  3
txt
  4
bigfont
  0
STYLE
  5
41
330
3
100
AcDbSymbolTableRecord
100
AcDbTextStyleTableRecord
  2
T_STANDARD
 70
     4
 40
10.0
 41
1.0
 50
0.0
 71
     0
 42
10.0
  3
txt
  4
bigfont
  0
STYLE
  5
281
330
3
100
AcDbSymbolTableRecord
100
AcDbTextStyleTableRecord
  2
ＭＳ ゴシック
 70
     0
 40
0.0
 41
1.0
 50
0.0
 71
     0
 42
0.0
  3
MSGOTHIC.TTC
  4

  0
ENDTAB
  0
TABLE
  2
VIEW
  5
6
330
0
100
AcDbSymbolTable
 70
     0
  0
ENDTAB
  0
TABLE
  2
UCS
  5
7
330
0
100
AcDbSymbolTable
 70
     0
  0
ENDTAB
  0
TABLE
  2
APPID
  5
9
330
0
100
AcDbSymbolTable
 70
     2
  0
APPID
  5
12
330
9
100
AcDbSymbolTableRecord
100
AcDbRegAppTableRecord
  2
ACAD
 70
     0
  0
APPID
  5
40
330
9
100
AcDbSymbolTableRecord
100
AcDbRegAppTableRecord
  2
ODA
 70
     0
  0
ENDTAB
  0
TABLE
  2
DIMSTYLE
  5
A
330
0
100
AcDbSymbolTable
 70
     1
100
AcDbDimStyleTable
  0
DIMSTYLE
105
27
102
{ACAD_REACTORS
330
28B
330
29E
330
2A8
330
2B2
330
2BC
330
2D4
330
2DE
330
2E8
330
2F2
330
2FC
330
306
330
310
330
31A
330
324
102
}
330
A
100
AcDbSymbolTableRecord
100
AcDbDimStyleTableRecord
  2
Standard
 70
     0
178
     0
340
11
  0
ENDTAB
  0
TABLE
  2
BLOCK_RECORD
  5
1
330
0
100
AcDbSymbolTable
 70
    31
  0
BLOCK_RECORD
  5
1F
330
1
100
AcDbSymbolTableRecord
100
AcDbBlockTableRecord
  2
*Model_Space
340
22
 70
     0
280
     1
281
     0
  0
BLOCK_RECORD
  5
1B
330
1
100
AcDbSymbolTableRecord
100
AcDbBlockTableRecord
  2
*Paper_Space
340
1E
 70
     0
280
     1
281
     0
  0
BLOCK_RECORD
  5
23
330
1
100
AcDbSymbolTableRecord
100
AcDbBlockTableRecord
  2
*Paper_Space0
340
26
 70
     0
280
     1
281
     0
  0
BLOCK_RECORD
  5
42
330
1
100
AcDbSymbolTableRecord
100
AcDbBlockTableRecord
  2
_ORIGIN
340
0
 70
     0
280
     1
281
     0
  0
BLOCK_RECORD
  5
47
330
1
100
AcDbSymbolTableRecord
100
AcDbBlockTableRecord
  2
_DOTBLANK
340
0
 70
     0
280
     1
281
     0
  0
BLOCK_RECORD
  5
4C
330
1
100
AcDbSymbolTableRecord
100
AcDbBlockTableRecord
  2
_DOT
340
0
 70
     0
280
     1
281
     0
  0
BLOCK_RECORD
  5
51
330
1
100
AcDbSymbolTableRecord
100
AcDbBlockTableRecord
  2
_OPEN
340
0
102
{BLKREFS
331
289
331
28A
331
29C
331
29D
331
2A6
331
2A7
331
2B0
331
2B1
331
2BA
331
2BB
331
2D2
331
2D3
331
2DC
331
2DD
331
2E6
331
2E7
331
2F0
331
2F1
331
2FA
331
2FB
331
304
331
305
331
30E
331
30F
331
318
331
319
331
322
331
323
102
}
 70
     0
280
     1
281
     0
  0
BLOCK_RECORD
  5
57
330
1
100
AcDbSymbolTableRecord
100
AcDbBlockTableRecord
  2
_CLOSED
340
0
 70
     0
280
     1
281
     0
  0
BLOCK_RECORD
  5
5E
330
1
100
AcDbSymbolTableRecord
100
AcDbBlockTableRecord
  2
_CLOSEDBLANK
340
0
 70
     0
280
     1
281
     0
  0
BLOCK_RECORD
  5
64
330
1
100
AcDbSymbolTableRecord
100
AcDbBlockTableRecord
  2
_ARROWFILLED
340
0
 70
     0
280
     1
281
     0
  0
BLOCK_RECORD
  5
68
330
1
100
AcDbSymbolTableRecord
100
AcDbBlockTableRecord
  2
_BOXBLANK
340
0
 70
     0
280
     1
281
     0
  0
BLOCK_RECORD
  5
70
330
1
100
AcDbSymbolTableRecord
100
AcDbBlockTableRecord
  2
_BOXFILLED
340
0
 70
     0
280
     1
281
     0
  0
BLOCK_RECORD
  5
75
330
1
100
AcDbSymbolTableRecord
100
AcDbBlockTableRecord
  2
_INTEGRAL
340
0
 70
     0
280
     1
281
     0
  0
BLOCK_RECORD
  5
7A
330
1
100
AcDbSymbolTableRecord
100
AcDbBlockTableRecord
  2
_OBLIQUE
340
0
 70
     0
280
     1
281
     0
  0
BLOCK_RECORD
  5
7E
330
1
100
AcDbSymbolTableRecord
100
AcDbBlockTableRecord
  2
_NONE
340
0
 70
     0
280
     1
281
     0
  0
BLOCK_RECORD
  5
81
330
1
100
AcDbSymbolTableRecord
100
AcDbBlockTableRecord
  2
MARK_OPEN
340
0
102
{BLKREFS
331
325
331
32B
331
331
331
337
331
33D
102
}
 70
     0
280
     1
281
     0
  0
BLOCK_RECORD
  5
86
330
1
100
AcDbSymbolTableRecord
100
AcDbBlockTableRecord
  2
MARK_ORIGIN
340
0
 70
     0
280
     1
281
     0
  0
BLOCK_RECORD
  5
8A
330
1
100
AcDbSymbolTableRecord
100
AcDbBlockTableRecord
  2
MARK_DOT
340
0
 70
     0
280
     1
281
     0
  0
BLOCK_RECORD
  5
282
330
1
100
AcDbSymbolTableRecord
100
AcDbBlockTableRecord
  2
Dim1
340
0
 70
     0
280
     1
281
     0
  0
BLOCK_RECORD
  5
295
330
1
100
AcDbSymbolTableRecord
100
AcDbBlockTableRecord
  2
Dim2
340
0
 70
     0
280
     1
281
     0
  0
BLOCK_RECORD
  5
29F
330
1
100
AcDbSymbolTableRecord
100
AcDbBlockTableRecord
  2
Dim3
340
0
 70
     0
280
     1
281
     0
  0
BLOCK_RECORD
  5
2A9
330
1
100
AcDbSymbolTableRecord
100
AcDbBlockTableRecord
  2
Dim4
340
0
 70
     0
280
     1
281
     0
  0
BLOCK_RECORD
  5
2B3
330
1
100
AcDbSymbolTableRecord
100
AcDbBlockTableRecord
  2
Dim5
340
0
 70
     0
280
     1
281
     0
  0
BLOCK_RECORD
  5
2C2
330
1
100
AcDbSymbolTableRecord
100
AcDbBlockTableRecord
  2
*G21
340
0
102
{BLKREFS
331
2CA
102
}
 70
     0
280
     1
281
     0
  0
BLOCK_RECORD
  5
2CB
330
1
100
AcDbSymbolTableRecord
100
AcDbBlockTableRecord
  2
Dim6
340
0
 70
     0
280
     1
281
     0
  0
BLOCK_RECORD
  5
2D5
330
1
100
AcDbSymbolTableRecord
100
AcDbBlockTableRecord
  2
Dim7
340
0
 70
     0
280
     1
281
     0
  0
BLOCK_RECORD
  5
2DF
330
1
100
AcDbSymbolTableRecord
100
AcDbBlockTableRecord
  2
Dim8
340
0
 70
     0
280
     1
281
     0
  0
BLOCK_RECORD
  5
2E9
330
1
100
AcDbSymbolTableRecord
100
AcDbBlockTableRecord
  2
Dim9
340
0
 70
     0
280
     1
281
     0
  0
BLOCK_RECORD
  5
2F3
330
1
100
AcDbSymbolTableRecord
100
AcDbBlockTableRecord
  2
Dim10
340
0
 70
     0
280
     1
281
     0
  0
BLOCK_RECORD
  5
2FD
330
1
100
AcDbSymbolTableRecord
100
AcDbBlockTableRecord
  2
Dim11
340
0
 70
     0
280
     1
281
     0
  0
BLOCK_RECORD
  5
307
330
1
100
AcDbSymbolTableRecord
100
AcDbBlockTableRecord
  2
Dim12
340
0
 70
     0
280
     1
281
     0
  0
BLOCK_RECORD
  5
311
330
1
100
AcDbSymbolTableRecord
100
AcDbBlockTableRecord
  2
Dim13
340
0
 70
     0
280
     1
281
     0
  0
BLOCK_RECORD
  5
31B
330
1
100
AcDbSymbolTableRecord
100
AcDbBlockTableRecord
  2
Dim14
340
0
 70
     0
280
     1
281
     0
  0
ENDTAB
  0
ENDSEC
  0
SECTION
  2
BLOCKS
  0
BLOCK
  5
20
330
1F
100
AcDbEntity
  8
0
100
AcDbBlockBegin
  2
*Model_Space
 70
     0
 10
0.0
 20
0.0
 30
0.0
  3
*Model_Space
  1

  0
ENDBLK
  5
21
330
1F
100
AcDbEntity
  8
0
100
AcDbBlockEnd
  0
BLOCK
  5
1C
330
1B
100
AcDbEntity
 67
     1
  8
0
100
AcDbBlockBegin
  2
*Paper_Space
 70
     0
 10
0.0
 20
0.0
 30
0.0
  3
*Paper_Space
  1

  0
ENDBLK
  5
1D
330
1B
100
AcDbEntity
 67
     1
  8
0
100
AcDbBlockEnd
  0
BLOCK
  5
24
330
23
100
AcDbEntity
  8
0
100
AcDbBlockBegin
  2
*Paper_Space0
 70
     0
 10
0.0
 20
0.0
 30
0.0
  3
*Paper_Space0
  1

  0
ENDBLK
  5
25
330
23
100
AcDbEntity
  8
0
100
AcDbBlockEnd
  0
BLOCK
  5
45
330
42
100
AcDbEntity
  8
0
100
AcDbBlockBegin
  2
_ORIGIN
 70
     0
 10
0.0
 20
0.0
 30
0.0
  3
_ORIGIN
  1

  0
CIRCLE
  5
43
330
42
100
AcDbEntity
  8
0
100
AcDbCircle
 10
0.0
 20
0.0
 30
0.0
 40
0.5
  0
LINE
  5
44
330
42
100
AcDbEntity
  8
0
100
AcDbLine
 10
0.0
 20
0.0
 30
0.0
 11
-1.0
 21
0.0
 31
0.0
  0
ENDBLK
  5
46
330
42
100
AcDbEntity
  8
0
100
AcDbBlockEnd
  0
BLOCK
  5
4A
330
47
100
AcDbEntity
  8
0
100
AcDbBlockBegin
  2
_DOTBLANK
 70
     0
 10
0.0
 20
0.0
 30
0.0
  3
_DOTBLANK
  1

  0
CIRCLE
  5
48
330
47
100
AcDbEntity
  8
0
100
AcDbCircle
 10
0.0
 20
0.0
 30
0.0
 40
0.5
  0
LINE
  5
49
330
47
100
AcDbEntity
  8
0
100
AcDbLine
 10
-0.5
 20
0.0
 30
0.0
 11
-1.0
 21
0.0
 31
0.0
  0
ENDBLK
  5
4B
330
47
100
AcDbEntity
  8
0
100
AcDbBlockEnd
  0
BLOCK
  5
4F
330
4C
100
AcDbEntity
  8
0
100
AcDbBlockBegin
  2
_DOT
 70
     0
 10
0.0
 20
0.0
 30
0.0
  3
_DOT
  1

  0
LWPOLYLINE
  5
4D
330
4C
100
AcDbEntity
  8
0
100
AcDbPolyline
 90
        2
 70
     1
 43
0.5
 10
-0.25
 20
0.0
 42
1.0
 10
0.25
 20
0.0
 42
1.0
  0
LINE
  5
4E
330
4C
100
AcDbEntity
  8
0
100
AcDbLine
 10
-0.5
 20
0.0
 30
0.0
 11
-1.0
 21
0.0
 31
0.0
  0
ENDBLK
  5
50
330
4C
100
AcDbEntity
  8
0
100
AcDbBlockEnd
  0
BLOCK
  5
55
330
51
100
AcDbEntity
  8
0
100
AcDbBlockBegin
  2
_OPEN
 70
     0
 10
0.0
 20
0.0
 30
0.0
  3
_OPEN
  1

  0
LINE
  5
52
330
51
100
AcDbEntity
  8
0
100
AcDbLine
 10
0.0
 20
0.0
 30
0.0
 11
-1.0
 21
0.1666666666666667
 31
0.0
  0
LINE
  5
53
330
51
100
AcDbEntity
  8
0
100
AcDbLine
 10
0.0
 20
0.0
 30
0.0
 11
-1.0
 21
-0.1666666666666667
 31
0.0
  0
LINE
  5
54
330
51
100
AcDbEntity
  8
0
100
AcDbLine
 10
0.0
 20
0.0
 30
0.0
 11
-1.0
 21
0.0
 31
0.0
  0
ENDBLK
  5
56
330
51
100
AcDbEntity
  8
0
100
AcDbBlockEnd
  0
BLOCK
  5
5C
330
57
100
AcDbEntity
  8
0
100
AcDbBlockBegin
  2
_CLOSED
 70
     0
 10
0.0
 20
0.0
 30
0.0
  3
_CLOSED
  1

  0
LINE
  5
58
330
57
100
AcDbEntity
  8
0
100
AcDbLine
 10
0.0
 20
0.0
 30
0.0
 11
-1.0
 21
0.1666666666666667
 31
0.0
  0
LINE
  5
59
330
57
100
AcDbEntity
  8
0
100
AcDbLine
 10
0.0
 20
0.0
 30
0.0
 11
-1.0
 21
-0.1666666666666667
 31
0.0
  0
LINE
  5
5A
330
57
100
AcDbEntity
  8
0
100
AcDbLine
 10
-1.0
 20
0.1666666666666667
 30
0.0
 11
-1.0
 21
-0.1666666666666667
 31
0.0
  0
LINE
  5
5B
330
57
100
AcDbEntity
  8
0
100
AcDbLine
 10
0.0
 20
0.0
 30
0.0
 11
-1.0
 21
0.0
 31
0.0
  0
ENDBLK
  5
5D
330
57
100
AcDbEntity
  8
0
100
AcDbBlockEnd
  0
BLOCK
  5
62
330
5E
100
AcDbEntity
  8
0
100
AcDbBlockBegin
  2
_CLOSEDBLANK
 70
     0
 10
0.0
 20
0.0
 30
0.0
  3
_CLOSEDBLANK
  1

  0
LINE
  5
5F
330
5E
100
AcDbEntity
  8
0
100
AcDbLine
 10
0.0
 20
0.0
 30
0.0
 11
-1.0
 21
0.1666666666666667
 31
0.0
  0
LINE
  5
60
330
5E
100
AcDbEntity
  8
0
100
AcDbLine
 10
0.0
 20
0.0
 30
0.0
 11
-1.0
 21
-0.1666666666666667
 31
0.0
  0
LINE
  5
61
330
5E
100
AcDbEntity
  8
0
100
AcDbLine
 10
-1.0
 20
0.1666666666666667
 30
0.0
 11
-1.0
 21
-0.1666666666666667
 31
0.0
  0
ENDBLK
  5
63
330
5E
100
AcDbEntity
  8
0
100
AcDbBlockEnd
  0
BLOCK
  5
66
330
64
100
AcDbEntity
  8
0
100
AcDbBlockBegin
  2
_ARROWFILLED
 70
     0
 10
0.0
 20
0.0
 30
0.0
  3
_ARROWFILLED
  1

  0
SOLID
  5
65
330
64
100
AcDbEntity
  8
0
100
AcDbTrace
 10
0.0
 20
0.0
 30
0.0
 11
-1.0
 21
-0.1666666666666667
 31
0.0
 12
-1.0
 22
0.1666666666666667
 32
0.0
 13
0.0
 23
0.0
 33
0.0
  0
ENDBLK
  5
67
330
64
100
AcDbEntity
  8
0
100
AcDbBlockEnd
  0
BLOCK
  5
6E
330
68
100
AcDbEntity
  8
0
100
AcDbBlockBegin
  2
_BOXBLANK
 70
     0
 10
0.0
 20
0.0
 30
0.0
  3
_BOXBLANK
  1

  0
LINE
  5
69
330
68
100
AcDbEntity
  8
0
100
AcDbLine
 10
-0.5
 20
-0.5
 30
0.0
 11
0.5
 21
-0.5
 31
0.0
  0
LINE
  5
6A
330
68
100
AcDbEntity
  8
0
100
AcDbLine
 10
0.5
 20
-0.5
 30
0.0
 11
0.5
 21
0.5
 31
0.0
  0
LINE
  5
6B
330
68
100
AcDbEntity
  8
0
100
AcDbLine
 10
0.5
 20
0.5
 30
0.0
 11
-0.5
 21
0.5
 31
0.0
  0
LINE
  5
6C
330
68
100
AcDbEntity
  8
0
100
AcDbLine
 10
-0.5
 20
0.5
 30
0.0
 11
-0.5
 21
-0.5
 31
0.0
  0
LINE
  5
6D
330
68
100
AcDbEntity
  8
0
100
AcDbLine
 10
-0.5
 20
0.0
 30
0.0
 11
-1.0
 21
0.0
 31
0.0
  0
ENDBLK
  5
6F
330
68
100
AcDbEntity
  8
0
100
AcDbBlockEnd
  0
BLOCK
  5
73
330
70
100
AcDbEntity
  8
0
100
AcDbBlockBegin
  2
_BOXFILLED
 70
     0
 10
0.0
 20
0.0
 30
0.0
  3
_BOXFILLED
  1

  0
SOLID
  5
71
330
70
100
AcDbEntity
  8
0
100
AcDbTrace
 10
-0.5
 20
0.5
 30
0.0
 11
0.5
 21
0.5
 31
0.0
 12
-0.5
 22
-0.5
 32
0.0
 13
0.5
 23
-0.5
 33
0.0
  0
LINE
  5
72
330
70
100
AcDbEntity
  8
0
100
AcDbLine
 10
-0.5
 20
0.0
 30
0.0
 11
-1.0
 21
0.0
 31
0.0
  0
ENDBLK
  5
74
330
70
100
AcDbEntity
  8
0
100
AcDbBlockEnd
  0
BLOCK
  5
78
330
75
100
AcDbEntity
  8
0
100
AcDbBlockBegin
  2
_INTEGRAL
 70
     0
 10
0.0
 20
0.0
 30
0.0
  3
_INTEGRAL
  1

  0
ARC
  5
76
330
75
100
AcDbEntity
  8
0
100
AcDbCircle
 10
0.444888
 20
-0.0913346
 30
0.0
 40
0.4541666
100
AcDbArc
 50
101.9999999999999
 51
167.9999999999998
  0
ARC
  5
77
330
75
100
AcDbEntity
  8
0
100
AcDbCircle
 10
-0.444888
 20
0.0913346
 30
0.0
 40
0.4541666
100
AcDbArc
 50
281.9999999999997
 51
347.9999999999997
  0
ENDBLK
  5
79
330
75
100
AcDbEntity
  8
0
100
AcDbBlockEnd
  0
BLOCK
  5
7C
330
7A
100
AcDbEntity
  8
0
100
AcDbBlockBegin
  2
_OBLIQUE
 70
     0
 10
0.0
 20
0.0
 30
0.0
  3
_OBLIQUE
  1

  0
LINE
  5
7B
330
7A
100
AcDbEntity
  8
0
100
AcDbLine
 10
-0.5
 20
-0.5
 30
0.0
 11
0.5
 21
0.5
 31
0.0
  0
ENDBLK
  5
7D
330
7A
100
AcDbEntity
  8
0
100
AcDbBlockEnd
  0
BLOCK
  5
7F
330
7E
100
AcDbEntity
  8
0
100
AcDbBlockBegin
  2
_NONE
 70
     0
 10
0.0
 20
0.0
 30
0.0
  3
_NONE
  1

  0
ENDBLK
  5
80
330
7E
100
AcDbEntity
  8
0
100
AcDbBlockEnd
  0
BLOCK
  5
84
330
81
100
AcDbEntity
  8
0
100
AcDbBlockBegin
  2
MARK_OPEN
 70
     0
 10
0.0
 20
0.0
 30
0.0
  3
MARK_OPEN
  1

  0
LINE
  5
82
330
81
100
AcDbEntity
  8
0
100
AcDbLine
 10
0.0
 20
0.0
 30
0.0
 11
-1.0
 21
0.1666666666666667
 31
0.0
  0
LINE
  5
83
330
81
100
AcDbEntity
  8
0
100
AcDbLine
 10
0.0
 20
0.0
 30
0.0
 11
-1.0
 21
-0.1666666666666667
 31
0.0
  0
ENDBLK
  5
85
330
81
100
AcDbEntity
  8
0
100
AcDbBlockEnd
  0
BLOCK
  5
88
330
86
100
AcDbEntity
  8
0
100
AcDbBlockBegin
  2
MARK_ORIGIN
 70
     0
 10
0.0
 20
0.0
 30
0.0
  3
MARK_ORIGIN
  1

  0
CIRCLE
  5
87
330
86
100
AcDbEntity
  8
0
100
AcDbCircle
 10
0.0
 20
0.0
 30
0.0
 40
0.5
  0
ENDBLK
  5
89
330
86
100
AcDbEntity
  8
0
100
AcDbBlockEnd
  0
BLOCK
  5
8C
330
8A
100
AcDbEntity
  8
0
100
AcDbBlockBegin
  2
MARK_DOT
 70
     0
 10
0.0
 20
0.0
 30
0.0
  3
MARK_DOT
  1

  0
LWPOLYLINE
  5
8B
330
8A
100
AcDbEntity
  8
0
100
AcDbPolyline
 90
        2
 70
     1
 43
0.5
 10
-0.25
 20
0.0
 42
1.0
 10
0.25
 20
0.0
 42
1.0
  0
ENDBLK
  5
8D
330
8A
100
AcDbEntity
  8
0
100
AcDbBlockEnd
  0
BLOCK
  5
283
330
282
100
AcDbEntity
  8
0
100
AcDbBlockBegin
  2
Dim1
 70
     0
 10
0.0
 20
0.0
 30
0.0
  3
Dim1
  1

  0
LINE
  5
285
330
282
100
AcDbEntity
  8
20
  6
Continuous
 62
   250
370
     9
100
AcDbLine
 10
99.40924532373919
 20
169.1867468054704
 30
0.0
 11
100.1577172451159
 21
168.5238476366117
 31
0.0
  0
LINE
  5
286
330
282
100
AcDbEntity
  8
20
  6
Continuous
 62
   250
370
     9
100
AcDbLine
 10
112.6773207545449
 20
184.1675800564629
 30
0.0
 11
113.4257926759659
 21
183.5046808876543
 31
0.0
  0
LINE
  5
287
330
282
100
AcDbEntity
  8
20
  6
Continuous
 62
   250
370
     9
100
AcDbLine
 10
95.60218833394235
 20
161.8719940348219
 30
0.0
 11
125.8373392302094
 21
196.0101594573611
 31
0.0
  0
MTEXT
  5
288
330
282
100
AcDbEntity
  8
20
  6
Continuous
 62
   250
370
     9
100
AcDbMText
 10
119.4394123999939
 20
189.6501846662267
 30
0.0
 40
2.0
 41
34.51
 46
2.0
 71
     7
 72
     1
  1
φ17.8
  7
ＭＳ ゴシック
 11
0.6630166906324474
 21
0.7486046138936078
 31
0.0
 73
     1
 44
1.0
1001
ACAD
1000
ACAD_MTEXT_DEFINED_HEIGHT_BEGIN
1070
    46
1040
2.0
1000
ACAD_MTEXT_DEFINED_HEIGHT_END
  0
INSERT
  5
289
330
282
100
AcDbEntity
  8
20
  6
Continuous
 62
   250
370
     9
100
AcDbBlockReference
  2
_OPEN
 10
100.9063218590019
 20
167.8608309459708
 30
0.0
 50
48.4696493885476
  0
INSERT
  5
28A
330
282
100
AcDbEntity
  8
20
  6
Continuous
 62
   250
370
     9
100
AcDbBlockReference
  2
_OPEN
 10
114.1743972898963
 20
182.8416641970634
 30
0.0
 50
228.4696493885476
  0
ENDBLK
  5
284
330
282
100
AcDbEntity
  8
0
100
AcDbBlockEnd
  0
BLOCK
  5
296
330
295
100
AcDbEntity
  8
0
100
AcDbBlockBegin
  2
Dim2
 70
     0
 10
0.0
 20
0.0
 30
0.0
  3
Dim2
  1

  0
LINE
  5
298
330
295
100
AcDbEntity
  8
21
  6
Continuous
 62
     7
370
     9
100
AcDbLine
 10
196.6135341586201
 20
167.3511300497383
 30
0.0
 11
214.3798994863139
 21
167.3511300497381
 31
0.0
  0
LINE
  5
299
330
295
100
AcDbEntity
  8
21
  6
Continuous
 62
     7
370
     9
100
AcDbLine
 10
196.6135341586201
 20
183.3511300497313
 30
0.0
 11
214.3798994863139
 21
183.3511300497312
 31
0.0
  0
LINE
  5
29A
330
295
100
AcDbEntity
  8
21
  6
Continuous
 62
     7
370
     9
100
AcDbLine
 10
213.3798994863139
 20
167.3511300497381
 30
0.0
 11
213.3798994863139
 21
183.3511300497312
 31
0.0
  0
MTEXT
  5
29B
330
295
100
AcDbEntity
  8
21
  6
Continuous
 62
     7
370
     9
100
AcDbMText
 10
212.5926274362161
 20
175.2844581105958
 30
0.0
 40
2.0
 41
21.18
 46
2.0
 71
     8
 72
     1
  1
φ18
  7
ＭＳ ゴシック
 11
1.615544574432587E-15
 21
1.0
 31
0.0
 73
     1
 44
1.0
1001
ACAD
1000
ACAD_MTEXT_DEFINED_HEIGHT_BEGIN
1070
    46
1040
2.0
1000
ACAD_MTEXT_DEFINED_HEIGHT_END
  0
INSERT
  5
29C
330
295
100
AcDbEntity
  8
21
  6
Continuous
 62
     7
370
     9
100
AcDbBlockReference
  2
_OPEN
 10
213.3798994863139
 20
167.3511300497381
 30
0.0
 50
269.9999999999998
  0
INSERT
  5
29D
330
295
100
AcDbEntity
  8
21
  6
Continuous
 62
     7
370
     9
100
AcDbBlockReference
  2
_OPEN
 10
213.3798994863139
 20
183.3511300497312
 30
0.0
 50
89.99999999999991
  0
ENDBLK
  5
297
330
295
100
AcDbEntity
  8
0
100
AcDbBlockEnd
  0
BLOCK
  5
2A0
330
29F
100
AcDbEntity
  8
0
100
AcDbBlockBegin
  2
Dim3
 70
     0
 10
0.0
 20
0.0
 30
0.0
  3
Dim3
  1

  0
LINE
  5
2A2
330
29F
100
AcDbEntity
  8
21
  6
Continuous
 62
     7
370
     9
100
AcDbLine
 10
151.6918518518519
 20
157.5511300497348
 30
0.0
 11
151.6918518518526
 21
146.8105807203642
 31
0.0
  0
LINE
  5
2A3
330
29F
100
AcDbEntity
  8
21
  6
Continuous
 62
     7
370
     9
100
AcDbLine
 10
189.8918518518519
 20
149.1310058330312
 30
0.0
 11
189.891851851852
 21
146.8105807203642
 31
0.0
  0
LINE
  5
2A4
330
29F
100
AcDbEntity
  8
21
  6
Continuous
 62
     7
370
     9
100
AcDbLine
 10
151.6918518518525
 20
147.8105807203642
 30
0.0
 11
189.891851851852
 21
147.8105807203642
 31
0.0
  0
MTEXT
  5
2A5
330
29F
100
AcDbEntity
  8
21
  6
Continuous
 62
     7
370
     9
100
AcDbMText
 10
172.0746418247053
 20
147.8105807203642
 30
0.0
 40
2.0
 41
16.85
 46
2.0
 71
     8
 72
     1
  1
36
  7
ＭＳ ゴシック
 73
     1
 44
1.0
1001
ACAD
1000
ACAD_MTEXT_DEFINED_HEIGHT_BEGIN
1070
    46
1040
2.0
1000
ACAD_MTEXT_DEFINED_HEIGHT_END
  0
INSERT
  5
2A6
330
29F
100
AcDbEntity
  8
21
  6
Continuous
 62
     7
370
     9
100
AcDbBlockReference
  2
_OPEN
 10
151.6918518518525
 20
147.8105807203642
 30
0.0
 50
179.9999999999999
  0
INSERT
  5
2A7
330
29F
100
AcDbEntity
  8
21
  6
Continuous
 62
     7
370
     9
100
AcDbBlockReference
  2
_OPEN
 10
189.891851851852
 20
147.8105807203642
 30
0.0
 50
359.9999999999998
  0
ENDBLK
  5
2A1
330
29F
100
AcDbEntity
  8
0
100
AcDbBlockEnd
  0
BLOCK
  5
2AA
330
2A9
100
AcDbEntity
  8
0
100
AcDbBlockBegin
  2
Dim4
 70
     0
 10
0.0
 20
0.0
 30
0.0
  3
Dim4
  1

  0
LINE
  5
2AC
330
2A9
100
AcDbEntity
  8
21
  6
Continuous
 62
     7
370
     9
100
AcDbLine
 10
193.8918518518519
 20
161.1511300497348
 30
0.0
 11
193.8918518518526
 21
150.7560058330312
 31
0.0
  0
LINE
  5
2AD
330
2A9
100
AcDbEntity
  8
21
  6
Continuous
 62
     7
370
     9
100
AcDbLine
 10
194.8135341586202
 20
165.5511300497383
 30
0.0
 11
194.8135341586212
 21
150.7560058330312
 31
0.0
  0
LINE
  5
2AE
330
2A9
100
AcDbEntity
  8
21
  6
Continuous
 62
     7
370
     9
100
AcDbLine
 10
185.8918518518525
 20
151.7560058330312
 30
0.0
 11
202.8135341586211
 21
151.7560058330312
 31
0.0
  0
MTEXT
  5
2AF
330
2A9
100
AcDbEntity
  8
21
  6
Continuous
 62
     7
370
     9
100
AcDbMText
 10
195.9535387071993
 20
152.6337786541609
 30
0.0
 40
2.0
 41
26.89
 46
2.0
 71
     7
 72
     1
  1
(1.1)
  7
ＭＳ ゴシック
 73
     1
 44
1.0
1001
ACAD
1000
ACAD_MTEXT_DEFINED_HEIGHT_BEGIN
1070
    46
1040
2.0
1000
ACAD_MTEXT_DEFINED_HEIGHT_END
  0
INSERT
  5
2B0
330
2A9
100
AcDbEntity
  8
21
  6
Continuous
 62
     7
370
     9
100
AcDbBlockReference
  2
_OPEN
 10
193.8918518518525
 20
151.7560058330312
 30
0.0
 50
359.9999999999997
  0
INSERT
  5
2B1
330
2A9
100
AcDbEntity
  8
21
  6
Continuous
 62
     7
370
     9
100
AcDbBlockReference
  2
_OPEN
 10
194.8135341586211
 20
151.7560058330312
 30
0.0
 50
179.9999999999995
  0
ENDBLK
  5
2AB
330
2A9
100
AcDbEntity
  8
0
100
AcDbBlockEnd
  0
BLOCK
  5
2B4
330
2B3
100
AcDbEntity
  8
0
100
AcDbBlockBegin
  2
Dim5
 70
     0
 10
0.0
 20
0.0
 30
0.0
  3
Dim5
  1

  0
LINE
  5
2B6
330
2B3
100
AcDbEntity
  8
21
  6
Continuous
 62
     7
370
     9
100
AcDbLine
 10
157.891851851852
 20
156.9011300497348
 30
0.0
 11
157.8918518518526
 21
150.7560058330312
 31
0.0
  0
LINE
  5
2B7
330
2B3
100
AcDbEntity
  8
21
  6
Continuous
 62
     7
370
     9
100
AcDbLine
 10
151.691851851852
 20
157.5511300497348
 30
0.0
 11
151.6918518518527
 21
150.7560058330312
 31
0.0
  0
LINE
  5
2B8
330
2B3
100
AcDbEntity
  8
21
  6
Continuous
 62
     7
370
     9
100
AcDbLine
 10
157.8918518518525
 20
151.7560058330312
 30
0.0
 11
151.6918518518526
 21
151.7560058330312
 31
0.0
  0
MTEXT
  5
2B9
330
2B3
100
AcDbEntity
  8
21
  6
Continuous
 62
     7
370
     9
100
AcDbMText
 10
154.8404291948092
 20
152.493091204121
 30
0.0
 40
2.0
 41
20.22
 46
2.0
 71
     8
 72
     1
  1
(4)
  7
ＭＳ ゴシック
 73
     1
 44
1.0
1001
ACAD
1000
ACAD_MTEXT_DEFINED_HEIGHT_BEGIN
1070
    46
1040
2.0
1000
ACAD_MTEXT_DEFINED_HEIGHT_END
  0
INSERT
  5
2BA
330
2B3
100
AcDbEntity
  8
21
  6
Continuous
 62
     7
370
     9
100
AcDbBlockReference
  2
_OPEN
 10
157.8918518518525
 20
151.7560058330312
 30
0.0
 50
359.9999999999997
  0
INSERT
  5
2BB
330
2B3
100
AcDbEntity
  8
21
  6
Continuous
 62
     7
370
     9
100
AcDbBlockReference
  2
_OPEN
 10
151.6918518518526
 20
151.7560058330312
 30
0.0
 50
179.9999999999996
  0
ENDBLK
  5
2B5
330
2B3
100
AcDbEntity
  8
0
100
AcDbBlockEnd
  0
BLOCK
  5
2C3
330
2C2
100
AcDbEntity
  8
0
100
AcDbBlockBegin
  2
*G21
 70
     1
 10
0.0
 20
0.0
 30
0.0
  3
*G21
  1

  0
LINE
  5
2C5
330
2C2
100
AcDbEntity
  8
21
  6
Continuous
 62
     7
370
     9
100
AcDbLine
 10
154.3429366348156
 20
190.3011300497348
 30
0.0
 11
155.0337209156028
 21
190.991914330522
 31
0.0
  0
LINE
  5
2C6
330
2C2
100
AcDbEntity
  8
21
  6
Continuous
 62
     7
370
     9
100
AcDbLine
 10
153.635829853629
 20
190.3011300497348
 30
0.0
 11
154.6858298536291
 21
191.3511300497348
 31
0.0
  0
LINE
  5
2C7
330
2C2
100
AcDbEntity
  8
21
  6
Continuous
 62
     7
370
     9
100
AcDbLine
 10
152.9287230724425
 20
190.3011300497348
 30
0.0
 11
153.9787230724425
 21
191.3511300497348
 31
0.0
  0
LINE
  5
2C8
330
2C2
100
AcDbEntity
  8
21
  6
Continuous
 62
     7
370
     9
100
AcDbLine
 10
152.2216162912559
 20
190.3011300497348
 30
0.0
 11
153.271616291256
 21
191.3511300497348
 31
0.0
  0
LINE
  5
2C9
330
2C2
100
AcDbEntity
  8
21
  6
Continuous
 62
     7
370
     9
100
AcDbLine
 10
151.7531806809606
 20
190.539801220626
 30
0.0
 11
152.5645095100694
 21
191.3511300497348
 31
0.0
  0
ENDBLK
  5
2C4
330
2C2
100
AcDbEntity
  8
0
100
AcDbBlockEnd
  0
BLOCK
  5
2CC
330
2CB
100
AcDbEntity
  8
0
100
AcDbBlockBegin
  2
Dim6
 70
     0
 10
0.0
 20
0.0
 30
0.0
  3
Dim6
  1

  0
LINE
  5
2CE
330
2CB
100
AcDbEntity
  8
21
  6
Continuous
 62
     7
370
     9
100
AcDbLine
 10
186.591851851852
 20
156.9011300497348
 30
0.0
 11
186.5918518518527
 21
150.7560058330312
 31
0.0
  0
LINE
  5
2CF
330
2CB
100
AcDbEntity
  8
21
  6
Continuous
 62
     7
370
     9
100
AcDbLine
 10
189.891851851852
 20
157.6511300497348
 30
0.0
 11
189.8918518518527
 21
150.7560058330312
 31
0.0
  0
LINE
  5
2D0
330
2CB
100
AcDbEntity
  8
21
  6
Continuous
 62
     7
370
     9
100
AcDbLine
 10
186.5918518518526
 20
151.7560058330312
 30
0.0
 11
189.8918518518526
 21
151.7560058330312
 31
0.0
  0
MTEXT
  5
2D1
330
2CB
100
AcDbEntity
  8
21
  6
Continuous
 62
     7
370
     9
100
AcDbMText
 10
188.248938459928
 20
152.4296904601796
 30
0.0
 40
2.0
 41
20.18
 46
2.0
 71
     8
 72
     1
  1
3.3
  7
ＭＳ ゴシック
 73
     1
 44
1.0
1001
ACAD
1000
ACAD_MTEXT_DEFINED_HEIGHT_BEGIN
1070
    46
1040
2.0
1000
ACAD_MTEXT_DEFINED_HEIGHT_END
  0
INSERT
  5
2D2
330
2CB
100
AcDbEntity
  8
21
  6
Continuous
 62
     7
370
     9
100
AcDbBlockReference
  2
_OPEN
 10
186.5918518518526
 20
151.7560058330312
 30
0.0
 50
179.9999999999998
  0
INSERT
  5
2D3
330
2CB
100
AcDbEntity
  8
21
  6
Continuous
 62
     7
370
     9
100
AcDbBlockReference
  2
_OPEN
 10
189.8918518518526
 20
151.7560058330312
 30
0.0
 50
359.9999999999997
  0
ENDBLK
  5
2CD
330
2CB
100
AcDbEntity
  8
0
100
AcDbBlockEnd
  0
BLOCK
  5
2D6
330
2D5
100
AcDbEntity
  8
0
100
AcDbBlockBegin
  2
Dim7
 70
     0
 10
0.0
 20
0.0
 30
0.0
  3
Dim7
  1

  0
LINE
  5
2D8
330
2D5
100
AcDbEntity
  8
21
  6
Continuous
 62
     7
370
     9
100
AcDbLine
 10
191.5918518518517
 20
159.3511300497348
 30
0.0
 11
218.7849070701316
 21
159.3511300497346
 31
0.0
  0
LINE
  5
2D9
330
2D5
100
AcDbEntity
  8
21
  6
Continuous
 62
     7
370
     9
100
AcDbLine
 10
191.5918518518517
 20
191.3511300497348
 30
0.0
 11
218.7849070701316
 21
191.3511300497346
 31
0.0
  0
LINE
  5
2DA
330
2D5
100
AcDbEntity
  8
21
  6
Continuous
 62
     7
370
     9
100
AcDbLine
 10
217.7849070701316
 20
159.3511300497346
 30
0.0
 11
217.7849070701316
 21
191.3511300497346
 31
0.0
  0
MTEXT
  5
2DB
330
2D5
100
AcDbEntity
  8
21
  6
Continuous
 62
     7
370
     9
100
AcDbMText
 10
217.7849070701316
 20
175.013191899164
 30
0.0
 40
2.0
 41
24.51
 46
2.0
 71
     8
 72
     1
  1
φ32
  7
ＭＳ ゴシック
 11
1.615544574432587E-15
 21
1.0
 31
0.0
 73
     1
 44
1.0
1001
ACAD
1000
ACAD_MTEXT_DEFINED_HEIGHT_BEGIN
1070
    46
1040
2.0
1000
ACAD_MTEXT_DEFINED_HEIGHT_END
  0
INSERT
  5
2DC
330
2D5
100
AcDbEntity
  8
21
  6
Continuous
 62
     7
370
     9
100
AcDbBlockReference
  2
_OPEN
 10
217.7849070701316
 20
159.3511300497346
 30
0.0
 50
269.9999999999998
  0
INSERT
  5
2DD
330
2D5
100
AcDbEntity
  8
21
  6
Continuous
 62
     7
370
     9
100
AcDbBlockReference
  2
_OPEN
 10
217.7849070701316
 20
191.3511300497346
 30
0.0
 50
89.99999999999991
  0
ENDBLK
  5
2D7
330
2D5
100
AcDbEntity
  8
0
100
AcDbBlockEnd
  0
BLOCK
  5
2E0
330
2DF
100
AcDbEntity
  8
0
100
AcDbBlockBegin
  2
Dim8
 70
     0
 10
0.0
 20
0.0
 30
0.0
  3
Dim8
  1

  0
LINE
  5
2E2
330
2DF
100
AcDbEntity
  8
21
  6
Continuous
 62
     7
370
     9
100
AcDbLine
 10
149.8918518518518
 20
159.3511300497348
 30
0.0
 11
138.8608989921745
 21
159.3511300497348
 31
0.0
  0
LINE
  5
2E3
330
2DF
100
AcDbEntity
  8
21
  6
Continuous
 62
     7
370
     9
100
AcDbLine
 10
149.8918518518518
 20
191.3511300497348
 30
0.0
 11
138.8608989921745
 21
191.3511300497349
 31
0.0
  0
LINE
  5
2E4
330
2DF
100
AcDbEntity
  8
21
  6
Continuous
 62
     7
370
     9
100
AcDbLine
 10
139.8608989921745
 20
159.3511300497348
 30
0.0
 11
139.8608989921745
 21
191.3511300497349
 31
0.0
  0
MTEXT
  5
2E5
330
2DF
100
AcDbEntity
  8
21
  6
Continuous
 62
     7
370
     9
100
AcDbMText
 10
139.8608989921745
 20
175.4837801344582
 30
0.0
 40
2.0
 41
24.51
 46
2.0
 71
     8
 72
     1
  1
φ32
  7
ＭＳ ゴシック
 11
1.615544574432587E-15
 21
1.0
 31
0.0
 73
     1
 44
1.0
1001
ACAD
1000
ACAD_MTEXT_DEFINED_HEIGHT_BEGIN
1070
    46
1040
2.0
1000
ACAD_MTEXT_DEFINED_HEIGHT_END
  0
INSERT
  5
2E6
330
2DF
100
AcDbEntity
  8
21
  6
Continuous
 62
     7
370
     9
100
AcDbBlockReference
  2
_OPEN
 10
139.8608989921745
 20
159.3511300497348
 30
0.0
 50
269.9999999999998
  0
INSERT
  5
2E7
330
2DF
100
AcDbEntity
  8
21
  6
Continuous
 62
     7
370
     9
100
AcDbBlockReference
  2
_OPEN
 10
139.8608989921745
 20
191.3511300497349
 30
0.0
 50
89.99999999999991
  0
ENDBLK
  5
2E1
330
2DF
100
AcDbEntity
  8
0
100
AcDbBlockEnd
  0
BLOCK
  5
2EA
330
2E9
100
AcDbEntity
  8
0
100
AcDbBlockBegin
  2
Dim9
 70
     0
 10
0.0
 20
0.0
 30
0.0
  3
Dim9
  1

  0
LINE
  5
2EC
330
2E9
100
AcDbEntity
  8
21
  6
Continuous
 62
     7
370
     9
100
AcDbLine
 10
156.1918518518517
 20
158.6011300497348
 30
0.0
 11
135.4418518518518
 21
158.6011300497349
 31
0.0
  0
LINE
  5
2ED
330
2E9
100
AcDbEntity
  8
21
  6
Continuous
 62
     7
370
     9
100
AcDbLine
 10
155.9418518518518
 20
192.1011300497348
 30
0.0
 11
135.4418518518517
 21
192.1011300497349
 31
0.0
  0
LINE
  5
2EE
330
2E9
100
AcDbEntity
  8
21
  6
Continuous
 62
     7
370
     9
100
AcDbLine
 10
136.4418518518518
 20
158.6011300497349
 30
0.0
 11
136.4418518518517
 21
192.1011300497349
 31
0.0
  0
MTEXT
  5
2EF
330
2E9
100
AcDbEntity
  8
21
  6
Continuous
 62
     7
370
     9
100
AcDbMText
 10
136.4418518518517
 20
175.4837801344582
 30
0.0
 40
2.0
 41
37.84
 46
2.0
 71
     8
 72
     1
  1
φ33.5
  7
ＭＳ ゴシック
 11
1.615544574432587E-15
 21
1.0
 31
0.0
 73
     1
 44
1.0
1001
ACAD
1000
ACAD_MTEXT_DEFINED_HEIGHT_BEGIN
1070
    46
1040
2.0
1000
ACAD_MTEXT_DEFINED_HEIGHT_END
  0
INSERT
  5
2F0
330
2E9
100
AcDbEntity
  8
21
  6
Continuous
 62
     7
370
     9
100
AcDbBlockReference
  2
_OPEN
 10
136.4418518518518
 20
158.6011300497349
 30
0.0
 50
269.9999999999999
  0
INSERT
  5
2F1
330
2E9
100
AcDbEntity
  8
21
  6
Continuous
 62
     7
370
     9
100
AcDbBlockReference
  2
_OPEN
 10
136.4418518518517
 20
192.1011300497349
 30
0.0
 50
89.99999999999987
  0
ENDBLK
  5
2EB
330
2E9
100
AcDbEntity
  8
0
100
AcDbBlockEnd
  0
BLOCK
  5
2F4
330
2F3
100
AcDbEntity
  8
0
100
AcDbBlockBegin
  2
Dim10
 70
     0
 10
0.0
 20
0.0
 30
0.0
  3
Dim10
  1

  0
LINE
  5
2F6
330
2F3
100
AcDbEntity
  8
21
  6
Continuous
 62
     7
370
     9
100
AcDbLine
 10
186.591851851852
 20
156.9011300497348
 30
0.0
 11
186.5918518518527
 21
150.7560058330312
 31
0.0
  0
LINE
  5
2F7
330
2F3
100
AcDbEntity
  8
21
  6
Continuous
 62
     7
370
     9
100
AcDbLine
 10
177.291851851852
 20
156.9011300497348
 30
0.0
 11
177.2918518518527
 21
150.7560058330312
 31
0.0
  0
LINE
  5
2F8
330
2F3
100
AcDbEntity
  8
21
  6
Continuous
 62
     7
370
     9
100
AcDbLine
 10
186.5918518518526
 20
151.7560058330312
 30
0.0
 11
177.2918518518526
 21
151.7560058330312
 31
0.0
  0
MTEXT
  5
2F9
330
2F3
100
AcDbEntity
  8
21
  6
Continuous
 62
     7
370
     9
100
AcDbMText
 10
181.9418518518518
 20
152.2560058330312
 30
0.0
 40
2.0
 41
20.21
 46
2.0
 71
     8
 72
     1
  1
9.3
  7
ＭＳ ゴシック
 73
     1
 44
1.0
1001
ACAD
1000
ACAD_MTEXT_DEFINED_HEIGHT_BEGIN
1070
    46
1040
2.0
1000
ACAD_MTEXT_DEFINED_HEIGHT_END
  0
INSERT
  5
2FA
330
2F3
100
AcDbEntity
  8
21
  6
Continuous
 62
     7
370
     9
100
AcDbBlockReference
  2
_OPEN
 10
186.5918518518526
 20
151.7560058330312
 30
0.0
 50
359.9999999999995
  0
INSERT
  5
2FB
330
2F3
100
AcDbEntity
  8
21
  6
Continuous
 62
     7
370
     9
100
AcDbBlockReference
  2
_OPEN
 10
177.2918518518526
 20
151.7560058330312
 30
0.0
 50
179.9999999999995
  0
ENDBLK
  5
2F5
330
2F3
100
AcDbEntity
  8
0
100
AcDbBlockEnd
  0
BLOCK
  5
2FE
330
2FD
100
AcDbEntity
  8
0
100
AcDbBlockBegin
  2
Dim11
 70
     0
 10
0.0
 20
0.0
 30
0.0
  3
Dim11
  1

  0
LINE
  5
300
330
2FD
100
AcDbEntity
  8
21
  6
Continuous
 62
     7
370
     9
100
AcDbLine
 10
193.8918518518519
 20
161.1511300497348
 30
0.0
 11
193.8918518518527
 21
150.7560058330312
 31
0.0
  0
LINE
  5
301
330
2FD
100
AcDbEntity
  8
21
  6
Continuous
 62
     7
370
     9
100
AcDbLine
 10
189.891851851852
 20
157.6511300497348
 30
0.0
 11
189.8918518518527
 21
150.7560058330312
 31
0.0
  0
LINE
  5
302
330
2FD
100
AcDbEntity
  8
21
  6
Continuous
 62
     7
370
     9
100
AcDbLine
 10
193.8918518518526
 20
151.7560058330312
 30
0.0
 11
189.8918518518526
 21
151.7560058330312
 31
0.0
  0
MTEXT
  5
303
330
2FD
100
AcDbEntity
  8
21
  6
Continuous
 62
     7
370
     9
100
AcDbMText
 10
191.8918518518518
 20
152.2560058330312
 30
0.0
 40
2.0
 41
6.89
 46
2.0
 71
     8
 72
     1
  1
4
  7
ＭＳ ゴシック
 73
     1
 44
1.0
1001
ACAD
1000
ACAD_MTEXT_DEFINED_HEIGHT_BEGIN
1070
    46
1040
2.0
1000
ACAD_MTEXT_DEFINED_HEIGHT_END
  0
INSERT
  5
304
330
2FD
100
AcDbEntity
  8
21
  6
Continuous
 62
     7
370
     9
100
AcDbBlockReference
  2
_OPEN
 10
193.8918518518526
 20
151.7560058330312
 30
0.0
 50
359.9999999999997
  0
INSERT
  5
305
330
2FD
100
AcDbEntity
  8
21
  6
Continuous
 62
     7
370
     9
100
AcDbBlockReference
  2
_OPEN
 10
189.8918518518526
 20
151.7560058330312
 30
0.0
 50
179.9999999999998
  0
ENDBLK
  5
2FF
330
2FD
100
AcDbEntity
  8
0
100
AcDbBlockEnd
  0
BLOCK
  5
308
330
307
100
AcDbEntity
  8
0
100
AcDbBlockBegin
  2
Dim12
 70
     0
 10
0.0
 20
0.0
 30
0.0
  3
Dim12
  1

  0
LINE
  5
30A
330
307
100
AcDbEntity
  8
21
  6
Continuous
 62
     7
370
     9
100
AcDbLine
 10
189.8918518518522
 20
149.1310058330312
 30
0.0
 11
189.8918518518528
 21
146.8105807203641
 31
0.0
  0
LINE
  5
30B
330
307
100
AcDbEntity
  8
21
  6
Continuous
 62
     7
370
     9
100
AcDbLine
 10
207.4178518518518
 20
173.3511300497348
 30
0.0
 11
207.4178518518526
 21
146.8105807203641
 31
0.0
  0
LINE
  5
30C
330
307
100
AcDbEntity
  8
21
  6
Continuous
 62
     7
370
     9
100
AcDbLine
 10
189.8918518518526
 20
147.8105807203641
 30
0.0
 11
207.4178518518526
 21
147.8105807203641
 31
0.0
  0
MTEXT
  5
30D
330
307
100
AcDbEntity
  8
21
  6
Continuous
 62
     7
370
     9
100
AcDbMText
 10
198.6548518518518
 20
148.3105807203641
 30
0.0
 40
2.0
 41
46.85000000000001
 46
2.0
 71
     8
 72
     1
  1
17.526
  7
ＭＳ ゴシック
 73
     1
 44
1.0
1001
ACAD
1000
ACAD_MTEXT_DEFINED_HEIGHT_BEGIN
1070
    46
1040
2.0
1000
ACAD_MTEXT_DEFINED_HEIGHT_END
  0
INSERT
  5
30E
330
307
100
AcDbEntity
  8
21
  6
Continuous
 62
     7
370
     9
100
AcDbBlockReference
  2
_OPEN
 10
189.8918518518526
 20
147.8105807203641
 30
0.0
 50
179.9999999999998
  0
INSERT
  5
30F
330
307
100
AcDbEntity
  8
21
  6
Continuous
 62
     7
370
     9
100
AcDbBlockReference
  2
_OPEN
 10
207.4178518518526
 20
147.8105807203641
 30
0.0
 50
359.9999999999997
  0
ENDBLK
  5
309
330
307
100
AcDbEntity
  8
0
100
AcDbBlockEnd
  0
BLOCK
  5
312
330
311
100
AcDbEntity
  8
0
100
AcDbBlockBegin
  2
Dim13
 70
     0
 10
0.0
 20
0.0
 30
0.0
  3
Dim13
  1

  0
LINE
  5
314
330
311
100
AcDbEntity
  8
21
  6
Continuous
 62
     7
370
     9
100
AcDbLine
 10
165.291851851852
 20
156.9011300497348
 30
0.0
 11
165.2918518518527
 21
150.7560058330312
 31
0.0
  0
LINE
  5
315
330
311
100
AcDbEntity
  8
21
  6
Continuous
 62
     7
370
     9
100
AcDbLine
 10
157.891851851852
 20
156.9011300497348
 30
0.0
 11
157.8918518518527
 21
150.7560058330312
 31
0.0
  0
LINE
  5
316
330
311
100
AcDbEntity
  8
21
  6
Continuous
 62
     7
370
     9
100
AcDbLine
 10
165.2918518518526
 20
151.7560058330312
 30
0.0
 11
157.8918518518526
 21
151.7560058330312
 31
0.0
  0
MTEXT
  5
317
330
311
100
AcDbEntity
  8
21
  6
Continuous
 62
     7
370
     9
100
AcDbMText
 10
161.5918518518517
 20
152.2560058330312
 30
0.0
 40
2.0
 41
19.99
 46
2.0
 71
     8
 72
     1
  1
7.4
  7
ＭＳ ゴシック
 73
     1
 44
1.0
1001
ACAD
1000
ACAD_MTEXT_DEFINED_HEIGHT_BEGIN
1070
    46
1040
2.0
1000
ACAD_MTEXT_DEFINED_HEIGHT_END
  0
INSERT
  5
318
330
311
100
AcDbEntity
  8
21
  6
Continuous
 62
     7
370
     9
100
AcDbBlockReference
  2
_OPEN
 10
165.2918518518526
 20
151.7560058330312
 30
0.0
 50
359.9999999999997
  0
INSERT
  5
319
330
311
100
AcDbEntity
  8
21
  6
Continuous
 62
     7
370
     9
100
AcDbBlockReference
  2
_OPEN
 10
157.8918518518526
 20
151.7560058330312
 30
0.0
 50
179.9999999999998
  0
ENDBLK
  5
313
330
311
100
AcDbEntity
  8
0
100
AcDbBlockEnd
  0
BLOCK
  5
31C
330
31B
100
AcDbEntity
  8
0
100
AcDbBlockBegin
  2
Dim14
 70
     0
 10
0.0
 20
0.0
 30
0.0
  3
Dim14
  1

  0
LINE
  5
31E
330
31B
100
AcDbEntity
  8
21
  6
Continuous
 62
     7
370
     9
100
AcDbLine
 10
177.291851851852
 20
156.9011300497348
 30
0.0
 11
177.2918518518527
 21
150.7560058330312
 31
0.0
  0
LINE
  5
31F
330
31B
100
AcDbEntity
  8
21
  6
Continuous
 62
     7
370
     9
100
AcDbLine
 10
165.291851851852
 20
156.9011300497348
 30
0.0
 11
165.2918518518527
 21
150.7560058330312
 31
0.0
  0
LINE
  5
320
330
31B
100
AcDbEntity
  8
21
  6
Continuous
 62
     7
370
     9
100
AcDbLine
 10
177.2918518518526
 20
151.7560058330312
 30
0.0
 11
165.2918518518526
 21
151.7560058330312
 31
0.0
  0
MTEXT
  5
321
330
31B
100
AcDbEntity
  8
21
  6
Continuous
 62
     7
370
     9
100
AcDbMText
 10
171.2918518518517
 20
152.2560058330312
 30
0.0
 40
2.0
 41
13.52
 46
2.0
 71
     8
 72
     1
  1
12
  7
ＭＳ ゴシック
 73
     1
 44
1.0
1001
ACAD
1000
ACAD_MTEXT_DEFINED_HEIGHT_BEGIN
1070
    46
1040
2.0
1000
ACAD_MTEXT_DEFINED_HEIGHT_END
  0
INSERT
  5
322
330
31B
100
AcDbEntity
  8
21
  6
Continuous
 62
     7
370
     9
100
AcDbBlockReference
  2
_OPEN
 10
177.2918518518526
 20
151.7560058330312
 30
0.0
 50
359.9999999999996
  0
INSERT
  5
323
330
31B
100
AcDbEntity
  8
21
  6
Continuous
 62
     7
370
     9
100
AcDbBlockReference
  2
_OPEN
 10
165.2918518518526
 20
151.7560058330312
 30
0.0
 50
179.9999999999995
  0
ENDBLK
  5
31D
330
31B
100
AcDbEntity
  8
0
100
AcDbBlockEnd
  0
ENDSEC
  0
SECTION
  2
ENTITIES
  0
LINE
  5
B3
330
1F
100
AcDbEntity
  8
20
  6
DASHDOT
 62
   250
370
     9
100
AcDbLine
 10
160.2918518518517
 20
159.8179478734473
 30
0.0
 11
160.2918518518517
 21
161.8925262067773
 31
0.0
  0
LINE
  5
B4
330
1F
100
AcDbEntity
  8
20
  6
DASHDOT
 62
   250
370
     9
100
AcDbLine
 10
161.4171774988309
 20
160.8452045363454
 30
0.0
 11
159.1824185434053
 21
160.8452045363454
 31
0.0
  0
LINE
  5
B5
330
1F
100
AcDbEntity
  8
20
  6
DASHDOT
 62
   250
370
     9
100
AcDbLine
 10
107.5404922669584
 20
155.7913868889504
 30
0.0
 11
107.5404922669584
 21
194.9108732105192
 31
0.0
  0
LINE
  5
B6
330
1F
100
AcDbEntity
  8
20
  6
DASHDOT
 62
   250
370
     9
100
AcDbLine
 10
207.4178518518518
 20
175.3511300497348
 30
0.0
 11
148.9946924803128
 21
175.3511300497348
 31
0.0
  0
LINE
  5
B7
330
1F
100
AcDbEntity
  8
20
  6
Continuous
 62
   250
370
     9
100
AcDbLine
 10
100.1682277171234
 20
178.9013171620147
 30
0.0
 11
103.3898900254467
 21
182.2950185045507
 31
0.0
  0
LINE
  5
B8
330
1F
100
AcDbEntity
  8
20
  6
Continuous
 62
   250
370
     9
100
AcDbLine
 10
100.3713816194094
 20
180.5186846266738
 30
0.0
 11
101.7855951817825
 21
181.9328981890469
 31
0.0
  0
LINE
  5
B9
330
1F
100
AcDbEntity
  8
20
  6
Continuous
 62
   250
370
     9
100
AcDbLine
 10
100.3713816194094
 20
169.5186846266738
 30
0.0
 11
101.7855951817825
 21
170.9328981890469
 31
0.0
  0
LINE
  5
BA
330
1F
100
AcDbEntity
  8
20
  6
Continuous
 62
   250
370
     9
100
AcDbLine
 10
100.1682277171234
 20
167.9013171620147
 30
0.0
 11
103.3898900254467
 21
171.2950185045507
 31
0.0
  0
LINE
  5
BB
330
1F
100
AcDbEntity
  8
20
  6
Continuous
 62
   250
370
     9
100
AcDbLine
 10
101.8067617291695
 20
179.0833045169138
 30
0.0
 11
103.2209752915426
 21
180.4975180792869
 31
0.0
  0
LINE
  5
BC
330
1F
100
AcDbEntity
  8
20
  6
Continuous
 62
   250
370
     9
100
AcDbLine
 10
101.8067617291695
 20
168.0833045169138
 30
0.0
 11
103.2209752915426
 21
169.4975180792869
 31
0.0
  0
LINE
  5
BD
330
1F
100
AcDbEntity
  8
20
  6
Continuous
 62
   250
370
     9
100
AcDbLine
 10
111.1682277171234
 20
178.9013171620147
 30
0.0
 11
114.3898900254467
 21
182.2950185045507
 31
0.0
  0
LINE
  5
BE
330
1F
100
AcDbEntity
  8
20
  6
Continuous
 62
   250
370
     9
100
AcDbLine
 10
111.1682277171234
 20
167.9013171620147
 30
0.0
 11
114.3898900254467
 21
171.2950185045507
 31
0.0
  0
LINE
  5
BF
330
1F
100
AcDbEntity
  8
20
  6
Continuous
 62
   250
370
     9
100
AcDbLine
 10
112.8067617291695
 20
179.0833045169138
 30
0.0
 11
114.2209752915426
 21
180.4975180792869
 31
0.0
  0
LINE
  5
C0
330
1F
100
AcDbEntity
  8
20
  6
Continuous
 62
   250
370
     9
100
AcDbLine
 10
111.3713816194094
 20
180.5186846266738
 30
0.0
 11
112.7855951817825
 21
181.9328981890469
 31
0.0
  0
LINE
  5
C1
330
1F
100
AcDbEntity
  8
20
  6
Continuous
 62
   250
370
     9
100
AcDbLine
 10
112.8067617291695
 20
168.0833045169138
 30
0.0
 11
114.2209752915426
 21
169.4975180792869
 31
0.0
  0
LINE
  5
C2
330
1F
100
AcDbEntity
  8
20
  6
Continuous
 62
   250
370
     9
100
AcDbLine
 10
111.3713816194094
 20
169.5186846266738
 30
0.0
 11
112.7855951817825
 21
170.9328981890469
 31
0.0
  0
ELLIPSE
  5
C3
330
1F
100
AcDbEntity
  8
20
  6
Continuous
 62
   250
370
     9
100
AcDbEllipse
 10
171.4918518518517
 20
160.368890564264
 30
0.0
 11
-2.0
 21
6.462178297730347E-15
 31
0.0
210
0.0
220
0.0
230
1.0
 40
0.5000000000000284
 41
3.14159265358979
 42
6.283185307179586
  0
ELLIPSE
  5
C4
330
1F
100
AcDbEntity
  8
20
  6
Continuous
 62
   250
370
     9
100
AcDbEllipse
 10
160.2918518518517
 20
160.8452045363454
 30
0.0
 11
-0.8499999999999943
 21
2.746425776535379E-15
 31
0.0
210
0.0
220
0.0
230
1.0
 40
0.5219879437762297
 41
0.0
 42
6.283185307179586
  0
CIRCLE
  5
C5
330
1F
100
AcDbEntity
  8
20
  6
Continuous
 62
   250
370
     9
100
AcDbCircle
 10
107.5404922669584
 20
175.3511300497348
 30
0.0
 40
16.0
  0
CIRCLE
  5
C6
330
1F
100
AcDbEntity
  8
20
  6
Continuous
 62
   250
370
     9
100
AcDbCircle
 10
107.5404922669584
 20
175.3511300497348
 30
0.0
 40
15.0
  0
CIRCLE
  5
C7
330
1F
100
AcDbEntity
  8
20
  6
Continuous
 62
   250
370
     9
100
AcDbCircle
 10
107.5404922669584
 20
175.3511300497348
 30
0.0
 40
13.4999999999999
  0
CIRCLE
  5
C8
330
1F
100
AcDbEntity
  8
20
  6
Continuous
 62
   250
370
     9
100
AcDbCircle
 10
107.5404922669584
 20
175.3511300497348
 30
0.0
 40
12.74999999999991
  0
CIRCLE
  5
C9
330
1F
100
AcDbEntity
  8
20
  6
Continuous
 62
   250
370
     9
100
AcDbCircle
 10
107.5404922669584
 20
175.3511300497348
 30
0.0
 40
16.45
  0
ARC
  5
CA
330
1F
100
AcDbEntity
  8
20
  6
Continuous
 62
   250
370
     9
100
AcDbCircle
 10
107.5404922669584
 20
175.3511300497348
 30
0.0
 40
16.75
100
AcDbArc
 50
138.1942615943672
 51
141.8053344278515
  0
LINE
  5
CB
330
1F
100
AcDbEntity
  8
20
  6
Continuous
 62
   250
370
     9
100
AcDbLine
 10
96.73026716965964
 20
162.5565400467011
 30
0.0
 11
97.13934985013856
 21
162.6067690839967
 31
0.0
  0
LINE
  5
CC
330
1F
100
AcDbEntity
  8
20
  6
Continuous
 62
   250
370
     9
100
AcDbLine
 10
93.06304555028356
 20
166.9269958766676
 30
0.0
 11
93.18354877184984
 21
167.3211441544634
 31
0.0
  0
LINE
  5
CD
330
1F
100
AcDbEntity
  8
20
  6
Continuous
 62
   250
370
     9
100
AcDbLine
 10
95.05480877095985
 20
164.1855486659578
 30
0.0
 11
95.46690081779201
 21
164.1783555725239
 31
0.0
  0
LINE
  5
CE
330
1F
100
AcDbEntity
  8
20
  6
Continuous
 62
   250
370
     9
100
AcDbLine
 10
95.94588335174276
 20
163.2628074157545
 30
0.0
 11
95.95307649378015
 21
163.6749022470796
 31
0.0
  0
ARC
  5
CF
330
1F
100
AcDbEntity
  8
20
  6
Continuous
 62
   250
370
     9
100
AcDbCircle
 10
107.5404922669584
 20
175.3511300497348
 30
0.0
 40
16.75
100
AcDbArc
 50
226.1942615943675
 51
229.8053344278517
  0
LINE
  5
D0
330
1F
100
AcDbEntity
  8
20
  6
Continuous
 62
   250
370
     9
100
AcDbLine
 10
94.37635194229725
 20
164.9941078178079
 30
0.0
 11
94.44082759673589
 21
165.4011910786796
 31
0.0
  0
LINE
  5
D1
330
1F
100
AcDbEntity
  8
20
  6
Continuous
 62
   250
370
     9
100
AcDbLine
 10
93.6223699992552
 20
166.0318826261891
 30
0.0
 11
94.02945050949677
 21
165.9674074074075
 31
0.0
  0
ARC
  5
D2
330
1F
100
AcDbEntity
  8
20
  6
Continuous
 62
   250
370
     9
100
AcDbCircle
 10
107.5404922669584
 20
175.3511300497348
 30
0.0
 40
16.75
100
AcDbArc
 50
218.1942615943674
 51
221.8053344278516
  0
ARC
  5
D3
330
1F
100
AcDbEntity
  8
20
  6
Continuous
 62
   250
370
     9
100
AcDbCircle
 10
107.5404922669584
 20
175.3511300497348
 30
0.0
 40
16.75
100
AcDbArc
 50
210.1942615943674
 51
213.8053344278515
  0
LINE
  5
D4
330
1F
100
AcDbEntity
  8
20
  6
Continuous
 62
   250
370
     9
100
AcDbLine
 10
92.46088305690037
 20
182.6427612850574
 30
0.0
 11
92.85503133469618
 21
182.7632645066236
 31
0.0
  0
LINE
  5
D5
330
1F
100
AcDbEntity
  8
20
  6
Continuous
 62
   250
370
     9
100
AcDbLine
 10
92.46083164586196
 20
168.059605137033
 30
0.0
 11
92.85497726042829
 21
167.9391027296977
 31
0.0
  0
LINE
  5
D6
330
1F
100
AcDbEntity
  8
20
  6
Continuous
 62
   250
370
     9
100
AcDbLine
 10
91.59283784705951
 20
180.4731236560836
 30
0.0
 11
91.96637949388915
 21
180.6473089866401
 31
0.0
  0
LINE
  5
D7
330
1F
100
AcDbEntity
  8
20
  6
Continuous
 62
   250
370
     9
100
AcDbLine
 10
91.30190017444193
 20
179.4585169140149
 30
0.0
 11
91.52637577788767
 21
179.1128547970377
 31
0.0
  0
ARC
  5
D8
330
1F
100
AcDbEntity
  8
20
  6
Continuous
 62
   250
370
     9
100
AcDbCircle
 10
107.5404922669584
 20
175.3511300497348
 30
0.0
 40
16.75
100
AcDbArc
 50
162.1942615943675
 51
165.8053344278517
  0
ARC
  5
D9
330
1F
100
AcDbEntity
  8
20
  6
Continuous
 62
   250
370
     9
100
AcDbCircle
 10
107.5404922669584
 20
175.3511300497348
 30
0.0
 40
16.75
100
AcDbArc
 50
154.1942615943672
 51
157.8053344278518
  0
LINE
  5
DA
330
1F
100
AcDbEntity
  8
20
  6
Continuous
 62
   250
370
     9
100
AcDbLine
 10
92.03157080316447
 20
181.6785193241411
 30
0.0
 11
92.20575495676414
 21
181.3049802013035
 31
0.0
  0
LINE
  5
DB
330
1F
100
AcDbEntity
  8
20
  6
Continuous
 62
   250
370
     9
100
AcDbLine
 10
91.03517547733802
 20
172.4985842263913
 30
0.0
 11
91.38083759431524
 21
172.2741086229456
 31
0.0
  0
ARC
  5
DC
330
1F
100
AcDbEntity
  8
20
  6
Continuous
 62
   250
370
     9
100
AcDbCircle
 10
107.5404922669584
 20
175.3511300497348
 30
0.0
 40
16.75
100
AcDbArc
 50
194.1942615943674
 51
197.8053344278515
  0
LINE
  5
DD
330
1F
100
AcDbEntity
  8
20
  6
Continuous
 62
   250
370
     9
100
AcDbLine
 10
91.30187121471903
 20
171.243857679686
 30
0.0
 11
91.52634833493931
 21
171.5895221322912
 31
0.0
  0
ARC
  5
DE
330
1F
100
AcDbEntity
  8
20
  6
Continuous
 62
   250
370
     9
100
AcDbCircle
 10
107.5404922669584
 20
175.3511300497348
 30
0.0
 40
16.75
100
AcDbArc
 50
170.1942615943676
 51
189.8053344278516
  0
LINE
  5
DF
330
1F
100
AcDbEntity
  8
20
  6
Continuous
 62
   250
370
     9
100
AcDbLine
 10
91.03519559031398
 20
178.2037922477437
 30
0.0
 11
91.38086004291921
 21
178.428269367964
 31
0.0
  0
ARC
  5
E0
330
1F
100
AcDbEntity
  8
20
  6
Continuous
 62
   250
370
     9
100
AcDbCircle
 10
107.5404922669584
 20
175.3511300497348
 30
0.0
 40
16.75
100
AcDbArc
 50
202.1942615943675
 51
205.8053344278515
  0
LINE
  5
E1
330
1F
100
AcDbEntity
  8
20
  6
Continuous
 62
   250
370
     9
100
AcDbLine
 10
92.0315261907584
 20
169.0238501248954
 30
0.0
 11
92.20571152131487
 21
169.397391771725
 31
0.0
  0
LINE
  5
E2
330
1F
100
AcDbEntity
  8
20
  6
Continuous
 62
   250
370
     9
100
AcDbLine
 10
91.59280173359863
 20
170.2292488863159
 30
0.0
 11
91.96634085643618
 21
170.0550647327163
 31
0.0
  0
LINE
  5
E3
330
1F
100
AcDbEntity
  8
20
  6
Continuous
 62
   250
370
     9
100
AcDbLine
 10
93.62243570721375
 20
184.6704756061431
 30
0.0
 11
94.02951896808548
 21
184.7349512605818
 31
0.0
  0
LINE
  5
E4
330
1F
100
AcDbEntity
  8
20
  6
Continuous
 62
   250
370
     9
100
AcDbLine
 10
94.37642496731985
 20
185.7082450983662
 30
0.0
 11
94.44090018610152
 21
185.3011645881246
 31
0.0
  0
LINE
  5
E5
330
1F
100
AcDbEntity
  8
20
  6
Continuous
 62
   250
370
     9
100
AcDbLine
 10
93.06310494704309
 20
183.7753662993395
 30
0.0
 11
93.18360735437841
 21
183.3812206847732
 31
0.0
  0
ARC
  5
E6
330
1F
100
AcDbEntity
  8
20
  6
Continuous
 62
   250
370
     9
100
AcDbCircle
 10
107.5404922669584
 20
175.3511300497348
 30
0.0
 40
16.75
100
AcDbArc
 50
146.1942615943675
 51
149.8053344278516
  0
ARC
  5
E7
330
1F
100
AcDbEntity
  8
20
  6
Continuous
 62
   250
370
     9
100
AcDbCircle
 10
107.5404922669584
 20
175.3511300497348
 30
0.0
 40
16.75
100
AcDbArc
 50
242.1942615943672
 51
245.8053344278514
  0
LINE
  5
E8
330
1F
100
AcDbEntity
  8
20
  6
Continuous
 62
   250
370
     9
100
AcDbLine
 10
99.72703212446982
 20
160.5351811904231
 30
0.0
 11
99.62035788673145
 21
160.9332948655213
 31
0.0
  0
LINE
  5
E9
330
1F
100
AcDbEntity
  8
20
  6
Continuous
 62
   250
370
     9
100
AcDbLine
 10
98.61613430342959
 20
161.176563568223
 30
0.0
 11
99.01424528850441
 21
161.2832370851718
 31
0.0
  0
LINE
  5
EA
330
1F
100
AcDbEntity
  8
20
  6
Continuous
 62
   250
370
     9
100
AcDbLine
 10
100.6757039136529
 20
160.0724789029771
 30
0.0
 11
101.0550944258436
 21
160.233520620911
 31
0.0
  0
LINE
  5
EB
330
1F
100
AcDbEntity
  8
20
  6
Continuous
 62
   250
370
     9
100
AcDbLine
 10
97.74109063505082
 20
161.7667924635083
 30
0.0
 11
97.6908612583592
 21
162.175877908146
 31
0.0
  0
ARC
  5
EC
330
1F
100
AcDbEntity
  8
20
  6
Continuous
 62
   250
370
     9
100
AcDbCircle
 10
107.5404922669584
 20
175.3511300497348
 30
0.0
 40
16.75
100
AcDbArc
 50
234.1942615943674
 51
237.8053344278516
  0
ARC
  5
ED
330
1F
100
AcDbEntity
  8
20
  6
Continuous
 62
   250
370
     9
100
AcDbCircle
 10
107.5404922669584
 20
175.3511300497348
 30
0.0
 40
16.75
100
AcDbArc
 50
258.1942615943676
 51
261.8053344278516
  0
LINE
  5
EE
330
1F
100
AcDbEntity
  8
20
  6
Continuous
 62
   250
370
     9
100
AcDbLine
 10
104.1135412867439
 20
158.9554444288403
 30
0.0
 11
103.901264427344
 21
159.3087324505175
 31
0.0
  0
LINE
  5
EF
330
1F
100
AcDbEntity
  8
20
  6
Continuous
 62
   250
370
     9
100
AcDbLine
 10
105.153001174745
 20
158.7721558268041
 30
0.0
 11
105.4733056286088
 21
159.0315332593044
 31
0.0
  0
LINE
  5
F0
330
1F
100
AcDbEntity
  8
20
  6
Continuous
 62
   250
370
     9
100
AcDbLine
 10
102.8688888205922
 20
159.2657758030948
 30
0.0
 11
103.2221744551295
 21
159.4780512281564
 31
0.0
  0
ARC
  5
F1
330
1F
100
AcDbEntity
  8
20
  6
Continuous
 62
   250
370
     9
100
AcDbCircle
 10
107.5404922669584
 20
175.3511300497348
 30
0.0
 40
16.75
100
AcDbArc
 50
250.1942615943672
 51
253.8053344278517
  0
LINE
  5
F2
330
1F
100
AcDbEntity
  8
20
  6
Continuous
 62
   250
370
     9
100
AcDbLine
 10
101.8650537278832
 20
159.5919455089923
 30
0.0
 11
101.7040109217955
 21
159.9713385847128
 31
0.0
  0
LINE
  5
F3
330
1F
100
AcDbEntity
  8
20
  6
Continuous
 62
   250
370
     9
100
AcDbLine
 10
96.7303573812861
 20
188.1457962725626
 30
0.0
 11
97.13944282592382
 21
188.095566895871
 31
0.0
  0
LINE
  5
F4
330
1F
100
AcDbEntity
  8
20
  6
Continuous
 62
   250
370
     9
100
AcDbLine
 10
95.94596858367947
 20
187.4395344340149
 30
0.0
 11
95.95316167711334
 21
187.0274423871828
 31
0.0
  0
ARC
  5
F5
330
1F
100
AcDbEntity
  8
20
  6
Continuous
 62
   250
370
     9
100
AcDbCircle
 10
107.5404922669584
 20
175.3511300497348
 30
0.0
 40
16.75
100
AcDbArc
 50
130.1942615943675
 51
133.8053344278516
  0
LINE
  5
F6
330
1F
100
AcDbEntity
  8
20
  6
Continuous
 62
   250
370
     9
100
AcDbLine
 10
95.05488749690787
 20
186.5167994665719
 30
0.0
 11
95.466982328233
 21
186.5239926086093
 31
0.0
  0
ARC
  5
F7
330
1F
100
AcDbEntity
  8
20
  6
Continuous
 62
   250
370
     9
100
AcDbCircle
 10
107.5404922669584
 20
175.3511300497348
 30
0.0
 40
16.75
100
AcDbArc
 50
114.1942615943672
 51
117.8053344278516
  0
LINE
  5
F8
330
1F
100
AcDbEntity
  8
20
  6
Continuous
 62
   250
370
     9
100
AcDbLine
 10
99.72713658810227
 20
190.1671339993727
 30
0.0
 11
99.62046307115352
 21
189.7690230142979
 31
0.0
  0
LINE
  5
F9
330
1F
100
AcDbEntity
  8
20
  6
Continuous
 62
   250
370
     9
100
AcDbLine
 10
98.61623424486777
 20
189.5257594542431
 30
0.0
 11
99.01434791996599
 21
189.4190852165047
 31
0.0
  0
LINE
  5
FA
330
1F
100
AcDbEntity
  8
20
  6
Continuous
 62
   250
370
     9
100
AcDbLine
 10
100.6758116396564
 20
190.6298295979668
 30
0.0
 11
101.0552047153769
 21
190.4687867918791
 31
0.0
  0
LINE
  5
FB
330
1F
100
AcDbEntity
  8
20
  6
Continuous
 62
   250
370
     9
100
AcDbLine
 10
97.74118641495889
 20
188.9355367286799
 30
0.0
 11
97.6909573776633
 21
188.5264540482009
 31
0.0
  0
ARC
  5
FC
330
1F
100
AcDbEntity
  8
20
  6
Continuous
 62
   250
370
     9
100
AcDbCircle
 10
107.5404922669584
 20
175.3511300497348
 30
0.0
 40
16.75
100
AcDbArc
 50
122.1942615943674
 51
125.8053344278518
  0
ARC
  5
FD
330
1F
100
AcDbEntity
  8
20
  6
Continuous
 62
   250
370
     9
100
AcDbCircle
 10
107.5404922669584
 20
175.3511300497348
 30
0.0
 40
16.75
100
AcDbArc
 50
98.1942615943673
 51
101.8053344278516
  0
LINE
  5
FE
330
1F
100
AcDbEntity
  8
20
  6
Continuous
 62
   250
370
     9
100
AcDbLine
 10
104.1136568885843
 20
191.7468398327702
 30
0.0
 11
103.9013814635227
 21
191.393554198233
 31
0.0
  0
LINE
  5
FF
330
1F
100
AcDbEntity
  8
20
  6
Continuous
 62
   250
370
     9
100
AcDbLine
 10
105.1531180688802
 20
191.930121105838
 30
0.0
 11
105.4734246870312
 21
191.6707419207327
 31
0.0
  0
LINE
  5
100
330
1F
100
AcDbEntity
  8
20
  6
Continuous
 62
   250
370
     9
100
AcDbLine
 10
102.869002234397
 20
191.4365172342473
 30
0.0
 11
103.2222902560741
 21
191.2242403748474
 31
0.0
  0
LINE
  5
101
330
1F
100
AcDbEntity
  8
20
  6
Continuous
 62
   250
370
     9
100
AcDbLine
 10
101.8651648419743
 20
191.1103546061406
 30
0.0
 11
101.7041231240404
 21
190.7309640939498
 31
0.0
  0
ARC
  5
102
330
1F
100
AcDbEntity
  8
20
  6
Continuous
 62
   250
370
     9
100
AcDbCircle
 10
107.5404922669584
 20
175.3511300497348
 30
0.0
 40
16.75
100
AcDbArc
 50
106.1942615943674
 51
109.8053344278518
  0
LINE
  5
103
330
1F
100
AcDbEntity
  8
20
  6
Continuous
 62
   250
370
     9
100
AcDbLine
 10
173.4918518518517
 20
158.7511300497348
 30
0.0
 11
176.4918518518517
 21
158.7511300497348
 31
0.0
  0
LINE
  5
104
330
1F
100
AcDbEntity
  8
20
  6
Continuous
 62
   250
370
     9
100
AcDbLine
 10
123.0920506588106
 20
181.5729892240342
 30
0.0
 11
122.707270986165
 21
181.7206923017755
 31
0.0
  0
LINE
  5
105
330
1F
100
AcDbEntity
  8
20
  6
Continuous
 62
   250
370
     9
100
AcDbLine
 10
123.092006789698
 20
169.1291612255585
 30
0.0
 11
122.7072245171083
 21
168.9814571497922
 31
0.0
  0
ARC
  5
106
330
1F
100
AcDbEntity
  8
20
  6
Continuous
 62
   250
370
     9
100
AcDbCircle
 10
107.5404922669584
 20
175.3511300497348
 30
0.0
 40
16.75
100
AcDbArc
 50
290.1942615943677
 51
309.8053344278519
  0
LINE
  5
107
330
1F
100
AcDbEntity
  8
20
  6
Continuous
 62
   250
370
     9
100
AcDbLine
 10
109.8152731475865
 20
158.7563154395884
 30
0.0
 11
110.0516754404713
 21
159.0939329029612
 31
0.0
  0
LINE
  5
108
330
1F
100
AcDbEntity
  8
20
  6
Continuous
 62
   250
370
     9
100
AcDbLine
 10
108.7655589871701
 20
158.6459897770214
 30
0.0
 11
108.4641259971579
 21
158.9270805876674
 31
0.0
  0
LINE
  5
109
330
1F
100
AcDbEntity
  8
20
  6
Continuous
 62
   250
370
     9
100
AcDbLine
 10
107.4835833272767
 20
158.601226725459
 30
0.0
 11
107.7646722386137
 21
158.9026576787118
 31
0.0
  0
LINE
  5
10A
330
1F
100
AcDbEntity
  8
20
  6
Continuous
 62
   250
370
     9
100
AcDbLine
 10
106.4287305483356
 20
158.6380667194831
 30
0.0
 11
106.1693513632302
 21
158.9583733376341
 31
0.0
  0
ARC
  5
10B
330
1F
100
AcDbEntity
  8
20
  6
Continuous
 62
   250
370
     9
100
AcDbCircle
 10
107.5404922669584
 20
175.3511300497348
 30
0.0
 40
16.75
100
AcDbArc
 50
266.1942615943674
 51
269.8053344278515
  0
ARC
  5
10C
330
1F
100
AcDbEntity
  8
20
  6
Continuous
 62
   250
370
     9
100
AcDbCircle
 10
107.5404922669584
 20
175.3511300497348
 30
0.0
 40
16.75
100
AcDbArc
 50
274.1942615943676
 51
277.8053344278518
  0
LINE
  5
10D
330
1F
100
AcDbEntity
  8
20
  6
Continuous
 62
   250
370
     9
100
AcDbLine
 10
113.3226626733895
 20
159.6307927317574
 30
0.0
 11
112.9554275584077
 21
159.8179083687886
 31
0.0
  0
ARC
  5
10E
330
1F
100
AcDbEntity
  8
20
  6
Continuous
 62
   250
370
     9
100
AcDbCircle
 10
107.5404922669584
 20
175.3511300497348
 30
0.0
 40
16.75
100
AcDbArc
 50
282.1942615943676
 51
285.8053344278521
  0
LINE
  5
10F
330
1F
100
AcDbEntity
  8
20
  6
Continuous
 62
   250
370
     9
100
AcDbLine
 10
112.1026869455797
 20
159.2344033437824
 30
0.0
 11
112.289801318285
 21
159.6016359773848
 31
0.0
  0
LINE
  5
110
330
1F
100
AcDbEntity
  8
20
  6
Continuous
 62
   250
370
     9
100
AcDbLine
 10
111.0785428957884
 20
158.9790593881528
 30
0.0
 11
110.7409231511451
 21
159.2154632784004
 31
0.0
  0
ARC
  5
111
330
1F
100
AcDbEntity
  8
20
  6
Continuous
 62
   250
370
     9
100
AcDbCircle
 10
107.5404922669584
 20
175.3511300497348
 30
0.0
 40
16.75
100
AcDbArc
 50
330.1942615943677
 51
333.8053344278517
  0
LINE
  5
112
330
1F
100
AcDbEntity
  8
20
  6
Continuous
 62
   250
370
     9
100
AcDbLine
 10
119.3276568620672
 20
157.907741395739
 30
0.0
 11
117.4776568620672
 21
161.1120353897414
 31
0.0
  0
LINE
  5
113
330
1F
100
AcDbEntity
  8
20
  6
Continuous
 62
   250
370
     9
100
AcDbLine
 10
119.4764274640074
 20
157.9936341428167
 30
0.0
 11
117.6264274640074
 21
161.1979281368191
 31
0.0
  0
LINE
  5
114
330
1F
100
AcDbEntity
  8
20
  6
Continuous
 62
   250
370
     9
100
AcDbLine
 10
119.5972492206891
 20
158.0633906165608
 30
0.0
 11
117.747249220689
 21
161.2676846105632
 31
0.0
  0
LINE
  5
115
330
1F
100
AcDbEntity
  8
20
  6
Continuous
 62
   250
370
     9
100
AcDbLine
 10
119.6877704740511
 20
158.1156530865568
 30
0.0
 11
117.8377704740512
 21
161.3199470805592
 31
0.0
  0
LINE
  5
116
330
1F
100
AcDbEntity
  8
20
  6
Continuous
 62
   250
370
     9
100
AcDbLine
 10
119.7462293308634
 20
158.1494043232738
 30
0.0
 11
117.8962293308634
 21
161.3536983172763
 31
0.0
  0
LINE
  5
117
330
1F
100
AcDbEntity
  8
20
  6
Continuous
 62
   250
370
     9
100
AcDbLine
 10
117.9225430745274
 20
161.368890564264
 30
0.0
 11
119.7725430745274
 21
158.1645965702616
 31
0.0
  0
LINE
  5
118
330
1F
100
AcDbEntity
  8
20
  6
Continuous
 62
   250
370
     9
100
AcDbLine
 10
119.662735453392
 20
157.7547889491263
 30
0.0
 11
116.7182490805249
 21
156.0547889491263
 31
0.0
  0
LINE
  5
119
330
1F
100
AcDbEntity
  8
20
  6
Continuous
 62
   250
370
     9
100
AcDbLine
 10
118.7449807980658
 20
157.5713332133374
 30
0.0
 11
116.8949807980658
 21
160.7756272073399
 31
0.0
  0
LINE
  5
11A
330
1F
100
AcDbEntity
  8
20
  6
Continuous
 62
   250
370
     9
100
AcDbLine
 10
118.9583393565199
 20
157.6945158344948
 30
0.0
 11
117.1083393565199
 21
160.8988098284973
 31
0.0
  0
LINE
  5
11B
330
1F
100
AcDbEntity
  8
20
  6
Continuous
 62
   250
370
     9
100
AcDbLine
 10
119.1538330654113
 20
157.8073841799482
 30
0.0
 11
117.3038330654113
 21
161.0116781739506
 31
0.0
  0
LINE
  5
11C
330
1F
100
AcDbEntity
  8
20
  6
Continuous
 62
   250
370
     9
100
AcDbLine
 10
119.7725430745274
 20
158.1645965702616
 30
0.0
 11
116.3084414593896
 21
156.1645965702616
 31
0.0
  0
LINE
  5
11D
330
1F
100
AcDbEntity
  8
20
  6
Continuous
 62
   250
370
     9
100
AcDbLine
 10
118.2635278102433
 20
162.4833793240854
 30
0.0
 11
118.2850983268685
 21
162.8949693002365
 31
0.0
  0
LINE
  5
11E
330
1F
100
AcDbEntity
  8
20
  6
Continuous
 62
   250
370
     9
100
AcDbLine
 10
116.5217866796352
 20
161.2125710470351
 30
0.0
 11
116.9266138601753
 21
160.793890564264
 31
0.0
  0
LINE
  5
11F
330
1F
100
AcDbEntity
  8
20
  6
Continuous
 62
   250
370
     9
100
AcDbLine
 10
116.9266138601753
 20
160.793890564264
 30
0.0
 11
116.6408233267059
 21
161.2888942885553
 31
0.0
  0
LINE
  5
120
330
1F
100
AcDbEntity
  8
20
  6
Continuous
 62
   250
370
     9
100
AcDbLine
 10
116.7182490805249
 20
156.0547889491263
 30
0.0
 11
116.3084414593896
 21
156.1645965702616
 31
0.0
  0
LINE
  5
121
330
1F
100
AcDbEntity
  8
20
  6
Continuous
 62
   250
370
     9
100
AcDbLine
 10
116.1904922669585
 20
160.368890564264
 30
0.0
 11
118.0404922669585
 21
157.1645965702616
 31
0.0
  0
LINE
  5
122
330
1F
100
AcDbEntity
  8
20
  6
Continuous
 62
   250
370
     9
100
AcDbLine
 10
118.2815471488682
 20
157.3037696712217
 30
0.0
 11
116.4315471488682
 21
160.5080636652241
 31
0.0
  0
LINE
  5
123
330
1F
100
AcDbEntity
  8
20
  6
Continuous
 62
   250
370
     9
100
AcDbLine
 10
118.5179101716975
 20
157.4402339260786
 30
0.0
 11
116.6679101716975
 21
160.644527920081
 31
0.0
  0
LINE
  5
124
330
1F
100
AcDbEntity
  8
20
  6
Continuous
 62
   250
370
     9
100
AcDbLine
 10
117.7994373850487
 20
157.0254234693016
 30
0.0
 11
115.9494373850487
 21
160.229717463304
 31
0.0
  0
LINE
  5
125
330
1F
100
AcDbEntity
  8
20
  6
Continuous
 62
   250
370
     9
100
AcDbLine
 10
117.5630743622195
 20
156.8889592144446
 30
0.0
 11
115.7130743622195
 21
160.093253208447
 31
0.0
  0
LINE
  5
126
330
1F
100
AcDbEntity
  8
20
  6
Continuous
 62
   250
370
     9
100
AcDbLine
 10
117.3360037358512
 20
156.7578599271858
 30
0.0
 11
115.4860037358512
 21
159.9621539211882
 31
0.0
  0
LINE
  5
127
330
1F
100
AcDbEntity
  8
20
  6
Continuous
 62
   250
370
     9
100
AcDbLine
 10
117.1226451773971
 20
156.6346773060284
 30
0.0
 11
115.272645177397
 21
159.8389713000308
 31
0.0
  0
LINE
  5
128
330
1F
100
AcDbEntity
  8
20
  6
Continuous
 62
   250
370
     9
100
AcDbLine
 10
116.9271514685057
 20
156.5218089605751
 30
0.0
 11
115.0771514685056
 21
159.7261029545775
 31
0.0
  0
LINE
  5
129
330
1F
100
AcDbEntity
  8
20
  6
Continuous
 62
   250
370
     9
100
AcDbLine
 10
116.7533276718497
 20
156.4214517447842
 30
0.0
 11
114.9033276718497
 21
159.6257457387866
 31
0.0
  0
LINE
  5
12A
330
1F
100
AcDbEntity
  8
20
  6
Continuous
 62
   250
370
     9
100
AcDbLine
 10
116.6045570699096
 20
156.3355589977066
 30
0.0
 11
114.7545570699096
 21
159.539852991709
 31
0.0
  0
LINE
  5
12B
330
1F
100
AcDbEntity
  8
20
  6
Continuous
 62
   250
370
     9
100
AcDbLine
 10
116.4837353132279
 20
156.2658025239625
 30
0.0
 11
114.6337353132279
 21
159.4700965179649
 31
0.0
  0
LINE
  5
12C
330
1F
100
AcDbEntity
  8
20
  6
Continuous
 62
   250
370
     9
100
AcDbLine
 10
116.3932140598658
 20
156.2135400539665
 30
0.0
 11
114.5432140598658
 21
159.4178340479689
 31
0.0
  0
LINE
  5
12D
330
1F
100
AcDbEntity
  8
20
  6
Continuous
 62
   250
370
     9
100
AcDbLine
 10
116.3347552030536
 20
156.1797888172494
 30
0.0
 11
114.4847552030536
 21
159.3840828112518
 31
0.0
  0
LINE
  5
12E
330
1F
100
AcDbEntity
  8
20
  6
Continuous
 62
   250
370
     9
100
AcDbLine
 10
115.4543706737417
 20
159.9438905642641
 30
0.0
 11
115.1685801402723
 21
160.4388942885553
 31
0.0
  0
LINE
  5
12F
330
1F
100
AcDbEntity
  8
20
  6
Continuous
 62
   250
370
     9
100
AcDbLine
 10
115.2941963298633
 20
160.5038214281397
 30
0.0
 11
115.4543706737417
 21
159.9438905642641
 31
0.0
  0
LINE
  5
130
330
1F
100
AcDbEntity
  8
20
  6
Continuous
 62
   250
370
     9
100
AcDbLine
 10
117.9225430745274
 20
161.368890564264
 30
0.0
 11
114.4584414593896
 21
159.368890564264
 31
0.0
  0
LINE
  5
131
330
1F
100
AcDbEntity
  8
20
  6
Continuous
 62
   250
370
     9
100
AcDbLine
 10
114.4584414593896
 20
159.368890564264
 30
0.0
 11
116.3084414593896
 21
156.1645965702616
 31
0.0
  0
LINE
  5
132
330
1F
100
AcDbEntity
  8
20
  6
Continuous
 62
   250
370
     9
100
AcDbLine
 10
122.0747298240607
 20
167.0253604976923
 30
0.0
 11
121.6731357918485
 21
166.9326452099087
 31
0.0
  0
LINE
  5
133
330
1F
100
AcDbEntity
  8
20
  6
Continuous
 62
   250
370
     9
100
AcDbLine
 10
121.3949683842336
 20
165.9375233277683
 30
0.0
 11
121.3022537229199
 21
166.3391146464406
 31
0.0
  0
LINE
  5
134
330
1F
100
AcDbEntity
  8
20
  6
Continuous
 62
   250
370
     9
100
AcDbLine
 10
120.7745604568247
 20
165.0836114037342
 30
0.0
 11
120.3639712360205
 21
165.0476895015479
 31
0.0
  0
LINE
  5
135
330
1F
100
AcDbEntity
  8
20
  6
Continuous
 62
   250
370
     9
100
AcDbLine
 10
119.9500167363241
 20
164.100965497862
 30
0.0
 11
119.9140950768593
 21
164.5115519443465
 31
0.0
  0
LINE
  5
136
330
1F
100
AcDbEntity
  8
20
  6
Continuous
 62
   250
370
     9
100
AcDbLine
 10
119.2168050058023
 20
163.3417078810911
 30
0.0
 11
118.8052122485508
 21
163.3632785434676
 31
0.0
  0
ARC
  5
137
330
1F
100
AcDbEntity
  8
20
  6
Continuous
 62
   250
370
     9
100
AcDbCircle
 10
107.5404922669584
 20
175.3511300497348
 30
0.0
 40
16.75
100
AcDbArc
 50
314.1942615943676
 51
317.8053344278516
  0
LINE
  5
138
330
1F
100
AcDbEntity
  8
20
  6
Continuous
 62
   250
370
     9
100
AcDbLine
 10
119.662735453392
 20
157.7547889491263
 30
0.0
 11
119.7725430745274
 21
158.1645965702616
 31
0.0
  0
ARC
  5
139
330
1F
100
AcDbEntity
  8
20
  6
Continuous
 62
   250
370
     9
100
AcDbCircle
 10
107.5404922669584
 20
175.3511300497348
 30
0.0
 40
16.75
100
AcDbArc
 50
322.1942615943674
 51
325.8053344278516
  0
LINE
  5
13A
330
1F
100
AcDbEntity
  8
20
  6
Continuous
 62
   250
370
     9
100
AcDbLine
 10
122.0747885265556
 20
183.6767971244059
 30
0.0
 11
121.6731972078832
 21
183.7695117857194
 31
0.0
  0
ARC
  5
13B
330
1F
100
AcDbEntity
  8
20
  6
Continuous
 62
   250
370
     9
100
AcDbCircle
 10
107.5404922669584
 20
175.3511300497348
 30
0.0
 40
16.75
100
AcDbArc
 50
26.19426159436797
 51
29.80533442785239
  0
LINE
  5
13C
330
1F
100
AcDbEntity
  8
20
  6
Continuous
 62
   250
370
     9
100
AcDbLine
 10
121.3950347568049
 20
184.7646390871256
 30
0.0
 11
121.3023194690213
 21
184.3630450549134
 31
0.0
  0
LINE
  5
13D
330
1F
100
AcDbEntity
  8
20
  6
Continuous
 62
   250
370
     9
100
AcDbLine
 10
122.570310545326
 20
182.7448478235782
 30
0.0
 11
122.4226064695597
 21
182.3600655509886
 31
0.0
  0
LINE
  5
13E
330
1F
100
AcDbEntity
  8
20
  6
Continuous
 62
   250
370
     9
100
AcDbLine
 10
120.7746328501244
 20
185.618555385475
 30
0.0
 11
120.3640464036399
 21
185.6544770449398
 31
0.0
  0
ARC
  5
13F
330
1F
100
AcDbEntity
  8
20
  6
Continuous
 62
   250
370
     9
100
AcDbCircle
 10
107.5404922669584
 20
175.3511300497348
 30
0.0
 40
16.75
100
AcDbArc
 50
34.19426159436792
 51
37.80533442785216
  0
LINE
  5
140
330
1F
100
AcDbEntity
  8
20
  6
Continuous
 62
   250
370
     9
100
AcDbLine
 10
122.5702584137533
 20
167.9573063046987
 30
0.0
 11
122.422555336012
 21
168.3420859773443
 31
0.0
  0
ARC
  5
141
330
1F
100
AcDbEntity
  8
20
  6
Continuous
 62
   250
370
     9
100
AcDbCircle
 10
107.5404922669584
 20
175.3511300497348
 30
0.0
 40
16.75
100
AcDbArc
 50
50.19426159436785
 51
69.80533442785189
  0
LINE
  5
142
330
1F
100
AcDbEntity
  8
20
  6
Continuous
 62
   250
370
     9
100
AcDbLine
 10
109.8153901532923
 20
191.9459286205748
 30
0.0
 11
110.05179404354
 21
191.6083088759315
 31
0.0
  0
LINE
  5
143
330
1F
100
AcDbEntity
  8
20
  6
Continuous
 62
   250
370
     9
100
AcDbLine
 10
108.7656767707799
 20
192.0562616844031
 30
0.0
 11
108.4642458175272
 21
191.7751727730661
 31
0.0
  0
LINE
  5
144
330
1F
100
AcDbEntity
  8
20
  6
Continuous
 62
   250
370
     9
100
AcDbLine
 10
107.4837014265311
 20
192.1010337748445
 30
0.0
 11
107.7647922371771
 21
191.7996007848323
 31
0.0
  0
LINE
  5
145
330
1F
100
AcDbEntity
  8
20
  6
Continuous
 62
   250
370
     9
100
AcDbLine
 10
106.4288483878669
 20
192.0642012183166
 30
0.0
 11
106.1694709553667
 21
191.7438967644526
 31
0.0
  0
ARC
  5
146
330
1F
100
AcDbEntity
  8
20
  6
Continuous
 62
   250
370
     9
100
AcDbCircle
 10
107.5404922669584
 20
175.3511300497348
 30
0.0
 40
16.75
100
AcDbArc
 50
90.19426159436733
 51
93.80533442785188
  0
ARC
  5
147
330
1F
100
AcDbEntity
  8
20
  6
Continuous
 62
   250
370
     9
100
AcDbCircle
 10
107.5404922669584
 20
175.3511300497348
 30
0.0
 40
16.75
100
AcDbArc
 50
82.19426159436787
 51
85.80533442785207
  0
LINE
  5
148
330
1F
100
AcDbEntity
  8
20
  6
Continuous
 62
   250
370
     9
100
AcDbLine
 10
113.3227735132941
 20
191.0714265987277
 30
0.0
 11
112.9555408796917
 21
190.8843122260223
 31
0.0
  0
ARC
  5
149
330
1F
100
AcDbEntity
  8
20
  6
Continuous
 62
   250
370
     9
100
AcDbCircle
 10
107.5404922669584
 20
175.3511300497348
 30
0.0
 40
16.75
100
AcDbArc
 50
74.19426159436755
 51
77.80533442785183
  0
LINE
  5
14A
330
1F
100
AcDbEntity
  8
20
  6
Continuous
 62
   250
370
     9
100
AcDbLine
 10
112.1028005803541
 20
191.4678245884273
 30
0.0
 11
112.2899162173853
 21
191.1005894734456
 31
0.0
  0
LINE
  5
14B
330
1F
100
AcDbEntity
  8
20
  6
Continuous
 62
   250
370
     9
100
AcDbLine
 10
111.0786583309527
 20
191.7231757650265
 30
0.0
 11
110.7410408675799
 21
191.4867734721416
 31
0.0
  0
LINE
  5
14C
330
1F
100
AcDbEntity
  8
20
  6
Continuous
 62
   250
370
     9
100
AcDbLine
 10
118.2636185371719
 20
188.2188051697033
 30
0.0
 11
118.2851891995485
 21
187.8072124124518
 31
0.0
  0
LINE
  5
14D
330
1F
100
AcDbEntity
  8
20
  6
Continuous
 62
   250
370
     9
100
AcDbLine
 10
119.2168896808538
 20
187.3604698914071
 30
0.0
 11
118.8052997047027
 21
187.3388993747819
 31
0.0
  0
ARC
  5
14E
330
1F
100
AcDbEntity
  8
20
  6
Continuous
 62
   250
370
     9
100
AcDbCircle
 10
107.5404922669584
 20
175.3511300497348
 30
0.0
 40
16.75
100
AcDbArc
 50
42.19426159436763
 51
45.805334427852
  0
LINE
  5
14F
330
1F
100
AcDbEntity
  8
20
  6
Continuous
 62
   250
370
     9
100
AcDbLine
 10
119.9500960580275
 20
186.601207104968
 30
0.0
 11
119.9141741558412
 21
186.1906178841639
 31
0.0
  0
LINE
  5
150
330
1F
100
AcDbEntity
  8
20
  6
Continuous
 62
   250
370
     9
100
AcDbLine
 10
128.5404922669584
 20
175.629476251655
 30
0.0
 11
124.8404922669584
 21
175.629476251655
 31
0.0
  0
LINE
  5
151
330
1F
100
AcDbEntity
  8
20
  6
Continuous
 62
   250
370
     9
100
AcDbLine
 10
128.5404922669584
 20
175.9024047613688
 30
0.0
 11
124.8404922669584
 21
175.9024047613688
 31
0.0
  0
LINE
  5
152
330
1F
100
AcDbEntity
  8
20
  6
Continuous
 62
   250
370
     9
100
AcDbLine
 10
128.5404922669584
 20
176.1646033358865
 30
0.0
 11
124.8404922669584
 21
176.1646033358865
 31
0.0
  0
LINE
  5
153
330
1F
100
AcDbEntity
  8
20
  6
Continuous
 62
   250
370
     9
100
AcDbLine
 10
128.5404922669584
 20
176.4109685782013
 30
0.0
 11
124.8404922669584
 21
176.4109685782013
 31
0.0
  0
LINE
  5
154
330
1F
100
AcDbEntity
  8
20
  6
Continuous
 62
   250
370
     9
100
AcDbLine
 10
128.5404922669584
 20
176.6367052691079
 30
0.0
 11
124.8404922669584
 21
176.6367052691079
 31
0.0
  0
LINE
  5
155
330
1F
100
AcDbEntity
  8
20
  6
Continuous
 62
   250
370
     9
100
AcDbLine
 10
128.5404922669584
 20
176.8374197006897
 30
0.0
 11
124.8404922669584
 21
176.8374197006896
 31
0.0
  0
LINE
  5
156
330
1F
100
AcDbEntity
  8
20
  6
Continuous
 62
   250
370
     9
100
AcDbLine
 10
128.5404922669584
 20
177.0092051948449
 30
0.0
 11
124.8404922669584
 21
177.0092051948449
 31
0.0
  0
LINE
  5
157
330
1F
100
AcDbEntity
  8
20
  6
Continuous
 62
   250
370
     9
100
AcDbLine
 10
128.5404922669584
 20
177.1487181423332
 30
0.0
 11
124.8404922669584
 21
177.1487181423332
 31
0.0
  0
LINE
  5
158
330
1F
100
AcDbEntity
  8
20
  6
Continuous
 62
   250
370
     9
100
AcDbLine
 10
128.5404922669584
 20
177.2532430823252
 30
0.0
 11
124.8404922669584
 21
177.2532430823251
 31
0.0
  0
LINE
  5
159
330
1F
100
AcDbEntity
  8
20
  6
Continuous
 62
   250
370
     9
100
AcDbLine
 10
128.5404922669584
 20
177.3207455557593
 30
0.0
 11
124.8404922669584
 21
177.3207455557593
 31
0.0
  0
LINE
  5
15A
330
1F
100
AcDbEntity
  8
20
  6
Continuous
 62
   250
370
     9
100
AcDbLine
 10
128.5404922669584
 20
175.0727838478147
 30
0.0
 11
124.8404922669584
 21
175.0727838478147
 31
0.0
  0
LINE
  5
15B
330
1F
100
AcDbEntity
  8
20
  6
Continuous
 62
   250
370
     9
100
AcDbLine
 10
128.5404922669584
 20
174.7998553381008
 30
0.0
 11
124.8404922669584
 21
174.7998553381008
 31
0.0
  0
LINE
  5
15C
330
1F
100
AcDbEntity
  8
20
  6
Continuous
 62
   250
370
     9
100
AcDbLine
 10
128.5404922669584
 20
174.5376567635832
 30
0.0
 11
124.8404922669584
 21
174.5376567635832
 31
0.0
  0
LINE
  5
15D
330
1F
100
AcDbEntity
  8
20
  6
Continuous
 62
   250
370
     9
100
AcDbLine
 10
128.5404922669584
 20
174.2912915212684
 30
0.0
 11
124.8404922669584
 21
174.2912915212684
 31
0.0
  0
LINE
  5
15E
330
1F
100
AcDbEntity
  8
20
  6
Continuous
 62
   250
370
     9
100
AcDbLine
 10
128.5404922669584
 20
174.0655548303617
 30
0.0
 11
124.8404922669584
 21
174.0655548303617
 31
0.0
  0
LINE
  5
15F
330
1F
100
AcDbEntity
  8
20
  6
Continuous
 62
   250
370
     9
100
AcDbLine
 10
128.5404922669584
 20
173.86484039878
 30
0.0
 11
124.8404922669584
 21
173.86484039878
 31
0.0
  0
LINE
  5
160
330
1F
100
AcDbEntity
  8
20
  6
Continuous
 62
   250
370
     9
100
AcDbLine
 10
128.5404922669584
 20
173.6930549046247
 30
0.0
 11
124.8404922669584
 21
173.6930549046247
 31
0.0
  0
LINE
  5
161
330
1F
100
AcDbEntity
  8
20
  6
Continuous
 62
   250
370
     9
100
AcDbLine
 10
128.5404922669584
 20
173.5535419571365
 30
0.0
 11
124.8404922669584
 21
173.5535419571365
 31
0.0
  0
LINE
  5
162
330
1F
100
AcDbEntity
  8
20
  6
Continuous
 62
   250
370
     9
100
AcDbLine
 10
128.5404922669584
 20
173.4490170171445
 30
0.0
 11
124.8404922669584
 21
173.4490170171445
 31
0.0
  0
LINE
  5
163
330
1F
100
AcDbEntity
  8
20
  6
Continuous
 62
   250
370
     9
100
AcDbLine
 10
128.5404922669584
 20
173.3815145437104
 30
0.0
 11
124.8404922669584
 21
173.3815145437104
 31
0.0
  0
LINE
  5
164
330
1F
100
AcDbEntity
  8
20
  6
Continuous
 62
   250
370
     9
100
AcDbLine
 10
124.8404922669584
 20
177.3511300497348
 30
0.0
 11
128.5404922669584
 21
177.3511300497348
 31
0.0
  0
LINE
  5
165
330
1F
100
AcDbEntity
  8
20
  6
Continuous
 62
   250
370
     9
100
AcDbLine
 10
124.8404922669584
 20
173.3511300497348
 30
0.0
 11
128.5404922669584
 21
173.3511300497348
 31
0.0
  0
LINE
  5
166
330
1F
100
AcDbEntity
  8
20
  6
Continuous
 62
   250
370
     9
100
AcDbLine
 10
124.8404922669584
 20
175.3511300497348
 30
0.0
 11
128.5404922669584
 21
175.3511300497348
 31
0.0
  0
ARC
  5
167
330
1F
100
AcDbEntity
  8
20
  6
Continuous
 62
   250
370
     9
100
AcDbCircle
 10
107.5404922669584
 20
175.3511300497348
 30
0.0
 40
16.75
100
AcDbArc
 50
18.19426159436768
 51
21.80533442785194
  0
LINE
  5
168
330
1F
100
AcDbEntity
  8
20
  6
Continuous
 62
   250
370
     9
100
AcDbLine
 10
123.8066193966037
 20
179.3480799120947
 30
0.0
 11
123.4461406686326
 21
179.5478965338652
 31
0.0
  0
LINE
  5
169
330
1F
100
AcDbEntity
  8
20
  6
Continuous
 62
   250
370
     9
100
AcDbLine
 10
123.4530480172236
 20
180.5811462537923
 30
0.0
 11
123.2532300452984
 21
180.2206650900777
 31
0.0
  0
LINE
  5
16A
330
1F
100
AcDbEntity
  8
20
  6
Continuous
 62
   250
370
     9
100
AcDbLine
 10
124.8404922669584
 20
176.2011300497348
 30
0.0
 11
124.2689112000196
 21
176.2011300497348
 31
0.0
  0
LINE
  5
16B
330
1F
100
AcDbEntity
  8
20
  6
Continuous
 62
   250
370
     9
100
AcDbLine
 10
124.27549074254
 20
176.0598796686302
 30
0.0
 11
124.8404922669584
 21
176.2011300497348
 31
0.0
  0
LINE
  5
16C
330
1F
100
AcDbEntity
  8
20
  6
Continuous
 62
   250
370
     9
100
AcDbLine
 10
124.27549074254
 20
174.6423804308395
 30
0.0
 11
124.8404922669584
 21
174.5011300497348
 31
0.0
  0
LINE
  5
16D
330
1F
100
AcDbEntity
  8
20
  6
Continuous
 62
   250
370
     9
100
AcDbLine
 10
124.8404922669584
 20
174.5011300497348
 30
0.0
 11
124.2689112000196
 21
174.5011300497348
 31
0.0
  0
LINE
  5
16E
330
1F
100
AcDbEntity
  8
20
  6
Continuous
 62
   250
370
     9
100
AcDbLine
 10
124.0260656917062
 20
178.3156483676496
 30
0.0
 11
123.7780230531561
 21
177.9864846686207
 31
0.0
  0
LINE
  5
16F
330
1F
100
AcDbEntity
  8
20
  6
Continuous
 62
   250
370
     9
100
AcDbLine
 10
124.2045864722637
 20
177.0453745175474
 30
0.0
 11
123.8754249973684
 21
177.2934154800925
 31
0.0
  0
LINE
  5
170
330
1F
100
AcDbEntity
  8
20
  6
Continuous
 62
   250
370
     9
100
AcDbLine
 10
123.8065912147356
 20
171.3540654992026
 30
0.0
 11
123.4461100510211
 21
171.1542475272774
 31
0.0
  0
ARC
  5
171
330
1F
100
AcDbEntity
  8
20
  6
Continuous
 62
   250
370
     9
100
AcDbCircle
 10
107.5404922669584
 20
175.3511300497348
 30
0.0
 40
16.75
100
AcDbArc
 50
346.1942615943674
 51
349.8053344278518
  0
LINE
  5
172
330
1F
100
AcDbEntity
  8
20
  6
Continuous
 62
   250
370
     9
100
AcDbLine
 10
124.2045745261682
 20
173.6567680877293
 30
0.0
 11
123.8754108271393
 21
173.4087254491793
 31
0.0
  0
LINE
  5
173
330
1F
100
AcDbEntity
  8
20
  6
Continuous
 62
   250
370
     9
100
AcDbLine
 10
124.0260447892415
 20
172.3864954963628
 30
0.0
 11
123.7780038266964
 21
172.7156569712579
 31
0.0
  0
ARC
  5
174
330
1F
100
AcDbEntity
  8
20
  6
Continuous
 62
   250
370
     9
100
AcDbCircle
 10
107.5404922669584
 20
175.3511300497348
 30
0.0
 40
16.75
100
AcDbArc
 50
354.1942615943673
 51
5.805334427851948
  0
LINE
  5
175
330
1F
100
AcDbEntity
  8
20
  6
Continuous
 62
   250
370
     9
100
AcDbLine
 10
124.8404922669584
 20
177.3511300497348
 30
0.0
 11
124.8404922669584
 21
173.3511300497348
 31
0.0
  0
ARC
  5
176
330
1F
100
AcDbEntity
  8
20
  6
Continuous
 62
   250
370
     9
100
AcDbCircle
 10
107.5404922669584
 20
175.3511300497348
 30
0.0
 40
16.75
100
AcDbArc
 50
10.19426159436793
 51
13.80533442785201
  0
ARC
  5
177
330
1F
100
AcDbEntity
  8
20
  6
Continuous
 62
   250
370
     9
100
AcDbCircle
 10
107.5404922669584
 20
175.3511300497348
 30
0.0
 40
16.75
100
AcDbArc
 50
338.1942615943676
 51
341.8053344278517
  0
LINE
  5
178
330
1F
100
AcDbEntity
  8
20
  6
Continuous
 62
   250
370
     9
100
AcDbLine
 10
123.4530111413312
 20
170.1210016504764
 30
0.0
 11
123.2531945195607
 21
170.4814803784475
 31
0.0
  0
LINE
  5
179
330
1F
100
AcDbEntity
  8
20
  6
Continuous
 62
   250
370
     9
100
AcDbLine
 10
128.8404922669584
 20
177.0511300497348
 30
0.0
 11
128.5404922669584
 21
177.3511300497348
 31
0.0
  0
LINE
  5
17A
330
1F
100
AcDbEntity
  8
20
  6
Continuous
 62
   250
370
     9
100
AcDbLine
 10
128.8404922669584
 20
173.6511300497348
 30
0.0
 11
128.5404922669584
 21
173.3511300497348
 31
0.0
  0
LINE
  5
17B
330
1F
100
AcDbEntity
  8
20
  6
Continuous
 62
   250
370
     9
100
AcDbLine
 10
128.8404922669584
 20
177.0511300497348
 30
0.0
 11
128.8404922669584
 21
173.6511300497348
 31
0.0
  0
LINE
  5
17C
330
1F
100
AcDbEntity
  8
20
  6
Continuous
 62
   250
370
     9
100
AcDbLine
 10
128.5404922669584
 20
177.3511300497348
 30
0.0
 11
128.5404922669584
 21
173.3511300497348
 31
0.0
  0
LINE
  5
17D
330
1F
100
AcDbEntity
  8
20
  6
Continuous
 62
   250
370
     9
100
AcDbLine
 10
157.0918518518518
 20
160.8511300497348
 30
0.0
 11
157.8918518518518
 21
161.3602209588257
 31
0.0
  0
LINE
  5
17E
330
1F
100
AcDbEntity
  8
20
  6
Continuous
 62
   250
370
     9
100
AcDbLine
 10
151.6918518518518
 20
159.5511300497348
 30
0.0
 11
151.6918518518518
 21
175.3511300497348
 31
0.0
  0
LINE
  5
17F
330
1F
100
AcDbEntity
  8
20
  6
Continuous
 62
   250
370
     9
100
AcDbLine
 10
157.0918518518518
 20
175.3511300497348
 30
0.0
 11
157.0918518518518
 21
159.5511300497348
 31
0.0
  0
LINE
  5
180
330
1F
100
AcDbEntity
  8
20
  6
Continuous
 62
   250
370
     9
100
AcDbLine
 10
151.8918518518518
 20
159.3511300497348
 30
0.0
 11
156.8918518518518
 21
159.3511300497348
 31
0.0
  0
LINE
  5
181
330
1F
100
AcDbEntity
  8
20
  6
Continuous
 62
   250
370
     9
100
AcDbLine
 10
151.8918518518518
 20
159.3511300497348
 30
0.0
 11
151.6918518518518
 21
159.5511300497348
 31
0.0
  0
LINE
  5
182
330
1F
100
AcDbEntity
  8
20
  6
Continuous
 62
   250
370
     9
100
AcDbLine
 10
156.8918518518518
 20
159.3511300497348
 30
0.0
 11
157.0918518518518
 21
159.5511300497348
 31
0.0
  0
LINE
  5
183
330
1F
100
AcDbEntity
  8
20
  6
Continuous
 62
   250
370
     9
100
AcDbLine
 10
166.5918518518519
 20
158.7511300497348
 30
0.0
 11
166.0918518518517
 21
158.7511300497348
 31
0.0
  0
LINE
  5
184
330
1F
100
AcDbEntity
  8
20
  6
Continuous
 62
   250
370
     9
100
AcDbLine
 10
164.9918518518518
 20
167.0254629750638
 30
0.0
 11
164.9918518518518
 21
167.9574122758914
 31
0.0
  0
LINE
  5
185
330
1F
100
AcDbEntity
  8
20
  6
Continuous
 62
   250
370
     9
100
AcDbLine
 10
158.1918518518517
 20
167.0254629750638
 30
0.0
 11
158.1918518518517
 21
167.9574122758915
 31
0.0
  0
LINE
  5
186
330
1F
100
AcDbEntity
  8
20
  6
Continuous
 62
   250
370
     9
100
AcDbLine
 10
157.8918518518517
 20
158.9011300497348
 30
0.0
 11
157.8918518518518
 21
175.3511300497348
 31
0.0
  0
LINE
  5
187
330
1F
100
AcDbEntity
  8
20
  6
Continuous
 62
   250
370
     9
100
AcDbLine
 10
165.2918518518517
 20
158.9011300497348
 30
0.0
 11
165.2918518518518
 21
175.3511300497348
 31
0.0
  0
LINE
  5
188
330
1F
100
AcDbEntity
  8
20
  6
Continuous
 62
   250
370
     9
100
AcDbLine
 10
165.7918518518518
 20
175.3511300497348
 30
0.0
 11
165.7918518518518
 21
159.0511300497348
 31
0.0
  0
LINE
  5
189
330
1F
100
AcDbEntity
  8
20
  6
Continuous
 62
   250
370
     9
100
AcDbLine
 10
164.6918518518517
 20
165.937621012344
 30
0.0
 11
158.1918518518517
 21
165.937621012344
 31
0.0
  0
LINE
  5
18A
330
1F
100
AcDbEntity
  8
20
  6
Continuous
 62
   250
370
     9
100
AcDbLine
 10
158.1918518518517
 20
162.4834549297663
 30
0.0
 11
164.9918518518517
 21
162.4834549297663
 31
0.0
  0
LINE
  5
18B
330
1F
100
AcDbEntity
  8
20
  6
Continuous
 62
   250
370
     9
100
AcDbLine
 10
157.8918518518517
 20
162.8950476870178
 30
0.0
 11
165.2918518518517
 21
162.8950476870178
 31
0.0
  0
LINE
  5
18C
330
1F
100
AcDbEntity
  8
20
  6
Continuous
 62
   250
370
     9
100
AcDbLine
 10
158.1918518518517
 20
163.3417902080625
 30
0.0
 11
164.9918518518517
 21
163.3417902080625
 31
0.0
  0
LINE
  5
18D
330
1F
100
AcDbEntity
  8
20
  6
Continuous
 62
   250
370
     9
100
AcDbLine
 10
158.1918518518517
 20
164.1010529945016
 30
0.0
 11
164.9918518518517
 21
164.1010529945016
 31
0.0
  0
LINE
  5
18E
330
1F
100
AcDbEntity
  8
20
  6
Continuous
 62
   250
370
     9
100
AcDbLine
 10
165.2918518518517
 20
164.5116422153058
 30
0.0
 11
157.8918518518518
 21
164.5116422153058
 31
0.0
  0
LINE
  5
18F
330
1F
100
AcDbEntity
  8
20
  6
Continuous
 62
   250
370
     9
100
AcDbLine
 10
164.9918518518518
 20
165.0837047139947
 30
0.0
 11
158.1918518518517
 21
165.0837047139947
 31
0.0
  0
LINE
  5
190
330
1F
100
AcDbEntity
  8
20
  6
Continuous
 62
   250
370
     9
100
AcDbLine
 10
157.8918518518518
 20
165.0477830545299
 30
0.0
 11
165.2918518518517
 21
165.0477830545299
 31
0.0
  0
LINE
  5
191
330
1F
100
AcDbEntity
  8
20
  6
Continuous
 62
   250
370
     9
100
AcDbLine
 10
165.2918518518517
 20
166.9327483137502
 30
0.0
 11
157.8918518518518
 21
166.9327483137502
 31
0.0
  0
LINE
  5
192
330
1F
100
AcDbEntity
  8
20
  6
Continuous
 62
   250
370
     9
100
AcDbLine
 10
158.1918518518517
 20
167.0254629750638
 30
0.0
 11
164.9918518518518
 21
167.0254629750638
 31
0.0
  0
LINE
  5
193
330
1F
100
AcDbEntity
  8
20
  6
Continuous
 62
   250
370
     9
100
AcDbLine
 10
157.8918518518518
 20
166.3392150445562
 30
0.0
 11
164.9918518518518
 21
166.3392150445562
 31
0.0
  0
LINE
  5
194
330
1F
100
AcDbEntity
  8
20
  6
Continuous
 62
   250
370
     9
100
AcDbLine
 10
158.1918518518517
 20
158.6011300497348
 30
0.0
 11
164.9918518518517
 21
158.6011300497348
 31
0.0
  0
LINE
  5
195
330
1F
100
AcDbEntity
  8
20
  6
Continuous
 62
   250
370
     9
100
AcDbLine
 10
158.1918518518517
 20
158.6459984150665
 30
0.0
 11
164.9918518518517
 21
158.6459984150665
 31
0.0
  0
LINE
  5
196
330
1F
100
AcDbEntity
  8
20
  6
Continuous
 62
   250
370
     9
100
AcDbLine
 10
158.1918518518517
 20
158.7563314788948
 30
0.0
 11
164.9918518518517
 21
158.7563314788948
 31
0.0
  0
LINE
  5
197
330
1F
100
AcDbEntity
  8
20
  6
Continuous
 62
   250
370
     9
100
AcDbLine
 10
158.1918518518517
 20
158.9790843344432
 30
0.0
 11
164.9918518518517
 21
158.9790843344431
 31
0.0
  0
LINE
  5
198
330
1F
100
AcDbEntity
  8
20
  6
Continuous
 62
   250
370
     9
100
AcDbLine
 10
158.1918518518517
 20
159.2344355110423
 30
0.0
 11
164.9918518518517
 21
159.2344355110423
 31
0.0
  0
LINE
  5
199
330
1F
100
AcDbEntity
  8
20
  6
Continuous
 62
   250
370
     9
100
AcDbLine
 10
157.8918518518517
 20
159.601670626024
 30
0.0
 11
165.2918518518517
 21
159.601670626024
 31
0.0
  0
LINE
  5
19A
330
1F
100
AcDbEntity
  8
20
  6
Continuous
 62
   250
370
     9
100
AcDbLine
 10
158.1918518518517
 20
159.630833500742
 30
0.0
 11
164.9918518518517
 21
159.630833500742
 31
0.0
  0
LINE
  5
19B
330
1F
100
AcDbEntity
  8
20
  6
Continuous
 62
   250
370
     9
100
AcDbLine
 10
157.8918518518518
 20
166.9327483137502
 30
0.0
 11
158.1918518518517
 21
167.0254629750638
 31
0.0
  0
LINE
  5
19C
330
1F
100
AcDbEntity
  8
20
  6
Continuous
 62
   250
370
     9
100
AcDbLine
 10
158.1918518518517
 20
165.0837047139947
 30
0.0
 11
157.8918518518518
 21
165.0477830545299
 31
0.0
  0
LINE
  5
19D
330
1F
100
AcDbEntity
  8
20
  6
Continuous
 62
   250
370
     9
100
AcDbLine
 10
158.1918518518517
 20
164.1010529945016
 30
0.0
 11
157.8918518518518
 21
164.5116422153058
 31
0.0
  0
LINE
  5
19E
330
1F
100
AcDbEntity
  8
20
  6
Continuous
 62
   250
370
     9
100
AcDbLine
 10
158.1918518518517
 20
165.0837047139947
 30
0.0
 11
158.1918518518517
 21
165.937621012344
 31
0.0
  0
LINE
  5
19F
330
1F
100
AcDbEntity
  8
20
  6
Continuous
 62
   250
370
     9
100
AcDbLine
 10
157.8918518518517
 20
162.8950476870178
 30
0.0
 11
158.1918518518517
 21
162.4834549297663
 31
0.0
  0
LINE
  5
1A0
330
1F
100
AcDbEntity
  8
20
  6
Continuous
 62
   250
370
     9
100
AcDbLine
 10
158.1918518518517
 20
163.3417902080625
 30
0.0
 11
157.8918518518517
 21
163.3633607246878
 31
0.0
  0
LINE
  5
1A1
330
1F
100
AcDbEntity
  8
20
  6
Continuous
 62
   250
370
     9
100
AcDbLine
 10
158.1918518518517
 20
163.3417902080625
 30
0.0
 11
158.1918518518517
 21
164.1010529945016
 31
0.0
  0
LINE
  5
1A2
330
1F
100
AcDbEntity
  8
20
  6
Continuous
 62
   250
370
     9
100
AcDbLine
 10
157.8918518518518
 20
166.3392150445562
 30
0.0
 11
158.1918518518517
 21
165.937621012344
 31
0.0
  0
LINE
  5
1A3
330
1F
100
AcDbEntity
  8
20
  6
Continuous
 62
   250
370
     9
100
AcDbLine
 10
160.1419573577067
 20
158.9779249689779
 30
0.0
 11
160.4417463459968
 21
158.9779249689779
 31
0.0
  0
LINE
  5
1A4
330
1F
100
AcDbEntity
  8
20
  6
Continuous
 62
   250
370
     9
100
AcDbLine
 10
158.1918518518517
 20
158.6011300497348
 30
0.0
 11
157.8918518518517
 21
158.9011300497348
 31
0.0
  0
LINE
  5
1A5
330
1F
100
AcDbEntity
  8
20
  6
Continuous
 62
   250
370
     9
100
AcDbLine
 10
158.1918518518517
 20
159.630833500742
 30
0.0
 11
157.8918518518517
 21
159.8179478734473
 31
0.0
  0
LINE
  5
1A6
330
1F
100
AcDbEntity
  8
20
  6
Continuous
 62
   250
370
     9
100
AcDbLine
 10
157.8918518518517
 20
159.601670626024
 30
0.0
 11
158.1918518518517
 21
159.2344355110423
 31
0.0
  0
LINE
  5
1A7
330
1F
100
AcDbEntity
  8
20
  6
Continuous
 62
   250
370
     9
100
AcDbLine
 10
158.1918518518517
 20
158.9790843344432
 30
0.0
 11
157.8918518518517
 21
159.215486627328
 31
0.0
  0
LINE
  5
1A8
330
1F
100
AcDbEntity
  8
20
  6
Continuous
 62
   250
370
     9
100
AcDbLine
 10
157.8918518518517
 20
159.0939512235381
 30
0.0
 11
158.0460831018622
 21
159.0939512235381
 31
0.0
  0
LINE
  5
1A9
330
1F
100
AcDbEntity
  8
20
  6
Continuous
 62
   250
370
     9
100
AcDbLine
 10
158.1918518518517
 20
158.9790843344432
 30
0.0
 11
158.1918518518517
 21
159.2344355110423
 31
0.0
  0
LINE
  5
1AA
330
1F
100
AcDbEntity
  8
20
  6
Continuous
 62
   250
370
     9
100
AcDbLine
 10
158.1918518518517
 20
158.6459984150665
 30
0.0
 11
158.1918518518517
 21
158.7563314788948
 31
0.0
  0
LINE
  5
1AB
330
1F
100
AcDbEntity
  8
20
  6
Continuous
 62
   250
370
     9
100
AcDbLine
 10
157.8918518518517
 20
158.9270873264035
 30
0.0
 11
158.1918518518517
 21
158.6459984150665
 31
0.0
  0
LINE
  5
1AC
330
1F
100
AcDbEntity
  8
20
  6
Continuous
 62
   250
370
     9
100
AcDbLine
 10
157.8918518518517
 20
159.0939512235381
 30
0.0
 11
158.1918518518517
 21
158.7563314788948
 31
0.0
  0
LINE
  5
1AD
330
1F
100
AcDbEntity
  8
20
  6
Continuous
 62
   250
370
     9
100
AcDbLine
 10
158.1918518518517
 20
159.630833500742
 30
0.0
 11
158.1918518518517
 21
162.4834549297663
 31
0.0
  0
LINE
  5
1AE
330
1F
100
AcDbEntity
  8
20
  6
Continuous
 62
   250
370
     9
100
AcDbLine
 10
165.2918518518517
 20
166.9327483137502
 30
0.0
 11
164.9918518518518
 21
167.0254629750638
 31
0.0
  0
LINE
  5
1AF
330
1F
100
AcDbEntity
  8
20
  6
Continuous
 62
   250
370
     9
100
AcDbLine
 10
164.9918518518518
 20
165.0837047139947
 30
0.0
 11
164.9918518518518
 21
165.937621012344
 31
0.0
  0
LINE
  5
1B0
330
1F
100
AcDbEntity
  8
20
  6
Continuous
 62
   250
370
     9
100
AcDbLine
 10
164.9918518518518
 20
165.0837047139947
 30
0.0
 11
165.2918518518517
 21
165.0477830545299
 31
0.0
  0
LINE
  5
1B1
330
1F
100
AcDbEntity
  8
20
  6
Continuous
 62
   250
370
     9
100
AcDbLine
 10
164.9918518518517
 20
164.1010529945016
 30
0.0
 11
165.2918518518517
 21
164.5116422153058
 31
0.0
  0
LINE
  5
1B2
330
1F
100
AcDbEntity
  8
20
  6
Continuous
 62
   250
370
     9
100
AcDbLine
 10
165.2918518518517
 20
162.8950476870178
 30
0.0
 11
164.9918518518517
 21
162.4834549297663
 31
0.0
  0
LINE
  5
1B3
330
1F
100
AcDbEntity
  8
20
  6
Continuous
 62
   250
370
     9
100
AcDbLine
 10
164.9918518518517
 20
163.3417902080625
 30
0.0
 11
165.2918518518517
 21
163.3633607246877
 31
0.0
  0
LINE
  5
1B4
330
1F
100
AcDbEntity
  8
20
  6
Continuous
 62
   250
370
     9
100
AcDbLine
 10
164.9918518518517
 20
163.3417902080625
 30
0.0
 11
165.2918518518517
 21
163.3633607246877
 31
0.0
  0
LINE
  5
1B5
330
1F
100
AcDbEntity
  8
20
  6
Continuous
 62
   250
370
     9
100
AcDbLine
 10
164.9918518518517
 20
163.3417902080625
 30
0.0
 11
164.9918518518517
 21
164.1010529945016
 31
0.0
  0
LINE
  5
1B6
330
1F
100
AcDbEntity
  8
20
  6
Continuous
 62
   250
370
     9
100
AcDbLine
 10
165.2918518518517
 20
166.3392150445562
 30
0.0
 11
164.9918518518518
 21
165.937621012344
 31
0.0
  0
LINE
  5
1B7
330
1F
100
AcDbEntity
  8
20
  6
Continuous
 62
   250
370
     9
100
AcDbLine
 10
164.9918518518517
 20
158.6011300497348
 30
0.0
 11
165.2918518518517
 21
158.9011300497348
 31
0.0
  0
LINE
  5
1B8
330
1F
100
AcDbEntity
  8
20
  6
Continuous
 62
   250
370
     9
100
AcDbLine
 10
165.2918518518517
 20
159.5511303558864
 30
0.0
 11
165.7918518518518
 21
159.5511303558864
 31
0.0
  0
LINE
  5
1B9
330
1F
100
AcDbEntity
  8
20
  6
Continuous
 62
   250
370
     9
100
AcDbLine
 10
164.9918518518517
 20
158.6459984150665
 30
0.0
 11
164.9918518518517
 21
158.7563314788948
 31
0.0
  0
LINE
  5
1BA
330
1F
100
AcDbEntity
  8
20
  6
Continuous
 62
   250
370
     9
100
AcDbLine
 10
165.2918518518517
 20
158.9270873264035
 30
0.0
 11
164.9918518518517
 21
158.6459984150665
 31
0.0
  0
LINE
  5
1BB
330
1F
100
AcDbEntity
  8
20
  6
Continuous
 62
   250
370
     9
100
AcDbLine
 10
164.9918518518517
 20
159.630833500742
 30
0.0
 11
165.2918518518517
 21
159.8179478734473
 31
0.0
  0
LINE
  5
1BC
330
1F
100
AcDbEntity
  8
20
  6
Continuous
 62
   250
370
     9
100
AcDbLine
 10
165.2918518518517
 20
159.601670626024
 30
0.0
 11
164.9918518518517
 21
159.2344355110423
 31
0.0
  0
LINE
  5
1BD
330
1F
100
AcDbEntity
  8
20
  6
Continuous
 62
   250
370
     9
100
AcDbLine
 10
164.9918518518517
 20
158.9790843344431
 30
0.0
 11
165.2918518518517
 21
159.215486627328
 31
0.0
  0
LINE
  5
1BE
330
1F
100
AcDbEntity
  8
20
  6
Continuous
 62
   250
370
     9
100
AcDbLine
 10
165.2918518518517
 20
159.0939512235381
 30
0.0
 11
164.9918518518517
 21
158.7563314788948
 31
0.0
  0
LINE
  5
1BF
330
1F
100
AcDbEntity
  8
20
  6
Continuous
 62
   250
370
     9
100
AcDbLine
 10
165.2918518518517
 20
159.0939512235381
 30
0.0
 11
165.1376206018413
 21
159.0939512235381
 31
0.0
  0
LINE
  5
1C0
330
1F
100
AcDbEntity
  8
20
  6
Continuous
 62
   250
370
     9
100
AcDbLine
 10
164.9918518518517
 20
158.9790843344431
 30
0.0
 11
164.9918518518517
 21
159.2344355110423
 31
0.0
  0
LINE
  5
1C1
330
1F
100
AcDbEntity
  8
20
  6
Continuous
 62
   250
370
     9
100
AcDbLine
 10
166.0918518518517
 20
158.7511300497348
 30
0.0
 11
165.7918518518518
 21
159.0511300497348
 31
0.0
  0
LINE
  5
1C2
330
1F
100
AcDbEntity
  8
20
  6
Continuous
 62
   250
370
     9
100
AcDbLine
 10
164.9918518518517
 20
159.630833500742
 30
0.0
 11
164.9918518518517
 21
162.4834549297663
 31
0.0
  0
LINE
  5
1C3
330
1F
100
AcDbEntity
  8
20
  6
Continuous
 62
   250
370
     9
100
AcDbLine
 10
157.8918518518518
 20
177.2934154800924
 30
0.0
 11
165.2918518518518
 21
177.2934154800924
 31
0.0
  0
LINE
  5
1C4
330
1F
100
AcDbEntity
  8
20
  6
Continuous
 62
   250
370
     9
100
AcDbLine
 10
164.9918518518518
 20
177.0453745175474
 30
0.0
 11
158.1918518518517
 21
177.0453745175474
 31
0.0
  0
LINE
  5
1C5
330
1F
100
AcDbEntity
  8
20
  6
Continuous
 62
   250
370
     9
100
AcDbLine
 10
157.8918518518518
 20
170.4815950093919
 30
0.0
 11
165.2918518518518
 21
170.4815950093919
 31
0.0
  0
LINE
  5
1C6
330
1F
100
AcDbEntity
  8
20
  6
Continuous
 62
   250
370
     9
100
AcDbLine
 10
165.2918518518518
 20
171.1543635656044
 30
0.0
 11
157.8918518518518
 21
171.1543635656045
 31
0.0
  0
LINE
  5
1C7
330
1F
100
AcDbEntity
  8
20
  6
Continuous
 62
   250
370
     9
100
AcDbLine
 10
165.2918518518518
 20
172.715775430849
 30
0.0
 11
157.8918518518518
 21
172.715775430849
 31
0.0
  0
LINE
  5
1C8
330
1F
100
AcDbEntity
  8
20
  6
Continuous
 62
   250
370
     9
100
AcDbLine
 10
157.8918518518518
 20
173.4088446193772
 30
0.0
 11
165.2918518518518
 21
173.4088446193772
 31
0.0
  0
LINE
  5
1C9
330
1F
100
AcDbEntity
  8
20
  6
Continuous
 62
   250
370
     9
100
AcDbLine
 10
164.9918518518518
 20
173.6568855819222
 30
0.0
 11
158.1918518518517
 21
173.6568855819222
 31
0.0
  0
LINE
  5
1CA
330
1F
100
AcDbEntity
  8
20
  6
Continuous
 62
   250
370
     9
100
AcDbLine
 10
158.1918518518517
 20
171.354180187375
 30
0.0
 11
164.9918518518518
 21
171.354180187375
 31
0.0
  0
LINE
  5
1CB
330
1F
100
AcDbEntity
  8
20
  6
Continuous
 62
   250
370
     9
100
AcDbLine
 10
158.1918518518517
 20
172.3866117318201
 30
0.0
 11
164.9918518518518
 21
172.3866117318201
 31
0.0
  0
LINE
  5
1CC
330
1F
100
AcDbEntity
  8
20
  6
Continuous
 62
   250
370
     9
100
AcDbLine
 10
164.9918518518518
 20
167.9574122758914
 30
0.0
 11
158.1918518518517
 21
167.9574122758915
 31
0.0
  0
LINE
  5
1CD
330
1F
100
AcDbEntity
  8
20
  6
Continuous
 62
   250
370
     9
100
AcDbLine
 10
157.8918518518518
 20
168.3421945484811
 30
0.0
 11
165.2918518518517
 21
168.3421945484811
 31
0.0
  0
LINE
  5
1CE
330
1F
100
AcDbEntity
  8
20
  6
Continuous
 62
   250
370
     9
100
AcDbLine
 10
165.2918518518518
 20
168.9815677976942
 30
0.0
 11
157.8918518518518
 21
168.9815677976942
 31
0.0
  0
LINE
  5
1CF
330
1F
100
AcDbEntity
  8
20
  6
Continuous
 62
   250
370
     9
100
AcDbLine
 10
158.1918518518517
 20
169.1292708754355
 30
0.0
 11
164.9918518518518
 21
169.1292708754355
 31
0.0
  0
LINE
  5
1D0
330
1F
100
AcDbEntity
  8
20
  6
Continuous
 62
   250
370
     9
100
AcDbLine
 10
164.9918518518518
 20
170.1211138456774
 30
0.0
 11
158.1918518518517
 21
170.1211138456774
 31
0.0
  0
LINE
  5
1D1
330
1F
100
AcDbEntity
  8
20
  6
Continuous
 62
   250
370
     9
100
AcDbLine
 10
157.8918518518518
 20
177.2934154800924
 30
0.0
 11
158.1918518518517
 21
177.0453745175474
 31
0.0
  0
LINE
  5
1D2
330
1F
100
AcDbEntity
  8
20
  6
Continuous
 62
   250
370
     9
100
AcDbLine
 10
158.1918518518517
 20
177.0453745175474
 30
0.0
 11
158.1918518518517
 21
175.3511300497348
 31
0.0
  0
LINE
  5
1D3
330
1F
100
AcDbEntity
  8
20
  6
Continuous
 62
   250
370
     9
100
AcDbLine
 10
158.1918518518517
 20
172.3866117318201
 30
0.0
 11
157.8918518518518
 21
172.715775430849
 31
0.0
  0
LINE
  5
1D4
330
1F
100
AcDbEntity
  8
20
  6
Continuous
 62
   250
370
     9
100
AcDbLine
 10
157.8918518518518
 20
173.4088446193772
 30
0.0
 11
158.1918518518517
 21
173.6568855819222
 31
0.0
  0
LINE
  5
1D5
330
1F
100
AcDbEntity
  8
20
  6
Continuous
 62
   250
370
     9
100
AcDbLine
 10
157.8918518518518
 20
171.1543635656045
 30
0.0
 11
158.1918518518517
 21
171.354180187375
 31
0.0
  0
LINE
  5
1D6
330
1F
100
AcDbEntity
  8
20
  6
Continuous
 62
   250
370
     9
100
AcDbLine
 10
158.1918518518517
 20
171.354180187375
 30
0.0
 11
158.1918518518517
 21
172.3866117318201
 31
0.0
  0
LINE
  5
1D7
330
1F
100
AcDbEntity
  8
20
  6
Continuous
 62
   250
370
     9
100
AcDbLine
 10
158.1918518518517
 20
173.6568855819222
 30
0.0
 11
158.1918518518517
 21
175.3511300497348
 31
0.0
  0
LINE
  5
1D8
330
1F
100
AcDbEntity
  8
20
  6
Continuous
 62
   250
370
     9
100
AcDbLine
 10
158.1918518518517
 20
169.1292708754355
 30
0.0
 11
157.8918518518518
 21
168.9815677976942
 31
0.0
  0
LINE
  5
1D9
330
1F
100
AcDbEntity
  8
20
  6
Continuous
 62
   250
370
     9
100
AcDbLine
 10
158.1918518518517
 20
169.1292708754355
 30
0.0
 11
158.1918518518517
 21
170.1211138456774
 31
0.0
  0
LINE
  5
1DA
330
1F
100
AcDbEntity
  8
20
  6
Continuous
 62
   250
370
     9
100
AcDbLine
 10
158.1918518518517
 20
167.9574122758915
 30
0.0
 11
157.8918518518518
 21
168.3421945484811
 31
0.0
  0
LINE
  5
1DB
330
1F
100
AcDbEntity
  8
20
  6
Continuous
 62
   250
370
     9
100
AcDbLine
 10
157.8918518518518
 20
170.4815950093919
 30
0.0
 11
158.1918518518517
 21
170.1211138456774
 31
0.0
  0
LINE
  5
1DC
330
1F
100
AcDbEntity
  8
20
  6
Continuous
 62
   250
370
     9
100
AcDbLine
 10
165.2918518518518
 20
177.2934154800924
 30
0.0
 11
164.9918518518518
 21
177.0453745175474
 31
0.0
  0
LINE
  5
1DD
330
1F
100
AcDbEntity
  8
20
  6
Continuous
 62
   250
370
     9
100
AcDbLine
 10
164.9918518518518
 20
177.0453745175474
 30
0.0
 11
164.9918518518518
 21
175.3511300497348
 31
0.0
  0
CIRCLE
  5
1DE
330
1F
100
AcDbEntity
  8
20
  6
Continuous
 62
   250
370
     9
100
AcDbCircle
 10
163.7918518518518
 20
175.3511300497348
 30
0.0
 40
0.75
  0
LINE
  5
1DF
330
1F
100
AcDbEntity
  8
20
  6
Continuous
 62
   250
370
     9
100
AcDbLine
 10
164.9918518518518
 20
172.3866117318201
 30
0.0
 11
165.2918518518518
 21
172.715775430849
 31
0.0
  0
LINE
  5
1E0
330
1F
100
AcDbEntity
  8
20
  6
Continuous
 62
   250
370
     9
100
AcDbLine
 10
165.2918518518518
 20
173.4088446193772
 30
0.0
 11
164.9918518518518
 21
173.6568855819222
 31
0.0
  0
LINE
  5
1E1
330
1F
100
AcDbEntity
  8
20
  6
Continuous
 62
   250
370
     9
100
AcDbLine
 10
165.2918518518518
 20
171.1543635656044
 30
0.0
 11
164.9918518518518
 21
171.354180187375
 31
0.0
  0
LINE
  5
1E2
330
1F
100
AcDbEntity
  8
20
  6
Continuous
 62
   250
370
     9
100
AcDbLine
 10
164.9918518518518
 20
171.354180187375
 30
0.0
 11
164.9918518518518
 21
172.3866117318201
 31
0.0
  0
LINE
  5
1E3
330
1F
100
AcDbEntity
  8
20
  6
Continuous
 62
   250
370
     9
100
AcDbLine
 10
164.9918518518518
 20
173.6568855819222
 30
0.0
 11
164.9918518518518
 21
175.3511300497348
 31
0.0
  0
LINE
  5
1E4
330
1F
100
AcDbEntity
  8
20
  6
Continuous
 62
   250
370
     9
100
AcDbLine
 10
164.9918518518518
 20
169.1292708754355
 30
0.0
 11
165.2918518518518
 21
168.9815677976942
 31
0.0
  0
LINE
  5
1E5
330
1F
100
AcDbEntity
  8
20
  6
Continuous
 62
   250
370
     9
100
AcDbLine
 10
164.9918518518518
 20
169.1292708754355
 30
0.0
 11
164.9918518518518
 21
170.1211138456774
 31
0.0
  0
LINE
  5
1E6
330
1F
100
AcDbEntity
  8
20
  6
Continuous
 62
   250
370
     9
100
AcDbLine
 10
164.9918518518518
 20
167.9574122758914
 30
0.0
 11
165.2918518518517
 21
168.3421945484811
 31
0.0
  0
LINE
  5
1E7
330
1F
100
AcDbEntity
  8
20
  6
Continuous
 62
   250
370
     9
100
AcDbLine
 10
165.2918518518518
 20
170.4815950093919
 30
0.0
 11
164.9918518518518
 21
170.1211138456774
 31
0.0
  0
LINE
  5
1E8
330
1F
100
AcDbEntity
  8
20
  6
Continuous
 62
   250
370
     9
100
AcDbLine
 10
166.5918518518519
 20
175.3511300497348
 30
0.0
 11
166.5918518518519
 21
158.7511300497348
 31
0.0
  0
LINE
  5
1E9
330
1F
100
AcDbEntity
  8
20
  6
Continuous
 62
   250
370
     9
100
AcDbLine
 10
170.4320133233853
 20
161.2169386604205
 30
0.0
 11
170.4320133233853
 21
158.0126446664181
 31
0.0
  0
LINE
  5
1EA
330
1F
100
AcDbEntity
  8
20
  6
Continuous
 62
   250
370
     9
100
AcDbLine
 10
170.2062766324786
 20
161.134935007383
 30
0.0
 11
170.2062766324786
 21
157.9306410133806
 31
0.0
  0
LINE
  5
1EB
330
1F
100
AcDbEntity
  8
20
  6
Continuous
 62
   250
370
     9
100
AcDbLine
 10
170.0055622008969
 20
161.0380211706231
 30
0.0
 11
170.0055622008969
 21
157.8337271766205
 31
0.0
  0
LINE
  5
1EC
330
1F
100
AcDbEntity
  8
20
  6
Continuous
 62
   250
370
     9
100
AcDbLine
 10
166.5918518518519
 20
158.7511300497348
 30
0.0
 11
169.4918518518517
 21
158.7511300497348
 31
0.0
  0
LINE
  5
1ED
330
1F
100
AcDbEntity
  8
20
  6
Continuous
 62
   250
370
     9
100
AcDbLine
 10
172.7774270712248
 20
161.134935007383
 30
0.0
 11
172.7774270712248
 21
157.9306410133806
 31
0.0
  0
LINE
  5
1EE
330
1F
100
AcDbEntity
  8
20
  6
Continuous
 62
   250
370
     9
100
AcDbLine
 10
172.5516903803182
 20
161.2169386604205
 30
0.0
 11
172.5516903803182
 21
158.0126446664181
 31
0.0
  0
LINE
  5
1EF
330
1F
100
AcDbEntity
  8
20
  6
Continuous
 62
   250
370
     9
100
AcDbLine
 10
172.3053251380034
 20
161.2824360219067
 30
0.0
 11
172.3053251380034
 21
158.0781420279042
 31
0.0
  0
LINE
  5
1F0
330
1F
100
AcDbEntity
  8
20
  6
Continuous
 62
   250
370
     9
100
AcDbLine
 10
172.0431265634858
 20
161.3301522602025
 30
0.0
 11
172.0431265634858
 21
158.1258582662
 31
0.0
  0
LINE
  5
1F1
330
1F
100
AcDbEntity
  8
20
  6
Continuous
 62
   250
370
     9
100
AcDbLine
 10
171.7701980537719
 20
161.3591586330056
 30
0.0
 11
171.7701980537719
 21
158.1548646390032
 31
0.0
  0
LINE
  5
1F2
330
1F
100
AcDbEntity
  8
20
  6
Continuous
 62
   250
370
     9
100
AcDbLine
 10
171.4918518518517
 20
158.1645965702616
 30
0.0
 11
171.4918518518517
 21
161.3688905642641
 31
0.0
  0
LINE
  5
1F3
330
1F
100
AcDbEntity
  8
20
  6
Continuous
 62
   250
370
     9
100
AcDbLine
 10
170.6783785657001
 20
161.2824360219067
 30
0.0
 11
170.6783785657001
 21
158.0781420279042
 31
0.0
  0
LINE
  5
1F4
330
1F
100
AcDbEntity
  8
20
  6
Continuous
 62
   250
370
     9
100
AcDbLine
 10
170.9405771402177
 20
161.3301522602025
 30
0.0
 11
170.9405771402177
 21
158.1258582662
 31
0.0
  0
LINE
  5
1F5
330
1F
100
AcDbEntity
  8
20
  6
Continuous
 62
   250
370
     9
100
AcDbLine
 10
171.2135056499316
 20
161.3591586330056
 30
0.0
 11
171.2135056499316
 21
158.1548646390032
 31
0.0
  0
LINE
  5
1F6
330
1F
100
AcDbEntity
  8
20
  6
Continuous
 62
   250
370
     9
100
AcDbLine
 10
172.9781415028066
 20
161.0380211706231
 30
0.0
 11
172.9781415028066
 21
157.8337271766205
 31
0.0
  0
CIRCLE
  5
1F7
330
1F
100
AcDbEntity
  8
20
  6
Continuous
 62
   250
370
     9
100
AcDbCircle
 10
174.240091327105
 20
176.7211300497353
 30
0.0
 40
0.25
  0
CIRCLE
  5
1F8
330
1F
100
AcDbEntity
  8
20
  6
Continuous
 62
   250
370
     9
100
AcDbCircle
 10
174.240091327105
 20
173.7711300497353
 30
0.0
 40
0.25
  0
CIRCLE
  5
1F9
330
1F
100
AcDbEntity
  8
20
  6
Continuous
 62
   250
370
     9
100
AcDbCircle
 10
174.240091327105
 20
170.8911300497353
 30
0.0
 40
0.25
  0
CIRCLE
  5
1FA
330
1F
100
AcDbEntity
  8
20
  6
Continuous
 62
   250
370
     9
100
AcDbCircle
 10
174.240091327105
 20
169.4511300497353
 30
0.0
 40
0.25
  0
LINE
  5
1FB
330
1F
100
AcDbEntity
  8
20
  6
Continuous
 62
   250
370
     9
100
AcDbLine
 10
191.0918518518517
 20
162.6511300497348
 30
0.0
 11
193.3918518518518
 21
162.6511300497348
 31
0.0
  0
LINE
  5
1FC
330
1F
100
AcDbEntity
  8
20
  6
Continuous
 62
   250
370
     9
100
AcDbLine
 10
191.0918518518517
 20
163.1511300497348
 30
0.0
 11
193.8918518518518
 21
163.1511300497348
 31
0.0
  0
CIRCLE
  5
1FD
330
1F
100
AcDbEntity
  8
20
  6
Continuous
 62
   250
370
     9
100
AcDbCircle
 10
184.3918518518518
 20
175.3511300497348
 30
0.0
 40
2.000000000000028
  0
CIRCLE
  5
1FE
330
1F
100
AcDbEntity
  8
20
  6
Continuous
 62
   250
370
     9
100
AcDbCircle
 10
184.3918518518518
 20
175.3511300497348
 30
0.0
 40
1.700000000000031
  0
LINE
  5
1FF
330
1F
100
AcDbEntity
  8
20
  6
Continuous
 62
   250
370
     9
100
AcDbLine
 10
177.5918518518518
 20
171.2437431854548
 30
0.0
 11
186.2918518518518
 21
171.2437431854548
 31
0.0
  0
LINE
  5
200
330
1F
100
AcDbEntity
  8
20
  6
Continuous
 62
   250
370
     9
100
AcDbLine
 10
186.5918518518518
 20
171.589405302432
 30
0.0
 11
177.2918518518518
 21
171.589405302432
 31
0.0
  0
LINE
  5
201
330
1F
100
AcDbEntity
  8
20
  6
Continuous
 62
   250
370
     9
100
AcDbLine
 10
186.2918518518518
 20
170.229248886316
 30
0.0
 11
177.5918518518518
 21
170.229248886316
 31
0.0
  0
LINE
  5
202
330
1F
100
AcDbEntity
  8
20
  6
Continuous
 62
   250
370
     9
100
AcDbLine
 10
186.5918518518518
 20
172.2741086229456
 30
0.0
 11
177.2918518518518
 21
172.2741086229456
 31
0.0
  0
LINE
  5
203
330
1F
100
AcDbEntity
  8
20
  6
Continuous
 62
   250
370
     9
100
AcDbLine
 10
177.5918518518518
 20
172.4985842263913
 30
0.0
 11
186.2918518518518
 21
172.4985842263913
 31
0.0
  0
LINE
  5
204
330
1F
100
AcDbEntity
  8
20
  6
Continuous
 62
   250
370
     9
100
AcDbLine
 10
186.2918518518518
 20
158.6011300497348
 30
0.0
 11
177.5918518518518
 21
158.6011300497348
 31
0.0
  0
LINE
  5
205
330
1F
100
AcDbEntity
  8
20
  6
Continuous
 62
   250
370
     9
100
AcDbLine
 10
177.2918518518518
 20
164.1855486659578
 30
0.0
 11
186.5918518518518
 21
164.1855486659578
 31
0.0
  0
LINE
  5
206
330
1F
100
AcDbEntity
  8
20
  6
Continuous
 62
   250
370
     9
100
AcDbLine
 10
177.5918518518518
 20
161.176563568223
 30
0.0
 11
186.2918518518518
 21
161.176563568223
 31
0.0
  0
LINE
  5
207
330
1F
100
AcDbEntity
  8
20
  6
Continuous
 62
   250
370
     9
100
AcDbLine
 10
186.2918518518518
 20
161.7667233707898
 30
0.0
 11
177.5918518518518
 21
161.7667233707898
 31
0.0
  0
LINE
  5
208
330
1F
100
AcDbEntity
  8
20
  6
Continuous
 62
   250
370
     9
100
AcDbLine
 10
186.5918518518518
 20
162.1758060512687
 30
0.0
 11
177.2918518518518
 21
162.1758060512687
 31
0.0
  0
LINE
  5
209
330
1F
100
AcDbEntity
  8
20
  6
Continuous
 62
   250
370
     9
100
AcDbLine
 10
186.2918518518518
 20
162.5565400467011
 30
0.0
 11
177.5918518518518
 21
162.5565400467011
 31
0.0
  0
LINE
  5
20A
330
1F
100
AcDbEntity
  8
20
  6
Continuous
 62
   250
370
     9
100
AcDbLine
 10
186.2918518518518
 20
163.2627256654547
 30
0.0
 11
177.5918518518518
 21
163.2627256654547
 31
0.0
  0
LINE
  5
20B
330
1F
100
AcDbEntity
  8
20
  6
Continuous
 62
   250
370
     9
100
AcDbLine
 10
186.5918518518518
 20
163.6748177122869
 30
0.0
 11
177.2918518518518
 21
163.6748177122869
 31
0.0
  0
LINE
  5
20C
330
1F
100
AcDbEntity
  8
20
  6
Continuous
 62
   250
370
     9
100
AcDbLine
 10
177.2918518518518
 20
169.3972798981661
 30
0.0
 11
186.5918518518518
 21
169.3972798981661
 31
0.0
  0
LINE
  5
20D
330
1F
100
AcDbEntity
  8
20
  6
Continuous
 62
   250
370
     9
100
AcDbLine
 10
186.2918518518518
 20
169.0237407753286
 30
0.0
 11
177.5918518518518
 21
169.0237407753286
 31
0.0
  0
LINE
  5
20E
330
1F
100
AcDbEntity
  8
20
  6
Continuous
 62
   250
370
     9
100
AcDbLine
 10
177.5918518518518
 20
168.059605137033
 30
0.0
 11
186.2918518518518
 21
168.059605137033
 31
0.0
  0
LINE
  5
20F
330
1F
100
AcDbEntity
  8
20
  6
Continuous
 62
   250
370
     9
100
AcDbLine
 10
186.5918518518518
 20
167.9391027296977
 30
0.0
 11
177.2918518518518
 21
167.9391027296977
 31
0.0
  0
LINE
  5
210
330
1F
100
AcDbEntity
  8
20
  6
Continuous
 62
   250
370
     9
100
AcDbLine
 10
177.2918518518518
 20
167.3210394146965
 30
0.0
 11
186.5918518518518
 21
167.3210394146965
 31
0.0
  0
LINE
  5
211
330
1F
100
AcDbEntity
  8
20
  6
Continuous
 62
   250
370
     9
100
AcDbLine
 10
186.2918518518518
 20
166.9268938001301
 30
0.0
 11
177.5918518518518
 21
166.9268938001301
 31
0.0
  0
LINE
  5
212
330
1F
100
AcDbEntity
  8
20
  6
Continuous
 62
   250
370
     9
100
AcDbLine
 10
177.5918518518518
 20
166.0318826261892
 30
0.0
 11
186.2918518518518
 21
166.0318826261892
 31
0.0
  0
LINE
  5
213
330
1F
100
AcDbEntity
  8
20
  6
Continuous
 62
   250
370
     9
100
AcDbLine
 10
186.5918518518518
 20
165.9674074074075
 30
0.0
 11
177.2918518518518
 21
165.9674074074075
 31
0.0
  0
LINE
  5
214
330
1F
100
AcDbEntity
  8
20
  6
Continuous
 62
   250
370
     9
100
AcDbLine
 10
186.5918518518518
 20
165.4010955113451
 30
0.0
 11
177.2918518518518
 21
165.4010955113451
 31
0.0
  0
LINE
  5
215
330
1F
100
AcDbEntity
  8
20
  6
Continuous
 62
   250
370
     9
100
AcDbLine
 10
177.5918518518518
 20
164.9940150011035
 30
0.0
 11
186.2918518518518
 21
164.9940150011035
 31
0.0
  0
LINE
  5
216
330
1F
100
AcDbEntity
  8
20
  6
Continuous
 62
   250
370
     9
100
AcDbLine
 10
177.2918518518518
 20
170.0550647327163
 30
0.0
 11
186.5918518518518
 21
170.0550647327163
 31
0.0
  0
LINE
  5
217
330
1F
100
AcDbEntity
  8
20
  6
Continuous
 62
   250
370
     9
100
AcDbLine
 10
186.2918518518518
 20
160.5351261000969
 30
0.0
 11
177.5918518518518
 21
160.5351261000969
 31
0.0
  0
LINE
  5
218
330
1F
100
AcDbEntity
  8
20
  6
Continuous
 62
   250
370
     9
100
AcDbLine
 10
186.2918518518518
 20
160.0724789029772
 30
0.0
 11
177.5918518518518
 21
160.0724789029772
 31
0.0
  0
LINE
  5
219
330
1F
100
AcDbEntity
  8
20
  6
Continuous
 62
   250
370
     9
100
AcDbLine
 10
186.2918518518518
 20
158.7721558268041
 30
0.0
 11
177.5918518518518
 21
158.7721558268041
 31
0.0
  0
LINE
  5
21A
330
1F
100
AcDbEntity
  8
20
  6
Continuous
 62
   250
370
     9
100
AcDbLine
 10
186.2918518518518
 20
159.5919054933291
 30
0.0
 11
177.5918518518518
 21
159.5919054933291
 31
0.0
  0
LINE
  5
21B
330
1F
100
AcDbEntity
  8
20
  6
Continuous
 62
   250
370
     9
100
AcDbLine
 10
186.2918518518518
 20
158.9554202666994
 30
0.0
 11
177.5918518518518
 21
158.9554202666994
 31
0.0
  0
LINE
  5
21C
330
1F
100
AcDbEntity
  8
20
  6
Continuous
 62
   250
370
     9
100
AcDbLine
 10
186.2918518518518
 20
159.2657758030948
 30
0.0
 11
177.5918518518518
 21
159.2657758030948
 31
0.0
  0
LINE
  5
21D
330
1F
100
AcDbEntity
  8
20
  6
Continuous
 62
   250
370
     9
100
AcDbLine
 10
186.5918518518518
 20
159.9712960055199
 30
0.0
 11
177.2918518518518
 21
159.9712960055199
 31
0.0
  0
LINE
  5
21E
330
1F
100
AcDbEntity
  8
20
  6
Continuous
 62
   250
370
     9
100
AcDbLine
 10
186.5918518518518
 20
160.9332370851718
 30
0.0
 11
177.2918518518518
 21
160.9332370851718
 31
0.0
  0
LINE
  5
21F
330
1F
100
AcDbEntity
  8
20
  6
Continuous
 62
   250
370
     9
100
AcDbLine
 10
186.2918518518518
 20
158.6380588811531
 30
0.0
 11
177.5918518518518
 21
158.6380588811531
 31
0.0
  0
LINE
  5
220
330
1F
100
AcDbEntity
  8
20
  6
Continuous
 62
   250
370
     9
100
AcDbLine
 10
177.5918518518518
 20
166.9268938001301
 30
0.0
 11
177.2918518518518
 21
167.3210394146965
 31
0.0
  0
LINE
  5
221
330
1F
100
AcDbEntity
  8
20
  6
Continuous
 62
   250
370
     9
100
AcDbLine
 10
177.2918518518518
 20
158.9011300497348
 30
0.0
 11
177.2918518518518
 21
175.3511300497348
 31
0.0
  0
LINE
  5
222
330
1F
100
AcDbEntity
  8
20
  6
Continuous
 62
   250
370
     9
100
AcDbLine
 10
177.0918518518517
 20
175.3511300497348
 30
0.0
 11
177.0918518518517
 21
159.0511300497348
 31
0.0
  0
LINE
  5
223
330
1F
100
AcDbEntity
  8
20
  6
Continuous
 62
   250
370
     9
100
AcDbLine
 10
176.4918518518517
 20
175.3511300497348
 30
0.0
 11
176.4918518518517
 21
158.7511300497348
 31
0.0
  0
LINE
  5
224
330
1F
100
AcDbEntity
  8
20
  6
Continuous
 62
   250
370
     9
100
AcDbLine
 10
177.5918518518518
 20
164.1855486659578
 30
0.0
 11
177.5918518518518
 21
164.9940150011035
 31
0.0
  0
LINE
  5
225
330
1F
100
AcDbEntity
  8
20
  6
Continuous
 62
   250
370
     9
100
AcDbLine
 10
177.5918518518518
 20
166.0318826261892
 30
0.0
 11
177.2918518518518
 21
165.9674074074075
 31
0.0
  0
LINE
  5
226
330
1F
100
AcDbEntity
  8
20
  6
Continuous
 62
   250
370
     9
100
AcDbLine
 10
177.5918518518518
 20
164.9940150011035
 30
0.0
 11
177.2918518518518
 21
165.4010955113451
 31
0.0
  0
LINE
  5
227
330
1F
100
AcDbEntity
  8
20
  6
Continuous
 62
   250
370
     9
100
AcDbLine
 10
177.5918518518518
 20
162.5565400467011
 30
0.0
 11
177.5918518518518
 21
163.2627256654547
 31
0.0
  0
LINE
  5
228
330
1F
100
AcDbEntity
  8
20
  6
Continuous
 62
   250
370
     9
100
AcDbLine
 10
177.5918518518518
 20
163.2627256654547
 30
0.0
 11
177.2918518518518
 21
163.6748177122869
 31
0.0
  0
LINE
  5
229
330
1F
100
AcDbEntity
  8
20
  6
Continuous
 62
   250
370
     9
100
AcDbLine
 10
177.5918518518518
 20
162.5565400467011
 30
0.0
 11
177.2918518518518
 21
162.6067690839967
 31
0.0
  0
LINE
  5
22A
330
1F
100
AcDbEntity
  8
20
  6
Continuous
 62
   250
370
     9
100
AcDbLine
 10
177.5918518518518
 20
166.0318826261892
 30
0.0
 11
177.5918518518518
 21
166.9268938001301
 31
0.0
  0
LINE
  5
22B
330
1F
100
AcDbEntity
  8
20
  6
Continuous
 62
   250
370
     9
100
AcDbLine
 10
177.5918518518518
 20
161.176563568223
 30
0.0
 11
177.5918518518518
 21
161.7667233707898
 31
0.0
  0
LINE
  5
22C
330
1F
100
AcDbEntity
  8
20
  6
Continuous
 62
   250
370
     9
100
AcDbLine
 10
177.5918518518518
 20
161.176563568223
 30
0.0
 11
177.2918518518518
 21
161.2832370851718
 31
0.0
  0
LINE
  5
22D
330
1F
100
AcDbEntity
  8
20
  6
Continuous
 62
   250
370
     9
100
AcDbLine
 10
177.5918518518518
 20
160.0724789029772
 30
0.0
 11
177.5918518518518
 21
160.5351261000969
 31
0.0
  0
LINE
  5
22E
330
1F
100
AcDbEntity
  8
20
  6
Continuous
 62
   250
370
     9
100
AcDbLine
 10
177.5918518518518
 20
160.0724789029772
 30
0.0
 11
177.2918518518518
 21
160.233520620911
 31
0.0
  0
LINE
  5
22F
330
1F
100
AcDbEntity
  8
20
  6
Continuous
 62
   250
370
     9
100
AcDbLine
 10
177.2918518518518
 20
160.9332370851718
 30
0.0
 11
177.5918518518518
 21
160.5351261000969
 31
0.0
  0
LINE
  5
230
330
1F
100
AcDbEntity
  8
20
  6
Continuous
 62
   250
370
     9
100
AcDbLine
 10
176.7918518518518
 20
158.7511300497348
 30
0.0
 11
177.0918518518517
 21
159.0511300497348
 31
0.0
  0
LINE
  5
231
330
1F
100
AcDbEntity
  8
20
  6
Continuous
 62
   250
370
     9
100
AcDbLine
 10
176.4918518518517
 20
158.7511300497348
 30
0.0
 11
176.7918518518518
 21
158.7511300497348
 31
0.0
  0
LINE
  5
232
330
1F
100
AcDbEntity
  8
20
  6
Continuous
 62
   250
370
     9
100
AcDbLine
 10
177.2918518518518
 20
159.8511300497348
 30
0.0
 11
177.0918518518517
 21
159.8511300497348
 31
0.0
  0
LINE
  5
233
330
1F
100
AcDbEntity
  8
20
  6
Continuous
 62
   250
370
     9
100
AcDbLine
 10
177.5918518518518
 20
158.7721558268041
 30
0.0
 11
177.5918518518518
 21
158.9554202666994
 31
0.0
  0
LINE
  5
234
330
1F
100
AcDbEntity
  8
20
  6
Continuous
 62
   250
370
     9
100
AcDbLine
 10
177.5918518518518
 20
158.6011300497348
 30
0.0
 11
177.5918518518518
 21
158.6380588811531
 31
0.0
  0
LINE
  5
235
330
1F
100
AcDbEntity
  8
20
  6
Continuous
 62
   250
370
     9
100
AcDbLine
 10
177.5918518518518
 20
159.2657758030948
 30
0.0
 11
177.5918518518518
 21
159.5919054933291
 31
0.0
  0
LINE
  5
236
330
1F
100
AcDbEntity
  8
20
  6
Continuous
 62
   250
370
     9
100
AcDbLine
 10
177.5918518518518
 20
158.6380588811531
 30
0.0
 11
177.2918518518518
 21
158.9011300497348
 31
0.0
  0
LINE
  5
237
330
1F
100
AcDbEntity
  8
20
  6
Continuous
 62
   250
370
     9
100
AcDbLine
 10
177.5918518518518
 20
158.9554202666994
 30
0.0
 11
177.2918518518518
 21
159.3087059012367
 31
0.0
  0
LINE
  5
238
330
1F
100
AcDbEntity
  8
20
  6
Continuous
 62
   250
370
     9
100
AcDbLine
 10
177.5918518518518
 20
158.7721558268041
 30
0.0
 11
177.2918518518518
 21
159.0315332593044
 31
0.0
  0
LINE
  5
239
330
1F
100
AcDbEntity
  8
20
  6
Continuous
 62
   250
370
     9
100
AcDbLine
 10
177.2918518518518
 20
159.4780512281564
 30
0.0
 11
177.5918518518518
 21
159.2657758030948
 31
0.0
  0
LINE
  5
23A
330
1F
100
AcDbEntity
  8
20
  6
Continuous
 62
   250
370
     9
100
AcDbLine
 10
177.5918518518518
 20
158.6011300497348
 30
0.0
 11
177.2918518518518
 21
158.9011300497348
 31
0.0
  0
LINE
  5
23B
330
1F
100
AcDbEntity
  8
20
  6
Continuous
 62
   250
370
     9
100
AcDbLine
 10
177.2918518518518
 20
159.9712960055199
 30
0.0
 11
177.5918518518518
 21
159.5919054933291
 31
0.0
  0
LINE
  5
23C
330
1F
100
AcDbEntity
  8
20
  6
Continuous
 62
   250
370
     9
100
AcDbLine
 10
177.5918518518518
 20
161.7667233707898
 30
0.0
 11
177.2918518518518
 21
162.1758060512687
 31
0.0
  0
CIRCLE
  5
23D
330
1F
100
AcDbEntity
  8
20
  6
Continuous
 62
   250
370
     9
100
AcDbCircle
 10
178.8918518518518
 20
175.3511300497348
 30
0.0
 40
0.75
  0
LINE
  5
23E
330
1F
100
AcDbEntity
  8
20
  6
Continuous
 62
   250
370
     9
100
AcDbLine
 10
177.5918518518518
 20
172.4985842263913
 30
0.0
 11
177.2918518518518
 21
172.2741086229456
 31
0.0
  0
LINE
  5
23F
330
1F
100
AcDbEntity
  8
20
  6
Continuous
 62
   250
370
     9
100
AcDbLine
 10
177.5918518518518
 20
170.229248886316
 30
0.0
 11
177.5918518518518
 21
171.2437431854548
 31
0.0
  0
LINE
  5
240
330
1F
100
AcDbEntity
  8
20
  6
Continuous
 62
   250
370
     9
100
AcDbLine
 10
177.2918518518518
 20
171.589405302432
 30
0.0
 11
177.5918518518518
 21
171.2437431854548
 31
0.0
  0
LINE
  5
241
330
1F
100
AcDbEntity
  8
20
  6
Continuous
 62
   250
370
     9
100
AcDbLine
 10
177.5918518518518
 20
172.4985842263913
 30
0.0
 11
177.5918518518518
 21
175.3511300497348
 31
0.0
  0
LINE
  5
242
330
1F
100
AcDbEntity
  8
20
  6
Continuous
 62
   250
370
     9
100
AcDbLine
 10
177.2918518518518
 20
169.3972798981661
 30
0.0
 11
177.5918518518518
 21
169.0237407753286
 31
0.0
  0
LINE
  5
243
330
1F
100
AcDbEntity
  8
20
  6
Continuous
 62
   250
370
     9
100
AcDbLine
 10
177.5918518518518
 20
168.059605137033
 30
0.0
 11
177.2918518518518
 21
167.9391027296977
 31
0.0
  0
LINE
  5
244
330
1F
100
AcDbEntity
  8
20
  6
Continuous
 62
   250
370
     9
100
AcDbLine
 10
177.5918518518518
 20
168.059605137033
 30
0.0
 11
177.5918518518518
 21
169.0237407753286
 31
0.0
  0
LINE
  5
245
330
1F
100
AcDbEntity
  8
20
  6
Continuous
 62
   250
370
     9
100
AcDbLine
 10
177.5918518518518
 20
170.229248886316
 30
0.0
 11
177.2918518518518
 21
170.0550647327163
 31
0.0
  0
LINE
  5
246
330
1F
100
AcDbEntity
  8
20
  6
Continuous
 62
   250
370
     9
100
AcDbLine
 10
186.2918518518518
 20
166.9268938001301
 30
0.0
 11
186.5918518518518
 21
167.3210394146965
 31
0.0
  0
LINE
  5
247
330
1F
100
AcDbEntity
  8
20
  6
Continuous
 62
   250
370
     9
100
AcDbLine
 10
186.5918518518518
 20
158.9011300497348
 30
0.0
 11
186.5918518518518
 21
175.3511300497348
 31
0.0
  0
LINE
  5
248
330
1F
100
AcDbEntity
  8
20
  6
Continuous
 62
   250
370
     9
100
AcDbLine
 10
189.8918518518518
 20
175.3511300497348
 30
0.0
 11
189.8918518518518
 21
159.6511300497348
 31
0.0
  0
LINE
  5
249
330
1F
100
AcDbEntity
  8
20
  6
Continuous
 62
   250
370
     9
100
AcDbLine
 10
191.0918518518517
 20
162.6511300497348
 30
0.0
 11
191.0918518518517
 21
175.3511300497348
 31
0.0
  0
LINE
  5
24A
330
1F
100
AcDbEntity
  8
20
  6
Continuous
 62
   250
370
     9
100
AcDbLine
 10
186.7918518518518
 20
175.3511300497348
 30
0.0
 11
186.7918518518518
 21
159.3511300497348
 31
0.0
  0
LINE
  5
24B
330
1F
100
AcDbEntity
  8
20
  6
Continuous
 62
   250
370
     9
100
AcDbLine
 10
186.7918518518518
 20
159.3511300497348
 30
0.0
 11
189.5918518518517
 21
159.3511300497348
 31
0.0
  0
LINE
  5
24C
330
1F
100
AcDbEntity
  8
20
  6
Continuous
 62
   250
370
     9
100
AcDbLine
 10
186.2918518518518
 20
164.1855486659578
 30
0.0
 11
186.2918518518518
 21
164.9940150011035
 31
0.0
  0
LINE
  5
24D
330
1F
100
AcDbEntity
  8
20
  6
Continuous
 62
   250
370
     9
100
AcDbLine
 10
186.2918518518518
 20
166.0318826261892
 30
0.0
 11
186.5918518518518
 21
165.9674074074075
 31
0.0
  0
LINE
  5
24E
330
1F
100
AcDbEntity
  8
20
  6
Continuous
 62
   250
370
     9
100
AcDbLine
 10
186.2918518518518
 20
164.9940150011035
 30
0.0
 11
186.5918518518518
 21
165.4010955113451
 31
0.0
  0
LINE
  5
24F
330
1F
100
AcDbEntity
  8
20
  6
Continuous
 62
   250
370
     9
100
AcDbLine
 10
186.2918518518518
 20
162.5565400467011
 30
0.0
 11
186.2918518518518
 21
163.2627256654547
 31
0.0
  0
LINE
  5
250
330
1F
100
AcDbEntity
  8
20
  6
Continuous
 62
   250
370
     9
100
AcDbLine
 10
186.2918518518518
 20
163.2627256654547
 30
0.0
 11
186.5918518518518
 21
163.6748177122869
 31
0.0
  0
LINE
  5
251
330
1F
100
AcDbEntity
  8
20
  6
Continuous
 62
   250
370
     9
100
AcDbLine
 10
186.2918518518518
 20
162.5565400467011
 30
0.0
 11
186.5918518518518
 21
162.6067690839967
 31
0.0
  0
LINE
  5
252
330
1F
100
AcDbEntity
  8
20
  6
Continuous
 62
   250
370
     9
100
AcDbLine
 10
186.2918518518518
 20
166.0318826261892
 30
0.0
 11
186.2918518518518
 21
166.9268938001301
 31
0.0
  0
LINE
  5
253
330
1F
100
AcDbEntity
  8
20
  6
Continuous
 62
   250
370
     9
100
AcDbLine
 10
186.7918518518518
 20
160.1011300497348
 30
0.0
 11
186.5918518518517
 21
160.1011300497348
 31
0.0
  0
LINE
  5
254
330
1F
100
AcDbEntity
  8
20
  6
Continuous
 62
   250
370
     9
100
AcDbLine
 10
186.2918518518518
 20
161.176563568223
 30
0.0
 11
186.2918518518518
 21
161.7667233707898
 31
0.0
  0
LINE
  5
255
330
1F
100
AcDbEntity
  8
20
  6
Continuous
 62
   250
370
     9
100
AcDbLine
 10
186.2918518518518
 20
160.0724789029772
 30
0.0
 11
186.2918518518518
 21
160.5351261000969
 31
0.0
  0
LINE
  5
256
330
1F
100
AcDbEntity
  8
20
  6
Continuous
 62
   250
370
     9
100
AcDbLine
 10
186.2918518518518
 20
161.176563568223
 30
0.0
 11
186.5918518518518
 21
161.2832370851718
 31
0.0
  0
LINE
  5
257
330
1F
100
AcDbEntity
  8
20
  6
Continuous
 62
   250
370
     9
100
AcDbLine
 10
186.2918518518518
 20
160.0724789029772
 30
0.0
 11
186.5918518518518
 21
160.233520620911
 31
0.0
  0
LINE
  5
258
330
1F
100
AcDbEntity
  8
20
  6
Continuous
 62
   250
370
     9
100
AcDbLine
 10
186.5918518518518
 20
160.9332370851718
 30
0.0
 11
186.2918518518518
 21
160.5351261000969
 31
0.0
  0
LINE
  5
259
330
1F
100
AcDbEntity
  8
20
  6
Continuous
 62
   250
370
     9
100
AcDbLine
 10
186.2918518518518
 20
158.9554202666994
 30
0.0
 11
186.2918518518518
 21
158.7721558268041
 31
0.0
  0
LINE
  5
25A
330
1F
100
AcDbEntity
  8
20
  6
Continuous
 62
   250
370
     9
100
AcDbLine
 10
186.2918518518518
 20
159.2657758030948
 30
0.0
 11
186.2918518518518
 21
159.5919054933291
 31
0.0
  0
LINE
  5
25B
330
1F
100
AcDbEntity
  8
20
  6
Continuous
 62
   250
370
     9
100
AcDbLine
 10
186.2918518518518
 20
158.6011300497348
 30
0.0
 11
186.2918518518518
 21
158.6380588811531
 31
0.0
  0
LINE
  5
25C
330
1F
100
AcDbEntity
  8
20
  6
Continuous
 62
   250
370
     9
100
AcDbLine
 10
186.2918518518518
 20
158.6011300497348
 30
0.0
 11
186.5918518518518
 21
158.9011300497348
 31
0.0
  0
LINE
  5
25D
330
1F
100
AcDbEntity
  8
20
  6
Continuous
 62
   250
370
     9
100
AcDbLine
 10
186.2918518518518
 20
158.9554202666994
 30
0.0
 11
186.5918518518518
 21
159.3087059012367
 31
0.0
  0
LINE
  5
25E
330
1F
100
AcDbEntity
  8
20
  6
Continuous
 62
   250
370
     9
100
AcDbLine
 10
186.2918518518518
 20
158.7721558268041
 30
0.0
 11
186.5918518518518
 21
159.0315332593044
 31
0.0
  0
LINE
  5
25F
330
1F
100
AcDbEntity
  8
20
  6
Continuous
 62
   250
370
     9
100
AcDbLine
 10
186.5918518518518
 20
159.4780512281564
 30
0.0
 11
186.2918518518518
 21
159.2657758030948
 31
0.0
  0
LINE
  5
260
330
1F
100
AcDbEntity
  8
20
  6
Continuous
 62
   250
370
     9
100
AcDbLine
 10
186.2918518518518
 20
158.6380588811531
 30
0.0
 11
186.5918518518518
 21
158.9011300497348
 31
0.0
  0
LINE
  5
261
330
1F
100
AcDbEntity
  8
20
  6
Continuous
 62
   250
370
     9
100
AcDbLine
 10
186.5918518518518
 20
159.9712960055199
 30
0.0
 11
186.2918518518518
 21
159.5919054933291
 31
0.0
  0
LINE
  5
262
330
1F
100
AcDbEntity
  8
20
  6
Continuous
 62
   250
370
     9
100
AcDbLine
 10
186.2918518518518
 20
161.7667233707898
 30
0.0
 11
186.5918518518518
 21
162.1758060512687
 31
0.0
  0
LINE
  5
263
330
1F
100
AcDbEntity
  8
20
  6
Continuous
 62
   250
370
     9
100
AcDbLine
 10
189.5918518518517
 20
159.3511300497348
 30
0.0
 11
189.8918518518518
 21
159.6511300497348
 31
0.0
  0
LINE
  5
264
330
1F
100
AcDbEntity
  8
20
  6
Continuous
 62
   250
370
     9
100
AcDbLine
 10
189.8918518518518
 20
163.1511300497348
 30
0.0
 11
191.0918518518517
 21
163.1511300497348
 31
0.0
  0
LINE
  5
265
330
1F
100
AcDbEntity
  8
20
  6
Continuous
 62
   250
370
     9
100
AcDbLine
 10
186.2918518518518
 20
172.4985842263913
 30
0.0
 11
186.5918518518518
 21
172.2741086229456
 31
0.0
  0
LINE
  5
266
330
1F
100
AcDbEntity
  8
20
  6
Continuous
 62
   250
370
     9
100
AcDbLine
 10
186.2918518518518
 20
170.229248886316
 30
0.0
 11
186.2918518518518
 21
171.2437431854548
 31
0.0
  0
LINE
  5
267
330
1F
100
AcDbEntity
  8
20
  6
Continuous
 62
   250
370
     9
100
AcDbLine
 10
186.5918518518518
 20
171.589405302432
 30
0.0
 11
186.2918518518518
 21
171.2437431854548
 31
0.0
  0
LINE
  5
268
330
1F
100
AcDbEntity
  8
20
  6
Continuous
 62
   250
370
     9
100
AcDbLine
 10
186.2918518518518
 20
172.4985842263913
 30
0.0
 11
186.2918518518518
 21
174.7266302498949
 31
0.0
  0
LINE
  5
269
330
1F
100
AcDbEntity
  8
20
  6
Continuous
 62
   250
370
     9
100
AcDbLine
 10
186.5918518518518
 20
169.3972798981661
 30
0.0
 11
186.2918518518518
 21
169.0237407753286
 31
0.0
  0
LINE
  5
26A
330
1F
100
AcDbEntity
  8
20
  6
Continuous
 62
   250
370
     9
100
AcDbLine
 10
186.2918518518518
 20
168.059605137033
 30
0.0
 11
186.5918518518518
 21
167.9391027296977
 31
0.0
  0
LINE
  5
26B
330
1F
100
AcDbEntity
  8
20
  6
Continuous
 62
   250
370
     9
100
AcDbLine
 10
186.2918518518518
 20
168.059605137033
 30
0.0
 11
186.2918518518518
 21
169.0237407753286
 31
0.0
  0
LINE
  5
26C
330
1F
100
AcDbEntity
  8
20
  6
Continuous
 62
   250
370
     9
100
AcDbLine
 10
186.2918518518518
 20
170.229248886316
 30
0.0
 11
186.5918518518518
 21
170.0550647327163
 31
0.0
  0
LINE
  5
26D
330
1F
100
AcDbEntity
  8
20
  6
Continuous
 62
   250
370
     9
100
AcDbLine
 10
193.8918518518518
 20
175.3511300497348
 30
0.0
 11
193.8918518518518
 21
163.1511300497348
 31
0.0
  0
LINE
  5
26E
330
1F
100
AcDbEntity
  8
20
  6
Continuous
 62
   250
370
     9
100
AcDbLine
 10
193.3918518518518
 20
175.3511300497348
 30
0.0
 11
193.3918518518518
 21
162.6511300497348
 31
0.0
  0
LINE
  5
26F
330
1F
100
AcDbEntity
  8
20
  6
Continuous
 62
   250
370
     9
100
AcDbLine
 10
193.3918518518518
 20
162.6511300497348
 30
0.0
 11
193.8918518518518
 21
163.1511300497348
 31
0.0
  0
LINE
  5
270
330
1F
100
AcDbEntity
  8
20
  6
Continuous
 62
   250
370
     9
100
AcDbLine
 10
194.6135341586201
 20
167.3511300497383
 30
0.0
 11
194.8135341586201
 21
167.5511300497383
 31
0.0
  0
LINE
  5
271
330
1F
100
AcDbEntity
  8
20
  6
Continuous
 62
   250
370
     9
100
AcDbLine
 10
193.8918518518518
 20
167.3511300497383
 30
0.0
 11
194.6135341586201
 21
167.3511300497383
 31
0.0
  0
LINE
  5
272
330
1F
100
AcDbEntity
  8
20
  6
Continuous
 62
   250
370
     9
100
AcDbLine
 10
194.8135341586201
 20
175.3511300497348
 30
0.0
 11
194.8135341586201
 21
167.5511300497383
 31
0.0
  0
MTEXT
  5
273
330
1F
100
AcDbEntity
  8
20
  6
Continuous
 62
   250
370
     9
100
AcDbMText
 10
175.3614702500449
 20
168.0351109970239
 30
0.0
 40
2.200000000000003
 41
0.3623840000000004
 46
2.200000000000003
 71
     1
 72
     1
  1
{\fＭＳ ゴシック;\T0.750000;.}
 11
-1.608122649676637E-16
 21
-1.0
 31
0.0
 73
     1
 44
1.0
1001
ACAD
1000
ACAD_MTEXT_DEFINED_HEIGHT_BEGIN
1070
    46
1040
2.200000000000003
1000
ACAD_MTEXT_DEFINED_HEIGHT_END
  0
MTEXT
  5
274
330
1F
100
AcDbEntity
  8
20
  6
Continuous
 62
   250
370
     9
100
AcDbMText
 10
175.3726866526089
 20
167.6945613099579
 30
0.0
 40
2.200000000000003
 41
1.758812000000002
 46
2.200000000000003
 71
     1
 72
     1
  1
{\fＭＳ ゴシック;\T0.750000;4}
 11
-1.608122649676637E-16
 21
-1.0
 31
0.0
 73
     1
 44
1.0
1001
ACAD
1000
ACAD_MTEXT_DEFINED_HEIGHT_BEGIN
1070
    46
1040
2.200000000000003
1000
ACAD_MTEXT_DEFINED_HEIGHT_END
  0
MTEXT
  5
275
330
1F
100
AcDbEntity
  8
20
  6
Continuous
 62
   250
370
     9
100
AcDbMText
 10
175.3655669190106
 20
169.0395319210893
 30
0.0
 40
2.200000000000003
 41
0.8403560000000011
 46
2.200000000000003
 71
     1
 72
     1
  1
{\fＭＳ ゴシック;\T0.750000;1}
 11
-1.608122649676637E-16
 21
-1.0
 31
0.0
 73
     1
 44
1.0
1001
ACAD
1000
ACAD_MTEXT_DEFINED_HEIGHT_BEGIN
1070
    46
1040
2.200000000000003
1000
ACAD_MTEXT_DEFINED_HEIGHT_END
  0
MTEXT
  5
276
330
1F
100
AcDbEntity
  8
20
  6
Continuous
 62
   250
370
     9
100
AcDbMText
 10
175.3583539646779
 20
172.9952384500339
 30
0.0
 40
2.200000000000003
 41
1.758812000000002
 46
2.200000000000003
 71
     1
 72
     1
  1
{\fＭＳ ゴシック;\T0.750000;4}
 11
-1.608122649676637E-16
 21
-1.0
 31
0.0
 73
     1
 44
1.0
1001
ACAD
1000
ACAD_MTEXT_DEFINED_HEIGHT_BEGIN
1070
    46
1040
2.200000000000003
1000
ACAD_MTEXT_DEFINED_HEIGHT_END
  0
MTEXT
  5
277
330
1F
100
AcDbEntity
  8
20
  6
Continuous
 62
   250
370
     9
100
AcDbMText
 10
175.3655436138274
 20
175.9171889777913
 30
0.0
 40
2.200000000000003
 41
1.649472000000002
 46
2.200000000000003
 71
     1
 72
     1
  1
{\fＭＳ ゴシック;\T0.750000;8}
 11
-1.608122649676637E-16
 21
-1.0
 31
0.0
 73
     1
 44
1.0
1001
ACAD
1000
ACAD_MTEXT_DEFINED_HEIGHT_BEGIN
1070
    46
1040
2.200000000000003
1000
ACAD_MTEXT_DEFINED_HEIGHT_END
  0
HATCH
  5
278
330
1F
100
AcDbEntity
  8
20
  6
Continuous
 62
   250
370
     9
100
AcDbHatch
 10
0.0
 20
0.0
 30
0.0
210
0.0
220
0.0
230
1.0
  2
SOLID
 70
     1
 71
     0
 91
        1
 92
        0
 93
        1
 72
     2
 10
174.240091327105
 20
169.4511300497353
 40
0.25
 50
0.0
 51
360.0
 73
     1
 97
        0
 75
     0
 76
     1
 98
        0
  0
HATCH
  5
279
330
1F
100
AcDbEntity
  8
20
  6
Continuous
 62
   250
370
     9
100
AcDbHatch
 10
0.0
 20
0.0
 30
0.0
210
0.0
220
0.0
230
1.0
  2
SOLID
 70
     1
 71
     0
 91
        1
 92
        0
 93
        1
 72
     2
 10
174.240091327105
 20
170.8911300497353
 40
0.25
 50
0.0
 51
360.0
 73
     1
 97
        0
 75
     0
 76
     1
 98
        0
  0
HATCH
  5
27A
330
1F
100
AcDbEntity
  8
20
  6
Continuous
 62
   250
370
     9
100
AcDbHatch
 10
0.0
 20
0.0
 30
0.0
210
0.0
220
0.0
230
1.0
  2
SOLID
 70
     1
 71
     0
 91
        1
 92
        0
 93
        1
 72
     2
 10
174.240091327105
 20
176.7211300497353
 40
0.25
 50
0.0
 51
360.0
 73
     1
 97
        0
 75
     0
 76
     1
 98
        0
  0
HATCH
  5
27B
330
1F
100
AcDbEntity
  8
20
  6
Continuous
 62
   250
370
     9
100
AcDbHatch
 10
0.0
 20
0.0
 30
0.0
210
0.0
220
0.0
230
1.0
  2
SOLID
 70
     1
 71
     0
 91
        1
 92
        0
 93
        1
 72
     2
 10
163.7918518518518
 20
175.3511300497348
 40
0.75
 50
0.0
 51
360.0
 73
     1
 97
        0
 75
     0
 76
     1
 98
        0
  0
HATCH
  5
27C
330
1F
100
AcDbEntity
  8
20
  6
Continuous
 62
   250
370
     9
100
AcDbHatch
 10
0.0
 20
0.0
 30
0.0
210
0.0
220
0.0
230
1.0
  2
SOLID
 70
     1
 71
     0
 91
        1
 92
        0
 93
        1
 72
     2
 10
174.240091327105
 20
173.7711300497353
 40
0.25
 50
0.0
 51
360.0
 73
     1
 97
        0
 75
     0
 76
     1
 98
        0
  0
HATCH
  5
27D
330
1F
100
AcDbEntity
  8
20
  6
Continuous
 62
   250
370
     9
100
AcDbHatch
 10
0.0
 20
0.0
 30
0.0
210
0.0
220
0.0
230
1.0
  2
SOLID
 70
     1
 71
     0
 91
        1
 92
        0
 93
        1
 72
     2
 10
178.8918518518518
 20
175.3511300497348
 40
0.75
 50
0.0
 51
360.0
 73
     1
 97
        0
 75
     0
 76
     1
 98
        0
  0
LINE
  5
27E
330
1F
100
AcDbEntity
  8
20
  6
Continuous
 62
   250
370
     9
100
AcDbLine
 10
207.7526931289694
 20
175.0162887726171
 30
0.0
 11
207.0830105747341
 21
175.6859713268525
 31
0.0
  0
LINE
  5
27F
330
1F
100
AcDbEntity
  8
20
  6
Continuous
 62
   250
370
     9
100
AcDbLine
 10
207.7526931289694
 20
175.6859713268525
 30
0.0
 11
207.0830105747341
 21
175.0162887726171
 31
0.0
  0
CIRCLE
  5
280
330
1F
100
AcDbEntity
  8
20
  6
Continuous
 62
   250
370
     9
100
AcDbCircle
 10
107.5404922669585
 20
175.3511300497348
 30
0.0
 40
10.00583817749599
  0
DIMENSION
  5
28B
330
1F
100
AcDbEntity
  8
20
  6
Continuous
 62
   250
370
     9
100
AcDbDimension
280
     0
  2
Dim1
 10
114.1743972898963
 20
182.8416641970634
 30
0.0
 11
120.6798578579976
 21
192.55901519854
 31
0.0
 70
   160
  1
φ17.8
 71
     5
 42
-1.0
 73
     0
 74
     0
 75
     0
  3
Standard
100
AcDbAlignedDimension
 13
100.9064545515113
 23
167.8607134241885
 33
0.0
 14
114.1745299824057
 24
182.8415466752811
 34
0.0
 50
48.46964938854795
100
AcDbRotatedDimension
1001
ACAD
1000
DSTYLE
1002
{
1070
   279
1070
     2
1070
   340
1005
281
1070
   140
1040
2.0
1070
    40
1040
1.0
1070
   147
1040
0.0
1070
    76
1070
     0
1070
    75
1070
     0
1070
   344
1005
51
1070
   343
1005
51
1070
   173
1070
     1
1070
   289
1070
     2
1070
   288
1070
     1
1070
    77
1070
     1
1070
   172
1070
     1
1070
   174
1070
     0
1070
    74
1070
     0
1070
    73
1070
     0
1070
   284
1070
     8
1070
    78
1070
     8
1070
    42
1040
2.0
1070
    44
1040
1.0
1070
    43
1040
10.0
1070
   271
1070
     2
1070
    41
1040
1.0
1002
}
  0
LINE
  5
28C
330
1F
100
AcDbEntity
  8
20
  6
DASHDOT
 62
   250
370
     9
100
AcDbLine
 10
131.8590506881948
 20
175.3511300497348
 30
0.0
 11
86.72450422827816
 21
175.3511300497348
 31
0.0
  0
MTEXT
  5
28D
330
1F
100
AcDbEntity
  8
21
  6
Continuous
 62
     7
370
     9
100
AcDbMText
 10
192.1698765432098
 20
204.5175308641977
 30
0.0
 40
1.5
 41
16.9372275
 46
1.5
 71
     7
 72
     1
  1
{\fＭＳ ゴシック;\T0.750000;アイリスリング}
 73
     1
 44
1.0
1001
ACAD
1000
ACAD_MTEXT_DEFINED_HEIGHT_BEGIN
1070
    46
1040
1.5
1000
ACAD_MTEXT_DEFINED_HEIGHT_END
  0
MTEXT
  5
28E
330
1F
100
AcDbEntity
  8
21
  6
Continuous
 62
     7
370
     9
100
AcDbMText
 10
159.8696296296295
 20
205.7343209876545
 30
0.0
 40
1.5
 41
21.79416
 46
1.5
 71
     9
 72
     1
  1
{\fＭＳ ゴシック;\T0.750000;インデックスリング}
 73
     1
 44
1.0
1001
ACAD
1000
ACAD_MTEXT_DEFINED_HEIGHT_BEGIN
1070
    46
1040
1.5
1000
ACAD_MTEXT_DEFINED_HEIGHT_END
  0
MTEXT
  5
28F
330
1F
100
AcDbEntity
  8
21
  6
Continuous
 62
     7
370
     9
100
AcDbMText
 10
153.9951036868405
 20
200.8228228494452
 30
0.0
 40
1.5
 41
19.17718875
 46
1.5
 71
     9
 72
     1
  1
{\fＭＳ ゴシック;\T0.750000;フォーカスリング}
 73
     1
 44
1.0
1001
ACAD
1000
ACAD_MTEXT_DEFINED_HEIGHT_BEGIN
1070
    46
1040
1.5
1000
ACAD_MTEXT_DEFINED_HEIGHT_END
  0
ELLIPSE
  5
290
330
1F
100
AcDbEntity
  8
21
  6
Continuous
 62
     7
370
     9
100
AcDbEllipse
 10
171.4918518518517
 20
157.1645965702616
 30
0.0
 11
-2.0
 21
6.462178297730347E-15
 31
0.0
210
0.0
220
0.0
230
1.0
 40
0.500000000000032
 41
2.354563839546353
 42
3.141592653589799
  0
ELLIPSE
  5
291
330
1F
100
AcDbEntity
  8
21
  6
Continuous
 62
     7
370
     9
100
AcDbEllipse
 10
171.4918518518517
 20
157.1645965702616
 30
0.0
 11
-2.0
 21
6.462178297730347E-15
 31
0.0
210
0.0
220
0.0
230
1.0
 40
0.500000000000032
 41
-3.141592653589787
 42
0.7259624572938947
  0
MTEXT
  5
292
330
1F
100
AcDbEntity
  8
21
  6
Continuous
 62
     7
370
     9
100
AcDbMText
 10
166.3222595947146
 20
177.0125080619611
 30
0.0
 40
3.5
 41
5.850570570570571
 46
3.5
 71
     7
 72
     1
  1
{\fＭＳ 明朝;\T0.750000;∞}
 11
1.615544574432587E-15
 21
-1.0
 31
0.0
 73
     1
 44
1.0
1001
ACAD
1000
ACAD_MTEXT_DEFINED_HEIGHT_BEGIN
1070
    46
1040
3.5
1000
ACAD_MTEXT_DEFINED_HEIGHT_END
  0
MTEXT
  5
293
330
1F
100
AcDbEntity
  8
21
  6
Continuous
 62
     7
370
     9
100
AcDbMText
 10
205.5944060972644
 20
199.2238742779751
 30
0.0
 40
1.5
 41
7.4245522677
 46
1.5
 71
     7
 72
     1
  1
{\fＭＳ ゴシック;\T0.772570;1-32UNF}
 73
     1
 44
1.0
1001
ACAD
1000
ACAD_MTEXT_DEFINED_HEIGHT_BEGIN
1070
    46
1040
1.5
1000
ACAD_MTEXT_DEFINED_HEIGHT_END
  0
MTEXT
  5
294
330
1F
100
AcDbEntity
  8
21
  6
Continuous
 62
     7
370
     9
100
AcDbMText
 10
145.3363665362644
 20
196.8599114595768
 30
0.0
 40
1.5
 41
11.69384870595
 46
1.5
 71
     9
 72
     1
  1
{\fＭＳ ゴシック;\T0.764137;M30.5 P=0.5}
 73
     1
 44
1.0
1001
ACAD
1000
ACAD_MTEXT_DEFINED_HEIGHT_BEGIN
1070
    46
1040
1.5
1000
ACAD_MTEXT_DEFINED_HEIGHT_END
  0
DIMENSION
  5
29E
330
1F
100
AcDbEntity
  8
21
  6
Continuous
 62
     7
370
     9
100
AcDbDimension
280
     0
  2
Dim2
 10
213.3798994863139
 20
183.3511300497312
 30
0.0
 11
211.5926274362161
 21
175.2844581105958
 31
0.0
 70
   160
  1
φ18
 71
     5
 42
-1.0
 73
     0
 74
     0
 75
     0
  3
Standard
100
AcDbAlignedDimension
 13
194.6135341586201
 23
167.3511300497383
 33
0.0
 14
194.6135341586201
 24
183.3511300497314
 34
0.0
 50
89.99999999999991
100
AcDbRotatedDimension
1001
ACAD
1000
DSTYLE
1002
{
1070
   279
1070
     2
1070
   340
1005
281
1070
   140
1040
2.0
1070
    40
1040
1.0
1070
   147
1040
0.0
1070
    76
1070
     0
1070
    75
1070
     0
1070
   344
1005
51
1070
   343
1005
51
1070
   173
1070
     1
1070
   289
1070
     2
1070
   288
1070
     1
1070
    77
1070
     1
1070
   172
1070
     1
1070
   174
1070
     0
1070
    74
1070
     0
1070
    73
1070
     0
1070
   284
1070
     8
1070
    78
1070
     8
1070
    42
1040
2.0
1070
    44
1040
1.0
1070
    43
1040
10.0
1070
   271
1070
     2
1070
    41
1040
1.0
1002
}
  0
DIMENSION
  5
2A8
330
1F
100
AcDbEntity
  8
21
  6
Continuous
 62
     7
370
     9
100
AcDbDimension
280
     0
  2
Dim3
 10
189.891851851852
 20
147.8105807203642
 30
0.0
 11
172.0746418247053
 21
147.8105807203642
 31
0.0
 70
   160
  1
36
 71
     8
 42
-1.0
 73
     0
 74
     0
 75
     0
  3
Standard
100
AcDbAlignedDimension
 13
151.6918518518518
 23
159.5511300497348
 33
0.0
 14
189.8918518518518
 24
151.1310058330312
 34
0.0
 50
0.0000000000000426
100
AcDbRotatedDimension
1001
ACAD
1000
DSTYLE
1002
{
1070
   279
1070
     1
1070
   340
1005
281
1070
   140
1040
2.0
1070
    40
1040
1.0
1070
   147
1040
0.0
1070
    76
1070
     0
1070
    75
1070
     0
1070
   344
1005
51
1070
   343
1005
51
1070
   173
1070
     1
1070
   289
1070
     2
1070
   288
1070
     1
1070
    77
1070
     1
1070
   172
1070
     1
1070
   174
1070
     0
1070
    74
1070
     0
1070
    73
1070
     0
1070
   284
1070
     8
1070
    78
1070
     8
1070
    42
1040
2.0
1070
    44
1040
1.0
1070
    43
1040
10.0
1070
   271
1070
     2
1070
    41
1040
1.0
1002
}
  0
DIMENSION
  5
2B2
330
1F
100
AcDbEntity
  8
21
  6
Continuous
 62
     7
370
     9
100
AcDbDimension
280
     0
  2
Dim4
 10
194.8135341586211
 20
151.7560058330312
 30
0.0
 11
198.4535387071993
 21
153.6337786541609
 31
0.0
 70
   160
  1
(<>
 71
     5
 42
-1.0
 73
     0
 74
     0
 75
     0
  3
Standard
100
AcDbAlignedDimension
 13
193.8918518518518
 23
163.1511300497348
 33
0.0
 14
194.8135341586201
 24
167.5511300497383
 34
0.0
100
AcDbRotatedDimension
1001
ACAD
1000
DSTYLE
1002
{
1070
   279
1070
     2
1070
   340
1005
281
1070
   140
1040
2.0
1070
    40
1040
1.0
1070
   147
1040
0.0
1070
    76
1070
     0
1070
    75
1070
     0
1070
   344
1005
51
1070
   343
1005
51
1070
   173
1070
     1
1070
   289
1070
     2
1070
   288
1070
     1
1070
    77
1070
     1
1070
   172
1070
     1
1070
   174
1070
     0
1070
    74
1070
     0
1070
    73
1070
     0
1070
   284
1070
     8
1070
    78
1070
     8
1070
    42
1040
2.0
1070
    44
1040
1.0
1070
    43
1040
10.0
1070
   271
1070
     2
1070
    41
1040
1.0
1002
}
  0
DIMENSION
  5
2BC
330
1F
100
AcDbEntity
  8
21
  6
Continuous
 62
     7
370
     9
100
AcDbDimension
280
     0
  2
Dim5
 10
151.6918518518526
 20
151.7560058330312
 30
0.0
 11
154.8404291948092
 21
153.493091204121
 31
0.0
 70
   160
  1
(4)
 71
     5
 42
-1.0
 73
     0
 74
     0
 75
     0
  3
Standard
100
AcDbAlignedDimension
 13
157.8918518518517
 23
158.9011300497348
 33
0.0
 14
151.6918518518518
 24
159.5511300497348
 34
0.0
 50
179.9999999999998
100
AcDbRotatedDimension
1001
ACAD
1000
DSTYLE
1002
{
1070
   279
1070
     2
1070
   340
1005
281
1070
   140
1040
2.0
1070
    40
1040
1.0
1070
   147
1040
0.0
1070
    76
1070
     0
1070
    75
1070
     0
1070
   344
1005
51
1070
   343
1005
51
1070
   173
1070
     1
1070
   289
1070
     2
1070
   288
1070
     1
1070
    77
1070
     1
1070
   172
1070
     1
1070
   174
1070
     0
1070
    74
1070
     0
1070
    73
1070
     0
1070
   284
1070
     8
1070
    78
1070
     8
1070
    42
1040
2.0
1070
    44
1040
1.0
1070
    43
1040
10.0
1070
   271
1070
     2
1070
    41
1040
1.0
1002
}
  0
HATCH
  5
2BD
330
1F
100
AcDbEntity
  8
21
  6
Continuous
 62
     7
370
     9
100
AcDbHatch
 10
0.0
 20
0.0
 30
0.0
210
0.0
220
0.0
230
1.0
  2
SOLID
 70
     1
 71
     0
 91
        1
 92
        0
 93
        8
 72
     2
 10
168.9418518518519
 20
180.5061297435832
 40
0.1500000000000057
 50
0.0
 51
89.99999999999991
 73
     1
 72
     1
 10
168.9418518518519
 20
180.6561297435833
 11
167.7418518518519
 21
180.6561297435833
 72
     2
 10
167.7418518518519
 20
180.5061297435832
 40
0.1500000000000057
 50
89.99999999999991
 51
179.9999999999998
 73
     1
 72
     1
 10
167.5918518518519
 20
180.5061297435832
 11
167.5918518518519
 21
180.0561297435833
 72
     2
 10
167.7418518518519
 20
180.0561297435833
 40
0.1500000000000057
 50
179.9999999999998
 51
270.0000000000001
 73
     1
 72
     1
 10
167.7418518518519
 20
179.9061297435833
 11
168.9418518518519
 21
179.9061297435833
 72
     2
 10
168.9418518518519
 20
180.0561297435833
 40
0.1500000000000057
 50
270.0000000000001
 51
360.0
 73
     1
 72
     1
 10
169.0918518518519
 20
180.0561297435833
 11
169.0918518518519
 21
180.5061297435832
 97
        0
 75
     0
 76
     1
 98
        0
  0
HATCH
  5
2BE
330
1F
100
AcDbEntity
  8
21
  6
Continuous
 62
     7
370
     9
100
AcDbHatch
 10
0.0
 20
0.0
 30
0.0
210
0.0
220
0.0
230
1.0
  2
SOLID
 70
     1
 71
     0
 91
        1
 92
        0
 93
        8
 72
     2
 10
168.9418518518519
 20
185.4461297435832
 40
0.1500000000000057
 50
0.0
 51
89.99999999999991
 73
     1
 72
     1
 10
168.9418518518519
 20
185.5961297435833
 11
167.7418518518519
 21
185.5961297435833
 72
     2
 10
167.7418518518519
 20
185.4461297435832
 40
0.1500000000000057
 50
89.99999999999991
 51
179.9999999999998
 73
     1
 72
     1
 10
167.5918518518519
 20
185.4461297435832
 11
167.5918518518519
 21
184.9961297435833
 72
     2
 10
167.7418518518519
 20
184.9961297435833
 40
0.1500000000000057
 50
179.9999999999998
 51
270.0000000000001
 73
     1
 72
     1
 10
167.7418518518519
 20
184.8461297435833
 11
168.9418518518519
 21
184.8461297435833
 72
     2
 10
168.9418518518519
 20
184.9961297435833
 40
0.1500000000000057
 50
270.0000000000001
 51
360.0
 73
     1
 72
     1
 10
169.0918518518519
 20
184.9961297435833
 11
169.0918518518519
 21
185.4461297435832
 97
        0
 75
     0
 76
     1
 98
        0
  0
HATCH
  5
2BF
330
1F
100
AcDbEntity
  8
21
  6
Continuous
 62
     7
370
     9
100
AcDbHatch
 10
0.0
 20
0.0
 30
0.0
210
0.0
220
0.0
230
1.0
  2
SOLID
 70
     1
 71
     0
 91
        1
 92
        0
 93
        6
 72
     2
 10
167.7418518518519
 20
191.6561297435833
 40
0.1500000000000057
 50
179.9999999999998
 51
270.0000000000001
 73
     1
 72
     1
 10
167.7418518518519
 20
191.5061297435832
 11
168.9418518518519
 21
191.5061297435832
 72
     2
 10
168.9418518518519
 20
191.6561297435833
 40
0.1500000000000057
 50
270.0000000000001
 51
360.0
 73
     1
 72
     1
 10
169.0918518518519
 20
191.6561297435833
 11
169.0918518518519
 21
191.9511300497348
 72
     1
 10
169.0918518518519
 20
191.9511300497348
 11
167.5918518518519
 21
191.9511300497348
 72
     1
 10
167.5918518518519
 20
191.9511300497348
 11
167.5918518518519
 21
191.6561297435833
 97
        0
 75
     0
 76
     1
 98
        0
  0
MTEXT
  5
2C0
330
1F
100
AcDbEntity
  8
21
  6
Continuous
 62
     7
370
     9
100
AcDbMText
 10
175.368517355258
 20
183.6706382532162
 30
0.0
 40
2.200000000000003
 41
1.743192000000002
 46
2.200000000000003
 71
     1
 72
     1
  1
{\fＭＳ ゴシック;\T0.750000;C}
 11
-1.608122649676637E-16
 21
-1.0
 31
0.0
 73
     1
 44
1.0
1001
ACAD
1000
ACAD_MTEXT_DEFINED_HEIGHT_BEGIN
1070
    46
1040
2.200000000000003
1000
ACAD_MTEXT_DEFINED_HEIGHT_END
  0
MTEXT
  5
2C1
330
1F
100
AcDbEntity
  8
21
  6
Continuous
 62
     7
370
     9
100
AcDbMText
 10
175.3656648007822
 20
179.6920761976463
 30
0.0
 40
2.200000000000003
 41
3.147034114224004
 46
2.200000000000003
 71
     1
 72
     1
  1
{\fＭＳ ゴシック;\T0.855848;16}
 11
-1.608122649676637E-16
 21
-1.0
 31
0.0
 73
     1
 44
1.0
1001
ACAD
1000
ACAD_MTEXT_DEFINED_HEIGHT_BEGIN
1070
    46
1040
2.200000000000003
1000
ACAD_MTEXT_DEFINED_HEIGHT_END
  0
INSERT
  5
2CA
330
1F
100
AcDbEntity
  8
21
100
AcDbBlockReference
  2
*G21
 10
0.0
 20
0.0
 30
0.0
  0
DIMENSION
  5
2D4
330
1F
100
AcDbEntity
  8
21
  6
Continuous
 62
     7
370
     9
100
AcDbDimension
280
     0
  2
Dim6
 10
189.8918518518526
 20
151.7560058330312
 30
0.0
 11
188.248938459928
 21
153.4296904601796
 31
0.0
 70
   160
  1
<>
 71
     5
 42
-1.0
 73
     0
 74
     0
 75
     0
  3
Standard
100
AcDbAlignedDimension
 13
186.5918518518518
 23
158.9011300497348
 33
0.0
 14
189.8918518518518
 24
159.6511300497348
 34
0.0
100
AcDbRotatedDimension
1001
ACAD
1000
DSTYLE
1002
{
1070
   279
1070
     2
1070
   340
1005
281
1070
   140
1040
2.0
1070
    40
1040
1.0
1070
   147
1040
0.0
1070
    76
1070
     0
1070
    75
1070
     0
1070
   344
1005
51
1070
   343
1005
51
1070
   173
1070
     1
1070
   289
1070
     2
1070
   288
1070
     1
1070
    77
1070
     1
1070
   172
1070
     1
1070
   174
1070
     0
1070
    74
1070
     0
1070
    73
1070
     0
1070
   284
1070
     8
1070
    78
1070
     8
1070
    42
1040
2.0
1070
    44
1040
1.0
1070
    43
1040
10.0
1070
   271
1070
     2
1070
    41
1040
1.0
1002
}
  0
DIMENSION
  5
2DE
330
1F
100
AcDbEntity
  8
21
  6
Continuous
 62
     7
370
     9
100
AcDbDimension
280
     0
  2
Dim7
 10
217.7849070701316
 20
191.3511300497346
 30
0.0
 11
217.7849070701316
 21
175.013191899164
 31
0.0
 70
   160
  1
φ<>
 71
     8
 42
-1.0
 73
     0
 74
     0
 75
     0
  3
Standard
100
AcDbAlignedDimension
 13
189.5918518518517
 23
159.3511300497348
 33
0.0
 14
189.5918518518517
 24
191.3511300497348
 34
0.0
 50
89.99999999999991
100
AcDbRotatedDimension
1001
ACAD
1000
DSTYLE
1002
{
1070
   279
1070
     1
1070
   340
1005
281
1070
   140
1040
2.0
1070
    40
1040
1.0
1070
   147
1040
0.0
1070
    76
1070
     0
1070
    75
1070
     0
1070
   344
1005
51
1070
   343
1005
51
1070
   173
1070
     1
1070
   289
1070
     2
1070
   288
1070
     1
1070
    77
1070
     1
1070
   172
1070
     1
1070
   174
1070
     0
1070
    74
1070
     0
1070
    73
1070
     0
1070
   284
1070
     8
1070
    78
1070
     8
1070
    42
1040
2.0
1070
    44
1040
1.0
1070
    43
1040
10.0
1070
   271
1070
     2
1070
    41
1040
1.0
1002
}
  0
DIMENSION
  5
2E8
330
1F
100
AcDbEntity
  8
21
  6
Continuous
 62
     7
370
     9
100
AcDbDimension
280
     0
  2
Dim8
 10
139.8608989921745
 20
191.3511300497349
 30
0.0
 11
139.8608989921745
 21
175.4837801344582
 31
0.0
 70
   160
  1
φ<>
 71
     8
 42
-1.0
 73
     0
 74
     0
 75
     0
  3
Standard
100
AcDbAlignedDimension
 13
151.8918518518518
 23
159.3511300497348
 33
0.0
 14
151.8918518518518
 24
191.3511300497348
 34
0.0
 50
89.99999999999991
100
AcDbRotatedDimension
1001
ACAD
1000
DSTYLE
1002
{
1070
   279
1070
     1
1070
   340
1005
281
1070
   140
1040
2.0
1070
    40
1040
1.0
1070
   147
1040
0.0
1070
    76
1070
     0
1070
    75
1070
     0
1070
   344
1005
51
1070
   343
1005
51
1070
   173
1070
     1
1070
   289
1070
     2
1070
   288
1070
     1
1070
    77
1070
     1
1070
   172
1070
     1
1070
   174
1070
     0
1070
    74
1070
     0
1070
    73
1070
     0
1070
   284
1070
     8
1070
    78
1070
     8
1070
    42
1040
2.0
1070
    44
1040
1.0
1070
    43
1040
10.0
1070
   271
1070
     2
1070
    41
1040
1.0
1002
}
  0
DIMENSION
  5
2F2
330
1F
100
AcDbEntity
  8
21
  6
Continuous
 62
     7
370
     9
100
AcDbDimension
280
     0
  2
Dim9
 10
136.4418518518517
 20
192.1011300497349
 30
0.0
 11
136.4418518518517
 21
175.4837801344582
 31
0.0
 70
   160
  1
φ<>
 71
     8
 42
-1.0
 73
     0
 74
     0
 75
     0
  3
Standard
100
AcDbAlignedDimension
 13
158.1918518518517
 23
158.6011300497348
 33
0.0
 14
157.9418518518518
 24
192.1011300497348
 34
0.0
 50
90.00000000000006
100
AcDbRotatedDimension
1001
ACAD
1000
DSTYLE
1002
{
1070
   279
1070
     1
1070
   340
1005
281
1070
   140
1040
2.0
1070
    40
1040
1.0
1070
   147
1040
0.0
1070
    76
1070
     0
1070
    75
1070
     0
1070
   344
1005
51
1070
   343
1005
51
1070
   173
1070
     1
1070
   289
1070
     2
1070
   288
1070
     1
1070
    77
1070
     1
1070
   172
1070
     1
1070
   174
1070
     0
1070
    74
1070
     0
1070
    73
1070
     0
1070
   284
1070
     8
1070
    78
1070
     8
1070
    42
1040
2.0
1070
    44
1040
1.0
1070
    43
1040
10.0
1070
   271
1070
     2
1070
    41
1040
1.0
1002
}
  0
DIMENSION
  5
2FC
330
1F
100
AcDbEntity
  8
21
  6
Continuous
 62
     7
370
     9
100
AcDbDimension
280
     0
  2
Dim10
 10
177.2918518518526
 20
151.7560058330312
 30
0.0
 11
181.9418518518518
 21
153.2560058330312
 31
0.0
 70
   160
  1
<>
 71
     5
 42
-1.0
 73
     0
 74
     0
 75
     0
  3
Standard
100
AcDbAlignedDimension
 13
186.5918518518518
 23
158.9011300497348
 33
0.0
 14
177.2918518518518
 24
158.9011300497348
 34
0.0
 50
179.9999999999997
100
AcDbRotatedDimension
1001
ACAD
1000
DSTYLE
1002
{
1070
   279
1070
     2
1070
   340
1005
281
1070
   140
1040
2.0
1070
    40
1040
1.0
1070
   147
1040
0.0
1070
    76
1070
     0
1070
    75
1070
     0
1070
   344
1005
51
1070
   343
1005
51
1070
   173
1070
     1
1070
   289
1070
     2
1070
   288
1070
     1
1070
    77
1070
     1
1070
   172
1070
     1
1070
   174
1070
     0
1070
    74
1070
     0
1070
    73
1070
     0
1070
   284
1070
     8
1070
    78
1070
     8
1070
    42
1040
2.0
1070
    44
1040
1.0
1070
    43
1040
10.0
1070
   271
1070
     2
1070
    41
1040
1.0
1002
}
  0
DIMENSION
  5
306
330
1F
100
AcDbEntity
  8
21
  6
Continuous
 62
     7
370
     9
100
AcDbDimension
280
     0
  2
Dim11
 10
189.8918518518526
 20
151.7560058330312
 30
0.0
 11
191.8918518518518
 21
153.2560058330312
 31
0.0
 70
   160
  1
<>
 71
     5
 42
-1.0
 73
     0
 74
     0
 75
     0
  3
Standard
100
AcDbAlignedDimension
 13
193.8918518518518
 23
163.1511300497348
 33
0.0
 14
189.8918518518518
 24
159.6511300497348
 34
0.0
 50
179.9999999999998
100
AcDbRotatedDimension
1001
ACAD
1000
DSTYLE
1002
{
1070
   279
1070
     2
1070
   340
1005
281
1070
   140
1040
2.0
1070
    40
1040
1.0
1070
   147
1040
0.0
1070
    76
1070
     0
1070
    75
1070
     0
1070
   344
1005
51
1070
   343
1005
51
1070
   173
1070
     1
1070
   289
1070
     2
1070
   288
1070
     1
1070
    77
1070
     1
1070
   172
1070
     1
1070
   174
1070
     0
1070
    74
1070
     0
1070
    73
1070
     0
1070
   284
1070
     8
1070
    78
1070
     8
1070
    42
1040
2.0
1070
    44
1040
1.0
1070
    43
1040
10.0
1070
   271
1070
     2
1070
    41
1040
1.0
1002
}
  0
DIMENSION
  5
310
330
1F
100
AcDbEntity
  8
21
  6
Continuous
 62
     7
370
     9
100
AcDbDimension
280
     0
  2
Dim12
 10
207.4178518518526
 20
147.8105807203641
 30
0.0
 11
198.6548518518518
 21
149.3105807203641
 31
0.0
 70
   160
  1
<>
 71
     5
 42
-1.0
 73
     0
 74
     0
 75
     0
  3
Standard
100
AcDbAlignedDimension
 13
189.8918518518518
 23
151.1310058330312
 33
0.0
 14
207.4178518518518
 24
175.3511300497348
 34
0.0
100
AcDbRotatedDimension
1001
ACAD
1000
DSTYLE
1002
{
1070
   279
1070
     2
1070
   340
1005
281
1070
   140
1040
2.0
1070
    40
1040
1.0
1070
   147
1040
0.0
1070
    76
1070
     0
1070
    75
1070
     0
1070
   344
1005
51
1070
   343
1005
51
1070
   173
1070
     1
1070
   289
1070
     2
1070
   288
1070
     1
1070
    77
1070
     1
1070
   172
1070
     1
1070
   174
1070
     0
1070
    74
1070
     0
1070
    73
1070
     0
1070
   284
1070
     8
1070
    78
1070
     8
1070
    42
1040
2.0
1070
    44
1040
1.0
1070
    43
1040
10.0
1070
   271
1070
     2
1070
    41
1040
1.0
1002
}
  0
DIMENSION
  5
31A
330
1F
100
AcDbEntity
  8
21
  6
Continuous
 62
     7
370
     9
100
AcDbDimension
280
     0
  2
Dim13
 10
157.8918518518526
 20
151.7560058330312
 30
0.0
 11
161.5918518518517
 21
153.2560058330312
 31
0.0
 70
   160
  1
<>
 71
     5
 42
-1.0
 73
     0
 74
     0
 75
     0
  3
Standard
100
AcDbAlignedDimension
 13
165.2918518518517
 23
158.9011300497348
 33
0.0
 14
157.8918518518517
 24
158.9011300497348
 34
0.0
 50
179.9999999999998
100
AcDbRotatedDimension
1001
ACAD
1000
DSTYLE
1002
{
1070
   279
1070
     2
1070
   340
1005
281
1070
   140
1040
2.0
1070
    40
1040
1.0
1070
   147
1040
0.0
1070
    76
1070
     0
1070
    75
1070
     0
1070
   344
1005
51
1070
   343
1005
51
1070
   173
1070
     1
1070
   289
1070
     2
1070
   288
1070
     1
1070
    77
1070
     1
1070
   172
1070
     1
1070
   174
1070
     0
1070
    74
1070
     0
1070
    73
1070
     0
1070
   284
1070
     8
1070
    78
1070
     8
1070
    42
1040
2.0
1070
    44
1040
1.0
1070
    43
1040
10.0
1070
   271
1070
     2
1070
    41
1040
1.0
1002
}
  0
DIMENSION
  5
324
330
1F
100
AcDbEntity
  8
21
  6
Continuous
 62
     7
370
     9
100
AcDbDimension
280
     0
  2
Dim14
 10
165.2918518518526
 20
151.7560058330312
 30
0.0
 11
171.2918518518517
 21
153.2560058330312
 31
0.0
 70
   160
  1
<>
 71
     5
 42
-1.0
 73
     0
 74
     0
 75
     0
  3
Standard
100
AcDbAlignedDimension
 13
177.2918518518518
 23
158.9011300497348
 33
0.0
 14
165.2918518518517
 24
158.9011300497348
 34
0.0
 50
179.9999999999997
100
AcDbRotatedDimension
1001
ACAD
1000
DSTYLE
1002
{
1070
   279
1070
     2
1070
   340
1005
281
1070
   140
1040
2.0
1070
    40
1040
1.0
1070
   147
1040
0.0
1070
    76
1070
     0
1070
    75
1070
     0
1070
   344
1005
51
1070
   343
1005
51
1070
   173
1070
     1
1070
   289
1070
     2
1070
   288
1070
     1
1070
    77
1070
     1
1070
   172
1070
     1
1070
   174
1070
     0
1070
    74
1070
     0
1070
    73
1070
     0
1070
   284
1070
     8
1070
    78
1070
     8
1070
    42
1040
2.0
1070
    44
1040
1.0
1070
    43
1040
10.0
1070
   271
1070
     2
1070
    41
1040
1.0
1002
}
  0
INSERT
  5
325
330
1F
100
AcDbEntity
  8
21
  6
Continuous
 62
     7
370
     9
100
AcDbBlockReference
  2
MARK_OPEN
 10
173.2772932015986
 20
191.9511300497348
 30
0.0
 50
312.3382688001406
  0
POLYLINE
  5
326
330
1F
100
AcDbEntity
  8
21
  6
Continuous
 62
     7
370
     9
100
AcDb2dPolyline
 66
     1
 10
0.0
 20
0.0
 30
0.0
  0
VERTEX
  5
327
330
326
100
AcDbEntity
  8
21
  6
Continuous
 62
     7
370
     9
100
AcDbVertex
100
AcDb2dVertex
 10
173.2772932015986
 20
191.9511300497348
 30
0.0
  0
VERTEX
  5
328
330
326
100
AcDbEntity
  8
21
  6
Continuous
 62
     7
370
     9
100
AcDbVertex
100
AcDb2dVertex
 10
161.5391988920916
 20
204.8338308921836
 30
0.0
  0
VERTEX
  5
329
330
326
100
AcDbEntity
  8
21
  6
Continuous
 62
     7
370
     9
100
AcDbVertex
100
AcDb2dVertex
 10
147.6001172671094
 20
204.8338308921836
 30
0.0
  0
SEQEND
  5
32A
330
326
100
AcDbEntity
  8
21
  6
Continuous
 62
     7
370
     9
  0
INSERT
  5
32B
330
1F
100
AcDbEntity
  8
21
  6
Continuous
 62
     7
370
     9
100
AcDbBlockReference
  2
MARK_OPEN
 10
163.094479637947
 20
192.1011300497348
 30
0.0
 50
313.5445872475237
  0
POLYLINE
  5
32C
330
1F
100
AcDbEntity
  8
21
  6
Continuous
 62
     7
370
     9
100
AcDb2dPolyline
 66
     1
 10
0.0
 20
0.0
 30
0.0
  0
VERTEX
  5
32D
330
32C
100
AcDbEntity
  8
21
  6
Continuous
 62
     7
370
     9
100
AcDbVertex
100
AcDb2dVertex
 10
163.094479637947
 20
192.1011300497348
 30
0.0
  0
VERTEX
  5
32E
330
32C
100
AcDbEntity
  8
21
  6
Continuous
 62
     7
370
     9
100
AcDbVertex
100
AcDb2dVertex
 10
155.4570635827108
 20
200.1367543224705
 30
0.0
  0
VERTEX
  5
32F
330
32C
100
AcDbEntity
  8
21
  6
Continuous
 62
     7
370
     9
100
AcDbVertex
100
AcDb2dVertex
 10
144.5046937233181
 20
200.2452545170189
 30
0.0
  0
SEQEND
  5
330
330
32C
100
AcDbEntity
  8
21
  6
Continuous
 62
     7
370
     9
  0
INSERT
  5
331
330
1F
100
AcDbEntity
  8
21
  6
Continuous
 62
     7
370
     9
100
AcDbBlockReference
  2
MARK_OPEN
 10
153.1878681827351
 20
190.6011300497348
 30
0.0
 50
316.179480942478
  0
POLYLINE
  5
332
330
1F
100
AcDbEntity
  8
21
  6
Continuous
 62
     7
370
     9
100
AcDb2dPolyline
 66
     1
 10
0.0
 20
0.0
 30
0.0
  0
VERTEX
  5
333
330
332
100
AcDbEntity
  8
21
  6
Continuous
 62
     7
370
     9
100
AcDbVertex
100
AcDb2dVertex
 10
153.1878681827351
 20
190.6011300497348
 30
0.0
  0
VERTEX
  5
334
330
332
100
AcDbEntity
  8
21
  6
Continuous
 62
     7
370
     9
100
AcDbVertex
100
AcDb2dVertex
 10
146.9915867728932
 20
196.5474114595768
 30
0.0
  0
VERTEX
  5
335
330
332
100
AcDbEntity
  8
21
  6
Continuous
 62
     7
370
     9
100
AcDbVertex
100
AcDb2dVertex
 10
135.0098944453204
 20
196.5474114595768
 30
0.0
  0
SEQEND
  5
336
330
332
100
AcDbEntity
  8
21
  6
Continuous
 62
     7
370
     9
  0
INSERT
  5
337
330
1F
100
AcDbEntity
  8
21
  6
Continuous
 62
     7
370
     9
100
AcDbBlockReference
  2
MARK_OPEN
 10
192.2418518518518
 20
188.0511300497348
 30
0.0
 50
229.9999999999999
  0
POLYLINE
  5
338
330
1F
100
AcDbEntity
  8
21
  6
Continuous
 62
     7
370
     9
100
AcDb2dPolyline
 66
     1
 10
0.0
 20
0.0
 30
0.0
  0
VERTEX
  5
339
330
338
100
AcDbEntity
  8
21
  6
Continuous
 62
     7
370
     9
100
AcDbVertex
100
AcDb2dVertex
 10
192.2418518518518
 20
188.0511300497348
 30
0.0
  0
VERTEX
  5
33A
330
338
100
AcDbEntity
  8
21
  6
Continuous
 62
     7
370
     9
100
AcDbVertex
100
AcDb2dVertex
 10
201.3546787782634
 20
198.9113742779751
 30
0.0
  0
VERTEX
  5
33B
330
338
100
AcDbEntity
  8
21
  6
Continuous
 62
     7
370
     9
100
AcDbVertex
100
AcDb2dVertex
 10
213.3902005648517
 20
198.9113742779751
 30
0.0
  0
SEQEND
  5
33C
330
338
100
AcDbEntity
  8
21
  6
Continuous
 62
     7
370
     9
  0
INSERT
  5
33D
330
1F
100
AcDbEntity
  8
21
  6
Continuous
 62
     7
370
     9
100
AcDbBlockReference
  2
MARK_OPEN
 10
181.9418518518518
 20
192.1011300497348
 30
0.0
 50
229.9999999999999
  0
POLYLINE
  5
33E
330
1F
100
AcDbEntity
  8
21
  6
Continuous
 62
     7
370
     9
100
AcDb2dPolyline
 66
     1
 10
0.0
 20
0.0
 30
0.0
  0
VERTEX
  5
33F
330
33E
100
AcDbEntity
  8
21
  6
Continuous
 62
     7
370
     9
100
AcDbVertex
100
AcDb2dVertex
 10
181.9418518518518
 20
192.1011300497348
 30
0.0
  0
VERTEX
  5
340
330
33E
100
AcDbEntity
  8
21
  6
Continuous
 62
     7
370
     9
100
AcDbVertex
100
AcDb2dVertex
 10
191.0546787782634
 20
202.9613742779752
 30
0.0
  0
VERTEX
  5
341
330
33E
100
AcDbEntity
  8
21
  6
Continuous
 62
     7
370
     9
100
AcDbVertex
100
AcDb2dVertex
 10
204.6264184685131
 20
202.9613742779752
 30
0.0
  0
SEQEND
  5
342
330
33E
100
AcDbEntity
  8
21
  6
Continuous
 62
     7
370
     9
  0
MTEXT
  5
343
330
1F
100
AcDbEntity
  8
21
  6
Continuous
 62
     7
370
     9
100
AcDbMText
 10
196.6105373562122
 20
147.5075804349948
 30
0.0
 40
1.25
 41
7.097318799424426
 46
1.25
 71
     1
 72
     1
  1
{\fＭＳ 明朝;\T0.761675;(IN AIR)}
 73
     1
 44
1.0
1001
ACAD
1000
ACAD_MTEXT_DEFINED_HEIGHT_BEGIN
1070
    46
1040
1.25
1000
ACAD_MTEXT_DEFINED_HEIGHT_END
  0
LINE
  5
344
330
1F
100
AcDbEntity
  8
21
  6
Continuous
 62
     7
370
     9
100
AcDbLine
 10
193.3918518518518
 20
188.0511300497348
 30
0.0
 11
193.8918518518518
 21
187.5511300497348
 31
0.0
  0
LINE
  5
345
330
1F
100
AcDbEntity
  8
21
  6
Continuous
 62
     7
370
     9
100
AcDbLine
 10
194.8135341586201
 20
175.3511300497348
 30
0.0
 11
194.8135341586201
 21
183.1511300497314
 31
0.0
  0
LINE
  5
346
330
1F
100
AcDbEntity
  8
21
  6
Continuous
 62
     7
370
     9
100
AcDbLine
 10
193.8918518518518
 20
183.3511300497314
 30
0.0
 11
194.6135341586201
 21
183.3511300497314
 31
0.0
  0
LINE
  5
347
330
1F
100
AcDbEntity
  8
21
  6
Continuous
 62
     7
370
     9
100
AcDbLine
 10
194.6135341586201
 20
183.3511300497314
 30
0.0
 11
194.8135341586201
 21
183.1511300497314
 31
0.0
  0
LINE
  5
348
330
1F
100
AcDbEntity
  8
21
  6
Continuous
 62
     7
370
     9
100
AcDbLine
 10
193.3918518518518
 20
175.3511300497348
 30
0.0
 11
193.3918518518518
 21
188.0511300497348
 31
0.0
  0
LINE
  5
349
330
1F
100
AcDbEntity
  8
21
  6
Continuous
 62
     7
370
     9
100
AcDbLine
 10
193.8918518518518
 20
175.3511300497348
 30
0.0
 11
193.8918518518518
 21
187.5511300497348
 31
0.0
  0
LINE
  5
34A
330
1F
100
AcDbEntity
  8
21
  6
Continuous
 62
     7
370
     9
100
AcDbLine
 10
189.8918518518518
 20
187.5511300497348
 30
0.0
 11
191.0918518518517
 21
187.5511300497348
 31
0.0
  0
LINE
  5
34B
330
1F
100
AcDbEntity
  8
21
  6
Continuous
 62
     7
370
     9
100
AcDbLine
 10
189.5918518518517
 20
191.3511300497348
 30
0.0
 11
189.8918518518518
 21
191.0511300497348
 31
0.0
  0
LINE
  5
34C
330
1F
100
AcDbEntity
  8
21
  6
Continuous
 62
     7
370
     9
100
AcDbLine
 10
186.2918518518518
 20
188.9355367286799
 30
0.0
 11
186.5918518518517
 21
188.5264540482009
 31
0.0
  0
LINE
  5
34D
330
1F
100
AcDbEntity
  8
21
  6
Continuous
 62
     7
370
     9
100
AcDbLine
 10
186.2918518518518
 20
188.1457200527686
 30
0.0
 11
186.5918518518517
 21
188.095491015473
 31
0.0
  0
LINE
  5
34E
330
1F
100
AcDbEntity
  8
21
  6
Continuous
 62
     7
370
     9
100
AcDbLine
 10
186.2918518518518
 20
187.4395344340149
 30
0.0
 11
186.5918518518517
 21
187.0274423871828
 31
0.0
  0
LINE
  5
34F
330
1F
100
AcDbEntity
  8
21
  6
Continuous
 62
     7
370
     9
100
AcDbLine
 10
186.2918518518518
 20
188.1457200527686
 30
0.0
 11
186.2918518518518
 21
187.4395344340149
 31
0.0
  0
LINE
  5
350
330
1F
100
AcDbEntity
  8
21
  6
Continuous
 62
     7
370
     9
100
AcDbLine
 10
186.2918518518518
 20
189.5256965312466
 30
0.0
 11
186.5918518518517
 21
189.4190230142979
 31
0.0
  0
LINE
  5
351
330
1F
100
AcDbEntity
  8
21
  6
Continuous
 62
     7
370
     9
100
AcDbLine
 10
186.5918518518517
 20
189.7690230142979
 30
0.0
 11
186.2918518518518
 21
190.1671339993727
 31
0.0
  0
LINE
  5
352
330
1F
100
AcDbEntity
  8
21
  6
Continuous
 62
     7
370
     9
100
AcDbLine
 10
186.2918518518518
 20
190.6297811964925
 30
0.0
 11
186.5918518518517
 21
190.4687394785587
 31
0.0
  0
LINE
  5
353
330
1F
100
AcDbEntity
  8
21
  6
Continuous
 62
     7
370
     9
100
AcDbLine
 10
186.2918518518518
 20
190.6297811964925
 30
0.0
 11
186.2918518518518
 21
190.1671339993727
 31
0.0
  0
LINE
  5
354
330
1F
100
AcDbEntity
  8
21
  6
Continuous
 62
     7
370
     9
100
AcDbLine
 10
186.2918518518518
 20
189.5256965312466
 30
0.0
 11
186.2918518518518
 21
188.9355367286799
 31
0.0
  0
LINE
  5
355
330
1F
100
AcDbEntity
  8
21
  6
Continuous
 62
     7
370
     9
100
AcDbLine
 10
186.7918518518518
 20
190.6011300497348
 30
0.0
 11
186.5918518518517
 21
190.6011300497348
 31
0.0
  0
LINE
  5
356
330
1F
100
AcDbEntity
  8
21
  6
Continuous
 62
     7
370
     9
100
AcDbLine
 10
186.5918518518517
 20
190.7309640939498
 30
0.0
 11
186.2918518518518
 21
191.1103546061406
 31
0.0
  0
LINE
  5
357
330
1F
100
AcDbEntity
  8
21
  6
Continuous
 62
     7
370
     9
100
AcDbLine
 10
186.5918518518517
 20
191.2242088713132
 30
0.0
 11
186.2918518518518
 21
191.4364842963748
 31
0.0
  0
LINE
  5
358
330
1F
100
AcDbEntity
  8
21
  6
Continuous
 62
     7
370
     9
100
AcDbLine
 10
186.2918518518518
 20
191.7468398327702
 30
0.0
 11
186.5918518518517
 21
191.393554198233
 31
0.0
  0
LINE
  5
359
330
1F
100
AcDbEntity
  8
21
  6
Continuous
 62
     7
370
     9
100
AcDbLine
 10
186.2918518518518
 20
191.9301042726655
 30
0.0
 11
186.5918518518517
 21
191.6707268401653
 31
0.0
  0
LINE
  5
35A
330
1F
100
AcDbEntity
  8
21
  6
Continuous
 62
     7
370
     9
100
AcDbLine
 10
186.2918518518518
 20
192.0642012183166
 30
0.0
 11
186.5918518518517
 21
191.8011300497348
 31
0.0
  0
LINE
  5
35B
330
1F
100
AcDbEntity
  8
21
  6
Continuous
 62
     7
370
     9
100
AcDbLine
 10
186.2918518518518
 20
192.1011300497348
 30
0.0
 11
186.5918518518517
 21
191.8011300497348
 31
0.0
  0
LINE
  5
35C
330
1F
100
AcDbEntity
  8
21
  6
Continuous
 62
     7
370
     9
100
AcDbLine
 10
186.2918518518518
 20
192.1011300497348
 30
0.0
 11
186.5918518518517
 21
191.8011300497348
 31
0.0
  0
LINE
  5
35D
330
1F
100
AcDbEntity
  8
21
  6
Continuous
 62
     7
370
     9
100
AcDbLine
 10
186.2918518518518
 20
191.4364842963748
 30
0.0
 11
186.2918518518518
 21
191.1103546061406
 31
0.0
  0
LINE
  5
35E
330
1F
100
AcDbEntity
  8
21
  6
Continuous
 62
     7
370
     9
100
AcDbLine
 10
186.2918518518518
 20
191.7468398327702
 30
0.0
 11
186.2918518518518
 21
191.9301042726655
 31
0.0
  0
LINE
  5
35F
330
1F
100
AcDbEntity
  8
21
  6
Continuous
 62
     7
370
     9
100
AcDbLine
 10
186.2918518518518
 20
192.1011300497348
 30
0.0
 11
186.2918518518518
 21
192.0642012183166
 31
0.0
  0
LINE
  5
360
330
1F
100
AcDbEntity
  8
21
  6
Continuous
 62
     7
370
     9
100
AcDbLine
 10
186.7918518518518
 20
191.3511300497348
 30
0.0
 11
189.5918518518517
 21
191.3511300497348
 31
0.0
  0
LINE
  5
361
330
1F
100
AcDbEntity
  8
21
  6
Continuous
 62
     7
370
     9
100
AcDbLine
 10
177.5918518518517
 20
188.9355367286799
 30
0.0
 11
177.2918518518517
 21
188.5264540482009
 31
0.0
  0
LINE
  5
362
330
1F
100
AcDbEntity
  8
21
  6
Continuous
 62
     7
370
     9
100
AcDbLine
 10
177.5918518518517
 20
188.1457200527686
 30
0.0
 11
177.2918518518518
 21
188.095491015473
 31
0.0
  0
LINE
  5
363
330
1F
100
AcDbEntity
  8
21
  6
Continuous
 62
     7
370
     9
100
AcDbLine
 10
177.5918518518517
 20
187.4395344340149
 30
0.0
 11
177.2918518518517
 21
187.0274423871828
 31
0.0
  0
LINE
  5
364
330
1F
100
AcDbEntity
  8
21
  6
Continuous
 62
     7
370
     9
100
AcDbLine
 10
177.5918518518517
 20
188.1457200527686
 30
0.0
 11
177.5918518518517
 21
187.4395344340149
 31
0.0
  0
LINE
  5
365
330
1F
100
AcDbEntity
  8
21
  6
Continuous
 62
     7
370
     9
100
AcDbLine
 10
177.5918518518517
 20
189.5256965312466
 30
0.0
 11
177.2918518518517
 21
189.4190230142979
 31
0.0
  0
LINE
  5
366
330
1F
100
AcDbEntity
  8
21
  6
Continuous
 62
     7
370
     9
100
AcDbLine
 10
177.2918518518517
 20
189.7690230142979
 30
0.0
 11
177.5918518518517
 21
190.1671339993727
 31
0.0
  0
LINE
  5
367
330
1F
100
AcDbEntity
  8
21
  6
Continuous
 62
     7
370
     9
100
AcDbLine
 10
177.5918518518517
 20
190.6297811964925
 30
0.0
 11
177.2918518518517
 21
190.4687394785587
 31
0.0
  0
LINE
  5
368
330
1F
100
AcDbEntity
  8
21
  6
Continuous
 62
     7
370
     9
100
AcDbLine
 10
177.5918518518517
 20
190.6297811964925
 30
0.0
 11
177.5918518518517
 21
190.1671339993727
 31
0.0
  0
LINE
  5
369
330
1F
100
AcDbEntity
  8
21
  6
Continuous
 62
     7
370
     9
100
AcDbLine
 10
177.5918518518517
 20
189.5256965312466
 30
0.0
 11
177.5918518518517
 21
188.9355367286799
 31
0.0
  0
LINE
  5
36A
330
1F
100
AcDbEntity
  8
21
  6
Continuous
 62
     7
370
     9
100
AcDbLine
 10
177.5918518518517
 20
191.9301042726655
 30
0.0
 11
177.2918518518517
 21
191.6707268401653
 31
0.0
  0
LINE
  5
36B
330
1F
100
AcDbEntity
  8
21
  6
Continuous
 62
     7
370
     9
100
AcDbLine
 10
177.5918518518517
 20
191.7468398327702
 30
0.0
 11
177.2918518518517
 21
191.393554198233
 31
0.0
  0
LINE
  5
36C
330
1F
100
AcDbEntity
  8
21
  6
Continuous
 62
     7
370
     9
100
AcDbLine
 10
177.5918518518517
 20
192.0642012183166
 30
0.0
 11
177.2918518518517
 21
191.8011300497348
 31
0.0
  0
LINE
  5
36D
330
1F
100
AcDbEntity
  8
21
  6
Continuous
 62
     7
370
     9
100
AcDbLine
 10
177.5918518518517
 20
192.1011300497348
 30
0.0
 11
177.5918518518517
 21
192.0642012183166
 31
0.0
  0
LINE
  5
36E
330
1F
100
AcDbEntity
  8
21
  6
Continuous
 62
     7
370
     9
100
AcDbLine
 10
177.5918518518517
 20
191.9301042726655
 30
0.0
 11
177.5918518518517
 21
191.7468398327702
 31
0.0
  0
LINE
  5
36F
330
1F
100
AcDbEntity
  8
21
  6
Continuous
 62
     7
370
     9
100
AcDbLine
 10
177.2918518518517
 20
190.7309640939498
 30
0.0
 11
177.5918518518517
 21
191.1103546061406
 31
0.0
  0
LINE
  5
370
330
1F
100
AcDbEntity
  8
21
  6
Continuous
 62
     7
370
     9
100
AcDbLine
 10
177.2918518518517
 20
191.2242088713132
 30
0.0
 11
177.5918518518517
 21
191.4364842963748
 31
0.0
  0
LINE
  5
371
330
1F
100
AcDbEntity
  8
21
  6
Continuous
 62
     7
370
     9
100
AcDbLine
 10
177.5918518518517
 20
191.4364842963748
 30
0.0
 11
177.5918518518517
 21
191.1103546061406
 31
0.0
  0
LINE
  5
372
330
1F
100
AcDbEntity
  8
21
  6
Continuous
 62
     7
370
     9
100
AcDbLine
 10
177.5918518518517
 20
192.1011300497348
 30
0.0
 11
177.2918518518517
 21
191.8011300497348
 31
0.0
  0
LINE
  5
373
330
1F
100
AcDbEntity
  8
21
  6
Continuous
 62
     7
370
     9
100
AcDbLine
 10
177.2918518518518
 20
190.8511300497348
 30
0.0
 11
177.0918518518517
 21
190.8511300497348
 31
0.0
  0
LINE
  5
374
330
1F
100
AcDbEntity
  8
21
  6
Continuous
 62
     7
370
     9
100
AcDbLine
 10
176.4918518518517
 20
191.9511300497348
 30
0.0
 11
176.7918518518518
 21
191.9511300497348
 31
0.0
  0
LINE
  5
375
330
1F
100
AcDbEntity
  8
21
  6
Continuous
 62
     7
370
     9
100
AcDbLine
 10
176.7918518518518
 20
191.9511300497348
 30
0.0
 11
177.0918518518517
 21
191.6511300497348
 31
0.0
  0
LINE
  5
376
330
1F
100
AcDbEntity
  8
21
  6
Continuous
 62
     7
370
     9
100
AcDbLine
 10
177.5918518518517
 20
192.1011300497348
 30
0.0
 11
177.2918518518518
 21
191.8011300497348
 31
0.0
  0
LINE
  5
377
330
1F
100
AcDbEntity
  8
21
  6
Continuous
 62
     7
370
     9
100
AcDbLine
 10
177.2918518518517
 20
186.5167114335118
 30
0.0
 11
186.5918518518517
 21
186.5167114335118
 31
0.0
  0
LINE
  5
378
330
1F
100
AcDbEntity
  8
21
  6
Continuous
 62
     7
370
     9
100
AcDbLine
 10
186.5918518518517
 20
187.0274423871828
 30
0.0
 11
177.2918518518518
 21
187.0274423871828
 31
0.0
  0
LINE
  5
379
330
1F
100
AcDbEntity
  8
21
  6
Continuous
 62
     7
370
     9
100
AcDbLine
 10
186.2918518518518
 20
187.4395344340149
 30
0.0
 11
177.5918518518517
 21
187.4395344340149
 31
0.0
  0
LINE
  5
37A
330
1F
100
AcDbEntity
  8
21
  6
Continuous
 62
     7
370
     9
100
AcDbLine
 10
186.2918518518518
 20
188.1457200527686
 30
0.0
 11
177.5918518518517
 21
188.1457200527686
 31
0.0
  0
LINE
  5
37B
330
1F
100
AcDbEntity
  8
21
  6
Continuous
 62
     7
370
     9
100
AcDbLine
 10
186.5918518518517
 20
188.5264540482009
 30
0.0
 11
177.2918518518518
 21
188.5264540482009
 31
0.0
  0
LINE
  5
37C
330
1F
100
AcDbEntity
  8
21
  6
Continuous
 62
     7
370
     9
100
AcDbLine
 10
186.2918518518518
 20
188.9355367286799
 30
0.0
 11
177.5918518518517
 21
188.9355367286799
 31
0.0
  0
LINE
  5
37D
330
1F
100
AcDbEntity
  8
21
  6
Continuous
 62
     7
370
     9
100
AcDbLine
 10
186.5918518518517
 20
189.7690230142979
 30
0.0
 11
177.2918518518518
 21
189.7690230142979
 31
0.0
  0
LINE
  5
37E
330
1F
100
AcDbEntity
  8
21
  6
Continuous
 62
     7
370
     9
100
AcDbLine
 10
186.5918518518517
 20
190.7309640939498
 30
0.0
 11
177.2918518518518
 21
190.7309640939498
 31
0.0
  0
LINE
  5
37F
330
1F
100
AcDbEntity
  8
21
  6
Continuous
 62
     7
370
     9
100
AcDbLine
 10
186.2918518518518
 20
191.4364842963748
 30
0.0
 11
177.5918518518517
 21
191.4364842963748
 31
0.0
  0
LINE
  5
380
330
1F
100
AcDbEntity
  8
21
  6
Continuous
 62
     7
370
     9
100
AcDbLine
 10
186.2918518518518
 20
191.7468398327702
 30
0.0
 11
177.5918518518517
 21
191.7468398327702
 31
0.0
  0
LINE
  5
381
330
1F
100
AcDbEntity
  8
21
  6
Continuous
 62
     7
370
     9
100
AcDbLine
 10
186.2918518518518
 20
191.1103546061406
 30
0.0
 11
177.5918518518517
 21
191.1103546061406
 31
0.0
  0
LINE
  5
382
330
1F
100
AcDbEntity
  8
21
  6
Continuous
 62
     7
370
     9
100
AcDbLine
 10
186.2918518518518
 20
190.6297811964925
 30
0.0
 11
177.5918518518517
 21
190.6297811964925
 31
0.0
  0
LINE
  5
383
330
1F
100
AcDbEntity
  8
21
  6
Continuous
 62
     7
370
     9
100
AcDbLine
 10
186.2918518518518
 20
190.1671339993727
 30
0.0
 11
177.5918518518517
 21
190.1671339993727
 31
0.0
  0
LINE
  5
384
330
1F
100
AcDbEntity
  8
21
  6
Continuous
 62
     7
370
     9
100
AcDbLine
 10
177.5918518518517
 20
189.5256965312466
 30
0.0
 11
186.2918518518518
 21
189.5256965312466
 31
0.0
  0
LINE
  5
385
330
1F
100
AcDbEntity
  8
21
  6
Continuous
 62
     7
370
     9
100
AcDbLine
 10
186.2918518518518
 20
191.9301042726655
 30
0.0
 11
177.5918518518517
 21
191.9301042726655
 31
0.0
  0
LINE
  5
386
330
1F
100
AcDbEntity
  8
21
  6
Continuous
 62
     7
370
     9
100
AcDbLine
 10
186.2918518518518
 20
192.0642012183166
 30
0.0
 11
177.5918518518517
 21
192.0642012183166
 31
0.0
  0
LINE
  5
387
330
1F
100
AcDbEntity
  8
21
  6
Continuous
 62
     7
370
     9
100
AcDbLine
 10
186.2918518518518
 20
192.1011300497348
 30
0.0
 11
177.5918518518517
 21
192.1011300497348
 31
0.0
  0
LINE
  5
388
330
1F
100
AcDbEntity
  8
21
  6
Continuous
 62
     7
370
     9
100
AcDbLine
 10
177.5918518518517
 20
192.1011300497348
 30
0.0
 11
186.2918518518518
 21
192.1011300497348
 31
0.0
  0
LINE
  5
389
330
1F
100
AcDbEntity
  8
21
  6
Continuous
 62
     7
370
     9
100
AcDbLine
 10
186.2918518518518
 20
178.2036758730783
 30
0.0
 11
186.5918518518518
 21
178.428151476524
 31
0.0
  0
LINE
  5
38A
330
1F
100
AcDbEntity
  8
21
  6
Continuous
 62
     7
370
     9
100
AcDbLine
 10
186.2918518518518
 20
178.2036758730783
 30
0.0
 11
186.2918518518518
 21
175.9756298495747
 31
0.0
  0
LINE
  5
38B
330
1F
100
AcDbEntity
  8
21
  6
Continuous
 62
     7
370
     9
100
AcDbLine
 10
186.2918518518518
 20
182.6426549624366
 30
0.0
 11
186.2918518518518
 21
181.6785193241411
 31
0.0
  0
LINE
  5
38C
330
1F
100
AcDbEntity
  8
21
  6
Continuous
 62
     7
370
     9
100
AcDbLine
 10
186.2918518518518
 20
180.4730112131537
 30
0.0
 11
186.2918518518518
 21
179.4585169140149
 31
0.0
  0
LINE
  5
38D
330
1F
100
AcDbEntity
  8
21
  6
Continuous
 62
     7
370
     9
100
AcDbLine
 10
186.5918518518518
 20
179.1128547970377
 30
0.0
 11
186.2918518518518
 21
179.4585169140149
 31
0.0
  0
LINE
  5
38E
330
1F
100
AcDbEntity
  8
21
  6
Continuous
 62
     7
370
     9
100
AcDbLine
 10
186.2918518518518
 20
180.4730112131537
 30
0.0
 11
186.5918518518518
 21
180.6471953667534
 31
0.0
  0
LINE
  5
38F
330
1F
100
AcDbEntity
  8
21
  6
Continuous
 62
     7
370
     9
100
AcDbLine
 10
186.5918518518518
 20
181.3049802013035
 30
0.0
 11
186.2918518518518
 21
181.6785193241411
 31
0.0
  0
LINE
  5
390
330
1F
100
AcDbEntity
  8
21
  6
Continuous
 62
     7
370
     9
100
AcDbLine
 10
186.2918518518518
 20
184.6703774732805
 30
0.0
 11
186.2918518518518
 21
183.7753662993395
 31
0.0
  0
LINE
  5
391
330
1F
100
AcDbEntity
  8
21
  6
Continuous
 62
     7
370
     9
100
AcDbLine
 10
186.2918518518518
 20
183.7753662993395
 30
0.0
 11
186.5918518518518
 21
183.3812206847732
 31
0.0
  0
LINE
  5
392
330
1F
100
AcDbEntity
  8
21
  6
Continuous
 62
     7
370
     9
100
AcDbLine
 10
186.2918518518518
 20
182.6426549624366
 30
0.0
 11
186.5918518518518
 21
182.763157369772
 31
0.0
  0
LINE
  5
393
330
1F
100
AcDbEntity
  8
21
  6
Continuous
 62
     7
370
     9
100
AcDbLine
 10
186.2918518518518
 20
185.7082450983661
 30
0.0
 11
186.5918518518517
 21
185.3011645881246
 31
0.0
  0
LINE
  5
394
330
1F
100
AcDbEntity
  8
21
  6
Continuous
 62
     7
370
     9
100
AcDbLine
 10
186.2918518518518
 20
184.6703774732805
 30
0.0
 11
186.5918518518517
 21
184.7348526920621
 31
0.0
  0
LINE
  5
395
330
1F
100
AcDbEntity
  8
21
  6
Continuous
 62
     7
370
     9
100
AcDbLine
 10
177.5918518518518
 20
178.2036758730783
 30
0.0
 11
177.2918518518518
 21
178.428151476524
 31
0.0
  0
LINE
  5
396
330
1F
100
AcDbEntity
  8
21
  6
Continuous
 62
     7
370
     9
100
AcDbLine
 10
177.5918518518518
 20
178.2036758730783
 30
0.0
 11
177.5918518518518
 21
175.3511300497348
 31
0.0
  0
LINE
  5
397
330
1F
100
AcDbEntity
  8
21
  6
Continuous
 62
     7
370
     9
100
AcDbLine
 10
177.5918518518518
 20
182.6426549624366
 30
0.0
 11
177.5918518518518
 21
181.6785193241411
 31
0.0
  0
LINE
  5
398
330
1F
100
AcDbEntity
  8
21
  6
Continuous
 62
     7
370
     9
100
AcDbLine
 10
177.5918518518518
 20
180.4730112131537
 30
0.0
 11
177.5918518518518
 21
179.4585169140149
 31
0.0
  0
LINE
  5
399
330
1F
100
AcDbEntity
  8
21
  6
Continuous
 62
     7
370
     9
100
AcDbLine
 10
177.2918518518518
 20
179.1128547970377
 30
0.0
 11
177.5918518518518
 21
179.4585169140149
 31
0.0
  0
LINE
  5
39A
330
1F
100
AcDbEntity
  8
21
  6
Continuous
 62
     7
370
     9
100
AcDbLine
 10
177.5918518518518
 20
180.4730112131537
 30
0.0
 11
177.2918518518518
 21
180.6471953667534
 31
0.0
  0
LINE
  5
39B
330
1F
100
AcDbEntity
  8
21
  6
Continuous
 62
     7
370
     9
100
AcDbLine
 10
177.2918518518518
 20
181.3049802013035
 30
0.0
 11
177.5918518518518
 21
181.6785193241411
 31
0.0
  0
LINE
  5
39C
330
1F
100
AcDbEntity
  8
21
  6
Continuous
 62
     7
370
     9
100
AcDbLine
 10
177.5918518518517
 20
184.6703774732805
 30
0.0
 11
177.5918518518518
 21
183.7753662993395
 31
0.0
  0
LINE
  5
39D
330
1F
100
AcDbEntity
  8
21
  6
Continuous
 62
     7
370
     9
100
AcDbLine
 10
177.5918518518518
 20
183.7753662993395
 30
0.0
 11
177.2918518518518
 21
183.3812206847732
 31
0.0
  0
LINE
  5
39E
330
1F
100
AcDbEntity
  8
21
  6
Continuous
 62
     7
370
     9
100
AcDbLine
 10
177.5918518518518
 20
182.6426549624366
 30
0.0
 11
177.2918518518518
 21
182.763157369772
 31
0.0
  0
LINE
  5
39F
330
1F
100
AcDbEntity
  8
21
  6
Continuous
 62
     7
370
     9
100
AcDbLine
 10
177.5918518518517
 20
185.7082450983661
 30
0.0
 11
177.2918518518517
 21
185.3011645881246
 31
0.0
  0
LINE
  5
3A0
330
1F
100
AcDbEntity
  8
21
  6
Continuous
 62
     7
370
     9
100
AcDbLine
 10
177.5918518518517
 20
184.6703774732805
 30
0.0
 11
177.2918518518517
 21
184.7348526920621
 31
0.0
  0
LINE
  5
3A1
330
1F
100
AcDbEntity
  8
21
  6
Continuous
 62
     7
370
     9
100
AcDbLine
 10
177.5918518518518
 20
178.2036758730783
 30
0.0
 11
186.2918518518518
 21
178.2036758730783
 31
0.0
  0
LINE
  5
3A2
330
1F
100
AcDbEntity
  8
21
  6
Continuous
 62
     7
370
     9
100
AcDbLine
 10
186.5918518518518
 20
178.428151476524
 30
0.0
 11
177.2918518518518
 21
178.428151476524
 31
0.0
  0
LINE
  5
3A3
330
1F
100
AcDbEntity
  8
21
  6
Continuous
 62
     7
370
     9
100
AcDbLine
 10
186.2918518518518
 20
180.4730112131537
 30
0.0
 11
177.5918518518518
 21
180.4730112131537
 31
0.0
  0
LINE
  5
3A4
330
1F
100
AcDbEntity
  8
21
  6
Continuous
 62
     7
370
     9
100
AcDbLine
 10
177.2918518518518
 20
180.6471953667534
 30
0.0
 11
186.5918518518518
 21
180.6471953667534
 31
0.0
  0
LINE
  5
3A5
330
1F
100
AcDbEntity
  8
21
  6
Continuous
 62
     7
370
     9
100
AcDbLine
 10
186.5918518518518
 20
179.1128547970377
 30
0.0
 11
177.2918518518518
 21
179.1128547970377
 31
0.0
  0
LINE
  5
3A6
330
1F
100
AcDbEntity
  8
21
  6
Continuous
 62
     7
370
     9
100
AcDbLine
 10
177.5918518518518
 20
179.4585169140149
 30
0.0
 11
186.2918518518518
 21
179.4585169140149
 31
0.0
  0
LINE
  5
3A7
330
1F
100
AcDbEntity
  8
21
  6
Continuous
 62
     7
370
     9
100
AcDbLine
 10
177.5918518518517
 20
185.7082450983661
 30
0.0
 11
186.2918518518518
 21
185.7082450983661
 31
0.0
  0
LINE
  5
3A8
330
1F
100
AcDbEntity
  8
21
  6
Continuous
 62
     7
370
     9
100
AcDbLine
 10
186.5918518518517
 20
185.3011645881246
 30
0.0
 11
177.2918518518518
 21
185.3011645881246
 31
0.0
  0
LINE
  5
3A9
330
1F
100
AcDbEntity
  8
21
  6
Continuous
 62
     7
370
     9
100
AcDbLine
 10
186.5918518518517
 20
184.7348526920621
 30
0.0
 11
177.2918518518518
 21
184.7348526920621
 31
0.0
  0
LINE
  5
3AA
330
1F
100
AcDbEntity
  8
21
  6
Continuous
 62
     7
370
     9
100
AcDbLine
 10
177.5918518518517
 20
184.6703774732805
 30
0.0
 11
186.2918518518518
 21
184.6703774732805
 31
0.0
  0
LINE
  5
3AB
330
1F
100
AcDbEntity
  8
21
  6
Continuous
 62
     7
370
     9
100
AcDbLine
 10
186.2918518518518
 20
183.7753662993395
 30
0.0
 11
177.5918518518518
 21
183.7753662993395
 31
0.0
  0
LINE
  5
3AC
330
1F
100
AcDbEntity
  8
21
  6
Continuous
 62
     7
370
     9
100
AcDbLine
 10
177.2918518518518
 20
183.3812206847732
 30
0.0
 11
186.5918518518518
 21
183.3812206847732
 31
0.0
  0
LINE
  5
3AD
330
1F
100
AcDbEntity
  8
21
  6
Continuous
 62
     7
370
     9
100
AcDbLine
 10
186.5918518518518
 20
182.763157369772
 30
0.0
 11
177.2918518518518
 21
182.763157369772
 31
0.0
  0
LINE
  5
3AE
330
1F
100
AcDbEntity
  8
21
  6
Continuous
 62
     7
370
     9
100
AcDbLine
 10
177.5918518518518
 20
182.6426549624366
 30
0.0
 11
186.2918518518518
 21
182.6426549624366
 31
0.0
  0
LINE
  5
3AF
330
1F
100
AcDbEntity
  8
21
  6
Continuous
 62
     7
370
     9
100
AcDbLine
 10
186.2918518518518
 20
181.6785193241411
 30
0.0
 11
177.5918518518518
 21
181.6785193241411
 31
0.0
  0
LINE
  5
3B0
330
1F
100
AcDbEntity
  8
21
  6
Continuous
 62
     7
370
     9
100
AcDbLine
 10
177.2918518518518
 20
181.3049802013035
 30
0.0
 11
186.5918518518518
 21
181.3049802013035
 31
0.0
  0
LINE
  5
3B1
330
1F
100
AcDbEntity
  8
21
  6
Continuous
 62
     7
370
     9
100
AcDbLine
 10
186.5918518518517
 20
191.8011300497348
 30
0.0
 11
186.5918518518518
 21
175.3511300497348
 31
0.0
  0
LINE
  5
3B2
330
1F
100
AcDbEntity
  8
21
  6
Continuous
 62
     7
370
     9
100
AcDbLine
 10
177.2918518518517
 20
191.8011300497348
 30
0.0
 11
177.2918518518518
 21
175.3511300497348
 31
0.0
  0
LINE
  5
3B3
330
1F
100
AcDbEntity
  8
21
  6
Continuous
 62
     7
370
     9
100
AcDbLine
 10
176.4918518518517
 20
175.3511300497348
 30
0.0
 11
176.4918518518517
 21
191.9511300497348
 31
0.0
  0
LINE
  5
3B4
330
1F
100
AcDbEntity
  8
21
  6
Continuous
 62
     7
370
     9
100
AcDbLine
 10
177.0918518518517
 20
175.3511300497348
 30
0.0
 11
177.0918518518517
 21
191.6511300497348
 31
0.0
  0
LINE
  5
3B5
330
1F
100
AcDbEntity
  8
21
  6
Continuous
 62
     7
370
     9
100
AcDbLine
 10
186.5918518518517
 20
175.3511300497348
 30
0.0
 11
186.5918518518517
 21
191.8011300497348
 31
0.0
  0
LINE
  5
3B6
330
1F
100
AcDbEntity
  8
21
  6
Continuous
 62
     7
370
     9
100
AcDbLine
 10
186.7918518518518
 20
175.3511300497348
 30
0.0
 11
186.7918518518518
 21
191.3511300497348
 31
0.0
  0
LINE
  5
3B7
330
1F
100
AcDbEntity
  8
21
  6
Continuous
 62
     7
370
     9
100
AcDbLine
 10
189.8918518518518
 20
175.3511300497348
 30
0.0
 11
189.8918518518518
 21
191.0511300497348
 31
0.0
  0
LINE
  5
3B8
330
1F
100
AcDbEntity
  8
21
  6
Continuous
 62
     7
370
     9
100
AcDbLine
 10
177.5918518518517
 20
186.5167114335118
 30
0.0
 11
177.5918518518517
 21
185.7082450983661
 31
0.0
  0
LINE
  5
3B9
330
1F
100
AcDbEntity
  8
21
  6
Continuous
 62
     7
370
     9
100
AcDbLine
 10
186.2918518518518
 20
186.5167114335118
 30
0.0
 11
186.2918518518518
 21
185.7082450983661
 31
0.0
  0
LINE
  5
3BA
330
1F
100
AcDbEntity
  8
21
  6
Continuous
 62
     7
370
     9
100
AcDbLine
 10
191.0918518518517
 20
188.0511300497348
 30
0.0
 11
191.0918518518517
 21
175.3511300497348
 31
0.0
  0
LINE
  5
3BB
330
1F
100
AcDbEntity
  8
21
  6
Continuous
 62
     7
370
     9
100
AcDbLine
 10
191.0918518518517
 20
187.5511300497348
 30
0.0
 11
193.8918518518518
 21
187.5511300497348
 31
0.0
  0
LINE
  5
3BC
330
1F
100
AcDbEntity
  8
21
  6
Continuous
 62
     7
370
     9
100
AcDbLine
 10
191.0918518518517
 20
188.0511300497348
 30
0.0
 11
193.3918518518518
 21
188.0511300497348
 31
0.0
  0
ARC
  5
3BD
330
1F
100
AcDbEntity
  8
21
  6
Continuous
 62
     7
370
     9
100
AcDbCircle
 10
168.9418518518519
 20
191.6561297435833
 30
0.0
 40
0.1500000000000057
100
AcDbArc
 50
270.0000000000105
 51
0.0
  0
LINE
  5
3BE
330
1F
100
AcDbEntity
  8
21
  6
Continuous
 62
     7
370
     9
100
AcDbLine
 10
167.5918518518519
 20
191.6561297435833
 30
0.0
 11
167.5918518518519
 21
191.9511300497348
 31
0.0
  0
ARC
  5
3BF
330
1F
100
AcDbEntity
  8
21
  6
Continuous
 62
     7
370
     9
100
AcDbCircle
 10
167.7418518518519
 20
191.6561297435833
 30
0.0
 40
0.1500000000000057
100
AcDbArc
 50
179.9999999999998
 51
270.0000000000105
  0
LINE
  5
3C0
330
1F
100
AcDbEntity
  8
21
  6
Continuous
 62
     7
370
     9
100
AcDbLine
 10
168.9418518518519
 20
191.5061297435832
 30
0.0
 11
167.7418518518519
 21
191.5061297435832
 31
0.0
  0
LINE
  5
3C1
330
1F
100
AcDbEntity
  8
21
  6
Continuous
 62
     7
370
     9
100
AcDbLine
 10
169.0918518518519
 20
191.9511300497348
 30
0.0
 11
169.0918518518519
 21
191.6561297435833
 31
0.0
  0
LINE
  5
3C2
330
1F
100
AcDbEntity
  8
21
  6
Continuous
 62
     7
370
     9
100
AcDbLine
 10
164.9918518518518
 20
186.601207104968
 30
0.0
 11
165.2918518518518
 21
186.1906178841639
 31
0.0
  0
LINE
  5
3C3
330
1F
100
AcDbEntity
  8
21
  6
Continuous
 62
     7
370
     9
100
AcDbLine
 10
164.9918518518518
 20
191.0714265987276
 30
0.0
 11
164.9918518518518
 21
188.2188051697033
 31
0.0
  0
LINE
  5
3C4
330
1F
100
AcDbEntity
  8
21
  6
Continuous
 62
     7
370
     9
100
AcDbLine
 10
164.9918518518518
 20
187.3604698914071
 30
0.0
 11
165.2918518518518
 21
187.3388993747819
 31
0.0
  0
LINE
  5
3C5
330
1F
100
AcDbEntity
  8
21
  6
Continuous
 62
     7
370
     9
100
AcDbLine
 10
164.9918518518518
 20
187.3604698914071
 30
0.0
 11
165.2918518518518
 21
187.3388993747819
 31
0.0
  0
LINE
  5
3C6
330
1F
100
AcDbEntity
  8
21
  6
Continuous
 62
     7
370
     9
100
AcDbLine
 10
164.9918518518518
 20
187.3604698914071
 30
0.0
 11
164.9918518518518
 21
186.601207104968
 31
0.0
  0
LINE
  5
3C7
330
1F
100
AcDbEntity
  8
21
  6
Continuous
 62
     7
370
     9
100
AcDbLine
 10
165.2918518518518
 20
187.8072124124518
 30
0.0
 11
164.9918518518518
 21
188.2188051697033
 31
0.0
  0
LINE
  5
3C8
330
1F
100
AcDbEntity
  8
21
  6
Continuous
 62
     7
370
     9
100
AcDbLine
 10
166.0918518518517
 20
191.9511300497348
 30
0.0
 11
165.7918518518518
 21
191.6511300497348
 31
0.0
  0
LINE
  5
3C9
330
1F
100
AcDbEntity
  8
21
  6
Continuous
 62
     7
370
     9
100
AcDbLine
 10
164.9918518518518
 20
191.7231757650264
 30
0.0
 11
164.9918518518518
 21
191.4678245884273
 31
0.0
  0
LINE
  5
3CA
330
1F
100
AcDbEntity
  8
21
  6
Continuous
 62
     7
370
     9
100
AcDbLine
 10
165.2918518518518
 20
191.6083088759315
 30
0.0
 11
164.9918518518518
 21
191.9459286205748
 31
0.0
  0
LINE
  5
3CB
330
1F
100
AcDbEntity
  8
21
  6
Continuous
 62
     7
370
     9
100
AcDbLine
 10
164.9918518518518
 20
191.7231757650264
 30
0.0
 11
165.2918518518518
 21
191.4867734721416
 31
0.0
  0
LINE
  5
3CC
330
1F
100
AcDbEntity
  8
21
  6
Continuous
 62
     7
370
     9
100
AcDbLine
 10
165.2918518518518
 20
191.1005894734456
 30
0.0
 11
164.9918518518518
 21
191.4678245884273
 31
0.0
  0
LINE
  5
3CD
330
1F
100
AcDbEntity
  8
21
  6
Continuous
 62
     7
370
     9
100
AcDbLine
 10
164.9918518518518
 20
191.0714265987276
 30
0.0
 11
165.2918518518518
 21
190.8843122260223
 31
0.0
  0
LINE
  5
3CE
330
1F
100
AcDbEntity
  8
21
  6
Continuous
 62
     7
370
     9
100
AcDbLine
 10
165.2918518518518
 20
191.7751727730661
 30
0.0
 11
164.9918518518518
 21
192.0562616844031
 31
0.0
  0
LINE
  5
3CF
330
1F
100
AcDbEntity
  8
21
  6
Continuous
 62
     7
370
     9
100
AcDbLine
 10
164.9918518518518
 20
192.0562616844031
 30
0.0
 11
164.9918518518518
 21
191.9459286205748
 31
0.0
  0
LINE
  5
3D0
330
1F
100
AcDbEntity
  8
21
  6
Continuous
 62
     7
370
     9
100
AcDbLine
 10
165.2918518518518
 20
191.1511300497348
 30
0.0
 11
165.7918518518518
 21
191.1511300497348
 31
0.0
  0
LINE
  5
3D1
330
1F
100
AcDbEntity
  8
21
  6
Continuous
 62
     7
370
     9
100
AcDbLine
 10
164.9918518518518
 20
192.1011300497348
 30
0.0
 11
165.2918518518518
 21
191.8011300497348
 31
0.0
  0
LINE
  5
3D2
330
1F
100
AcDbEntity
  8
21
  6
Continuous
 62
     7
370
     9
100
AcDbLine
 10
165.2918518518518
 20
191.6083088759315
 30
0.0
 11
165.1376206018413
 21
191.6083088759315
 31
0.0
  0
LINE
  5
3D3
330
1F
100
AcDbEntity
  8
21
  6
Continuous
 62
     7
370
     9
100
AcDbLine
 10
158.1918518518518
 20
186.601207104968
 30
0.0
 11
157.8918518518518
 21
186.1906178841639
 31
0.0
  0
LINE
  5
3D4
330
1F
100
AcDbEntity
  8
21
  6
Continuous
 62
     7
370
     9
100
AcDbLine
 10
158.1918518518518
 20
191.0714265987276
 30
0.0
 11
158.1918518518518
 21
188.2188051697033
 31
0.0
  0
LINE
  5
3D5
330
1F
100
AcDbEntity
  8
21
  6
Continuous
 62
     7
370
     9
100
AcDbLine
 10
158.1918518518518
 20
187.3604698914071
 30
0.0
 11
158.1918518518518
 21
186.601207104968
 31
0.0
  0
LINE
  5
3D6
330
1F
100
AcDbEntity
  8
21
  6
Continuous
 62
     7
370
     9
100
AcDbLine
 10
158.1918518518518
 20
187.3604698914071
 30
0.0
 11
157.8918518518518
 21
187.3388993747819
 31
0.0
  0
LINE
  5
3D7
330
1F
100
AcDbEntity
  8
21
  6
Continuous
 62
     7
370
     9
100
AcDbLine
 10
157.8918518518518
 20
187.8072124124519
 30
0.0
 11
158.1918518518518
 21
188.2188051697033
 31
0.0
  0
LINE
  5
3D8
330
1F
100
AcDbEntity
  8
21
  6
Continuous
 62
     7
370
     9
100
AcDbLine
 10
157.8918518518518
 20
191.6083088759315
 30
0.0
 11
158.1918518518518
 21
191.9459286205748
 31
0.0
  0
LINE
  5
3D9
330
1F
100
AcDbEntity
  8
21
  6
Continuous
 62
     7
370
     9
100
AcDbLine
 10
157.8918518518518
 20
191.7751727730661
 30
0.0
 11
158.1918518518518
 21
192.0562616844031
 31
0.0
  0
LINE
  5
3DA
330
1F
100
AcDbEntity
  8
21
  6
Continuous
 62
     7
370
     9
100
AcDbLine
 10
158.1918518518518
 20
192.0562616844031
 30
0.0
 11
158.1918518518518
 21
191.9459286205748
 31
0.0
  0
LINE
  5
3DB
330
1F
100
AcDbEntity
  8
21
  6
Continuous
 62
     7
370
     9
100
AcDbLine
 10
158.1918518518518
 20
191.7231757650265
 30
0.0
 11
158.1918518518518
 21
191.4678245884273
 31
0.0
  0
LINE
  5
3DC
330
1F
100
AcDbEntity
  8
21
  6
Continuous
 62
     7
370
     9
100
AcDbLine
 10
157.8918518518518
 20
191.6083088759315
 30
0.0
 11
158.0460831018622
 21
191.6083088759315
 31
0.0
  0
LINE
  5
3DD
330
1F
100
AcDbEntity
  8
21
  6
Continuous
 62
     7
370
     9
100
AcDbLine
 10
158.1918518518518
 20
191.7231757650265
 30
0.0
 11
157.8918518518518
 21
191.4867734721416
 31
0.0
  0
LINE
  5
3DE
330
1F
100
AcDbEntity
  8
21
  6
Continuous
 62
     7
370
     9
100
AcDbLine
 10
157.8918518518518
 20
191.1005894734456
 30
0.0
 11
158.1918518518518
 21
191.4678245884273
 31
0.0
  0
LINE
  5
3DF
330
1F
100
AcDbEntity
  8
21
  6
Continuous
 62
     7
370
     9
100
AcDbLine
 10
158.1918518518518
 20
191.0714265987276
 30
0.0
 11
157.8918518518518
 21
190.8843122260223
 31
0.0
  0
LINE
  5
3E0
330
1F
100
AcDbEntity
  8
21
  6
Continuous
 62
     7
370
     9
100
AcDbLine
 10
158.1918518518518
 20
192.1011300497348
 30
0.0
 11
157.8918518518518
 21
191.8011300497348
 31
0.0
  0
LINE
  5
3E1
330
1F
100
AcDbEntity
  8
21
  6
Continuous
 62
     7
370
     9
100
AcDbLine
 10
165.2918518518518
 20
186.1906178841639
 30
0.0
 11
157.8918518518518
 21
186.1906178841639
 31
0.0
  0
LINE
  5
3E2
330
1F
100
AcDbEntity
  8
21
  6
Continuous
 62
     7
370
     9
100
AcDbLine
 10
158.1918518518518
 20
186.601207104968
 30
0.0
 11
164.9918518518518
 21
186.601207104968
 31
0.0
  0
LINE
  5
3E3
330
1F
100
AcDbEntity
  8
21
  6
Continuous
 62
     7
370
     9
100
AcDbLine
 10
158.1918518518518
 20
187.3604698914071
 30
0.0
 11
164.9918518518518
 21
187.3604698914071
 31
0.0
  0
LINE
  5
3E4
330
1F
100
AcDbEntity
  8
21
  6
Continuous
 62
     7
370
     9
100
AcDbLine
 10
157.8918518518518
 20
187.8072124124519
 30
0.0
 11
165.2918518518518
 21
187.8072124124518
 31
0.0
  0
LINE
  5
3E5
330
1F
100
AcDbEntity
  8
21
  6
Continuous
 62
     7
370
     9
100
AcDbLine
 10
158.1918518518518
 20
188.2188051697033
 30
0.0
 11
164.9918518518518
 21
188.2188051697033
 31
0.0
  0
LINE
  5
3E6
330
1F
100
AcDbEntity
  8
21
  6
Continuous
 62
     7
370
     9
100
AcDbLine
 10
158.1918518518518
 20
191.0714265987276
 30
0.0
 11
164.9918518518518
 21
191.0714265987276
 31
0.0
  0
LINE
  5
3E7
330
1F
100
AcDbEntity
  8
21
  6
Continuous
 62
     7
370
     9
100
AcDbLine
 10
157.8918518518518
 20
191.1005894734456
 30
0.0
 11
165.2918518518518
 21
191.1005894734456
 31
0.0
  0
LINE
  5
3E8
330
1F
100
AcDbEntity
  8
21
  6
Continuous
 62
     7
370
     9
100
AcDbLine
 10
158.1918518518518
 20
191.4678245884273
 30
0.0
 11
164.9918518518518
 21
191.4678245884273
 31
0.0
  0
LINE
  5
3E9
330
1F
100
AcDbEntity
  8
21
  6
Continuous
 62
     7
370
     9
100
AcDbLine
 10
158.1918518518518
 20
191.7231757650265
 30
0.0
 11
164.9918518518518
 21
191.7231757650264
 31
0.0
  0
LINE
  5
3EA
330
1F
100
AcDbEntity
  8
21
  6
Continuous
 62
     7
370
     9
100
AcDbLine
 10
158.1918518518518
 20
191.9459286205748
 30
0.0
 11
164.9918518518518
 21
191.9459286205748
 31
0.0
  0
LINE
  5
3EB
330
1F
100
AcDbEntity
  8
21
  6
Continuous
 62
     7
370
     9
100
AcDbLine
 10
158.1918518518518
 20
192.0562616844031
 30
0.0
 11
164.9918518518518
 21
192.0562616844031
 31
0.0
  0
LINE
  5
3EC
330
1F
100
AcDbEntity
  8
21
  6
Continuous
 62
     7
370
     9
100
AcDbLine
 10
158.1918518518518
 20
192.1011300497348
 30
0.0
 11
164.9918518518518
 21
192.1011300497348
 31
0.0
  0
LINE
  5
3ED
330
1F
100
AcDbEntity
  8
21
  6
Continuous
 62
     7
370
     9
100
AcDbLine
 10
166.5918518518519
 20
191.9511300497348
 30
0.0
 11
166.0918518518517
 21
191.9511300497348
 31
0.0
  0
LINE
  5
3EE
330
1F
100
AcDbEntity
  8
21
  6
Continuous
 62
     7
370
     9
100
AcDbLine
 10
167.5918518518519
 20
180.0561297435833
 30
0.0
 11
167.5918518518519
 21
180.5061297435833
 31
0.0
  0
LINE
  5
3EF
330
1F
100
AcDbEntity
  8
21
  6
Continuous
 62
     7
370
     9
100
AcDbLine
 10
169.0918518518519
 20
180.5061297435833
 30
0.0
 11
169.0918518518519
 21
180.0561297435833
 31
0.0
  0
ARC
  5
3F0
330
1F
100
AcDbEntity
  8
21
  6
Continuous
 62
     7
370
     9
100
AcDbCircle
 10
168.9418518518519
 20
180.0561297435833
 30
0.0
 40
0.1500000000000057
100
AcDbArc
 50
269.9999999999998
 51
0.0
  0
ARC
  5
3F1
330
1F
100
AcDbEntity
  8
21
  6
Continuous
 62
     7
370
     9
100
AcDbCircle
 10
167.7418518518519
 20
180.0561297435833
 30
0.0
 40
0.1500000000000057
100
AcDbArc
 50
179.9999999999998
 51
269.9999999999998
  0
LINE
  5
3F2
330
1F
100
AcDbEntity
  8
21
  6
Continuous
 62
     7
370
     9
100
AcDbLine
 10
168.9418518518519
 20
179.9061297435833
 30
0.0
 11
167.7418518518519
 21
179.9061297435833
 31
0.0
  0
ARC
  5
3F3
330
1F
100
AcDbEntity
  8
21
  6
Continuous
 62
     7
370
     9
100
AcDbCircle
 10
168.9418518518519
 20
180.5061297435832
 30
0.0
 40
0.1500000000000057
100
AcDbArc
 50
0.0000000000217126
 51
89.99999999999991
  0
LINE
  5
3F4
330
1F
100
AcDbEntity
  8
21
  6
Continuous
 62
     7
370
     9
100
AcDbLine
 10
168.9418518518519
 20
180.6561297435833
 30
0.0
 11
167.7418518518519
 21
180.6561297435833
 31
0.0
  0
ARC
  5
3F5
330
1F
100
AcDbEntity
  8
21
  6
Continuous
 62
     7
370
     9
100
AcDbCircle
 10
167.7418518518519
 20
180.5061297435832
 30
0.0
 40
0.1500000000000057
100
AcDbArc
 50
89.99999999999991
 51
179.9999999999783
  0
ARC
  5
3F6
330
1F
100
AcDbEntity
  8
21
  6
Continuous
 62
     7
370
     9
100
AcDbCircle
 10
168.9418518518519
 20
185.4461297435832
 30
0.0
 40
0.1500000000000057
100
AcDbArc
 50
0.0
 51
89.99999999998914
  0
ARC
  5
3F7
330
1F
100
AcDbEntity
  8
21
  6
Continuous
 62
     7
370
     9
100
AcDbCircle
 10
168.9418518518519
 20
184.9961297435833
 30
0.0
 40
0.1500000000000057
100
AcDbArc
 50
270.0000000000105
 51
0.0000000000217126
  0
LINE
  5
3F8
330
1F
100
AcDbEntity
  8
21
  6
Continuous
 62
     7
370
     9
100
AcDbLine
 10
168.9418518518519
 20
185.5961297435833
 30
0.0
 11
167.7418518518519
 21
185.5961297435833
 31
0.0
  0
ARC
  5
3F9
330
1F
100
AcDbEntity
  8
21
  6
Continuous
 62
     7
370
     9
100
AcDbCircle
 10
167.7418518518519
 20
185.4461297435832
 30
0.0
 40
0.1500000000000057
100
AcDbArc
 50
89.99999999998914
 51
179.9999999999998
  0
LINE
  5
3FA
330
1F
100
AcDbEntity
  8
21
  6
Continuous
 62
     7
370
     9
100
AcDbLine
 10
167.5918518518519
 20
184.9961297435833
 30
0.0
 11
167.5918518518519
 21
185.4461297435832
 31
0.0
  0
ARC
  5
3FB
330
1F
100
AcDbEntity
  8
21
  6
Continuous
 62
     7
370
     9
100
AcDbCircle
 10
167.7418518518519
 20
184.9961297435833
 30
0.0
 40
0.1500000000000057
100
AcDbArc
 50
179.9999999999783
 51
270.0000000000105
  0
LINE
  5
3FC
330
1F
100
AcDbEntity
  8
21
  6
Continuous
 62
     7
370
     9
100
AcDbLine
 10
168.9418518518519
 20
184.8461297435833
 30
0.0
 11
167.7418518518519
 21
184.8461297435833
 31
0.0
  0
LINE
  5
3FD
330
1F
100
AcDbEntity
  8
21
  6
Continuous
 62
     7
370
     9
100
AcDbLine
 10
169.0918518518519
 20
185.4461297435832
 30
0.0
 11
169.0918518518519
 21
184.9961297435833
 31
0.0
  0
LINE
  5
3FE
330
1F
100
AcDbEntity
  8
21
  6
Continuous
 62
     7
370
     9
100
AcDbLine
 10
173.1499269969618
 20
160.928083467735
 30
0.0
 11
173.1499269969618
 21
157.7237894737324
 31
0.0
  0
LINE
  5
3FF
330
1F
100
AcDbEntity
  8
21
  6
Continuous
 62
     7
370
     9
100
AcDbLine
 10
173.2894399444501
 20
160.8072617110531
 30
0.0
 11
173.2894399444501
 21
157.6029677170507
 31
0.0
  0
LINE
  5
400
330
1F
100
AcDbEntity
  8
21
  6
Continuous
 62
     7
370
     9
100
AcDbLine
 10
173.4918518518517
 20
160.368890564264
 30
0.0
 11
173.4918518518517
 21
157.1645965702616
 31
0.0
  0
LINE
  5
401
330
1F
100
AcDbEntity
  8
21
  6
Continuous
 62
     7
370
     9
100
AcDbLine
 10
173.3939648844421
 20
160.6779075586389
 30
0.0
 11
173.3939648844421
 21
157.4736135646365
 31
0.0
  0
LINE
  5
402
330
1F
100
AcDbEntity
  8
21
  6
Continuous
 62
     7
370
     9
100
AcDbLine
 10
173.4614673578762
 20
160.5425387419309
 30
0.0
 11
173.4614673578762
 21
157.3382447479287
 31
0.0
  0
LINE
  5
403
330
1F
100
AcDbEntity
  8
21
  6
Continuous
 62
     7
370
     9
100
AcDbLine
 10
169.4918518518517
 20
160.368890564264
 30
0.0
 11
169.4918518518517
 21
157.1645965702616
 31
0.0
  0
LINE
  5
404
330
1F
100
AcDbEntity
  8
21
  6
Continuous
 62
     7
370
     9
100
AcDbLine
 10
169.8337767067417
 20
160.928083467735
 30
0.0
 11
169.8337767067417
 21
157.7237894737324
 31
0.0
  0
LINE
  5
405
330
1F
100
AcDbEntity
  8
21
  6
Continuous
 62
     7
370
     9
100
AcDbLine
 10
169.6942637592534
 20
160.8072617110531
 30
0.0
 11
169.6942637592534
 21
157.6029677170507
 31
0.0
  0
LINE
  5
406
330
1F
100
AcDbEntity
  8
21
  6
Continuous
 62
     7
370
     9
100
AcDbLine
 10
169.5897388192614
 20
160.6779075586389
 30
0.0
 11
169.5897388192614
 21
157.4736135646365
 31
0.0
  0
LINE
  5
407
330
1F
100
AcDbEntity
  8
21
  6
Continuous
 62
     7
370
     9
100
AcDbLine
 10
169.5222363458273
 20
160.5425387419309
 30
0.0
 11
169.5222363458273
 21
157.3382447479287
 31
0.0
  0
LINE
  5
408
330
1F
100
AcDbEntity
  8
21
  6
Continuous
 62
     7
370
     9
100
AcDbLine
 10
164.9918518518518
 20
179.3480799120946
 30
0.0
 11
164.9918518518518
 21
178.3156483676495
 31
0.0
  0
LINE
  5
409
330
1F
100
AcDbEntity
  8
21
  6
Continuous
 62
     7
370
     9
100
AcDbLine
 10
164.9918518518518
 20
178.3156483676495
 30
0.0
 11
165.2918518518518
 21
177.9864846686206
 31
0.0
  0
LINE
  5
40A
330
1F
100
AcDbEntity
  8
21
  6
Continuous
 62
     7
370
     9
100
AcDbLine
 10
164.9918518518518
 20
182.7448478235781
 30
0.0
 11
165.2918518518518
 21
182.3600655509885
 31
0.0
  0
LINE
  5
40B
330
1F
100
AcDbEntity
  8
21
  6
Continuous
 62
     7
370
     9
100
AcDbLine
 10
165.2918518518518
 20
180.2206650900777
 30
0.0
 11
164.9918518518518
 21
180.5811462537922
 31
0.0
  0
LINE
  5
40C
330
1F
100
AcDbEntity
  8
21
  6
Continuous
 62
     7
370
     9
100
AcDbLine
 10
165.2918518518518
 20
179.5478965338652
 30
0.0
 11
164.9918518518518
 21
179.3480799120946
 31
0.0
  0
LINE
  5
40D
330
1F
100
AcDbEntity
  8
21
  6
Continuous
 62
     7
370
     9
100
AcDbLine
 10
164.9918518518518
 20
181.5729892240341
 30
0.0
 11
164.9918518518518
 21
180.5811462537922
 31
0.0
  0
LINE
  5
40E
330
1F
100
AcDbEntity
  8
21
  6
Continuous
 62
     7
370
     9
100
AcDbLine
 10
164.9918518518518
 20
181.5729892240341
 30
0.0
 11
165.2918518518518
 21
181.7206923017754
 31
0.0
  0
LINE
  5
40F
330
1F
100
AcDbEntity
  8
21
  6
Continuous
 62
     7
370
     9
100
AcDbLine
 10
165.2918518518518
 20
184.3630450549134
 30
0.0
 11
164.9918518518518
 21
184.7646390871256
 31
0.0
  0
LINE
  5
410
330
1F
100
AcDbEntity
  8
21
  6
Continuous
 62
     7
370
     9
100
AcDbLine
 10
164.9918518518518
 20
183.6767971244058
 30
0.0
 11
164.9918518518518
 21
182.7448478235781
 31
0.0
  0
LINE
  5
411
330
1F
100
AcDbEntity
  8
21
  6
Continuous
 62
     7
370
     9
100
AcDbLine
 10
165.2918518518518
 20
183.7695117857194
 30
0.0
 11
164.9918518518518
 21
183.6767971244058
 31
0.0
  0
LINE
  5
412
330
1F
100
AcDbEntity
  8
21
  6
Continuous
 62
     7
370
     9
100
AcDbLine
 10
164.9918518518518
 20
185.618555385475
 30
0.0
 11
165.2918518518518
 21
185.6544770449397
 31
0.0
  0
LINE
  5
413
330
1F
100
AcDbEntity
  8
21
  6
Continuous
 62
     7
370
     9
100
AcDbLine
 10
164.9918518518518
 20
185.618555385475
 30
0.0
 11
164.9918518518518
 21
184.7646390871256
 31
0.0
  0
LINE
  5
414
330
1F
100
AcDbEntity
  8
21
  6
Continuous
 62
     7
370
     9
100
AcDbLine
 10
158.1918518518517
 20
179.3480799120946
 30
0.0
 11
158.1918518518517
 21
178.3156483676495
 31
0.0
  0
LINE
  5
415
330
1F
100
AcDbEntity
  8
21
  6
Continuous
 62
     7
370
     9
100
AcDbLine
 10
158.1918518518517
 20
178.3156483676495
 30
0.0
 11
157.8918518518518
 21
177.9864846686206
 31
0.0
  0
LINE
  5
416
330
1F
100
AcDbEntity
  8
21
  6
Continuous
 62
     7
370
     9
100
AcDbLine
 10
158.1918518518518
 20
182.7448478235782
 30
0.0
 11
157.8918518518518
 21
182.3600655509885
 31
0.0
  0
LINE
  5
417
330
1F
100
AcDbEntity
  8
21
  6
Continuous
 62
     7
370
     9
100
AcDbLine
 10
157.8918518518518
 20
180.2206650900777
 30
0.0
 11
158.1918518518517
 21
180.5811462537922
 31
0.0
  0
LINE
  5
418
330
1F
100
AcDbEntity
  8
21
  6
Continuous
 62
     7
370
     9
100
AcDbLine
 10
157.8918518518518
 20
179.5478965338652
 30
0.0
 11
158.1918518518517
 21
179.3480799120946
 31
0.0
  0
LINE
  5
419
330
1F
100
AcDbEntity
  8
21
  6
Continuous
 62
     7
370
     9
100
AcDbLine
 10
158.1918518518517
 20
181.5729892240341
 30
0.0
 11
158.1918518518517
 21
180.5811462537922
 31
0.0
  0
LINE
  5
41A
330
1F
100
AcDbEntity
  8
21
  6
Continuous
 62
     7
370
     9
100
AcDbLine
 10
158.1918518518517
 20
181.5729892240342
 30
0.0
 11
157.8918518518518
 21
181.7206923017754
 31
0.0
  0
LINE
  5
41B
330
1F
100
AcDbEntity
  8
21
  6
Continuous
 62
     7
370
     9
100
AcDbLine
 10
157.8918518518518
 20
184.3630450549134
 30
0.0
 11
158.1918518518518
 21
184.7646390871256
 31
0.0
  0
LINE
  5
41C
330
1F
100
AcDbEntity
  8
21
  6
Continuous
 62
     7
370
     9
100
AcDbLine
 10
158.1918518518518
 20
183.6767971244058
 30
0.0
 11
158.1918518518518
 21
182.7448478235782
 31
0.0
  0
LINE
  5
41D
330
1F
100
AcDbEntity
  8
21
  6
Continuous
 62
     7
370
     9
100
AcDbLine
 10
157.8918518518518
 20
183.7695117857194
 30
0.0
 11
158.1918518518518
 21
183.6767971244058
 31
0.0
  0
LINE
  5
41E
330
1F
100
AcDbEntity
  8
21
  6
Continuous
 62
     7
370
     9
100
AcDbLine
 10
158.1918518518518
 20
185.618555385475
 30
0.0
 11
158.1918518518518
 21
184.7646390871256
 31
0.0
  0
LINE
  5
41F
330
1F
100
AcDbEntity
  8
21
  6
Continuous
 62
     7
370
     9
100
AcDbLine
 10
158.1918518518518
 20
185.618555385475
 30
0.0
 11
157.8918518518518
 21
185.6544770449397
 31
0.0
  0
LINE
  5
420
330
1F
100
AcDbEntity
  8
21
  6
Continuous
 62
     7
370
     9
100
AcDbLine
 10
158.1918518518517
 20
178.3156483676495
 30
0.0
 11
164.9918518518518
 21
178.3156483676495
 31
0.0
  0
LINE
  5
421
330
1F
100
AcDbEntity
  8
21
  6
Continuous
 62
     7
370
     9
100
AcDbLine
 10
165.2918518518518
 20
177.9864846686206
 30
0.0
 11
157.8918518518518
 21
177.9864846686206
 31
0.0
  0
LINE
  5
422
330
1F
100
AcDbEntity
  8
21
  6
Continuous
 62
     7
370
     9
100
AcDbLine
 10
157.8918518518518
 20
184.3630450549134
 30
0.0
 11
165.2918518518518
 21
184.3630450549134
 31
0.0
  0
LINE
  5
423
330
1F
100
AcDbEntity
  8
21
  6
Continuous
 62
     7
370
     9
100
AcDbLine
 10
164.9918518518518
 20
184.7646390871256
 30
0.0
 11
158.1918518518517
 21
184.7646390871256
 31
0.0
  0
LINE
  5
424
330
1F
100
AcDbEntity
  8
21
  6
Continuous
 62
     7
370
     9
100
AcDbLine
 10
158.1918518518517
 20
179.3480799120946
 30
0.0
 11
164.9918518518518
 21
179.3480799120946
 31
0.0
  0
LINE
  5
425
330
1F
100
AcDbEntity
  8
21
  6
Continuous
 62
     7
370
     9
100
AcDbLine
 10
164.9918518518518
 20
180.5811462537922
 30
0.0
 11
158.1918518518517
 21
180.5811462537922
 31
0.0
  0
LINE
  5
426
330
1F
100
AcDbEntity
  8
21
  6
Continuous
 62
     7
370
     9
100
AcDbLine
 10
165.2918518518518
 20
179.5478965338652
 30
0.0
 11
157.8918518518518
 21
179.5478965338652
 31
0.0
  0
LINE
  5
427
330
1F
100
AcDbEntity
  8
21
  6
Continuous
 62
     7
370
     9
100
AcDbLine
 10
157.8918518518518
 20
180.2206650900777
 30
0.0
 11
165.2918518518518
 21
180.2206650900777
 31
0.0
  0
LINE
  5
428
330
1F
100
AcDbEntity
  8
21
  6
Continuous
 62
     7
370
     9
100
AcDbLine
 10
158.1918518518517
 20
181.5729892240342
 30
0.0
 11
164.9918518518518
 21
181.5729892240341
 31
0.0
  0
LINE
  5
429
330
1F
100
AcDbEntity
  8
21
  6
Continuous
 62
     7
370
     9
100
AcDbLine
 10
165.2918518518518
 20
181.7206923017754
 30
0.0
 11
157.8918518518518
 21
181.7206923017754
 31
0.0
  0
LINE
  5
42A
330
1F
100
AcDbEntity
  8
21
  6
Continuous
 62
     7
370
     9
100
AcDbLine
 10
157.8918518518518
 20
182.3600655509885
 30
0.0
 11
165.2918518518518
 21
182.3600655509885
 31
0.0
  0
LINE
  5
42B
330
1F
100
AcDbEntity
  8
21
  6
Continuous
 62
     7
370
     9
100
AcDbLine
 10
164.9918518518518
 20
182.7448478235781
 30
0.0
 11
158.1918518518518
 21
182.7448478235782
 31
0.0
  0
LINE
  5
42C
330
1F
100
AcDbEntity
  8
21
  6
Continuous
 62
     7
370
     9
100
AcDbLine
 10
158.1918518518518
 20
183.6767971244058
 30
0.0
 11
164.9918518518518
 21
183.6767971244058
 31
0.0
  0
LINE
  5
42D
330
1F
100
AcDbEntity
  8
21
  6
Continuous
 62
     7
370
     9
100
AcDbLine
 10
165.2918518518518
 20
183.7695117857194
 30
0.0
 11
157.8918518518518
 21
183.7695117857194
 31
0.0
  0
LINE
  5
42E
330
1F
100
AcDbEntity
  8
21
  6
Continuous
 62
     7
370
     9
100
AcDbLine
 10
157.8918518518518
 20
185.6544770449397
 30
0.0
 11
165.2918518518518
 21
185.6544770449397
 31
0.0
  0
LINE
  5
42F
330
1F
100
AcDbEntity
  8
21
  6
Continuous
 62
     7
370
     9
100
AcDbLine
 10
164.9918518518518
 20
185.618555385475
 30
0.0
 11
158.1918518518518
 21
185.618555385475
 31
0.0
  0
LINE
  5
430
330
1F
100
AcDbEntity
  8
21
  6
Continuous
 62
     7
370
     9
100
AcDbLine
 10
165.2918518518518
 20
191.8011300497348
 30
0.0
 11
165.2918518518518
 21
175.3511300497348
 31
0.0
  0
LINE
  5
431
330
1F
100
AcDbEntity
  8
21
  6
Continuous
 62
     7
370
     9
100
AcDbLine
 10
157.8918518518518
 20
191.8011300497348
 30
0.0
 11
157.8918518518518
 21
175.3511300497348
 31
0.0
  0
LINE
  5
432
330
1F
100
AcDbEntity
  8
21
  6
Continuous
 62
     7
370
     9
100
AcDbLine
 10
166.5918518518519
 20
175.3511300497348
 30
0.0
 11
166.5918518518519
 21
191.9511300497348
 31
0.0
  0
LINE
  5
433
330
1F
100
AcDbEntity
  8
21
  6
Continuous
 62
     7
370
     9
100
AcDbLine
 10
165.7918518518518
 20
175.3511300497348
 30
0.0
 11
165.7918518518518
 21
191.6511300497348
 31
0.0
  0
LINE
  5
434
330
1F
100
AcDbEntity
  8
21
  6
Continuous
 62
     7
370
     9
100
AcDbLine
 10
156.8918518518518
 20
191.3511300497348
 30
0.0
 11
157.0918518518518
 21
191.1511300497348
 31
0.0
  0
LINE
  5
435
330
1F
100
AcDbEntity
  8
21
  6
Continuous
 62
     7
370
     9
100
AcDbLine
 10
151.8918518518518
 20
191.3511300497348
 30
0.0
 11
151.6918518518518
 21
191.1511300497348
 31
0.0
  0
LINE
  5
436
330
1F
100
AcDbEntity
  8
21
  6
Continuous
 62
     7
370
     9
100
AcDbLine
 10
151.8918518518518
 20
191.3511300497348
 30
0.0
 11
156.8918518518518
 21
191.3511300497348
 31
0.0
  0
LINE
  5
437
330
1F
100
AcDbEntity
  8
21
  6
Continuous
 62
     7
370
     9
100
AcDbLine
 10
151.6918518518518
 20
191.1511300497348
 30
0.0
 11
151.6918518518518
 21
175.3511300497348
 31
0.0
  0
LINE
  5
438
330
1F
100
AcDbEntity
  8
21
  6
Continuous
 62
     7
370
     9
100
AcDbLine
 10
157.0918518518518
 20
175.3511300497348
 30
0.0
 11
157.0918518518518
 21
191.1511300497348
 31
0.0
  0
LINE
  5
439
330
1F
100
AcDbEntity
  8
21
  6
Continuous
 62
     7
370
     9
100
AcDbLine
 10
157.0918518518518
 20
189.8511300497348
 30
0.0
 11
157.8918518518518
 21
189.3420391406439
 31
0.0
  0
LINE
  5
43A
330
1F
100
AcDbEntity
  8
21
  6
Continuous
 62
     7
370
     9
100
AcDbLine
 10
166.5918518518519
 20
191.9511300497348
 30
0.0
 11
176.4918518518517
 21
191.9511300497348
 31
0.0
  0
ELLIPSE
  5
43B
330
1F
100
AcDbEntity
  8
21
  6
Continuous
 62
     7
370
     9
100
AcDbEllipse
 10
171.4918518518517
 20
156.9047889491263
 30
0.0
 11
1.700000000000017
 21
0.0
 31
0.0
210
0.0
220
0.0
230
1.0
 40
0.5000000000000334
 41
0.0
 42
6.283185307179586
  0
ELLIPSE
  5
43C
330
1F
100
AcDbEntity
  8
21
  6
Continuous
 62
     7
370
     9
100
AcDbEllipse
 10
160.2918518518518
 20
189.8570558692758
 30
0.0
 11
-0.8499999999999943
 21
2.746425776535379E-15
 31
0.0
210
0.0
220
0.0
230
1.0
 40
0.5219879437762297
 41
0.0
 42
6.283185307179586
  0
ELLIPSE
  5
43D
330
1F
100
AcDbEntity
  8
21
  6
Continuous
 62
     7
370
     9
100
AcDbEllipse
 10
171.4918518518517
 20
189.7271517525566
 30
0.0
 11
1.25
 21
0.0
 31
0.0
210
0.0
220
0.0
230
1.0
 40
0.467039104197238
 41
0.0
 42
6.283185307179586
  0
LINE
  5
43E
330
1F
100
AcDbEntity
  8
21
  6
Continuous
 62
     7
370
     9
100
AcDbLine
 10
151.9918518518518
 20
190.3011300497348
 30
0.0
 11
151.9918518518518
 21
188.4901001093363
 31
0.0
  0
LINE
  5
43F
330
1F
100
AcDbEntity
  8
21
  6
Continuous
 62
     7
370
     9
100
AcDbLine
 10
151.6918518518518
 20
190.6011300497348
 30
0.0
 11
151.9918518518518
 21
190.3011300497348
 31
0.0
  0
LINE
  5
440
330
1F
100
AcDbEntity
  8
21
  6
Continuous
 62
     7
370
     9
100
AcDbLine
 10
151.6918518518518
 20
190.6011300497348
 30
0.0
 11
154.7152128219259
 21
190.6011300497348
 31
0.0
  0
LINE
  5
441
330
1F
100
AcDbEntity
  8
21
  6
Continuous
 62
     7
370
     9
100
AcDbLine
 10
151.9918518518518
 20
190.3011300497348
 30
0.0
 11
154.683972105896
 21
190.3011300497348
 31
0.0
  0
POLYLINE
  5
442
330
1F
100
AcDbEntity
  8
21
  6
Continuous
 62
     7
370
     9
100
AcDb2dPolyline
 66
     1
 10
0.0
 20
0.0
 30
0.0
 70
     2
  0
VERTEX
  5
443
330
442
100
AcDbEntity
  8
21
  6
Continuous
 62
     7
370
     9
100
AcDbVertex
100
AcDb2dVertex
 10
151.6918518518518
 20
188.6101822741783
 30
0.0
  0
VERTEX
  5
444
330
442
100
AcDbEntity
  8
21
  6
Continuous
 62
     7
370
     9
100
AcDbVertex
100
AcDb2dVertex
 10
151.6990732894863
 20
188.6070381949918
 30
0.0
  0
VERTEX
  5
445
330
442
100
AcDbEntity
  8
21
  6
Continuous
 62
     7
370
     9
100
AcDbVertex
100
AcDb2dVertex
 10
151.7205391126585
 20
188.5976970948236
 30
0.0
  0
VERTEX
  5
446
330
442
100
AcDbEntity
  8
21
  6
Continuous
 62
     7
370
     9
100
AcDbVertex
100
AcDb2dVertex
 10
151.7556507806166
 20
188.5824601520134
 30
0.0
  0
VERTEX
  5
447
330
442
100
AcDbEntity
  8
21
  6
Continuous
 62
     7
370
     9
100
AcDbVertex
100
AcDb2dVertex
 10
151.8034035751873
 20
188.5619104158991
 30
0.0
  0
VERTEX
  5
448
330
442
100
AcDbEntity
  8
21
  6
Continuous
 62
     7
370
     9
100
AcDbVertex
100
AcDb2dVertex
 10
151.8623857719584
 20
188.5369975606465
 30
0.0
  0
VERTEX
  5
449
330
442
100
AcDbEntity
  8
21
  6
Continuous
 62
     7
370
     9
100
AcDbVertex
100
AcDb2dVertex
 10
151.9307942242072
 20
188.5090937058657
 30
0.0
  0
VERTEX
  5
44A
330
442
100
AcDbEntity
  8
21
  6
Continuous
 62
     7
370
     9
100
AcDbVertex
100
AcDb2dVertex
 10
152.0064767958861
 20
188.4799800603078
 30
0.0
  0
VERTEX
  5
44B
330
442
100
AcDbEntity
  8
21
  6
Continuous
 62
     7
370
     9
100
AcDbVertex
100
AcDb2dVertex
 10
152.0870079201077
 20
188.4517382509871
 30
0.0
  0
VERTEX
  5
44C
330
442
100
AcDbEntity
  8
21
  6
Continuous
 62
     7
370
     9
100
AcDbVertex
100
AcDb2dVertex
 10
152.1697968073327
 20
188.4265436505777
 30
0.0
  0
VERTEX
  5
44D
330
442
100
AcDbEntity
  8
21
  6
Continuous
 62
     7
370
     9
100
AcDbVertex
100
AcDb2dVertex
 10
152.2522200940391
 20
188.406385083936
 30
0.0
  0
VERTEX
  5
44E
330
442
100
AcDbEntity
  8
21
  6
Continuous
 62
     7
370
     9
100
AcDbVertex
100
AcDb2dVertex
 10
152.3317639519608
 20
188.3927590637259
 30
0.0
  0
VERTEX
  5
44F
330
442
100
AcDbEntity
  8
21
  6
Continuous
 62
     7
370
     9
100
AcDbVertex
100
AcDb2dVertex
 10
152.4061566668526
 20
188.3864007796345
 30
0.0
  0
VERTEX
  5
450
330
442
100
AcDbEntity
  8
21
  6
Continuous
 62
     7
370
     9
100
AcDbVertex
100
AcDb2dVertex
 10
152.4734726410733
 20
188.3871141848191
 30
0.0
  0
VERTEX
  5
451
330
442
100
AcDbEntity
  8
21
  6
Continuous
 62
     7
370
     9
100
AcDbVertex
100
AcDb2dVertex
 10
152.5321929583912
 20
188.3937486825318
 30
0.0
  0
VERTEX
  5
452
330
442
100
AcDbEntity
  8
21
  6
Continuous
 62
     7
370
     9
100
AcDbVertex
100
AcDb2dVertex
 10
152.5812153425055
 20
188.4043427151133
 30
0.0
  0
VERTEX
  5
453
330
442
100
AcDbEntity
  8
21
  6
Continuous
 62
     7
370
     9
100
AcDbVertex
100
AcDb2dVertex
 10
152.6198159469371
 20
188.4164206799307
 30
0.0
  0
VERTEX
  5
454
330
442
100
AcDbEntity
  8
21
  6
Continuous
 62
     7
370
     9
100
AcDbVertex
100
AcDb2dVertex
 10
152.6475748290865
 20
188.4273965334829
 30
0.0
  0
VERTEX
  5
455
330
442
100
AcDbEntity
  8
21
  6
Continuous
 62
     7
370
     9
100
AcDbVertex
100
AcDb2dVertex
 10
152.6642840592128
 20
188.4350127618886
 30
0.0
  0
VERTEX
  5
456
330
442
100
AcDbEntity
  8
21
  6
Continuous
 62
     7
370
     9
100
AcDbVertex
100
AcDb2dVertex
 10
152.6698605472268
 20
188.4377329538162
 30
0.0
  0
VERTEX
  5
457
330
442
100
AcDbEntity
  8
21
  6
Continuous
 62
     7
370
     9
100
AcDbVertex
100
AcDb2dVertex
 10
152.675414522136
 20
188.4405334134597
 30
0.0
  0
VERTEX
  5
458
330
442
100
AcDbEntity
  8
21
  6
Continuous
 62
     7
370
     9
100
AcDbVertex
100
AcDb2dVertex
 10
152.6917945130286
 20
188.4493238874288
 30
0.0
  0
VERTEX
  5
459
330
442
100
AcDbEntity
  8
21
  6
Continuous
 62
     7
370
     9
100
AcDbVertex
100
AcDb2dVertex
 10
152.7181934664281
 20
188.4651530186433
 30
0.0
  0
VERTEX
  5
45A
330
442
100
AcDbEntity
  8
21
  6
Continuous
 62
     7
370
     9
100
AcDbVertex
100
AcDb2dVertex
 10
152.7533869514856
 20
188.4894018954636
 30
0.0
  0
VERTEX
  5
45B
330
442
100
AcDbEntity
  8
21
  6
Continuous
 62
     7
370
     9
100
AcDbVertex
100
AcDb2dVertex
 10
152.7958864130406
 20
188.5233280562227
 30
0.0
  0
VERTEX
  5
45C
330
442
100
AcDbEntity
  8
21
  6
Continuous
 62
     7
370
     9
100
AcDbVertex
100
AcDb2dVertex
 10
152.8441050502199
 20
188.5675918534046
 30
0.0
  0
VERTEX
  5
45D
330
442
100
AcDbEntity
  8
21
  6
Continuous
 62
     7
370
     9
100
AcDbVertex
100
AcDb2dVertex
 10
152.8965018297564
 20
188.6218814807562
 30
0.0
  0
VERTEX
  5
45E
330
442
100
AcDbEntity
  8
21
  6
Continuous
 62
     7
370
     9
100
AcDbVertex
100
AcDb2dVertex
 10
152.9516756767556
 20
188.6847301968109
 30
0.0
  0
VERTEX
  5
45F
330
442
100
AcDbEntity
  8
21
  6
Continuous
 62
     7
370
     9
100
AcDbVertex
100
AcDb2dVertex
 10
153.0083949467088
 20
188.7535741732486
 30
0.0
  0
VERTEX
  5
460
330
442
100
AcDbEntity
  8
21
  6
Continuous
 62
     7
370
     9
100
AcDbVertex
100
AcDb2dVertex
 10
153.0655636948012
 20
188.8250427873942
 30
0.0
  0
VERTEX
  5
461
330
442
100
AcDbEntity
  8
21
  6
Continuous
 62
     7
370
     9
100
AcDbVertex
100
AcDb2dVertex
 10
153.1221420472806
 20
188.8954186333025
 30
0.0
  0
VERTEX
  5
462
330
442
100
AcDbEntity
  8
21
  6
Continuous
 62
     7
370
     9
100
AcDbVertex
100
AcDb2dVertex
 10
153.1770493299271
 20
188.9611650864715
 30
0.0
  0
VERTEX
  5
463
330
442
100
AcDbEntity
  8
21
  6
Continuous
 62
     7
370
     9
100
AcDbVertex
100
AcDb2dVertex
 10
153.2290827846156
 20
189.0194043038021
 30
0.0
  0
VERTEX
  5
464
330
442
100
AcDbEntity
  8
21
  6
Continuous
 62
     7
370
     9
100
AcDbVertex
100
AcDb2dVertex
 10
153.2768807083367
 20
189.0682415444692
 30
0.0
  0
VERTEX
  5
465
330
442
100
AcDbEntity
  8
21
  6
Continuous
 62
     7
370
     9
100
AcDbVertex
100
AcDb2dVertex
 10
153.3189476586543
 20
189.1068693986537
 30
0.0
  0
VERTEX
  5
466
330
442
100
AcDbEntity
  8
21
  6
Continuous
 62
     7
370
     9
100
AcDbVertex
100
AcDb2dVertex
 10
153.3537437039991
 20
189.1354387174026
 30
0.0
  0
VERTEX
  5
467
330
442
100
AcDbEntity
  8
21
  6
Continuous
 62
     7
370
     9
100
AcDbVertex
100
AcDb2dVertex
 10
153.3798233579703
 20
189.1547388521277
 30
0.0
  0
VERTEX
  5
468
330
442
100
AcDbEntity
  8
21
  6
Continuous
 62
     7
370
     9
100
AcDbVertex
100
AcDb2dVertex
 10
153.3959967907664
 20
189.1657747541003
 30
0.0
  0
VERTEX
  5
469
330
442
100
AcDbEntity
  8
21
  6
Continuous
 62
     7
370
     9
100
AcDbVertex
100
AcDb2dVertex
 10
153.4014793326858
 20
189.1693517392752
 30
0.0
  0
VERTEX
  5
46A
330
442
100
AcDbEntity
  8
21
  6
Continuous
 62
     7
370
     9
100
AcDbVertex
100
AcDb2dVertex
 10
153.4069833749331
 20
189.172859175
 30
0.0
  0
VERTEX
  5
46B
330
442
100
AcDbEntity
  8
21
  6
Continuous
 62
     7
370
     9
100
AcDbVertex
100
AcDb2dVertex
 10
153.4234695819747
 20
189.1828818432155
 30
0.0
  0
VERTEX
  5
46C
330
442
100
AcDbEntity
  8
21
  6
Continuous
 62
     7
370
     9
100
AcDbVertex
100
AcDb2dVertex
 10
153.450828066965
 20
189.1980275116469
 30
0.0
  0
VERTEX
  5
46D
330
442
100
AcDbEntity
  8
21
  6
Continuous
 62
     7
370
     9
100
AcDbVertex
100
AcDb2dVertex
 10
153.4887776973517
 20
189.216306535364
 30
0.0
  0
VERTEX
  5
46E
330
442
100
AcDbEntity
  8
21
  6
Continuous
 62
     7
370
     9
100
AcDbVertex
100
AcDb2dVertex
 10
153.536748713741
 20
189.2355468360547
 30
0.0
  0
VERTEX
  5
46F
330
442
100
AcDbEntity
  8
21
  6
Continuous
 62
     7
370
     9
100
AcDbVertex
100
AcDb2dVertex
 10
153.5937699924901
 20
189.2538325041135
 30
0.0
  0
VERTEX
  5
470
330
442
100
AcDbEntity
  8
21
  6
Continuous
 62
     7
370
     9
100
AcDbVertex
100
AcDb2dVertex
 10
153.6583966929133
 20
189.2698652208151
 30
0.0
  0
VERTEX
  5
471
330
442
100
AcDbEntity
  8
21
  6
Continuous
 62
     7
370
     9
100
AcDbVertex
100
AcDb2dVertex
 10
153.7287059865489
 20
189.2831669530385
 30
0.0
  0
VERTEX
  5
472
330
442
100
AcDbEntity
  8
21
  6
Continuous
 62
     7
370
     9
100
AcDbVertex
100
AcDb2dVertex
 10
153.8023733605428
 20
189.2940808261564
 30
0.0
  0
VERTEX
  5
473
330
442
100
AcDbEntity
  8
21
  6
Continuous
 62
     7
370
     9
100
AcDbVertex
100
AcDb2dVertex
 10
153.8768232578785
 20
189.3035754657296
 30
0.0
  0
VERTEX
  5
474
330
442
100
AcDbEntity
  8
21
  6
Continuous
 62
     7
370
     9
100
AcDbVertex
100
AcDb2dVertex
 10
153.9494300870418
 20
189.3129048002097
 30
0.0
  0
VERTEX
  5
475
330
442
100
AcDbEntity
  8
21
  6
Continuous
 62
     7
370
     9
100
AcDbVertex
100
AcDb2dVertex
 10
154.0177332175047
 20
189.3232091645055
 30
0.0
  0
VERTEX
  5
476
330
442
100
AcDbEntity
  8
21
  6
Continuous
 62
     7
370
     9
100
AcDbVertex
100
AcDb2dVertex
 10
154.0796255353217
 20
189.3351564953137
 30
0.0
  0
VERTEX
  5
477
330
442
100
AcDbEntity
  8
21
  6
Continuous
 62
     7
370
     9
100
AcDbVertex
100
AcDb2dVertex
 10
154.1334805248147
 20
189.3487114744661
 30
0.0
  0
VERTEX
  5
478
330
442
100
AcDbEntity
  8
21
  6
Continuous
 62
     7
370
     9
100
AcDbVertex
100
AcDb2dVertex
 10
154.178196461869
 20
189.3630884267845
 30
0.0
  0
VERTEX
  5
479
330
442
100
AcDbEntity
  8
21
  6
Continuous
 62
     7
370
     9
100
AcDbVertex
100
AcDb2dVertex
 10
154.2131549611954
 20
189.3768984619224
 30
0.0
  0
VERTEX
  5
47A
330
442
100
AcDbEntity
  8
21
  6
Continuous
 62
     7
370
     9
100
AcDbVertex
100
AcDb2dVertex
 10
154.2381103988628
 20
189.3884537858235
 30
0.0
  0
VERTEX
  5
47B
330
442
100
AcDbEntity
  8
21
  6
Continuous
 62
     7
370
     9
100
AcDbVertex
100
AcDb2dVertex
 10
154.2530420497835
 20
189.3961538230976
 30
0.0
  0
VERTEX
  5
47C
330
442
100
AcDbEntity
  8
21
  6
Continuous
 62
     7
370
     9
100
AcDbVertex
100
AcDb2dVertex
 10
154.258008487389
 20
189.3988580345716
 30
0.0
  0
VERTEX
  5
47D
330
442
100
AcDbEntity
  8
21
  6
Continuous
 62
     7
370
     9
100
AcDbVertex
100
AcDb2dVertex
 10
154.2629459954816
 20
189.4016208154011
 30
0.0
  0
VERTEX
  5
47E
330
442
100
AcDbEntity
  8
21
  6
Continuous
 62
     7
370
     9
100
AcDbVertex
100
AcDb2dVertex
 10
154.2774528630574
 20
189.4101741213773
 30
0.0
  0
VERTEX
  5
47F
330
442
100
AcDbEntity
  8
21
  6
Continuous
 62
     7
370
     9
100
AcDbVertex
100
AcDb2dVertex
 10
154.3006402043276
 20
189.4252280129872
 30
0.0
  0
VERTEX
  5
480
330
442
100
AcDbEntity
  8
21
  6
Continuous
 62
     7
370
     9
100
AcDbVertex
100
AcDb2dVertex
 10
154.3311169575691
 20
189.4477036975355
 30
0.0
  0
VERTEX
  5
481
330
442
100
AcDbEntity
  8
21
  6
Continuous
 62
     7
370
     9
100
AcDbVertex
100
AcDb2dVertex
 10
154.3671147295616
 20
189.4784071764141
 30
0.0
  0
VERTEX
  5
482
330
442
100
AcDbEntity
  8
21
  6
Continuous
 62
     7
370
     9
100
AcDbVertex
100
AcDb2dVertex
 10
154.4066424767257
 20
189.5176898551924
 30
0.0
  0
VERTEX
  5
483
330
442
100
AcDbEntity
  8
21
  6
Continuous
 62
     7
370
     9
100
AcDbVertex
100
AcDb2dVertex
 10
154.4476540880697
 20
189.5651792120985
 30
0.0
  0
VERTEX
  5
484
330
442
100
AcDbEntity
  8
21
  6
Continuous
 62
     7
370
     9
100
AcDbVertex
100
AcDb2dVertex
 10
154.4882110792434
 20
189.6196465749043
 30
0.0
  0
VERTEX
  5
485
330
442
100
AcDbEntity
  8
21
  6
Continuous
 62
     7
370
     9
100
AcDbVertex
100
AcDb2dVertex
 10
154.5266238967046
 20
189.6790471053244
 30
0.0
  0
VERTEX
  5
486
330
442
100
AcDbEntity
  8
21
  6
Continuous
 62
     7
370
     9
100
AcDbVertex
100
AcDb2dVertex
 10
154.5615584939675
 20
189.7407268970486
 30
0.0
  0
VERTEX
  5
487
330
442
100
AcDbEntity
  8
21
  6
Continuous
 62
     7
370
     9
100
AcDbVertex
100
AcDb2dVertex
 10
154.5920993725489
 20
189.8017532692801
 30
0.0
  0
VERTEX
  5
488
330
442
100
AcDbEntity
  8
21
  6
Continuous
 62
     7
370
     9
100
AcDbVertex
100
AcDb2dVertex
 10
154.6177655326863
 20
189.859296130521
 30
0.0
  0
VERTEX
  5
489
330
442
100
AcDbEntity
  8
21
  6
Continuous
 62
     7
370
     9
100
AcDbVertex
100
AcDb2dVertex
 10
154.6384810734356
 20
189.9109773645092
 30
0.0
  0
VERTEX
  5
48A
330
442
100
AcDbEntity
  8
21
  6
Continuous
 62
     7
370
     9
100
AcDbVertex
100
AcDb2dVertex
 10
154.6545069046211
 20
189.9551140440909
 30
0.0
  0
VERTEX
  5
48B
330
442
100
AcDbEntity
  8
21
  6
Continuous
 62
     7
370
     9
100
AcDbVertex
100
AcDb2dVertex
 10
154.6663437125176
 20
189.9908076411897
 30
0.0
  0
VERTEX
  5
48C
330
442
100
AcDbEntity
  8
21
  6
Continuous
 62
     7
370
     9
100
AcDbVertex
100
AcDb2dVertex
 10
154.6746186689012
 20
190.0178688046362
 30
0.0
  0
VERTEX
  5
48D
330
442
100
AcDbEntity
  8
21
  6
Continuous
 62
     7
370
     9
100
AcDbVertex
100
AcDb2dVertex
 10
154.6799692897376
 20
190.0366066280326
 30
0.0
  0
VERTEX
  5
48E
330
442
100
AcDbEntity
  8
21
  6
Continuous
 62
     7
370
     9
100
AcDbVertex
100
AcDb2dVertex
 10
154.6829373987279
 20
190.0475431075124
 30
0.0
  0
VERTEX
  5
48F
330
442
100
AcDbEntity
  8
21
  6
Continuous
 62
     7
370
     9
100
AcDbVertex
100
AcDb2dVertex
 10
154.6838845136185
 20
190.0511300497348
 30
0.0
  0
VERTEX
  5
490
330
442
100
AcDbEntity
  8
21
  6
Continuous
 62
     7
370
     9
100
AcDbVertex
100
AcDb2dVertex
 10
154.6848058626341
 20
190.0546696854441
 30
0.0
  0
VERTEX
  5
491
330
442
100
AcDbEntity
  8
21
  6
Continuous
 62
     7
370
     9
100
AcDbVertex
100
AcDb2dVertex
 10
154.6873950072618
 20
190.0649168172941
 30
0.0
  0
VERTEX
  5
492
330
442
100
AcDbEntity
  8
21
  6
Continuous
 62
     7
370
     9
100
AcDbVertex
100
AcDb2dVertex
 10
154.6911632491508
 20
190.0808268954349
 30
0.0
  0
VERTEX
  5
493
330
442
100
AcDbEntity
  8
21
  6
Continuous
 62
     7
370
     9
100
AcDbVertex
100
AcDb2dVertex
 10
154.6954081356481
 20
190.1008789951968
 30
0.0
  0
VERTEX
  5
494
330
442
100
AcDbEntity
  8
21
  6
Continuous
 62
     7
370
     9
100
AcDbVertex
100
AcDb2dVertex
 10
154.699355427634
 20
190.1233537976242
 30
0.0
  0
VERTEX
  5
495
330
442
100
AcDbEntity
  8
21
  6
Continuous
 62
     7
370
     9
100
AcDbVertex
100
AcDb2dVertex
 10
154.7023118744696
 20
190.14663132584
 30
0.0
  0
VERTEX
  5
496
330
442
100
AcDbEntity
  8
21
  6
Continuous
 62
     7
370
     9
100
AcDbVertex
100
AcDb2dVertex
 10
154.703795825749
 20
190.1694432923816
 30
0.0
  0
VERTEX
  5
497
330
442
100
AcDbEntity
  8
21
  6
Continuous
 62
     7
370
     9
100
AcDbVertex
100
AcDb2dVertex
 10
154.7036183828882
 20
190.1910267423842
 30
0.0
  0
VERTEX
  5
498
330
442
100
AcDbEntity
  8
21
  6
Continuous
 62
     7
370
     9
100
AcDbVertex
100
AcDb2dVertex
 10
154.7018995868287
 20
190.2111497481412
 30
0.0
  0
VERTEX
  5
499
330
442
100
AcDbEntity
  8
21
  6
Continuous
 62
     7
370
     9
100
AcDbVertex
100
AcDb2dVertex
 10
154.6990192214553
 20
190.2300104233393
 30
0.0
  0
VERTEX
  5
49A
330
442
100
AcDbEntity
  8
21
  6
Continuous
 62
     7
370
     9
100
AcDbVertex
100
AcDb2dVertex
 10
154.6955166114713
 20
190.2480401878162
 30
0.0
  0
VERTEX
  5
49B
330
442
100
AcDbEntity
  8
21
  6
Continuous
 62
     7
370
     9
100
AcDbVertex
100
AcDb2dVertex
 10
154.6919648446791
 20
190.2656639904312
 30
0.0
  0
VERTEX
  5
49C
330
442
100
AcDbEntity
  8
21
  6
Continuous
 62
     7
370
     9
100
AcDbVertex
100
AcDb2dVertex
 10
154.6888496223761
 20
190.2830789927125
 30
0.0
  0
VERTEX
  5
49D
330
442
100
AcDbEntity
  8
21
  6
Continuous
 62
     7
370
     9
100
AcDbVertex
100
AcDb2dVertex
 10
154.6864804377995
 20
190.3001070846155
 30
0.0
  0
VERTEX
  5
49E
330
442
100
AcDbEntity
  8
21
  6
Continuous
 62
     7
370
     9
100
AcDbVertex
100
AcDb2dVertex
 10
154.6849527553426
 20
190.3161572020719
 30
0.0
  0
VERTEX
  5
49F
330
442
100
AcDbEntity
  8
21
  6
Continuous
 62
     7
370
     9
100
AcDbVertex
100
AcDb2dVertex
 10
154.6841666228003
 20
190.3303055825107
 30
0.0
  0
VERTEX
  5
4A0
330
442
100
AcDbEntity
  8
21
  6
Continuous
 62
     7
370
     9
100
AcDbVertex
100
AcDb2dVertex
 10
154.6838929900303
 20
190.3414726665703
 30
0.0
  0
VERTEX
  5
4A1
330
442
100
AcDbEntity
  8
21
  6
Continuous
 62
     7
370
     9
100
AcDbVertex
100
AcDb2dVertex
 10
154.6838674042149
 20
190.3486515065851
 30
0.0
  0
VERTEX
  5
4A2
330
442
100
AcDbEntity
  8
21
  6
Continuous
 62
     7
370
     9
100
AcDbVertex
100
AcDb2dVertex
 10
154.6838845136185
 20
190.3511300497348
 30
0.0
  0
VERTEX
  5
4A3
330
442
100
AcDbEntity
  8
21
  6
Continuous
 62
     7
370
     9
100
AcDbVertex
100
AcDb2dVertex
 10
154.6839149677859
 20
190.3536413945178
 30
0.0
  0
VERTEX
  5
4A4
330
442
100
AcDbEntity
  8
21
  6
Continuous
 62
     7
370
     9
100
AcDbVertex
100
AcDb2dVertex
 10
154.6840845534367
 20
190.3612982789986
 30
0.0
  0
VERTEX
  5
4A5
330
442
100
AcDbEntity
  8
21
  6
Continuous
 62
     7
370
     9
100
AcDbVertex
100
AcDb2dVertex
 10
154.6846171840412
 20
190.3744268151039
 30
0.0
  0
VERTEX
  5
4A6
330
442
100
AcDbEntity
  8
21
  6
Continuous
 62
     7
370
     9
100
AcDbVertex
100
AcDb2dVertex
 10
154.6858514366002
 20
190.3934388781302
 30
0.0
  0
VERTEX
  5
4A7
330
442
100
AcDbEntity
  8
21
  6
Continuous
 62
     7
370
     9
100
AcDbVertex
100
AcDb2dVertex
 10
154.6881928376695
 20
190.4186667268238
 30
0.0
  0
VERTEX
  5
4A8
330
442
100
AcDbEntity
  8
21
  6
Continuous
 62
     7
370
     9
100
AcDbVertex
100
AcDb2dVertex
 10
154.6920549850337
 20
190.4501880007084
 30
0.0
  0
VERTEX
  5
4A9
330
442
100
AcDbEntity
  8
21
  6
Continuous
 62
     7
370
     9
100
AcDbVertex
100
AcDb2dVertex
 10
154.697796346544
 20
190.4876816246015
 30
0.0
  0
VERTEX
  5
4AA
330
442
100
AcDbEntity
  8
21
  6
Continuous
 62
     7
370
     9
100
AcDbVertex
100
AcDb2dVertex
 10
154.7056601293805
 20
190.5303481566465
 30
0.0
  0
VERTEX
  5
4AB
330
442
100
AcDbEntity
  8
21
  6
Continuous
 62
     7
370
     9
100
AcDbVertex
100
AcDb2dVertex
 10
154.7157243383505
 20
190.5769135717009
 30
0.0
  0
VERTEX
  5
4AC
330
442
100
AcDbEntity
  8
21
  6
Continuous
 62
     7
370
     9
100
AcDbVertex
100
AcDb2dVertex
 10
154.7278680740522
 20
190.6257168419062
 30
0.0
  0
VERTEX
  5
4AD
330
442
100
AcDbEntity
  8
21
  6
Continuous
 62
     7
370
     9
100
AcDbVertex
100
AcDb2dVertex
 10
154.7417583819145
 20
190.6748633446923
 30
0.0
  0
VERTEX
  5
4AE
330
442
100
AcDbEntity
  8
21
  6
Continuous
 62
     7
370
     9
100
AcDbVertex
100
AcDb2dVertex
 10
154.7568597453526
 20
190.7224123512952
 30
0.0
  0
VERTEX
  5
4AF
330
442
100
AcDbEntity
  8
21
  6
Continuous
 62
     7
370
     9
100
AcDbVertex
100
AcDb2dVertex
 10
154.7724658650129
 20
190.7665607446947
 30
0.0
  0
VERTEX
  5
4B0
330
442
100
AcDbEntity
  8
21
  6
Continuous
 62
     7
370
     9
100
AcDbVertex
100
AcDb2dVertex
 10
154.7877509484626
 20
190.8057879354988
 30
0.0
  0
VERTEX
  5
4B1
330
442
100
AcDbEntity
  8
21
  6
Continuous
 62
     7
370
     9
100
AcDbVertex
100
AcDb2dVertex
 10
154.8018356111828
 20
190.8389377928573
 30
0.0
  0
VERTEX
  5
4B2
330
442
100
AcDbEntity
  8
21
  6
Continuous
 62
     7
370
     9
100
AcDbVertex
100
AcDb2dVertex
 10
154.8138608863428
 20
190.8652294837321
 30
0.0
  0
VERTEX
  5
4B3
330
442
100
AcDbEntity
  8
21
  6
Continuous
 62
     7
370
     9
100
AcDbVertex
100
AcDb2dVertex
 10
154.8230629257595
 20
190.8842064062373
 30
0.0
  0
VERTEX
  5
4B4
330
442
100
AcDbEntity
  8
21
  6
Continuous
 62
     7
370
     9
100
AcDbVertex
100
AcDb2dVertex
 10
154.8288408414694
 20
190.8956466722558
 30
0.0
  0
VERTEX
  5
4B5
330
442
100
AcDbEntity
  8
21
  6
Continuous
 62
     7
370
     9
100
AcDbVertex
100
AcDb2dVertex
 10
154.8308107973584
 20
190.8994664056195
 30
0.0
  0
VERTEX
  5
4B6
330
442
100
AcDbEntity
  8
21
  6
Continuous
 62
     7
370
     9
100
AcDbVertex
100
AcDb2dVertex
 10
154.8327939827832
 20
190.903271230161
 30
0.0
  0
VERTEX
  5
4B7
330
442
100
AcDbEntity
  8
21
  6
Continuous
 62
     7
370
     9
100
AcDbVertex
100
AcDb2dVertex
 10
154.838766765924
 20
190.9144944606597
 30
0.0
  0
VERTEX
  5
4B8
330
442
100
AcDbEntity
  8
21
  6
Continuous
 62
     7
370
     9
100
AcDbVertex
100
AcDb2dVertex
 10
154.8487847434373
 20
190.9325827976174
 30
0.0
  0
VERTEX
  5
4B9
330
442
100
AcDbEntity
  8
21
  6
Continuous
 62
     7
370
     9
100
AcDbVertex
100
AcDb2dVertex
 10
154.8628966941024
 20
190.9566785862814
 30
0.0
  0
VERTEX
  5
4BA
330
442
100
AcDbEntity
  8
21
  6
Continuous
 62
     7
370
     9
100
AcDbVertex
100
AcDb2dVertex
 10
154.8810888112457
 20
190.9857047831036
 30
0.0
  0
VERTEX
  5
4BB
330
442
100
AcDbEntity
  8
21
  6
Continuous
 62
     7
370
     9
100
AcDbVertex
100
AcDb2dVertex
 10
154.9032244853887
 20
191.0184628704681
 30
0.0
  0
VERTEX
  5
4BC
330
442
100
AcDbEntity
  8
21
  6
Continuous
 62
     7
370
     9
100
AcDbVertex
100
AcDb2dVertex
 10
154.9289927577212
 20
191.053728066413
 30
0.0
  0
VERTEX
  5
4BD
330
442
100
AcDbEntity
  8
21
  6
Continuous
 62
     7
370
     9
100
AcDbVertex
100
AcDb2dVertex
 10
154.9578767697757
 20
191.0903280128666
 30
0.0
  0
VERTEX
  5
4BE
330
442
100
AcDbEntity
  8
21
  6
Continuous
 62
     7
370
     9
100
AcDbVertex
100
AcDb2dVertex
 10
154.9891494083563
 20
191.1271956267907
 30
0.0
  0
VERTEX
  5
4BF
330
442
100
AcDbEntity
  8
21
  6
Continuous
 62
     7
370
     9
100
AcDbVertex
100
AcDb2dVertex
 10
155.0218978530364
 20
191.1633928758653
 30
0.0
  0
VERTEX
  5
4C0
330
442
100
AcDbEntity
  8
21
  6
Continuous
 62
     7
370
     9
100
AcDbVertex
100
AcDb2dVertex
 10
155.0550731222141
 20
191.1981084885214
 30
0.0
  0
VERTEX
  5
4C1
330
442
100
AcDbEntity
  8
21
  6
Continuous
 62
     7
370
     9
100
AcDbVertex
100
AcDb2dVertex
 10
155.0875562159152
 20
191.2306376351684
 30
0.0
  0
VERTEX
  5
4C2
330
442
100
AcDbEntity
  8
21
  6
Continuous
 62
     7
370
     9
100
AcDbVertex
100
AcDb2dVertex
 10
155.1182300046018
 20
191.2603543670918
 30
0.0
  0
VERTEX
  5
4C3
330
442
100
AcDbEntity
  8
21
  6
Continuous
 62
     7
370
     9
100
AcDbVertex
100
AcDb2dVertex
 10
155.1460460409927
 20
191.2866875883903
 30
0.0
  0
VERTEX
  5
4C4
330
442
100
AcDbEntity
  8
21
  6
Continuous
 62
     7
370
     9
100
AcDbVertex
100
AcDb2dVertex
 10
155.1700778108881
 20
191.3091087510319
 30
0.0
  0
VERTEX
  5
4C5
330
442
100
AcDbEntity
  8
21
  6
Continuous
 62
     7
370
     9
100
AcDbVertex
100
AcDb2dVertex
 10
155.1895558878223
 20
191.3271350953421
 30
0.0
  0
VERTEX
  5
4C6
330
442
100
AcDbEntity
  8
21
  6
Continuous
 62
     7
370
     9
100
AcDbVertex
100
AcDb2dVertex
 10
155.2038849620764
 20
191.3403472962456
 30
0.0
  0
VERTEX
  5
4C7
330
442
100
AcDbEntity
  8
21
  6
Continuous
 62
     7
370
     9
100
AcDbVertex
100
AcDb2dVertex
 10
155.2126466382043
 20
191.3484161039922
 30
0.0
  0
VERTEX
  5
4C8
330
442
100
AcDbEntity
  8
21
  6
Continuous
 62
     7
370
     9
100
AcDbVertex
100
AcDb2dVertex
 10
155.2155942930332
 20
191.3511300497348
 30
0.0
  0
SEQEND
  5
4C9
330
442
100
AcDbEntity
  8
21
  6
Continuous
 62
     7
370
     9
  0
LINE
  5
4CA
330
1F
100
AcDbEntity
  8
21
  6
Continuous
 62
     7
370
     9
100
AcDbLine
 10
161.4171774988309
 20
189.8570558692758
 30
0.0
 11
159.1824185434053
 21
189.8570558692758
 31
0.0
  0
LINE
  5
4CB
330
1F
100
AcDbEntity
  8
21
  6
Continuous
 62
     7
370
     9
100
AcDbLine
 10
160.2918518518518
 20
190.8843125321739
 30
0.0
 11
160.2918518518518
 21
188.809734198844
 31
0.0
  0
LINE
  5
4CC
330
1F
100
AcDbEntity
  8
21
  6
Continuous
 62
     7
370
     9
100
AcDbLine
 10
169.6131853424359
 20
189.7271517525566
 30
0.0
 11
173.3705183612676
 21
189.7271517525566
 31
0.0
  0
LINE
  5
4CD
330
1F
100
AcDbEntity
  8
21
  6
Continuous
 62
     7
370
     9
100
AcDbLine
 10
171.4918518518517
 20
188.6960382474224
 30
0.0
 11
171.4918518518517
 21
190.7582652576907
 31
0.0
  0
LINE
  5
4CE
330
1F
100
AcDbEntity
  8
21
  6
Continuous
 62
     7
370
     9
100
AcDbLine
 10
184.3918518518518
 20
177.5677141442227
 30
0.0
 11
184.3918518518518
 21
173.0840056704535
 31
0.0
  0
VIEWPORT
  5
3F
330
1B
100
AcDbEntity
 67
     1
  8
0
100
AcDbViewport
 10
210.0
 20
148.5
 30
0.0
 40
420.0
 41
297.0
 68
     1
 69
     1
 12
210.0
 22
148.5
 13
0.0
 23
0.0
 14
0.5
 24
0.5
 15
0.5
 25
0.5
 16
0.0
 26
0.0
 36
1.0
 17
0.0
 27
0.0
 37
0.0
 42
50.0
 43
0.0
 44
0.0
 45
9.0
 50
0.0
 51
0.0
 72
   100
 90
   557152
  1

281
     0
 71
     1
 74
     0
110
0.0
120
0.0
130
0.0
111
1.0
121
0.0
131
0.0
112
0.0
122
1.0
132
0.0
 79
     0
146
0.0
170
     0
 61
     5
292
     1
282
     1
141
0.0
142
0.0
 63
   256
  0
ENDSEC
  0
SECTION
  2
OBJECTS
  0
DICTIONARY
  5
C
330
0
100
AcDbDictionary
281
     1
  3
ACAD_GROUP
350
D
  3
ACAD_LAYOUT
350
1A
  3
ACAD_MATERIAL
350
3B
  3
ACAD_MLEADERSTYLE
350
4D0
  3
ACAD_MLINESTYLE
350
17
  3
ACAD_PLOTSETTINGS
350
19
  3
ACAD_PLOTSTYLENAME
350
E
  3
ACAD_TABLESTYLE
350
4CF
  3
ACAD_VISUALSTYLE
350
2A
  0
DICTIONARY
  5
D
102
{ACAD_REACTORS
330
C
102
}
330
C
100
AcDbDictionary
281
     1
  0
DICTIONARY
  5
1A
102
{ACAD_REACTORS
330
C
102
}
330
C
100
AcDbDictionary
281
     1
  3
Layout1
350
1E
  3
Layout2
350
26
  3
Model
350
22
  0
DICTIONARY
  5
3B
102
{ACAD_REACTORS
330
C
102
}
330
C
100
AcDbDictionary
281
     1
  3
ByBlock
350
3D
  3
ByLayer
350
3C
  3
Global
350
3E
  0
DICTIONARY
  5
4D0
102
{ACAD_REACTORS
330
C
102
}
330
C
100
AcDbDictionary
281
     1
  0
DICTIONARY
  5
17
102
{ACAD_REACTORS
330
C
102
}
330
C
100
AcDbDictionary
281
     1
  3
Standard
350
18
  0
DICTIONARY
  5
19
102
{ACAD_REACTORS
330
C
102
}
330
C
100
AcDbDictionary
281
     1
  0
ACDBDICTIONARYWDFLT
  5
E
102
{ACAD_REACTORS
330
C
102
}
330
C
100
AcDbDictionary
281
     1
  3
Normal
350
F
100
AcDbDictionaryWithDefault
340
F
  0
DICTIONARY
  5
4CF
102
{ACAD_REACTORS
330
C
102
}
330
C
100
AcDbDictionary
281
     1
  0
DICTIONARY
  5
2A
102
{ACAD_REACTORS
330
C
102
}
330
C
100
AcDbDictionary
281
     1
  3
2dWireframe
350
2F
  3
3D Hidden
350
31
  3
3dWireframe
350
30
  3
Basic
350
32
  3
Brighten
350
36
  3
ColorChange
350
3A
  3
Conceptual
350
34
  3
Dim
350
35
  3
Facepattern
350
39
  3
Flat
350
2B
  3
FlatWithEdges
350
2C
  3
Gouraud
350
2D
  3
GouraudWithEdges
350
2E
  3
Linepattern
350
38
  3
Realistic
350
33
  3
Thicken
350
37
  0
LAYOUT
  5
1E
102
{ACAD_REACTORS
330
1A
102
}
330
1A
100
AcDbPlotSettings
  1

  2
none_device
  4

  6

 40
0.0
 41
0.0
 42
0.0
 43
0.0
 44
0.0
 45
0.0
 46
0.0
 47
0.0
 48
0.0
 49
0.0
140
0.0
141
0.0
142
1.0
143
1.0
 70
   688
 72
     0
 73
     0
 74
     5
  7

 75
    16
 76
     0
 77
     2
 78
   300
147
1.0
148
0.0
149
0.0
100
AcDbLayout
  1
Layout1
 70
     1
 71
     1
 10
0.0
 20
0.0
 11
420.0
 21
297.0
 12
0.0
 22
0.0
 32
0.0
 14
0.0
 24
0.0
 34
0.0
 15
420.0
 25
297.0
 35
0.0
146
0.0
 13
0.0
 23
0.0
 33
0.0
 16
1.0
 26
0.0
 36
0.0
 17
0.0
 27
1.0
 37
0.0
 76
     0
330
1B
331
3F
  0
LAYOUT
  5
26
102
{ACAD_REACTORS
330
1A
102
}
330
1A
100
AcDbPlotSettings
  1

  2
none_device
  4

  6

 40
0.0
 41
0.0
 42
0.0
 43
0.0
 44
0.0
 45
0.0
 46
0.0
 47
0.0
 48
0.0
 49
0.0
140
0.0
141
0.0
142
1.0
143
1.0
 70
   688
 72
     0
 73
     0
 74
     5
  7

 75
    16
 76
     0
 77
     2
 78
   300
147
1.0
148
0.0
149
0.0
100
AcDbLayout
  1
Layout2
 70
     1
 71
     2
 10
0.0
 20
0.0
 11
0.0
 21
0.0
 12
0.0
 22
0.0
 32
0.0
 14
0.0
 24
0.0
 34
0.0
 15
0.0
 25
0.0
 35
0.0
146
0.0
 13
0.0
 23
0.0
 33
0.0
 16
1.0
 26
0.0
 36
0.0
 17
0.0
 27
1.0
 37
0.0
 76
     0
330
23
  0
LAYOUT
  5
22
102
{ACAD_REACTORS
330
1A
102
}
330
1A
100
AcDbPlotSettings
  1

  2
none_device
  4

  6

 40
0.0
 41
0.0
 42
0.0
 43
0.0
 44
0.0
 45
0.0
 46
0.0
 47
0.0
 48
0.0
 49
0.0
140
0.0
141
0.0
142
1.0
143
1.0
 70
  1712
 72
     0
 73
     0
 74
     0
  7

 75
     0
 76
     0
 77
     2
 78
   300
147
1.0
148
0.0
149
0.0
100
AcDbLayout
  1
Model
 70
     1
 71
     0
 10
0.0
 20
0.0
 11
420.0
 21
297.0
 12
0.0
 22
0.0
 32
0.0
 14
86.72450422827816
 24
146.2575804349948
 34
0.0
 15
218.7849070701316
 25
207.2343209876545
 35
0.0
146
0.0
 13
0.0
 23
0.0
 33
0.0
 16
1.0
 26
0.0
 36
0.0
 17
0.0
 27
1.0
 37
0.0
 76
     0
330
1F
331
29
  0
MATERIAL
  5
3D
102
{ACAD_REACTORS
330
3B
102
}
330
3B
100
AcDbMaterial
  1
ByBlock
 72
     1
 94
      127
  0
MATERIAL
  5
3C
102
{ACAD_REACTORS
330
3B
102
}
330
3B
100
AcDbMaterial
  1
ByLayer
 72
     1
 94
      127
  0
MATERIAL
  5
3E
102
{ACAD_REACTORS
330
3B
102
}
330
3B
100
AcDbMaterial
  1
Global
 72
     1
 94
      127
  0
MLINESTYLE
  5
18
102
{ACAD_REACTORS
330
17
102
}
330
17
100
AcDbMlineStyle
  2
Standard
 70
     0
  3

 62
   256
 51
90.0
 52
90.0
 71
     2
 49
0.5
 62
   256
  6
BYLAYER
 49
-0.5
 62
   256
  6
BYLAYER
  0
ACDBPLACEHOLDER
  5
F
102
{ACAD_REACTORS
330
E
102
}
330
E
  0
VISUALSTYLE
  5
2F
102
{ACAD_REACTORS
330
2A
102
}
330
2A
100
AcDbVisualStyle
  2
2dWireframe
 70
     4
177
     2
291
     0
 71
     0
176
     1
 72
     2
176
     1
 73
     0
176
     1
 90
        0
176
     1
 40
-0.6
176
     1
 41
-30.0
176
     1
 62
     5
 63
     7
421
 16777215
176
     1
 74
     1
176
     1
 91
        4
176
     1
 64
     7
176
     1
 65
   257
176
     1
 75
     1
176
     1
175
     1
176
     1
 42
1.0
176
     1
 92
        0
176
     1
 66
   257
176
     1
 43
1.0
176
     1
 76
     1
176
     1
 77
     6
176
     1
 78
     2
176
     1
 67
     7
176
     1
 79
     5
176
     1
170
     0
176
     1
171
     0
176
     1
290
     0
176
     1
 93
        1
176
     1
 44
0.0
176
     1
173
     0
176
     1
  0
VISUALSTYLE
  5
31
102
{ACAD_REACTORS
330
2A
102
}
330
2A
100
AcDbVisualStyle
  2
3D Hidden
 70
     6
177
     2
291
     0
 71
     1
176
     1
 72
     2
176
     1
 73
     2
176
     1
 90
        0
176
     1
 40
-0.6
176
     1
 41
-30.0
176
     1
 62
     5
 63
     7
421
 16777215
176
     1
 74
     2
176
     1
 91
        2
176
     1
 64
     7
176
     1
 65
   257
176
     1
 75
     2
176
     1
175
     1
176
     1
 42
40.0
176
     1
 92
        0
176
     1
 66
   257
176
     1
 43
1.0
176
     1
 76
     1
176
     1
 77
     6
176
     1
 78
     2
176
     1
 67
     7
176
     1
 79
     3
176
     1
170
     0
176
     1
171
     0
176
     1
290
     0
176
     1
 93
        1
176
     1
 44
0.0
176
     1
173
     0
176
     1
  0
VISUALSTYLE
  5
30
102
{ACAD_REACTORS
330
2A
102
}
330
2A
100
AcDbVisualStyle
  2
3dWireframe
 70
     5
177
     2
291
     0
 71
     0
176
     1
 72
     2
176
     1
 73
     0
176
     1
 90
        0
176
     1
 40
-0.6
176
     1
 41
-30.0
176
     1
 62
     5
 63
     7
421
 16777215
176
     1
 74
     1
176
     1
 91
        4
176
     1
 64
     7
176
     1
 65
   257
176
     1
 75
     1
176
     1
175
     1
176
     1
 42
1.0
176
     1
 92
        0
176
     1
 66
   257
176
     1
 43
1.0
176
     1
 76
     1
176
     1
 77
     6
176
     1
 78
     2
176
     1
 67
     7
176
     1
 79
     5
176
     1
170
     0
176
     1
171
     0
176
     1
290
     0
176
     1
 93
        1
176
     1
 44
0.0
176
     1
173
     0
176
     1
  0
VISUALSTYLE
  5
32
102
{ACAD_REACTORS
330
2A
102
}
330
2A
100
AcDbVisualStyle
  2
Basic
 70
     7
177
     2
291
     1
 71
     1
176
     1
 72
     0
176
     1
 73
     1
176
     1
 90
        0
176
     1
 40
-0.6
176
     1
 41
-30.0
176
     1
 62
     5
 63
     7
421
 16777215
176
     1
 74
     0
176
     1
 91
        4
176
     1
 64
     7
176
     1
 65
   257
176
     1
 75
     1
176
     1
175
     1
176
     1
 42
1.0
176
     1
 92
        8
176
     1
 66
     7
176
     1
 43
1.0
176
     1
 76
     1
176
     1
 77
     6
176
     1
 78
     2
176
     1
 67
     7
176
     1
 79
     5
176
     1
170
     0
176
     1
171
     0
176
     1
290
     0
176
     1
 93
        1
176
     1
 44
0.0
176
     1
173
     0
176
     1
  0
VISUALSTYLE
  5
36
102
{ACAD_REACTORS
330
2A
102
}
330
2A
100
AcDbVisualStyle
  2
Brighten
 70
    12
177
     2
291
     1
 71
     2
176
     1
 72
     2
176
     1
 73
     0
176
     1
 90
        0
176
     1
 40
-0.6
176
     1
 41
-30.0
176
     1
 62
     5
 63
     7
421
 16777215
176
     1
 74
     1
176
     1
 91
        4
176
     1
 64
     7
176
     1
 65
   257
176
     1
 75
     1
176
     1
175
     1
176
     1
 42
1.0
176
     1
 92
        8
176
     1
 66
     7
176
     1
 43
1.0
176
     1
 76
     1
176
     1
 77
     6
176
     1
 78
     2
176
     1
 67
     7
176
     1
 79
     5
176
     1
170
     0
176
     1
171
     0
176
     1
290
     0
176
     1
 93
        1
176
     1
 44
50.0
176
     1
173
     0
176
     1
  0
VISUALSTYLE
  5
3A
102
{ACAD_REACTORS
330
2A
102
}
330
2A
100
AcDbVisualStyle
  2
ColorChange
 70
    16
177
     2
291
     1
 71
     2
176
     1
 72
     2
176
     1
 73
     3
176
     1
 90
        0
176
     1
 40
-0.6
176
     1
 41
-30.0
176
     1
 62
     5
 63
     8
421
  8421504
176
     1
 74
     1
176
     1
 91
        4
176
     1
 64
     7
176
     1
 65
   257
176
     1
 75
     1
176
     1
175
     1
176
     1
 42
1.0
176
     1
 92
        8
176
     1
 66
     8
424
  8421504
176
     1
 43
1.0
176
     1
 76
     1
176
     1
 77
     6
176
     1
 78
     2
176
     1
 67
     7
176
     1
 79
     5
176
     1
170
     0
176
     1
171
     0
176
     1
290
     0
176
     1
 93
        1
176
     1
 44
0.0
176
     1
173
     0
176
     1
  0
VISUALSTYLE
  5
34
102
{ACAD_REACTORS
330
2A
102
}
330
2A
100
AcDbVisualStyle
  2
Conceptual
 70
     9
177
     2
291
     0
 71
     3
176
     1
 72
     2
176
     1
 73
     0
176
     1
 90
        0
176
     1
 40
-0.6
176
     1
 41
-30.0
176
     1
 62
     5
 63
     7
421
 16777215
176
     1
 74
     2
176
     1
 91
        2
176
     1
 64
     7
176
     1
 65
   257
176
     1
 75
     1
176
     1
175
     1
176
     1
 42
40.0
176
     1
 92
        8
176
     1
 66
     7
176
     1
 43
1.0
176
     1
 76
     1
176
     1
 77
     6
176
     1
 78
     2
176
     1
 67
     7
176
     1
 79
     3
176
     1
170
     0
176
     1
171
     0
176
     1
290
     0
176
     1
 93
        1
176
     1
 44
0.0
176
     1
173
     0
176
     1
  0
VISUALSTYLE
  5
35
102
{ACAD_REACTORS
330
2A
102
}
330
2A
100
AcDbVisualStyle
  2
Dim
 70
    11
177
     2
291
     1
 71
     2
176
     1
 72
     2
176
     1
 73
     0
176
     1
 90
        0
176
     1
 40
-0.6
176
     1
 41
-30.0
176
     1
 62
     5
 63
     7
421
 16777215
176
     1
 74
     1
176
     1
 91
        4
176
     1
 64
     7
176
     1
 65
   257
176
     1
 75
     1
176
     1
175
     1
176
     1
 42
1.0
176
     1
 92
        8
176
     1
 66
     7
176
     1
 43
1.0
176
     1
 76
     1
176
     1
 77
     6
176
     1
 78
     2
176
     1
 67
     7
176
     1
 79
     5
176
     1
170
     0
176
     1
171
     0
176
     1
290
     0
176
     1
 93
        1
176
     1
 44
-50.0
176
     1
173
     0
176
     1
  0
VISUALSTYLE
  5
39
102
{ACAD_REACTORS
330
2A
102
}
330
2A
100
AcDbVisualStyle
  2
Facepattern
 70
    15
177
     2
291
     1
 71
     2
176
     1
 72
     2
176
     1
 73
     0
176
     1
 90
        0
176
     1
 40
-0.6
176
     1
 41
-30.0
176
     1
 62
     5
 63
     7
421
 16777215
176
     1
 74
     1
176
     1
 91
        4
176
     1
 64
     7
176
     1
 65
   257
176
     1
 75
     1
176
     1
175
     1
176
     1
 42
1.0
176
     1
 92
        8
176
     1
 66
     7
176
     1
 43
1.0
176
     1
 76
     1
176
     1
 77
     6
176
     1
 78
     2
176
     1
 67
     7
176
     1
 79
     5
176
     1
170
     0
176
     1
171
     0
176
     1
290
     0
176
     1
 93
        1
176
     1
 44
0.0
176
     1
173
     0
176
     1
  0
VISUALSTYLE
  5
2B
102
{ACAD_REACTORS
330
2A
102
}
330
2A
100
AcDbVisualStyle
  2
Flat
 70
     0
177
     2
291
     1
 71
     2
176
     1
 72
     1
176
     1
 73
     1
176
     1
 90
        2
176
     1
 40
-0.6
176
     1
 41
30.0
176
     1
 62
     5
 63
     7
421
 16777215
176
     1
 74
     0
176
     1
 91
        4
176
     1
 64
     7
176
     1
 65
   257
176
     1
 75
     1
176
     1
175
     1
176
     1
 42
1.0
176
     1
 92
        8
176
     1
 66
     7
176
     1
 43
1.0
176
     1
 76
     1
176
     1
 77
     6
176
     1
 78
     2
176
     1
 67
     7
176
     1
 79
     5
176
     1
170
     0
176
     1
171
     0
176
     1
290
     0
176
     1
 93
       13
176
     1
 44
0.0
176
     1
173
     0
176
     1
  0
VISUALSTYLE
  5
2C
102
{ACAD_REACTORS
330
2A
102
}
330
2A
100
AcDbVisualStyle
  2
FlatWithEdges
 70
     1
177
     2
291
     1
 71
     2
176
     1
 72
     1
176
     1
 73
     1
176
     1
 90
        2
176
     1
 40
-0.6
176
     1
 41
30.0
176
     1
 62
     5
 63
     7
421
 16777215
176
     1
 74
     1
176
     1
 91
        4
176
     1
 64
     7
176
     1
 65
   257
176
     1
 75
     1
176
     1
175
     1
176
     1
 42
1.0
176
     1
 92
        0
176
     1
 66
   257
176
     1
 43
1.0
176
     1
 76
     1
176
     1
 77
     6
176
     1
 78
     2
176
     1
 67
     7
176
     1
 79
     5
176
     1
170
     0
176
     1
171
     0
176
     1
290
     0
176
     1
 93
       13
176
     1
 44
0.0
176
     1
173
     0
176
     1
  0
VISUALSTYLE
  5
2D
102
{ACAD_REACTORS
330
2A
102
}
330
2A
100
AcDbVisualStyle
  2
Gouraud
 70
     2
177
     2
291
     1
 71
     2
176
     1
 72
     2
176
     1
 73
     1
176
     1
 90
        2
176
     1
 40
-0.6
176
     1
 41
30.0
176
     1
 62
     5
 63
     7
421
 16777215
176
     1
 74
     0
176
     1
 91
        4
176
     1
 64
     7
176
     1
 65
   257
176
     1
 75
     1
176
     1
175
     1
176
     1
 42
1.0
176
     1
 92
        0
176
     1
 66
     7
176
     1
 43
1.0
176
     1
 76
     1
176
     1
 77
     6
176
     1
 78
     2
176
     1
 67
     7
176
     1
 79
     5
176
     1
170
     0
176
     1
171
     0
176
     1
290
     0
176
     1
 93
       13
176
     1
 44
0.0
176
     1
173
     0
176
     1
  0
VISUALSTYLE
  5
2E
102
{ACAD_REACTORS
330
2A
102
}
330
2A
100
AcDbVisualStyle
  2
GouraudWithEdges
 70
     3
177
     2
291
     1
 71
     2
176
     1
 72
     2
176
     1
 73
     1
176
     1
 90
        2
176
     1
 40
-0.6
176
     1
 41
30.0
176
     1
 62
     5
 63
     7
421
 16777215
176
     1
 74
     1
176
     1
 91
        4
176
     1
 64
     7
176
     1
 65
   257
176
     1
 75
     1
176
     1
175
     1
176
     1
 42
1.0
176
     1
 92
        0
176
     1
 66
   257
176
     1
 43
1.0
176
     1
 76
     1
176
     1
 77
     6
176
     1
 78
     2
176
     1
 67
     7
176
     1
 79
     5
176
     1
170
     0
176
     1
171
     0
176
     1
290
     0
176
     1
 93
       13
176
     1
 44
0.0
176
     1
173
     0
176
     1
  0
VISUALSTYLE
  5
38
102
{ACAD_REACTORS
330
2A
102
}
330
2A
100
AcDbVisualStyle
  2
Linepattern
 70
    14
177
     2
291
     1
 71
     2
176
     1
 72
     2
176
     1
 73
     0
176
     1
 90
        0
176
     1
 40
-0.6
176
     1
 41
-30.0
176
     1
 62
     5
 63
     7
421
 16777215
176
     1
 74
     1
176
     1
 91
        4
176
     1
 64
     7
176
     1
 65
   257
176
     1
 75
     7
176
     1
175
     7
176
     1
 42
1.0
176
     1
 92
        8
176
     1
 66
     7
176
     1
 43
1.0
176
     1
 76
     1
176
     1
 77
     6
176
     1
 78
     2
176
     1
 67
     7
176
     1
 79
     5
176
     1
170
     0
176
     1
171
     0
176
     1
290
     0
176
     1
 93
        1
176
     1
 44
0.0
176
     1
173
     0
176
     1
  0
VISUALSTYLE
  5
33
102
{ACAD_REACTORS
330
2A
102
}
330
2A
100
AcDbVisualStyle
  2
Realistic
 70
     8
177
     2
291
     0
 71
     2
176
     1
 72
     2
176
     1
 73
     0
176
     1
 90
        0
176
     1
 40
-0.6
176
     1
 41
-30.0
176
     1
 62
     5
 63
     7
421
 16777215
176
     1
 74
     1
176
     1
 91
        0
176
     1
 64
     7
176
     1
 65
   257
176
     1
 75
     1
176
     1
175
     1
176
     1
 42
1.0
176
     1
 92
        8
176
     1
 66
     8
424
  7895160
176
     1
 43
1.0
176
     1
 76
     1
176
     1
 77
     6
176
     1
 78
     2
176
     1
 67
     7
176
     1
 79
     5
176
     1
170
     0
176
     1
171
     0
176
     1
290
     0
176
     1
 93
       13
176
     1
 44
0.0
176
     1
173
     0
176
     1
  0
VISUALSTYLE
  5
37
102
{ACAD_REACTORS
330
2A
102
}
330
2A
100
AcDbVisualStyle
  2
Thicken
 70
    13
177
     2
291
     1
 71
     2
176
     1
 72
     2
176
     1
 73
     0
176
     1
 90
        0
176
     1
 40
-0.6
176
     1
 41
-30.0
176
     1
 62
     5
 63
     7
421
 16777215
176
     1
 74
     1
176
     1
 91
        4
176
     1
 64
     7
176
     1
 65
   257
176
     1
 75
     1
176
     1
175
     1
176
     1
 42
1.0
176
     1
 92
       12
176
     1
 66
     7
176
     1
 43
1.0
176
     1
 76
     1
176
     1
 77
     6
176
     1
 78
     2
176
     1
 67
     7
176
     1
 79
     5
176
     1
170
     0
176
     1
171
     0
176
     1
290
     0
176
     1
 93
        1
176
     1
 44
0.0
176
     1
173
     0
176
     1
  0
ENDSEC
  0
EOF
