  0
SECTION
  2
HEADER
  9
$ACADVER
  1
AC1024
  9
$ACADMAINTVER
 70
     6
  9
$DWGCODEPAGE
  3
ANSI_932
  9
$INSBASE
 10
0.0
 20
0.0
 30
0.0
  9
$EXTMIN
 10
66.75613012615688
 20
22.88765098148698
 30
0.0
  9
$EXTMAX
 10
195.7151036372548
 20
87.4575894839684
 30
0.0
  9
$LIMMIN
 10
0.0
 20
0.0
  9
$LIMMAX
 10
420.0
 20
297.0
  9
$ORTHOMODE
 70
     0
  9
$REGENMODE
 70
     1
  9
$FILLMODE
 70
     1
  9
$QTEXTMODE
 70
     0
  9
$MIRRTEXT
 70
     1
  9
$LTSCALE
 40
0.25
  9
$ATTMODE
 70
     1
  9
$TEXTSIZE
 40
5.0
  9
$TRACEWID
 40
0.05
  9
$TEXTSTYLE
  7
Standard
  9
$CLAYER
  8
0
  9
$CELTYPE
  6
ByLayer
  9
$CECOLOR
 62
   256
  9
$CELTSCALE
 40
1.0
  9
$DISPSILH
 70
     0
  9
$DIMSCALE
 40
1.0
  9
$DIMASZ
 40
4.0
  9
$DIMEXO
 40
2.0
  9
$DIMDLI
 40
10.0
  9
$DIMRND
 40
0.0
  9
$DIMDLE
 40
0.0
  9
$DIMEXE
 40
2.0
  9
$DIMTP
 40
0.0
  9
$DIMTM
 40
0.0
  9
$DIMTXT
 40
3.5
  9
$DIMCEN
 40
0.09
  9
$DIMTSZ
 40
0.0
  9
$DIMTOL
 70
     0
  9
$DIMLIM
 70
     0
  9
$DIMTIH
 70
     0
  9
$DIMTOH
 70
     0
  9
$DIMSE1
 70
     0
  9
$DIMSE2
 70
     0
  9
$DIMTAD
 70
     3
  9
$DIMZIN
 70
     8
  9
$DIMBLK
  1

  9
$DIMASO
 70
     1
  9
$DIMSHO
 70
     1
  9
$DIMPOST
  1

  9
$DIMAPOST
  1

  9
$DIMALT
 70
     0
  9
$DIMALTD
 70
     2
  9
$DIMALTF
 40
25.4
  9
$DIMLFAC
 40
1.0
  9
$DIMTOFL
 70
     1
  9
$DIMTVP
 40
0.7
  9
$DIMTIX
 70
     0
  9
$DIMSOXD
 70
     0
  9
$DIMSAH
 70
     0
  9
$DIMBLK1
  1

  9
$DIMBLK2
  1

  9
$DIMSTYLE
  2
Standard
  9
$DIMCLRD
 70
     0
  9
$DIMCLRE
 70
     0
  9
$DIMCLRT
 70
     0
  9
$DIMTFAC
 40
0.5
  9
$DIMGAP
 40
0.09
  9
$DIMJUST
 70
     0
  9
$DIMSD1
 70
     0
  9
$DIMSD2
 70
     0
  9
$DIMTOLJ
 70
     1
  9
$DIMTZIN
 70
     8
  9
$DIMALTZ
 70
     0
  9
$DIMALTTZ
 70
     0
  9
$DIMUPT
 70
     1
  9
$DIMDEC
 70
     2
  9
$DIMTDEC
 70
     4
  9
$DIMALTU
 70
     2
  9
$DIMALTTD
 70
     2
  9
$DIMTXSTY
  7
Standard
  9
$DIMAUNIT
 70
     0
  9
$DIMADEC
 70
     0
  9
$DIMALTRND
 40
0.0
  9
$DIMAZIN
 70
     0
  9
$DIMDSEP
 70
    46
  9
$DIMATFIT
 70
     2
  9
$DIMFRAC
 70
     0
  9
$DIMLDRBLK
  1

  9
$DIMLUNIT
 70
     2
  9
$DIMLWD
 70
    -2
  9
$DIMLWE
 70
    -2
  9
$DIMTMOVE
 70
     2
  9
$DIMFXL
 40
1.0
  9
$DIMFXLON
 70
     0
  9
$DIMJOGANG
 40
0.7853981633974483
  9
$DIMTFILL
 70
     0
  9
$DIMTFILLCLR
 70
     0
  9
$DIMARCSYM
 70
     0
  9
$DIMLTYPE
  6

  9
$DIMLTEX1
  6

  9
$DIMLTEX2
  6

  9
$DIMTXTDIRECTION
 70
     0
  9
$LUNITS
 70
     2
  9
$LUPREC
 70
     4
  9
$SKETCHINC
 40
0.1
  9
$FILLETRAD
 40
0.5
  9
$AUNITS
 70
     0
  9
$AUPREC
 70
     0
  9
$MENU
  1
.
  9
$ELEVATION
 40
0.0
  9
$PELEVATION
 40
0.0
  9
$THICKNESS
 40
0.0
  9
$LIMCHECK
 70
     0
  9
$CHAMFERA
 40
0.5
  9
$CHAMFERB
 40
0.5
  9
$CHAMFERC
 40
1.0
  9
$CHAMFERD
 40
0.0
  9
$SKPOLY
 70
     0
  9
$TDCREATE
 40
2456776.982037037
  9
$TDUCREATE
 40
2456776.607037037
  9
$TDUPDATE
 40
2456776.607048611
  9
$TDUUPDATE
 40
2456776.232048611
  9
$TDINDWG
 40
0.0000000116
  9
$TDUSRTIMER
 40
0.0000000116
  9
$USRTIMER
 70
     1
  9
$ANGBASE
 50
0.0
  9
$ANGDIR
 70
     0
  9
$PDMODE
 70
     0
  9
$PDSIZE
 40
0.0
  9
$PLINEWID
 40
0.0
  9
$SPLFRAME
 70
     0
  9
$SPLINETYPE
 70
     6
  9
$SPLINESEGS
 70
     8
  9
$HANDSEED
  5
4CE
  9
$SURFTAB1
 70
     6
  9
$SURFTAB2
 70
     6
  9
$SURFTYPE
 70
     6
  9
$SURFU
 70
     6
  9
$SURFV
 70
     6
  9
$UCSBASE
  2

  9
$UCSNAME
  2

  9
$UCSORG
 10
0.0
 20
0.0
 30
0.0
  9
$UCSXDIR
 10
1.0
 20
0.0
 30
0.0
  9
$UCSYDIR
 10
0.0
 20
1.0
 30
0.0
  9
$UCSORTHOREF
  2

  9
$UCSORTHOVIEW
 70
     0
  9
$UCSORGTOP
 10
0.0
 20
0.0
 30
0.0
  9
$UCSORGBOTTOM
 10
0.0
 20
0.0
 30
0.0
  9
$UCSORGLEFT
 10
0.0
 20
0.0
 30
0.0
  9
$UCSORGRIGHT
 10
0.0
 20
0.0
 30
0.0
  9
$UCSORGFRONT
 10
0.0
 20
0.0
 30
0.0
  9
$UCSORGBACK
 10
0.0
 20
0.0
 30
0.0
  9
$PUCSBASE
  2

  9
$PUCSNAME
  2

  9
$PUCSORG
 10
0.0
 20
0.0
 30
0.0
  9
$PUCSXDIR
 10
1.0
 20
0.0
 30
0.0
  9
$PUCSYDIR
 10
0.0
 20
1.0
 30
0.0
  9
$PUCSORTHOREF
  2

  9
$PUCSORTHOVIEW
 70
     0
  9
$PUCSORGTOP
 10
0.0
 20
0.0
 30
0.0
  9
$PUCSORGBOTTOM
 10
0.0
 20
0.0
 30
0.0
  9
$PUCSORGLEFT
 10
0.0
 20
0.0
 30
0.0
  9
$PUCSORGRIGHT
 10
0.0
 20
0.0
 30
0.0
  9
$PUCSORGFRONT
 10
0.0
 20
0.0
 30
0.0
  9
$PUCSORGBACK
 10
0.0
 20
0.0
 30
0.0
  9
$USERI1
 70
     0
  9
$USERI2
 70
     0
  9
$USERI3
 70
     0
  9
$USERI4
 70
     0
  9
$USERI5
 70
     0
  9
$USERR1
 40
0.0
  9
$USERR2
 40
0.0
  9
$USERR3
 40
0.0
  9
$USERR4
 40
0.0
  9
$USERR5
 40
0.0
  9
$WORLDVIEW
 70
     1
  9
$SHADEDGE
 70
     3
  9
$SHADEDIF
 70
    70
  9
$TILEMODE
 70
     1
  9
$MAXACTVP
 70
    64
  9
$PINSBASE
 10
0.0
 20
0.0
 30
0.0
  9
$PLIMCHECK
 70
     0
  9
$PEXTMIN
 10
0.0
 20
0.0
 30
0.0
  9
$PEXTMAX
 10
420.0
 20
297.0
 30
0.0
  9
$PLIMMIN
 10
0.0
 20
0.0
  9
$PLIMMAX
 10
420.0
 20
297.0
  9
$UNITMODE
 70
     0
  9
$VISRETAIN
 70
     1
  9
$PLINEGEN
 70
     0
  9
$PSLTSCALE
 70
     1
  9
$TREEDEPTH
 70
  3020
  9
$CMLSTYLE
  2
Standard
  9
$CMLJUST
 70
     0
  9
$CMLSCALE
 40
1.0
  9
$PROXYGRAPHICS
 70
     1
  9
$MEASUREMENT
 70
     1
  9
$CELWEIGHT
370
    -1
  9
$ENDCAPS
280
     0
  9
$JOINSTYLE
280
     0
  9
$LWDISPLAY
290
     0
  9
$INSUNITS
 70
     4
  9
$HYPERLINKBASE
  1

  9
$STYLESHEET
  1

  9
$XEDIT
290
     1
  9
$CEPSNTYPE
380
     0
  9
$PSTYLEMODE
290
     1
  9
$FINGERPRINTGUID
  2
{B2DF3CB4-DB4B-4643-B542-457FC4C03E63}
  9
$VERSIONGUID
  2
{FAEB1C32-E019-11D5-929B-00C0DF256EC4}
  9
$EXTNAMES
290
     1
  9
$PSVPSCALE
 40
0.0
  9
$OLESTARTUP
290
     0
  9
$SORTENTS
280
   127
  9
$INDEXCTL
280
     0
  9
$HIDETEXT
280
     1
  9
$XCLIPFRAME
280
     2
  9
$HALOGAP
280
     0
  9
$OBSCOLOR
 70
   257
  9
$OBSLTYPE
280
     0
  9
$INTERSECTIONDISPLAY
280
     0
  9
$INTERSECTIONCOLOR
 70
   257
  9
$DIMASSOC
280
     1
  9
$PROJECTNAME
  1

  9
$CAMERADISPLAY
290
     0
  9
$LENSLENGTH
 40
50.0
  9
$CAMERAHEIGHT
 40
0.0
  9
$STEPSPERSEC
 40
2.0
  9
$STEPSIZE
 40
6.0
  9
$3DDWFPREC
 40
2.0
  9
$PSOLWIDTH
 40
0.25
  9
$PSOLHEIGHT
 40
4.0
  9
$LOFTANG1
 40
1.570796326794897
  9
$LOFTANG2
 40
1.570796326794897
  9
$LOFTMAG1
 40
0.0
  9
$LOFTMAG2
 40
0.0
  9
$LOFTPARAM
 70
     7
  9
$LOFTNORMALS
280
     1
  9
$LATITUDE
 40
37.795
  9
$LONGITUDE
 40
-122.394
  9
$NORTHDIRECTION
 40
0.0
  9
$TIMEZONE
 70
 -8000
  9
$LIGHTGLYPHDISPLAY
280
     1
  9
$TILEMODELIGHTSYNCH
280
     1
  9
$SOLIDHIST
280
     1
  9
$SHOWHIST
280
     1
  9
$DWFFRAME
280
     2
  9
$DGNFRAME
280
     2
  9
$REALWORLDSCALE
290
     1
  9
$INTERFERECOLOR
 62
   256
  9
$CSHADOW
280
     0
  9
$SHADOWPLANELOCATION
 40
0.0
  0
ENDSEC
  0
SECTION
  2
CLASSES
  0
CLASS
  1
ACDBDICTIONARYWDFLT
  2
AcDbDictionaryWithDefault
  3
ObjectDBX Classes
 90
        0
 91
        4
280
     0
281
     0
  0
CLASS
  1
VISUALSTYLE
  2
AcDbVisualStyle
  3
ObjectDBX Classes
 90
     4095
 91
        4
280
     0
281
     0
  0
CLASS
  1
MATERIAL
  2
AcDbMaterial
  3
ObjectDBX Classes
 90
     1153
 91
        4
280
     0
281
     0
  0
ENDSEC
  0
SECTION
  2
TABLES
  0
TABLE
  2
VPORT
  5
8
330
0
100
AcDbSymbolTable
 70
     1
  0
VPORT
  5
29
330
8
100
AcDbSymbolTableRecord
100
AcDbViewportTableRecord
  2
*Active
 70
     0
 10
0.0
 20
0.0
 11
1.0
 21
1.0
 12
10.42990654205607
 22
4.5
 13
0.0
 23
0.0
 14
0.5
 24
0.5
 15
0.5
 25
0.5
 16
0.0
 26
0.0
 36
1.0
 17
0.0
 27
0.0
 37
0.0
 40
9.0
 41
1.972972972850329
 42
50.0
 43
0.0
 44
0.0
 50
0.0
 51
0.0
 71
     0
 72
   100
 73
     1
 74
     3
 75
     0
 76
     0
 77
     0
 78
     0
281
     0
 65
     1
110
0.0
120
0.0
130
0.0
111
1.0
121
0.0
131
0.0
112
0.0
122
1.0
132
0.0
 79
     0
146
0.0
 60
     3
 61
     5
292
     1
282
     1
141
0.0
142
0.0
 63
   250
  0
ENDTAB
  0
TABLE
  2
LTYPE
  5
5
330
0
100
AcDbSymbolTable
 70
     9
  0
LTYPE
  5
14
330
5
100
AcDbSymbolTableRecord
100
AcDbLinetypeTableRecord
  2
ByBlock
 70
     0
  3

 72
    65
 73
     0
 40
0.0
  0
LTYPE
  5
15
330
5
100
AcDbSymbolTableRecord
100
AcDbLinetypeTableRecord
  2
ByLayer
 70
     0
  3

 72
    65
 73
     0
 40
0.0
  0
LTYPE
  5
16
330
5
100
AcDbSymbolTableRecord
100
AcDbLinetypeTableRecord
  2
Continuous
 70
     0
  3
Solid line
 72
    65
 73
     0
 40
0.0
  0
LTYPE
  5
8E
330
5
100
AcDbSymbolTableRecord
100
AcDbLinetypeTableRecord
  2
DOT
 70
     0
  3
DOT
 72
    65
 73
     2
 40
4.0
 49
6.0
 74
     0
 49
-2.0
 74
     0
  0
LTYPE
  5
8F
330
5
100
AcDbSymbolTableRecord
100
AcDbLinetypeTableRecord
  2
HIDDEN
 70
     0
  3
HIDDEN
 72
    65
 73
     2
 40
4.2
 49
8.4
 74
     0
 49
-4.2
 74
     0
  0
LTYPE
  5
90
330
5
100
AcDbSymbolTableRecord
100
AcDbLinetypeTableRecord
  2
DASHDOT
 70
     0
  3
DASHDOT
 72
    65
 73
     4
 40
14.5
 49
30.0
 74
     0
 49
-9.0
 74
     0
 49
2.5
 74
     0
 49
-9.0
 74
     0
  0
LTYPE
  5
91
330
5
100
AcDbSymbolTableRecord
100
AcDbLinetypeTableRecord
  2
PHANTOM
 70
     0
  3
PHANTOM
 72
    65
 73
     6
 40
12.0
 49
30.0
 74
     0
 49
-9.0
 74
     0
 49
2.5
 74
     0
 49
-5.0
 74
     0
 49
2.5
 74
     0
 49
-9.0
 74
     0
  0
LTYPE
  5
92
330
5
100
AcDbSymbolTableRecord
100
AcDbLinetypeTableRecord
  2
ACAD_ISO14W100
 70
     0
  3
ACAD_ISO14W100
 72
    65
 73
     8
 40
1.5
 49
12.0
 74
     0
 49
-3.0
 74
     0
 49
0.5
 74
     0
 49
-3.0
 74
     0
 49
0.5
 74
     0
 49
-3.0
 74
     0
 49
0.5
 74
     0
 49
-3.0
 74
     0
  0
LTYPE
  5
93
330
5
100
AcDbSymbolTableRecord
100
AcDbLinetypeTableRecord
  2
ACAD_ISO06W100
 70
     0
  3
ACAD_ISO06W100
 72
    65
 73
     8
 40
13.5
 49
24.0
 74
     0
 49
-3.0
 74
     0
 49
0.5
 74
     0
 49
-3.0
 74
     0
 49
0.5
 74
     0
 49
-3.0
 74
     0
 49
0.5
 74
     0
 49
-3.0
 74
     0
  0
LTYPE
  5
94
330
5
100
AcDbSymbolTableRecord
100
AcDbLinetypeTableRecord
  2
ACAD_ISO11W100
 70
     0
  3
ACAD_ISO11W100
 72
    65
 73
     6
 40
15.5
 49
12.0
 74
     0
 49
-3.0
 74
     0
 49
12.0
 74
     0
 49
-3.0
 74
     0
 49
0.5
 74
     0
 49
-3.0
 74
     0
  0
LTYPE
  5
95
330
5
100
AcDbSymbolTableRecord
100
AcDbLinetypeTableRecord
  2
ACAD_ISO13W100
 70
     0
  3
ACAD_ISO13W100
 72
    65
 73
     8
 40
13.0
 49
12.0
 74
     0
 49
-3.0
 74
     0
 49
12.0
 74
     0
 49
-3.0
 74
     0
 49
0.5
 74
     0
 49
-3.0
 74
     0
 49
0.5
 74
     0
 49
-3.0
 74
     0
  0
ENDTAB
  0
TABLE
  2
LAYER
  5
2
330
0
100
AcDbSymbolTable
 70
    31
  0
LAYER
  5
10
330
2
100
AcDbSymbolTableRecord
100
AcDbLayerTableRecord
  2
0
 70
     0
 62
     7
  6
Continuous
370
    -3
390
F
347
3E
  0
LAYER
  5
96
330
2
100
AcDbSymbolTableRecord
100
AcDbLayerTableRecord
  2
1
 70
     0
 62
     7
  6
Continuous
370
     9
390
F
347
3E
  0
LAYER
  5
97
330
2
100
AcDbSymbolTableRecord
100
AcDbLayerTableRecord
  2
2
 70
     0
 62
   134
  6
Continuous
370
     9
390
F
347
3E
  0
LAYER
  5
98
330
2
100
AcDbSymbolTableRecord
100
AcDbLayerTableRecord
  2
3
 70
     0
 62
   214
  6
Continuous
370
     9
390
F
347
3E
  0
LAYER
  5
99
330
2
100
AcDbSymbolTableRecord
100
AcDbLayerTableRecord
  2
4
 70
     0
 62
    54
  6
Continuous
370
     9
390
F
347
3E
  0
LAYER
  5
9A
330
2
100
AcDbSymbolTableRecord
100
AcDbLayerTableRecord
  2
5
 70
     0
 62
    94
  6
Continuous
370
     9
390
F
347
3E
  0
LAYER
  5
9B
330
2
100
AcDbSymbolTableRecord
100
AcDbLayerTableRecord
  2
6
 70
     0
 62
    14
  6
Continuous
370
     9
390
F
347
3E
  0
LAYER
  5
9C
330
2
100
AcDbSymbolTableRecord
100
AcDbLayerTableRecord
  2
7
 70
     0
 62
     4
  6
Continuous
370
     9
390
F
347
3E
  0
LAYER
  5
9D
330
2
100
AcDbSymbolTableRecord
100
AcDbLayerTableRecord
  2
8
 70
     0
 62
     6
  6
Continuous
370
     9
390
F
347
3E
  0
LAYER
  5
9E
330
2
100
AcDbSymbolTableRecord
100
AcDbLayerTableRecord
  2
9
 70
     0
 62
     2
  6
Continuous
370
     9
390
F
347
3E
  0
LAYER
  5
9F
330
2
100
AcDbSymbolTableRecord
100
AcDbLayerTableRecord
  2
10
 70
     0
 62
     3
  6
Continuous
370
     9
390
F
347
3E
  0
LAYER
  5
A0
330
2
100
AcDbSymbolTableRecord
100
AcDbLayerTableRecord
  2
11
 70
     0
 62
   251
  6
Continuous
370
     9
390
F
347
3E
  0
LAYER
  5
A1
330
2
100
AcDbSymbolTableRecord
100
AcDbLayerTableRecord
  2
12
 70
     0
 62
   136
  6
Continuous
370
     9
390
F
347
3E
  0
LAYER
  5
A2
330
2
100
AcDbSymbolTableRecord
100
AcDbLayerTableRecord
  2
13
 70
     0
 62
   216
  6
Continuous
370
     9
390
F
347
3E
  0
LAYER
  5
A3
330
2
100
AcDbSymbolTableRecord
100
AcDbLayerTableRecord
  2
14
 70
     0
 62
    56
  6
Continuous
370
     9
390
F
347
3E
  0
LAYER
  5
A4
330
2
100
AcDbSymbolTableRecord
100
AcDbLayerTableRecord
  2
15
 70
     0
 62
    96
  6
Continuous
370
     9
390
F
347
3E
  0
LAYER
  5
A5
330
2
100
AcDbSymbolTableRecord
100
AcDbLayerTableRecord
  2
16
 70
     0
 62
    16
  6
Continuous
370
     9
390
F
347
3E
  0
LAYER
  5
A6
330
2
100
AcDbSymbolTableRecord
100
AcDbLayerTableRecord
  2
17
 70
     0
 62
   132
  6
Continuous
370
     9
390
F
347
3E
  0
LAYER
  5
A7
330
2
100
AcDbSymbolTableRecord
100
AcDbLayerTableRecord
  2
18
 70
     0
 62
   212
  6
Continuous
370
     9
390
F
347
3E
  0
LAYER
  5
A8
330
2
100
AcDbSymbolTableRecord
100
AcDbLayerTableRecord
  2
19
 70
     0
 62
    52
  6
Continuous
370
     9
390
F
347
3E
  0
LAYER
  5
A9
330
2
100
AcDbSymbolTableRecord
100
AcDbLayerTableRecord
  2
20
 70
     0
 62
   250
  6
Continuous
370
     9
390
F
347
3E
  0
LAYER
  5
AA
330
2
100
AcDbSymbolTableRecord
100
AcDbLayerTableRecord
  2
21
 70
     0
 62
     7
  6
Continuous
370
     9
390
F
347
3E
  0
LAYER
  5
AB
330
2
100
AcDbSymbolTableRecord
100
AcDbLayerTableRecord
  2
22
 70
     0
 62
     7
  6
Continuous
370
     9
390
F
347
3E
  0
LAYER
  5
AC
330
2
100
AcDbSymbolTableRecord
100
AcDbLayerTableRecord
  2
23
 70
     0
 62
     5
  6
Continuous
370
     9
390
F
347
3E
  0
LAYER
  5
AD
330
2
100
AcDbSymbolTableRecord
100
AcDbLayerTableRecord
  2
24
 70
     0
 62
   104
  6
Continuous
370
     9
390
F
347
3E
  0
LAYER
  5
AE
330
2
100
AcDbSymbolTableRecord
100
AcDbLayerTableRecord
  2
25
 70
     0
 62
     7
  6
Continuous
370
     9
390
F
347
3E
  0
LAYER
  5
AF
330
2
100
AcDbSymbolTableRecord
100
AcDbLayerTableRecord
  2
26
 70
     0
 62
     1
  6
Continuous
370
     9
390
F
347
3E
  0
LAYER
  5
B0
330
2
100
AcDbSymbolTableRecord
100
AcDbLayerTableRecord
  2
27
 70
     0
 62
    12
  6
Continuous
370
     9
390
F
347
3E
  0
LAYER
  5
B1
330
2
100
AcDbSymbolTableRecord
100
AcDbLayerTableRecord
  2
28
 70
     0
 62
   104
  6
Continuous
370
     9
390
F
347
3E
  0
LAYER
  5
B2
330
2
100
AcDbSymbolTableRecord
100
AcDbLayerTableRecord
  2
29
 70
     0
 62
     1
  6
Continuous
370
     9
390
F
347
3E
  0
LAYER
  5
B3
330
2
100
AcDbSymbolTableRecord
100
AcDbLayerTableRecord
  2
30
 70
     0
 62
   104
  6
Continuous
370
     9
390
F
347
3E
  0
ENDTAB
  0
TABLE
  2
STYLE
  5
3
330
0
100
AcDbSymbolTable
 70
     3
  0
STYLE
  5
11
330
3
100
AcDbSymbolTableRecord
100
AcDbTextStyleTableRecord
  2
Standard
 70
     0
 40
0.0
 41
1.0
 50
0.0
 71
     0
 42
5.0
  3
txt
  4
bigfont
  0
STYLE
  5
41
330
3
100
AcDbSymbolTableRecord
100
AcDbTextStyleTableRecord
  2
T_STANDARD
 70
     4
 40
10.0
 41
1.0
 50
0.0
 71
     0
 42
10.0
  3
txt
  4
bigfont
  0
STYLE
  5
399
330
3
100
AcDbSymbolTableRecord
100
AcDbTextStyleTableRecord
  2
ＭＳ ゴシック
 70
     0
 40
0.0
 41
1.0
 50
0.0
 71
     0
 42
0.0
  3
MSGOTHIC.TTC
  4

  0
ENDTAB
  0
TABLE
  2
VIEW
  5
6
330
0
100
AcDbSymbolTable
 70
     0
  0
ENDTAB
  0
TABLE
  2
UCS
  5
7
330
0
100
AcDbSymbolTable
 70
     0
  0
ENDTAB
  0
TABLE
  2
APPID
  5
9
330
0
100
AcDbSymbolTable
 70
     2
  0
APPID
  5
12
330
9
100
AcDbSymbolTableRecord
100
AcDbRegAppTableRecord
  2
ACAD
 70
     0
  0
APPID
  5
40
330
9
100
AcDbSymbolTableRecord
100
AcDbRegAppTableRecord
  2
ODA
 70
     0
  0
ENDTAB
  0
TABLE
  2
DIMSTYLE
  5
A
330
0
100
AcDbSymbolTable
 70
     1
100
AcDbDimStyleTable
  0
DIMSTYLE
105
27
102
{ACAD_REACTORS
330
3A3
330
3AD
330
3B7
330
3C1
330
3CB
330
3D5
330
3DF
330
3E9
330
3F3
330
3FD
330
407
330
4A9
330
4B3
330
4BD
102
}
330
A
100
AcDbSymbolTableRecord
100
AcDbDimStyleTableRecord
  2
Standard
 70
     0
178
     0
340
11
  0
ENDTAB
  0
TABLE
  2
BLOCK_RECORD
  5
1
330
0
100
AcDbSymbolTable
 70
    31
  0
BLOCK_RECORD
  5
1F
330
1
100
AcDbSymbolTableRecord
100
AcDbBlockTableRecord
  2
*Model_Space
340
22
 70
     0
280
     1
281
     0
  0
BLOCK_RECORD
  5
1B
330
1
100
AcDbSymbolTableRecord
100
AcDbBlockTableRecord
  2
*Paper_Space
340
1E
 70
     0
280
     1
281
     0
  0
BLOCK_RECORD
  5
23
330
1
100
AcDbSymbolTableRecord
100
AcDbBlockTableRecord
  2
*Paper_Space0
340
26
 70
     0
280
     1
281
     0
  0
BLOCK_RECORD
  5
42
330
1
100
AcDbSymbolTableRecord
100
AcDbBlockTableRecord
  2
_ORIGIN
340
0
 70
     0
280
     1
281
     0
  0
BLOCK_RECORD
  5
47
330
1
100
AcDbSymbolTableRecord
100
AcDbBlockTableRecord
  2
_DOTBLANK
340
0
 70
     0
280
     1
281
     0
  0
BLOCK_RECORD
  5
4C
330
1
100
AcDbSymbolTableRecord
100
AcDbBlockTableRecord
  2
_DOT
340
0
 70
     0
280
     1
281
     0
  0
BLOCK_RECORD
  5
51
330
1
100
AcDbSymbolTableRecord
100
AcDbBlockTableRecord
  2
_OPEN
340
0
102
{BLKREFS
331
3A1
331
3A2
331
3AB
331
3AC
331
3B5
331
3B6
331
3BF
331
3C0
331
3C9
331
3CA
331
3D3
331
3D4
331
3DD
331
3DE
331
3E7
331
3E8
331
3F1
331
3F2
331
3FB
331
3FC
331
405
331
406
331
4A7
331
4A8
331
4B1
331
4B2
331
4BB
331
4BC
102
}
 70
     0
280
     1
281
     0
  0
BLOCK_RECORD
  5
57
330
1
100
AcDbSymbolTableRecord
100
AcDbBlockTableRecord
  2
_CLOSED
340
0
 70
     0
280
     1
281
     0
  0
BLOCK_RECORD
  5
5E
330
1
100
AcDbSymbolTableRecord
100
AcDbBlockTableRecord
  2
_CLOSEDBLANK
340
0
 70
     0
280
     1
281
     0
  0
BLOCK_RECORD
  5
64
330
1
100
AcDbSymbolTableRecord
100
AcDbBlockTableRecord
  2
_ARROWFILLED
340
0
 70
     0
280
     1
281
     0
  0
BLOCK_RECORD
  5
68
330
1
100
AcDbSymbolTableRecord
100
AcDbBlockTableRecord
  2
_BOXBLANK
340
0
 70
     0
280
     1
281
     0
  0
BLOCK_RECORD
  5
70
330
1
100
AcDbSymbolTableRecord
100
AcDbBlockTableRecord
  2
_BOXFILLED
340
0
 70
     0
280
     1
281
     0
  0
BLOCK_RECORD
  5
75
330
1
100
AcDbSymbolTableRecord
100
AcDbBlockTableRecord
  2
_INTEGRAL
340
0
 70
     0
280
     1
281
     0
  0
BLOCK_RECORD
  5
7A
330
1
100
AcDbSymbolTableRecord
100
AcDbBlockTableRecord
  2
_OBLIQUE
340
0
 70
     0
280
     1
281
     0
  0
BLOCK_RECORD
  5
7E
330
1
100
AcDbSymbolTableRecord
100
AcDbBlockTableRecord
  2
_NONE
340
0
 70
     0
280
     1
281
     0
  0
BLOCK_RECORD
  5
81
330
1
100
AcDbSymbolTableRecord
100
AcDbBlockTableRecord
  2
MARK_OPEN
340
0
102
{BLKREFS
331
408
331
40E
331
414
331
41A
331
420
102
}
 70
     0
280
     1
281
     0
  0
BLOCK_RECORD
  5
86
330
1
100
AcDbSymbolTableRecord
100
AcDbBlockTableRecord
  2
MARK_ORIGIN
340
0
 70
     0
280
     1
281
     0
  0
BLOCK_RECORD
  5
8A
330
1
100
AcDbSymbolTableRecord
100
AcDbBlockTableRecord
  2
MARK_DOT
340
0
 70
     0
280
     1
281
     0
  0
BLOCK_RECORD
  5
39A
330
1
100
AcDbSymbolTableRecord
100
AcDbBlockTableRecord
  2
Dim1
340
0
 70
     0
280
     1
281
     0
  0
BLOCK_RECORD
  5
3A4
330
1
100
AcDbSymbolTableRecord
100
AcDbBlockTableRecord
  2
Dim2
340
0
 70
     0
280
     1
281
     0
  0
BLOCK_RECORD
  5
3AE
330
1
100
AcDbSymbolTableRecord
100
AcDbBlockTableRecord
  2
Dim3
340
0
 70
     0
280
     1
281
     0
  0
BLOCK_RECORD
  5
3B8
330
1
100
AcDbSymbolTableRecord
100
AcDbBlockTableRecord
  2
Dim4
340
0
 70
     0
280
     1
281
     0
  0
BLOCK_RECORD
  5
3C2
330
1
100
AcDbSymbolTableRecord
100
AcDbBlockTableRecord
  2
Dim5
340
0
 70
     0
280
     1
281
     0
  0
BLOCK_RECORD
  5
3CC
330
1
100
AcDbSymbolTableRecord
100
AcDbBlockTableRecord
  2
Dim6
340
0
 70
     0
280
     1
281
     0
  0
BLOCK_RECORD
  5
3D6
330
1
100
AcDbSymbolTableRecord
100
AcDbBlockTableRecord
  2
Dim7
340
0
 70
     0
280
     1
281
     0
  0
BLOCK_RECORD
  5
3E0
330
1
100
AcDbSymbolTableRecord
100
AcDbBlockTableRecord
  2
Dim8
340
0
 70
     0
280
     1
281
     0
  0
BLOCK_RECORD
  5
3EA
330
1
100
AcDbSymbolTableRecord
100
AcDbBlockTableRecord
  2
Dim9
340
0
 70
     0
280
     1
281
     0
  0
BLOCK_RECORD
  5
3F4
330
1
100
AcDbSymbolTableRecord
100
AcDbBlockTableRecord
  2
Dim10
340
0
 70
     0
280
     1
281
     0
  0
BLOCK_RECORD
  5
3FE
330
1
100
AcDbSymbolTableRecord
100
AcDbBlockTableRecord
  2
Dim11
340
0
 70
     0
280
     1
281
     0
  0
BLOCK_RECORD
  5
48D
330
1
100
AcDbSymbolTableRecord
100
AcDbBlockTableRecord
  2
*G27
340
0
102
{BLKREFS
331
498
102
}
 70
     0
280
     1
281
     0
  0
BLOCK_RECORD
  5
4A2
330
1
100
AcDbSymbolTableRecord
100
AcDbBlockTableRecord
  2
Dim12
340
0
 70
     0
280
     1
281
     0
  0
BLOCK_RECORD
  5
4AA
330
1
100
AcDbSymbolTableRecord
100
AcDbBlockTableRecord
  2
Dim13
340
0
 70
     0
280
     1
281
     0
  0
BLOCK_RECORD
  5
4B4
330
1
100
AcDbSymbolTableRecord
100
AcDbBlockTableRecord
  2
Dim14
340
0
 70
     0
280
     1
281
     0
  0
ENDTAB
  0
ENDSEC
  0
SECTION
  2
BLOCKS
  0
BLOCK
  5
20
330
1F
100
AcDbEntity
  8
0
100
AcDbBlockBegin
  2
*Model_Space
 70
     0
 10
0.0
 20
0.0
 30
0.0
  3
*Model_Space
  1

  0
ENDBLK
  5
21
330
1F
100
AcDbEntity
  8
0
100
AcDbBlockEnd
  0
BLOCK
  5
1C
330
1B
100
AcDbEntity
 67
     1
  8
0
100
AcDbBlockBegin
  2
*Paper_Space
 70
     0
 10
0.0
 20
0.0
 30
0.0
  3
*Paper_Space
  1

  0
ENDBLK
  5
1D
330
1B
100
AcDbEntity
 67
     1
  8
0
100
AcDbBlockEnd
  0
BLOCK
  5
24
330
23
100
AcDbEntity
  8
0
100
AcDbBlockBegin
  2
*Paper_Space0
 70
     0
 10
0.0
 20
0.0
 30
0.0
  3
*Paper_Space0
  1

  0
ENDBLK
  5
25
330
23
100
AcDbEntity
  8
0
100
AcDbBlockEnd
  0
BLOCK
  5
45
330
42
100
AcDbEntity
  8
0
100
AcDbBlockBegin
  2
_ORIGIN
 70
     0
 10
0.0
 20
0.0
 30
0.0
  3
_ORIGIN
  1

  0
CIRCLE
  5
43
330
42
100
AcDbEntity
  8
0
100
AcDbCircle
 10
0.0
 20
0.0
 30
0.0
 40
0.5
  0
LINE
  5
44
330
42
100
AcDbEntity
  8
0
100
AcDbLine
 10
0.0
 20
0.0
 30
0.0
 11
-1.0
 21
0.0
 31
0.0
  0
ENDBLK
  5
46
330
42
100
AcDbEntity
  8
0
100
AcDbBlockEnd
  0
BLOCK
  5
4A
330
47
100
AcDbEntity
  8
0
100
AcDbBlockBegin
  2
_DOTBLANK
 70
     0
 10
0.0
 20
0.0
 30
0.0
  3
_DOTBLANK
  1

  0
CIRCLE
  5
48
330
47
100
AcDbEntity
  8
0
100
AcDbCircle
 10
0.0
 20
0.0
 30
0.0
 40
0.5
  0
LINE
  5
49
330
47
100
AcDbEntity
  8
0
100
AcDbLine
 10
-0.5
 20
0.0
 30
0.0
 11
-1.0
 21
0.0
 31
0.0
  0
ENDBLK
  5
4B
330
47
100
AcDbEntity
  8
0
100
AcDbBlockEnd
  0
BLOCK
  5
4F
330
4C
100
AcDbEntity
  8
0
100
AcDbBlockBegin
  2
_DOT
 70
     0
 10
0.0
 20
0.0
 30
0.0
  3
_DOT
  1

  0
LWPOLYLINE
  5
4D
330
4C
100
AcDbEntity
  8
0
100
AcDbPolyline
 90
        2
 70
     1
 43
0.5
 10
-0.25
 20
0.0
 42
1.0
 10
0.25
 20
0.0
 42
1.0
  0
LINE
  5
4E
330
4C
100
AcDbEntity
  8
0
100
AcDbLine
 10
-0.5
 20
0.0
 30
0.0
 11
-1.0
 21
0.0
 31
0.0
  0
ENDBLK
  5
50
330
4C
100
AcDbEntity
  8
0
100
AcDbBlockEnd
  0
BLOCK
  5
55
330
51
100
AcDbEntity
  8
0
100
AcDbBlockBegin
  2
_OPEN
 70
     0
 10
0.0
 20
0.0
 30
0.0
  3
_OPEN
  1

  0
LINE
  5
52
330
51
100
AcDbEntity
  8
0
100
AcDbLine
 10
0.0
 20
0.0
 30
0.0
 11
-1.0
 21
0.1666666666666667
 31
0.0
  0
LINE
  5
53
330
51
100
AcDbEntity
  8
0
100
AcDbLine
 10
0.0
 20
0.0
 30
0.0
 11
-1.0
 21
-0.1666666666666667
 31
0.0
  0
LINE
  5
54
330
51
100
AcDbEntity
  8
0
100
AcDbLine
 10
0.0
 20
0.0
 30
0.0
 11
-1.0
 21
0.0
 31
0.0
  0
ENDBLK
  5
56
330
51
100
AcDbEntity
  8
0
100
AcDbBlockEnd
  0
BLOCK
  5
5C
330
57
100
AcDbEntity
  8
0
100
AcDbBlockBegin
  2
_CLOSED
 70
     0
 10
0.0
 20
0.0
 30
0.0
  3
_CLOSED
  1

  0
LINE
  5
58
330
57
100
AcDbEntity
  8
0
100
AcDbLine
 10
0.0
 20
0.0
 30
0.0
 11
-1.0
 21
0.1666666666666667
 31
0.0
  0
LINE
  5
59
330
57
100
AcDbEntity
  8
0
100
AcDbLine
 10
0.0
 20
0.0
 30
0.0
 11
-1.0
 21
-0.1666666666666667
 31
0.0
  0
LINE
  5
5A
330
57
100
AcDbEntity
  8
0
100
AcDbLine
 10
-1.0
 20
0.1666666666666667
 30
0.0
 11
-1.0
 21
-0.1666666666666667
 31
0.0
  0
LINE
  5
5B
330
57
100
AcDbEntity
  8
0
100
AcDbLine
 10
0.0
 20
0.0
 30
0.0
 11
-1.0
 21
0.0
 31
0.0
  0
ENDBLK
  5
5D
330
57
100
AcDbEntity
  8
0
100
AcDbBlockEnd
  0
BLOCK
  5
62
330
5E
100
AcDbEntity
  8
0
100
AcDbBlockBegin
  2
_CLOSEDBLANK
 70
     0
 10
0.0
 20
0.0
 30
0.0
  3
_CLOSEDBLANK
  1

  0
LINE
  5
5F
330
5E
100
AcDbEntity
  8
0
100
AcDbLine
 10
0.0
 20
0.0
 30
0.0
 11
-1.0
 21
0.1666666666666667
 31
0.0
  0
LINE
  5
60
330
5E
100
AcDbEntity
  8
0
100
AcDbLine
 10
0.0
 20
0.0
 30
0.0
 11
-1.0
 21
-0.1666666666666667
 31
0.0
  0
LINE
  5
61
330
5E
100
AcDbEntity
  8
0
100
AcDbLine
 10
-1.0
 20
0.1666666666666667
 30
0.0
 11
-1.0
 21
-0.1666666666666667
 31
0.0
  0
ENDBLK
  5
63
330
5E
100
AcDbEntity
  8
0
100
AcDbBlockEnd
  0
BLOCK
  5
66
330
64
100
AcDbEntity
  8
0
100
AcDbBlockBegin
  2
_ARROWFILLED
 70
     0
 10
0.0
 20
0.0
 30
0.0
  3
_ARROWFILLED
  1

  0
SOLID
  5
65
330
64
100
AcDbEntity
  8
0
100
AcDbTrace
 10
0.0
 20
0.0
 30
0.0
 11
-1.0
 21
-0.1666666666666667
 31
0.0
 12
-1.0
 22
0.1666666666666667
 32
0.0
 13
0.0
 23
0.0
 33
0.0
  0
ENDBLK
  5
67
330
64
100
AcDbEntity
  8
0
100
AcDbBlockEnd
  0
BLOCK
  5
6E
330
68
100
AcDbEntity
  8
0
100
AcDbBlockBegin
  2
_BOXBLANK
 70
     0
 10
0.0
 20
0.0
 30
0.0
  3
_BOXBLANK
  1

  0
LINE
  5
69
330
68
100
AcDbEntity
  8
0
100
AcDbLine
 10
-0.5
 20
-0.5
 30
0.0
 11
0.5
 21
-0.5
 31
0.0
  0
LINE
  5
6A
330
68
100
AcDbEntity
  8
0
100
AcDbLine
 10
0.5
 20
-0.5
 30
0.0
 11
0.5
 21
0.5
 31
0.0
  0
LINE
  5
6B
330
68
100
AcDbEntity
  8
0
100
AcDbLine
 10
0.5
 20
0.5
 30
0.0
 11
-0.5
 21
0.5
 31
0.0
  0
LINE
  5
6C
330
68
100
AcDbEntity
  8
0
100
AcDbLine
 10
-0.5
 20
0.5
 30
0.0
 11
-0.5
 21
-0.5
 31
0.0
  0
LINE
  5
6D
330
68
100
AcDbEntity
  8
0
100
AcDbLine
 10
-0.5
 20
0.0
 30
0.0
 11
-1.0
 21
0.0
 31
0.0
  0
ENDBLK
  5
6F
330
68
100
AcDbEntity
  8
0
100
AcDbBlockEnd
  0
BLOCK
  5
73
330
70
100
AcDbEntity
  8
0
100
AcDbBlockBegin
  2
_BOXFILLED
 70
     0
 10
0.0
 20
0.0
 30
0.0
  3
_BOXFILLED
  1

  0
SOLID
  5
71
330
70
100
AcDbEntity
  8
0
100
AcDbTrace
 10
-0.5
 20
0.5
 30
0.0
 11
0.5
 21
0.5
 31
0.0
 12
-0.5
 22
-0.5
 32
0.0
 13
0.5
 23
-0.5
 33
0.0
  0
LINE
  5
72
330
70
100
AcDbEntity
  8
0
100
AcDbLine
 10
-0.5
 20
0.0
 30
0.0
 11
-1.0
 21
0.0
 31
0.0
  0
ENDBLK
  5
74
330
70
100
AcDbEntity
  8
0
100
AcDbBlockEnd
  0
BLOCK
  5
78
330
75
100
AcDbEntity
  8
0
100
AcDbBlockBegin
  2
_INTEGRAL
 70
     0
 10
0.0
 20
0.0
 30
0.0
  3
_INTEGRAL
  1

  0
ARC
  5
76
330
75
100
AcDbEntity
  8
0
100
AcDbCircle
 10
0.444888
 20
-0.0913346
 30
0.0
 40
0.4541666
100
AcDbArc
 50
101.9999999999999
 51
167.9999999999998
  0
ARC
  5
77
330
75
100
AcDbEntity
  8
0
100
AcDbCircle
 10
-0.444888
 20
0.0913346
 30
0.0
 40
0.4541666
100
AcDbArc
 50
281.9999999999997
 51
347.9999999999997
  0
ENDBLK
  5
79
330
75
100
AcDbEntity
  8
0
100
AcDbBlockEnd
  0
BLOCK
  5
7C
330
7A
100
AcDbEntity
  8
0
100
AcDbBlockBegin
  2
_OBLIQUE
 70
     0
 10
0.0
 20
0.0
 30
0.0
  3
_OBLIQUE
  1

  0
LINE
  5
7B
330
7A
100
AcDbEntity
  8
0
100
AcDbLine
 10
-0.5
 20
-0.5
 30
0.0
 11
0.5
 21
0.5
 31
0.0
  0
ENDBLK
  5
7D
330
7A
100
AcDbEntity
  8
0
100
AcDbBlockEnd
  0
BLOCK
  5
7F
330
7E
100
AcDbEntity
  8
0
100
AcDbBlockBegin
  2
_NONE
 70
     0
 10
0.0
 20
0.0
 30
0.0
  3
_NONE
  1

  0
ENDBLK
  5
80
330
7E
100
AcDbEntity
  8
0
100
AcDbBlockEnd
  0
BLOCK
  5
84
330
81
100
AcDbEntity
  8
0
100
AcDbBlockBegin
  2
MARK_OPEN
 70
     0
 10
0.0
 20
0.0
 30
0.0
  3
MARK_OPEN
  1

  0
LINE
  5
82
330
81
100
AcDbEntity
  8
0
100
AcDbLine
 10
0.0
 20
0.0
 30
0.0
 11
-1.0
 21
0.1666666666666667
 31
0.0
  0
LINE
  5
83
330
81
100
AcDbEntity
  8
0
100
AcDbLine
 10
0.0
 20
0.0
 30
0.0
 11
-1.0
 21
-0.1666666666666667
 31
0.0
  0
ENDBLK
  5
85
330
81
100
AcDbEntity
  8
0
100
AcDbBlockEnd
  0
BLOCK
  5
88
330
86
100
AcDbEntity
  8
0
100
AcDbBlockBegin
  2
MARK_ORIGIN
 70
     0
 10
0.0
 20
0.0
 30
0.0
  3
MARK_ORIGIN
  1

  0
CIRCLE
  5
87
330
86
100
AcDbEntity
  8
0
100
AcDbCircle
 10
0.0
 20
0.0
 30
0.0
 40
0.5
  0
ENDBLK
  5
89
330
86
100
AcDbEntity
  8
0
100
AcDbBlockEnd
  0
BLOCK
  5
8C
330
8A
100
AcDbEntity
  8
0
100
AcDbBlockBegin
  2
MARK_DOT
 70
     0
 10
0.0
 20
0.0
 30
0.0
  3
MARK_DOT
  1

  0
LWPOLYLINE
  5
8B
330
8A
100
AcDbEntity
  8
0
100
AcDbPolyline
 90
        2
 70
     1
 43
0.5
 10
-0.25
 20
0.0
 42
1.0
 10
0.25
 20
0.0
 42
1.0
  0
ENDBLK
  5
8D
330
8A
100
AcDbEntity
  8
0
100
AcDbBlockEnd
  0
BLOCK
  5
39B
330
39A
100
AcDbEntity
  8
0
100
AcDbBlockBegin
  2
Dim1
 70
     0
 10
0.0
 20
0.0
 30
0.0
  3
Dim1
  1

  0
LINE
  5
39D
330
39A
100
AcDbEntity
  8
25
  6
Continuous
 62
     7
370
     9
100
AcDbLine
 10
173.1251459652754
 20
46.90477851493254
 30
0.0
 11
191.2834489609958
 21
46.90477851493249
 31
0.0
  0
LINE
  5
39E
330
39A
100
AcDbEntity
  8
25
  6
Continuous
 62
     7
370
     9
100
AcDbLine
 10
173.1251459652754
 20
64.90477851493253
 30
0.0
 11
191.2834489609958
 21
64.90477851493247
 31
0.0
  0
LINE
  5
39F
330
39A
100
AcDbEntity
  8
25
  6
Continuous
 62
     7
370
     9
100
AcDbLine
 10
190.2834489609958
 20
46.90477851493249
 30
0.0
 11
190.2834489609958
 21
64.90477851493247
 31
0.0
  0
MTEXT
  5
3A0
330
39A
100
AcDbEntity
  8
25
  6
Continuous
 62
     7
370
     9
100
AcDbMText
 10
189.7834489609958
 20
55.84757132565559
 30
0.0
 40
2.0
 41
21.18
 46
2.0
 71
     8
 72
     1
  1
φ18
  7
ＭＳ ゴシック
 11
1.615544574432587E-15
 21
1.0
 31
0.0
 73
     1
 44
1.0
1001
ACAD
1000
ACAD_MTEXT_DEFINED_HEIGHT_BEGIN
1070
    46
1040
2.0
1000
ACAD_MTEXT_DEFINED_HEIGHT_END
  0
INSERT
  5
3A1
330
39A
100
AcDbEntity
  8
25
  6
Continuous
 62
     7
370
     9
100
AcDbBlockReference
  2
_OPEN
 10
190.2834489609958
 20
46.90477851493249
 30
0.0
 50
269.9999999999998
  0
INSERT
  5
3A2
330
39A
100
AcDbEntity
  8
25
  6
Continuous
 62
     7
370
     9
100
AcDbBlockReference
  2
_OPEN
 10
190.2834489609958
 20
64.90477851493247
 30
0.0
 50
89.99999999999991
  0
ENDBLK
  5
39C
330
39A
100
AcDbEntity
  8
0
100
AcDbBlockEnd
  0
BLOCK
  5
3A5
330
3A4
100
AcDbEntity
  8
0
100
AcDbBlockBegin
  2
Dim2
 70
     0
 10
0.0
 20
0.0
 30
0.0
  3
Dim2
  1

  0
LINE
  5
3A7
330
3A4
100
AcDbEntity
  8
25
  6
Continuous
 62
     7
370
     9
100
AcDbLine
 10
168.0965205420668
 20
39.90477851493254
 30
0.0
 11
195.7151036372548
 21
39.90477851493243
 31
0.0
  0
LINE
  5
3A8
330
3A4
100
AcDbEntity
  8
25
  6
Continuous
 62
     7
370
     9
100
AcDbLine
 10
168.0965205420668
 20
71.90477851493254
 30
0.0
 11
195.7151036372548
 21
71.90477851493245
 31
0.0
  0
LINE
  5
3A9
330
3A4
100
AcDbEntity
  8
25
  6
Continuous
 62
     7
370
     9
100
AcDbLine
 10
194.7151036372548
 20
39.90477851493244
 30
0.0
 11
194.7151036372548
 21
71.90477851493245
 31
0.0
  0
MTEXT
  5
3AA
330
3A4
100
AcDbEntity
  8
25
  6
Continuous
 62
     7
370
     9
100
AcDbMText
 10
194.2151036372548
 20
56.16411808824552
 30
0.0
 40
2.0
 41
24.51
 46
2.0
 71
     8
 72
     1
  1
φ32
  7
ＭＳ ゴシック
 11
1.615544574432587E-15
 21
1.0
 31
0.0
 73
     1
 44
1.0
1001
ACAD
1000
ACAD_MTEXT_DEFINED_HEIGHT_BEGIN
1070
    46
1040
2.0
1000
ACAD_MTEXT_DEFINED_HEIGHT_END
  0
INSERT
  5
3AB
330
3A4
100
AcDbEntity
  8
25
  6
Continuous
 62
     7
370
     9
100
AcDbBlockReference
  2
_OPEN
 10
194.7151036372548
 20
39.90477851493244
 30
0.0
 50
269.9999999999998
  0
INSERT
  5
3AC
330
3A4
100
AcDbEntity
  8
25
  6
Continuous
 62
     7
370
     9
100
AcDbBlockReference
  2
_OPEN
 10
194.7151036372548
 20
71.90477851493245
 30
0.0
 50
89.99999999999991
  0
ENDBLK
  5
3A6
330
3A4
100
AcDbEntity
  8
0
100
AcDbBlockEnd
  0
BLOCK
  5
3AF
330
3AE
100
AcDbEntity
  8
0
100
AcDbBlockBegin
  2
Dim3
 70
     0
 10
0.0
 20
0.0
 30
0.0
  3
Dim3
  1

  0
LINE
  5
3B1
330
3AE
100
AcDbEntity
  8
25
  6
Continuous
 62
     7
370
     9
100
AcDbLine
 10
136.3965205420668
 20
39.90477851493255
 30
0.0
 11
125.460040702421
 21
39.90477851493259
 31
0.0
  0
LINE
  5
3B2
330
3AE
100
AcDbEntity
  8
25
  6
Continuous
 62
     7
370
     9
100
AcDbLine
 10
136.3965205420668
 20
71.90477851493256
 30
0.0
 11
125.460040702421
 21
71.90477851493259
 31
0.0
  0
LINE
  5
3B3
330
3AE
100
AcDbEntity
  8
25
  6
Continuous
 62
     7
370
     9
100
AcDbLine
 10
126.460040702421
 20
39.90477851493259
 30
0.0
 11
126.460040702421
 21
71.90477851493259
 31
0.0
  0
MTEXT
  5
3B4
330
3AE
100
AcDbEntity
  8
25
  6
Continuous
 62
     7
370
     9
100
AcDbMText
 10
125.960040702421
 20
55.84757132565559
 30
0.0
 40
2.0
 41
24.51
 46
2.0
 71
     8
 72
     1
  1
φ32
  7
ＭＳ ゴシック
 11
1.615544574432587E-15
 21
1.0
 31
0.0
 73
     1
 44
1.0
1001
ACAD
1000
ACAD_MTEXT_DEFINED_HEIGHT_BEGIN
1070
    46
1040
2.0
1000
ACAD_MTEXT_DEFINED_HEIGHT_END
  0
INSERT
  5
3B5
330
3AE
100
AcDbEntity
  8
25
  6
Continuous
 62
     7
370
     9
100
AcDbBlockReference
  2
_OPEN
 10
126.460040702421
 20
39.90477851493259
 30
0.0
 50
269.9999999999998
  0
INSERT
  5
3B6
330
3AE
100
AcDbEntity
  8
25
  6
Continuous
 62
     7
370
     9
100
AcDbBlockReference
  2
_OPEN
 10
126.460040702421
 20
71.90477851493259
 30
0.0
 50
89.99999999999991
  0
ENDBLK
  5
3B0
330
3AE
100
AcDbEntity
  8
0
100
AcDbBlockEnd
  0
BLOCK
  5
3B9
330
3B8
100
AcDbEntity
  8
0
100
AcDbBlockBegin
  2
Dim4
 70
     0
 10
0.0
 20
0.0
 30
0.0
  3
Dim4
  1

  0
LINE
  5
3BB
330
3B8
100
AcDbEntity
  8
25
  6
Continuous
 62
     7
370
     9
100
AcDbLine
 10
136.8965205420668
 20
39.15477851493254
 30
0.0
 11
119.8541923662718
 21
39.15477851493259
 31
0.0
  0
LINE
  5
3BC
330
3B8
100
AcDbEntity
  8
25
  6
Continuous
 62
     7
370
     9
100
AcDbLine
 10
136.8965205420668
 20
72.65477851493254
 30
0.0
 11
119.8541923662718
 21
72.6547785149326
 31
0.0
  0
LINE
  5
3BD
330
3B8
100
AcDbEntity
  8
25
  6
Continuous
 62
     7
370
     9
100
AcDbLine
 10
120.8541923662718
 20
39.15477851493259
 30
0.0
 11
120.8541923662718
 21
72.6547785149326
 31
0.0
  0
MTEXT
  5
3BE
330
3B8
100
AcDbEntity
  8
25
  6
Continuous
 62
     7
370
     9
100
AcDbMText
 10
120.3541923662718
 20
55.95308691318556
 30
0.0
 40
2.0
 41
37.84
 46
2.0
 71
     8
 72
     1
  1
φ33.5
  7
ＭＳ ゴシック
 11
1.615544574432587E-15
 21
1.0
 31
0.0
 73
     1
 44
1.0
1001
ACAD
1000
ACAD_MTEXT_DEFINED_HEIGHT_BEGIN
1070
    46
1040
2.0
1000
ACAD_MTEXT_DEFINED_HEIGHT_END
  0
INSERT
  5
3BF
330
3B8
100
AcDbEntity
  8
25
  6
Continuous
 62
     7
370
     9
100
AcDbBlockReference
  2
_OPEN
 10
120.8541923662718
 20
39.15477851493259
 30
0.0
 50
269.9999999999998
  0
INSERT
  5
3C0
330
3B8
100
AcDbEntity
  8
25
  6
Continuous
 62
     7
370
     9
100
AcDbBlockReference
  2
_OPEN
 10
120.8541923662718
 20
72.6547785149326
 30
0.0
 50
89.99999999999991
  0
ENDBLK
  5
3BA
330
3B8
100
AcDbEntity
  8
0
100
AcDbBlockEnd
  0
BLOCK
  5
3C3
330
3C2
100
AcDbEntity
  8
0
100
AcDbBlockBegin
  2
Dim5
 70
     0
 10
0.0
 20
0.0
 30
0.0
  3
Dim5
  1

  0
LINE
  5
3C5
330
3C2
100
AcDbEntity
  8
25
  6
Continuous
 62
     7
370
     9
100
AcDbLine
 10
170.396520542067
 20
41.70477851493254
 30
0.0
 11
170.3965205420677
 21
29.10237699959984
 31
0.0
  0
LINE
  5
3C6
330
3C2
100
AcDbEntity
  8
25
  6
Continuous
 62
     7
370
     9
100
AcDbLine
 10
166.396520542067
 20
38.20477851493254
 30
0.0
 11
166.3965205420677
 21
29.10237699959984
 31
0.0
  0
LINE
  5
3C7
330
3C2
100
AcDbEntity
  8
25
  6
Continuous
 62
     7
370
     9
100
AcDbLine
 10
170.3965205420677
 20
30.10237699959984
 30
0.0
 11
166.3965205420677
 21
30.10237699959984
 31
0.0
  0
MTEXT
  5
3C8
330
3C2
100
AcDbEntity
  8
25
  6
Continuous
 62
     7
370
     9
100
AcDbMText
 10
168.3965205420668
 20
30.60237699959984
 30
0.0
 40
2.0
 41
6.89
 46
2.0
 71
     8
 72
     1
  1
4
  7
ＭＳ ゴシック
 73
     1
 44
1.0
1001
ACAD
1000
ACAD_MTEXT_DEFINED_HEIGHT_BEGIN
1070
    46
1040
2.0
1000
ACAD_MTEXT_DEFINED_HEIGHT_END
  0
INSERT
  5
3C9
330
3C2
100
AcDbEntity
  8
25
  6
Continuous
 62
     7
370
     9
100
AcDbBlockReference
  2
_OPEN
 10
170.3965205420677
 20
30.10237699959984
 30
0.0
 50
359.9999999999997
  0
INSERT
  5
3CA
330
3C2
100
AcDbEntity
  8
25
  6
Continuous
 62
     7
370
     9
100
AcDbBlockReference
  2
_OPEN
 10
166.3965205420677
 20
30.10237699959984
 30
0.0
 50
179.9999999999998
  0
ENDBLK
  5
3C4
330
3C2
100
AcDbEntity
  8
0
100
AcDbBlockEnd
  0
BLOCK
  5
3CD
330
3CC
100
AcDbEntity
  8
0
100
AcDbBlockBegin
  2
Dim6
 70
     0
 10
0.0
 20
0.0
 30
0.0
  3
Dim6
  1

  0
LINE
  5
3CF
330
3CC
100
AcDbEntity
  8
25
  6
Continuous
 62
     7
370
     9
100
AcDbLine
 10
163.096520542067
 20
37.45477851493251
 30
0.0
 11
163.0965205420677
 21
29.10237699959984
 31
0.0
  0
LINE
  5
3D0
330
3CC
100
AcDbEntity
  8
25
  6
Continuous
 62
     7
370
     9
100
AcDbLine
 10
156.896520542067
 20
37.45477851493254
 30
0.0
 11
156.8965205420677
 21
29.1023769995999
 31
0.0
  0
LINE
  5
3D1
330
3CC
100
AcDbEntity
  8
25
  6
Continuous
 62
     7
370
     9
100
AcDbLine
 10
163.0965205420676
 20
30.10237699959984
 30
0.0
 11
156.8965205420676
 21
30.1023769995999
 31
0.0
  0
MTEXT
  5
3D2
330
3CC
100
AcDbEntity
  8
25
  6
Continuous
 62
     7
370
     9
100
AcDbMText
 10
159.9965205420668
 20
30.60237699959987
 30
0.0
 40
2.0
 41
20.21
 46
2.0
 71
     8
 72
     1
  1
6.2
  7
ＭＳ ゴシック
 73
     1
 44
1.0
1001
ACAD
1000
ACAD_MTEXT_DEFINED_HEIGHT_BEGIN
1070
    46
1040
2.0
1000
ACAD_MTEXT_DEFINED_HEIGHT_END
  0
INSERT
  5
3D3
330
3CC
100
AcDbEntity
  8
25
  6
Continuous
 62
     7
370
     9
100
AcDbBlockReference
  2
_OPEN
 10
163.0965205420676
 20
30.10237699959984
 30
0.0
 50
359.9999999999993
  0
INSERT
  5
3D4
330
3CC
100
AcDbEntity
  8
25
  6
Continuous
 62
     7
370
     9
100
AcDbBlockReference
  2
_OPEN
 10
156.8965205420676
 20
30.1023769995999
 30
0.0
 50
179.9999999999993
  0
ENDBLK
  5
3CE
330
3CC
100
AcDbEntity
  8
0
100
AcDbBlockEnd
  0
BLOCK
  5
3D7
330
3D6
100
AcDbEntity
  8
0
100
AcDbBlockBegin
  2
Dim7
 70
     0
 10
0.0
 20
0.0
 30
0.0
  3
Dim7
  1

  0
LINE
  5
3D9
330
3D6
100
AcDbEntity
  8
25
  6
Continuous
 62
     7
370
     9
100
AcDbLine
 10
166.396520542067
 20
38.20477851493254
 30
0.0
 11
166.3965205420677
 21
29.10237699959984
 31
0.0
  0
LINE
  5
3DA
330
3D6
100
AcDbEntity
  8
25
  6
Continuous
 62
     7
370
     9
100
AcDbLine
 10
163.096520542067
 20
37.45477851493251
 30
0.0
 11
163.0965205420677
 21
29.10237699959978
 31
0.0
  0
LINE
  5
3DB
330
3D6
100
AcDbEntity
  8
25
  6
Continuous
 62
     7
370
     9
100
AcDbLine
 10
166.3965205420677
 20
30.10237699959984
 30
0.0
 11
163.0965205420676
 21
30.10237699959978
 31
0.0
  0
MTEXT
  5
3DC
330
3D6
100
AcDbEntity
  8
25
  6
Continuous
 62
     7
370
     9
100
AcDbMText
 10
164.7465205420669
 20
30.60237699959981
 30
0.0
 40
2.0
 41
20.18
 46
2.0
 71
     8
 72
     1
  1
3.3
  7
ＭＳ ゴシック
 73
     1
 44
1.0
1001
ACAD
1000
ACAD_MTEXT_DEFINED_HEIGHT_BEGIN
1070
    46
1040
2.0
1000
ACAD_MTEXT_DEFINED_HEIGHT_END
  0
INSERT
  5
3DD
330
3D6
100
AcDbEntity
  8
25
  6
Continuous
 62
     7
370
     9
100
AcDbBlockReference
  2
_OPEN
 10
166.3965205420677
 20
30.10237699959984
 30
0.0
 50
0.0000000000008142
  0
INSERT
  5
3DE
330
3D6
100
AcDbEntity
  8
25
  6
Continuous
 62
     7
370
     9
100
AcDbBlockReference
  2
_OPEN
 10
163.0965205420676
 20
30.10237699959978
 30
0.0
 50
180.0000000000008
  0
ENDBLK
  5
3D8
330
3D6
100
AcDbEntity
  8
0
100
AcDbBlockEnd
  0
BLOCK
  5
3E1
330
3E0
100
AcDbEntity
  8
0
100
AcDbBlockBegin
  2
Dim8
 70
     0
 10
0.0
 20
0.0
 30
0.0
  3
Dim8
  1

  0
LINE
  5
3E3
330
3E0
100
AcDbEntity
  8
25
  6
Continuous
 62
     7
370
     9
100
AcDbLine
 10
183.9225205420669
 20
53.90477851493254
 30
0.0
 11
183.9225205420677
 21
23.74519247939273
 31
0.0
  0
LINE
  5
3E4
330
3E0
100
AcDbEntity
  8
25
  6
Continuous
 62
     7
370
     9
100
AcDbLine
 10
166.3965205420672
 20
27.60237699959984
 30
0.0
 11
166.3965205420678
 21
23.74519247939273
 31
0.0
  0
LINE
  5
3E5
330
3E0
100
AcDbEntity
  8
25
  6
Continuous
 62
     7
370
     9
100
AcDbLine
 10
183.9225205420676
 20
24.74519247939273
 30
0.0
 11
166.3965205420677
 21
24.74519247939273
 31
0.0
  0
MTEXT
  5
3E6
330
3E0
100
AcDbEntity
  8
25
  6
Continuous
 62
     7
370
     9
100
AcDbMText
 10
175.1595205420668
 20
25.24519247939273
 30
0.0
 40
2.0
 41
46.85000000000001
 46
2.0
 71
     8
 72
     1
  1
17.526
  7
ＭＳ ゴシック
 73
     1
 44
1.0
1001
ACAD
1000
ACAD_MTEXT_DEFINED_HEIGHT_BEGIN
1070
    46
1040
2.0
1000
ACAD_MTEXT_DEFINED_HEIGHT_END
  0
INSERT
  5
3E7
330
3E0
100
AcDbEntity
  8
25
  6
Continuous
 62
     7
370
     9
100
AcDbBlockReference
  2
_OPEN
 10
183.9225205420676
 20
24.74519247939273
 30
0.0
 50
359.9999999999997
  0
INSERT
  5
3E8
330
3E0
100
AcDbEntity
  8
25
  6
Continuous
 62
     7
370
     9
100
AcDbBlockReference
  2
_OPEN
 10
166.3965205420677
 20
24.74519247939273
 30
0.0
 50
179.9999999999998
  0
ENDBLK
  5
3E2
330
3E0
100
AcDbEntity
  8
0
100
AcDbBlockEnd
  0
BLOCK
  5
3EB
330
3EA
100
AcDbEntity
  8
0
100
AcDbBlockBegin
  2
Dim9
 70
     0
 10
0.0
 20
0.0
 30
0.0
  3
Dim9
  1

  0
LINE
  5
3ED
330
3EA
100
AcDbEntity
  8
25
  6
Continuous
 62
     7
370
     9
100
AcDbLine
 10
144.896520542067
 20
37.45477851493254
 30
0.0
 11
144.8965205420677
 21
29.10237699959984
 31
0.0
  0
LINE
  5
3EE
330
3EA
100
AcDbEntity
  8
25
  6
Continuous
 62
     7
370
     9
100
AcDbLine
 10
138.596520542067
 20
37.45477851493254
 30
0.0
 11
138.5965205420677
 21
29.10237699959984
 31
0.0
  0
LINE
  5
3EF
330
3EA
100
AcDbEntity
  8
25
  6
Continuous
 62
     7
370
     9
100
AcDbLine
 10
144.8965205420676
 20
30.10237699959984
 30
0.0
 11
138.5965205420676
 21
30.10237699959984
 31
0.0
  0
MTEXT
  5
3F0
330
3EA
100
AcDbEntity
  8
25
  6
Continuous
 62
     7
370
     9
100
AcDbMText
 10
141.7465205420668
 20
30.60237699959984
 30
0.0
 40
2.0
 41
20.21
 46
2.0
 71
     8
 72
     1
  1
6.3
  7
ＭＳ ゴシック
 73
     1
 44
1.0
1001
ACAD
1000
ACAD_MTEXT_DEFINED_HEIGHT_BEGIN
1070
    46
1040
2.0
1000
ACAD_MTEXT_DEFINED_HEIGHT_END
  0
INSERT
  5
3F1
330
3EA
100
AcDbEntity
  8
25
  6
Continuous
 62
     7
370
     9
100
AcDbBlockReference
  2
_OPEN
 10
144.8965205420676
 20
30.10237699959984
 30
0.0
 50
359.9999999999997
  0
INSERT
  5
3F2
330
3EA
100
AcDbEntity
  8
25
  6
Continuous
 62
     7
370
     9
100
AcDbBlockReference
  2
_OPEN
 10
138.5965205420676
 20
30.10237699959984
 30
0.0
 50
179.9999999999998
  0
ENDBLK
  5
3EC
330
3EA
100
AcDbEntity
  8
0
100
AcDbBlockEnd
  0
BLOCK
  5
3F5
330
3F4
100
AcDbEntity
  8
0
100
AcDbBlockBegin
  2
Dim10
 70
     0
 10
0.0
 20
0.0
 30
0.0
  3
Dim10
  1

  0
LINE
  5
3F7
330
3F4
100
AcDbEntity
  8
25
  6
Continuous
 62
     7
370
     9
100
AcDbLine
 10
166.3965205420672
 20
27.60237699959984
 30
0.0
 11
166.3965205420678
 21
23.74519247939273
 31
0.0
  0
LINE
  5
3F8
330
3F4
100
AcDbEntity
  8
25
  6
Continuous
 62
     7
370
     9
100
AcDbLine
 10
138.1965205420672
 20
27.60237699959984
 30
0.0
 11
138.1965205420678
 21
23.74519247939273
 31
0.0
  0
LINE
  5
3F9
330
3F4
100
AcDbEntity
  8
25
  6
Continuous
 62
     7
370
     9
100
AcDbLine
 10
166.3965205420677
 20
24.74519247939273
 30
0.0
 11
138.1965205420676
 21
24.74519247939273
 31
0.0
  0
MTEXT
  5
3FA
330
3F4
100
AcDbEntity
  8
25
  6
Continuous
 62
     7
370
     9
100
AcDbMText
 10
152.2965205420668
 20
25.24519247939273
 30
0.0
 40
2.0
 41
30.21
 46
2.0
 71
     8
 72
     1
  1
28.2
  7
ＭＳ ゴシック
 73
     1
 44
1.0
1001
ACAD
1000
ACAD_MTEXT_DEFINED_HEIGHT_BEGIN
1070
    46
1040
2.0
1000
ACAD_MTEXT_DEFINED_HEIGHT_END
  0
INSERT
  5
3FB
330
3F4
100
AcDbEntity
  8
25
  6
Continuous
 62
     7
370
     9
100
AcDbBlockReference
  2
_OPEN
 10
166.3965205420677
 20
24.74519247939273
 30
0.0
 50
359.9999999999997
  0
INSERT
  5
3FC
330
3F4
100
AcDbEntity
  8
25
  6
Continuous
 62
     7
370
     9
100
AcDbBlockReference
  2
_OPEN
 10
138.1965205420676
 20
24.74519247939273
 30
0.0
 50
179.9999999999998
  0
ENDBLK
  5
3F6
330
3F4
100
AcDbEntity
  8
0
100
AcDbBlockEnd
  0
BLOCK
  5
3FF
330
3FE
100
AcDbEntity
  8
0
100
AcDbBlockBegin
  2
Dim11
 70
     0
 10
0.0
 20
0.0
 30
0.0
  3
Dim11
  1

  0
LINE
  5
401
330
3FE
100
AcDbEntity
  8
25
  6
Continuous
 62
     7
370
     9
100
AcDbLine
 10
156.896520542067
 20
37.45477851493254
 30
0.0
 11
156.8965205420677
 21
29.10237699959984
 31
0.0
  0
LINE
  5
402
330
3FE
100
AcDbEntity
  8
25
  6
Continuous
 62
     7
370
     9
100
AcDbLine
 10
144.896520542067
 20
37.45477851493254
 30
0.0
 11
144.8965205420677
 21
29.10237699959984
 31
0.0
  0
LINE
  5
403
330
3FE
100
AcDbEntity
  8
25
  6
Continuous
 62
     7
370
     9
100
AcDbLine
 10
156.8965205420676
 20
30.10237699959984
 30
0.0
 11
144.8965205420676
 21
30.10237699959984
 31
0.0
  0
MTEXT
  5
404
330
3FE
100
AcDbEntity
  8
25
  6
Continuous
 62
     7
370
     9
100
AcDbMText
 10
150.8965205420668
 20
30.60237699959984
 30
0.0
 40
2.0
 41
13.52
 46
2.0
 71
     8
 72
     1
  1
12
  7
ＭＳ ゴシック
 73
     1
 44
1.0
1001
ACAD
1000
ACAD_MTEXT_DEFINED_HEIGHT_BEGIN
1070
    46
1040
2.0
1000
ACAD_MTEXT_DEFINED_HEIGHT_END
  0
INSERT
  5
405
330
3FE
100
AcDbEntity
  8
25
  6
Continuous
 62
     7
370
     9
100
AcDbBlockReference
  2
_OPEN
 10
156.8965205420676
 20
30.10237699959984
 30
0.0
 50
359.9999999999997
  0
INSERT
  5
406
330
3FE
100
AcDbEntity
  8
25
  6
Continuous
 62
     7
370
     9
100
AcDbBlockReference
  2
_OPEN
 10
144.8965205420676
 20
30.10237699959984
 30
0.0
 50
179.9999999999998
  0
ENDBLK
  5
400
330
3FE
100
AcDbEntity
  8
0
100
AcDbBlockEnd
  0
BLOCK
  5
48E
330
48D
100
AcDbEntity
  8
0
100
AcDbBlockBegin
  2
*G27
 70
     1
 10
0.0
 20
0.0
 30
0.0
  3
*G27
  1

  0
LINE
  5
490
330
48D
100
AcDbEntity
  8
1
  6
Continuous
 62
     7
370
     9
100
AcDbLine
 10
144.4142552020674
 20
72.65119283137344
 30
0.0
 11
144.4178408856265
 21
72.65477851493254
 31
0.0
  0
LINE
  5
491
330
48D
100
AcDbEntity
  8
1
  6
Continuous
 62
     7
370
     9
100
AcDbLine
 10
143.6929584385944
 20
72.63700284908698
 30
0.0
 11
143.7107341044399
 21
72.65477851493254
 31
0.0
  0
LINE
  5
492
330
48D
100
AcDbEntity
  8
1
  6
Continuous
 62
     7
370
     9
100
AcDbLine
 10
142.9716616751213
 20
72.62281286680052
 30
0.0
 11
143.0036273232534
 21
72.65477851493254
 31
0.0
  0
LINE
  5
493
330
48D
100
AcDbEntity
  8
1
  6
Continuous
 62
     7
370
     9
100
AcDbLine
 10
140.4965205420668
 20
70.85477851493253
 30
0.0
 11
142.2965205420668
 21
72.65477851493254
 31
0.0
  0
LINE
  5
494
330
48D
100
AcDbEntity
  8
1
  6
Continuous
 62
     7
370
     9
100
AcDbLine
 10
139.7894137608803
 20
70.85477851493253
 30
0.0
 11
141.5894137608803
 21
72.65477851493254
 31
0.0
  0
LINE
  5
495
330
48D
100
AcDbEntity
  8
1
  6
Continuous
 62
     7
370
     9
100
AcDbLine
 10
139.0823069796937
 20
70.85477851493253
 30
0.0
 11
140.8823069796937
 21
72.65477851493254
 31
0.0
  0
LINE
  5
496
330
48D
100
AcDbEntity
  8
1
  6
Continuous
 62
     7
370
     9
100
AcDbLine
 10
138.435860370287
 20
70.91543868671236
 30
0.0
 11
140.1752001985072
 21
72.65477851493254
 31
0.0
  0
LINE
  5
497
330
48D
100
AcDbEntity
  8
1
  6
Continuous
 62
     7
370
     9
100
AcDbLine
 10
138.1965205420668
 20
71.38320563967878
 30
0.0
 11
139.4680934173206
 21
72.65477851493254
 31
0.0
  0
ENDBLK
  5
48F
330
48D
100
AcDbEntity
  8
0
100
AcDbBlockEnd
  0
BLOCK
  5
4A3
330
4A2
100
AcDbEntity
  8
0
100
AcDbBlockBegin
  2
Dim12
 70
     0
 10
0.0
 20
0.0
 30
0.0
  3
Dim12
  1

  0
LINE
  5
4A5
330
4A2
100
AcDbEntity
  8
25
  6
Continuous
 62
     7
370
     9
100
AcDbLine
 10
82.65784862402758
 20
48.59107933054199
 30
0.0
 11
102.906347194438
 21
74.37056435684698
 31
0.0
  0
MTEXT
  5
4A6
330
4A2
100
AcDbEntity
  8
25
  6
Continuous
 62
     7
370
     9
100
AcDbMText
 10
99.20018873778439
 20
69.65204875401434
 30
0.0
 40
2.0
 41
34.51
 46
2.0
 71
     7
 72
     1
  1
φ18.5
  7
ＭＳ ゴシック
 11
0.6176930761089345
 21
0.7864192671387712
 31
0.0
 73
     1
 44
1.0
1001
ACAD
1000
ACAD_MTEXT_DEFINED_HEIGHT_BEGIN
1070
    46
1040
2.0
1000
ACAD_MTEXT_DEFINED_HEIGHT_END
  0
INSERT
  5
4A7
330
4A2
100
AcDbEntity
  8
25
  6
Continuous
 62
     7
370
     9
100
AcDbBlockReference
  2
_OPEN
 10
82.65784862402758
 20
48.59107933054199
 30
0.0
 50
231.8521343160405
  0
INSERT
  5
4A8
330
4A2
100
AcDbEntity
  8
25
  6
Continuous
 62
     7
370
     9
100
AcDbBlockReference
  2
_OPEN
 10
94.14693983965377
 20
63.21847769932308
 30
0.0
 50
51.85213431604046
  0
ENDBLK
  5
4A4
330
4A2
100
AcDbEntity
  8
0
100
AcDbBlockEnd
  0
BLOCK
  5
4AB
330
4AA
100
AcDbEntity
  8
0
100
AcDbBlockBegin
  2
Dim13
 70
     0
 10
0.0
 20
0.0
 30
0.0
  3
Dim13
  1

  0
LINE
  5
4AD
330
4AA
100
AcDbEntity
  8
25
  6
Continuous
 62
     7
370
     9
100
AcDbLine
 10
171.3251459652754
 20
45.10477851493256
 30
0.0
 11
171.3251459652754
 21
29.10237699959984
 31
0.0
  0
LINE
  5
4AE
330
4AA
100
AcDbEntity
  8
25
  6
Continuous
 62
     7
370
     9
100
AcDbLine
 10
170.3965205420668
 20
41.70477851493254
 30
0.0
 11
170.3965205420668
 21
29.10237699959973
 31
0.0
  0
LINE
  5
4AF
330
4AA
100
AcDbEntity
  8
25
  6
Continuous
 62
     7
370
     9
100
AcDbLine
 10
179.3251459652754
 20
30.10237699960082
 30
0.0
 11
162.3965205420668
 21
30.10237699959875
 31
0.0
  0
MTEXT
  5
4B0
330
4AA
100
AcDbEntity
  8
25
  6
Continuous
 62
     7
370
     9
100
AcDbMText
 10
172.4084792986087
 20
30.60237699959998
 30
0.0
 40
2.0
 41
31.89
 46
2.0
 71
     7
 72
     1
  1
(0.9)
  7
ＭＳ ゴシック
 73
     1
 44
1.0
1001
ACAD
1000
ACAD_MTEXT_DEFINED_HEIGHT_BEGIN
1070
    46
1040
2.0
1000
ACAD_MTEXT_DEFINED_HEIGHT_END
  0
INSERT
  5
4B1
330
4AA
100
AcDbEntity
  8
25
  6
Continuous
 62
     7
370
     9
100
AcDbBlockReference
  2
_OPEN
 10
171.3251459652754
 20
30.10237699959984
 30
0.0
 50
180.0000000000066
  0
INSERT
  5
4B2
330
4AA
100
AcDbEntity
  8
25
  6
Continuous
 62
     7
370
     9
100
AcDbBlockReference
  2
_OPEN
 10
170.3965205420668
 20
30.10237699959973
 30
0.0
 50
0.0000000000066664
  0
ENDBLK
  5
4AC
330
4AA
100
AcDbEntity
  8
0
100
AcDbBlockEnd
  0
BLOCK
  5
4B5
330
4B4
100
AcDbEntity
  8
0
100
AcDbBlockBegin
  2
Dim14
 70
     0
 10
0.0
 20
0.0
 30
0.0
  3
Dim14
  1

  0
LINE
  5
4B7
330
4B4
100
AcDbEntity
  8
25
  6
Continuous
 62
     7
370
     9
100
AcDbLine
 10
138.596520542067
 20
37.45477851493254
 30
0.0
 11
138.5965205420677
 21
29.10237699959984
 31
0.0
  0
LINE
  5
4B8
330
4B4
100
AcDbEntity
  8
25
  6
Continuous
 62
     7
370
     9
100
AcDbLine
 10
138.196520542067
 20
38.10477851493255
 30
0.0
 11
138.1965205420677
 21
29.10237699959984
 31
0.0
  0
LINE
  5
4B9
330
4B4
100
AcDbEntity
  8
25
  6
Continuous
 62
     7
370
     9
100
AcDbLine
 10
146.5965205420676
 20
30.10237699959984
 30
0.0
 11
130.1965205420676
 21
30.10237699959984
 31
0.0
  0
MTEXT
  5
4BA
330
4B4
100
AcDbEntity
  8
25
  6
Continuous
 62
     7
370
     9
100
AcDbMText
 10
137.7375478089751
 20
30.7674835825784
 30
0.0
 40
2.0
 41
31.89
 46
2.0
 71
     9
 72
     1
  1
(0.4)
  7
ＭＳ ゴシック
 73
     1
 44
1.0
1001
ACAD
1000
ACAD_MTEXT_DEFINED_HEIGHT_BEGIN
1070
    46
1040
2.0
1000
ACAD_MTEXT_DEFINED_HEIGHT_END
  0
INSERT
  5
4BB
330
4B4
100
AcDbEntity
  8
25
  6
Continuous
 62
     7
370
     9
100
AcDbBlockReference
  2
_OPEN
 10
138.5965205420676
 20
30.10237699959984
 30
0.0
 50
179.9999999999995
  0
INSERT
  5
4BC
330
4B4
100
AcDbEntity
  8
25
  6
Continuous
 62
     7
370
     9
100
AcDbBlockReference
  2
_OPEN
 10
138.1965205420676
 20
30.10237699959984
 30
0.0
 50
359.9999999999997
  0
ENDBLK
  5
4B6
330
4B4
100
AcDbEntity
  8
0
100
AcDbBlockEnd
  0
ENDSEC
  0
SECTION
  2
ENTITIES
  0
LINE
  5
B4
330
1F
100
AcDbEntity
  8
25
  6
DASHDOT
 62
     7
370
     9
100
AcDbLine
 10
161.0965205420668
 20
58.21305098183532
 30
0.0
 11
161.0965205420668
 21
53.59980204062123
 31
0.0
  0
LINE
  5
B5
330
1F
100
AcDbEntity
  8
25
  6
DASHDOT
 62
     7
370
     9
100
AcDbLine
 10
143.4965205420668
 20
71.43796099737166
 30
0.0
 11
143.4965205420668
 21
69.36338266404171
 31
0.0
  0
LINE
  5
B6
330
1F
100
AcDbEntity
  8
25
  6
DASHDOT
 62
     7
370
     9
100
AcDbLine
 10
144.621846189046
 20
70.41070433447352
 30
0.0
 11
142.3870872336203
 21
70.41070433447352
 31
0.0
  0
LINE
  5
B7
330
1F
100
AcDbEntity
  8
25
  6
DASHDOT
 62
     7
370
     9
100
AcDbLine
 10
143.4965205420668
 20
40.37159603249343
 30
0.0
 11
143.4965205420668
 21
42.44617436582338
 31
0.0
  0
LINE
  5
B8
330
1F
100
AcDbEntity
  8
25
  6
DASHDOT
 62
     7
370
     9
100
AcDbLine
 10
144.621846189046
 20
41.39885269539157
 30
0.0
 11
142.3870872336203
 21
41.39885269539157
 31
0.0
  0
LINE
  5
B9
330
1F
100
AcDbEntity
  8
25
  6
DASHDOT
 62
     7
370
     9
100
AcDbLine
 10
88.40239423184073
 20
36.21696308643183
 30
0.0
 11
88.40239423184073
 21
77.89930809496992
 31
0.0
  0
LINE
  5
BA
330
1F
100
AcDbEntity
  8
25
  6
DASHDOT
 62
     7
370
     9
100
AcDbLine
 10
183.9225205420668
 20
55.90477851493254
 30
0.0
 11
135.0788810864678
 21
55.90477851493254
 31
0.0
  0
LINE
  5
BB
330
1F
100
AcDbEntity
  8
25
  6
DASHDOT
 62
     7
370
     9
100
AcDbLine
 10
112.1701240715718
 20
55.90477851493254
 30
0.0
 11
66.75613012615688
 21
55.90477851493254
 31
0.0
  0
LINE
  5
BC
330
1F
100
AcDbEntity
  8
1
  6
Continuous
 62
     7
370
     9
100
AcDbLine
 10
83.24063456560543
 20
51.70541781032861
 30
0.0
 11
84.25886833051405
 21
52.72365157523726
 31
0.0
  0
LINE
  5
BD
330
1F
100
AcDbEntity
  8
1
  6
Continuous
 62
     7
370
     9
100
AcDbLine
 10
83.0943637559595
 20
50.54091323577407
 30
0.0
 11
85.41396061795226
 21
52.98437820239997
 31
0.0
  0
LINE
  5
BE
330
1F
100
AcDbEntity
  8
1
  6
Continuous
 62
     7
370
     9
100
AcDbLine
 10
84.27410824463266
 20
50.67194413130139
 30
0.0
 11
85.2923420095413
 21
51.69017789621002
 31
0.0
  0
LINE
  5
BF
330
1F
100
AcDbEntity
  8
1
  6
Continuous
 62
     7
370
     9
100
AcDbLine
 10
83.24063456560543
 20
59.62541781032861
 30
0.0
 11
84.25886833051405
 21
60.64365157523724
 31
0.0
  0
LINE
  5
C0
330
1F
100
AcDbEntity
  8
1
  6
Continuous
 62
     7
370
     9
100
AcDbLine
 10
83.0943637559595
 20
58.46091323577407
 30
0.0
 11
85.41396061795226
 21
60.90437820239995
 31
0.0
  0
LINE
  5
C1
330
1F
100
AcDbEntity
  8
1
  6
Continuous
 62
     7
370
     9
100
AcDbLine
 10
84.27410824463266
 20
58.59194413130137
 30
0.0
 11
85.2923420095413
 21
59.61017789621002
 31
0.0
  0
LINE
  5
C2
330
1F
100
AcDbEntity
  8
1
  6
Continuous
 62
     7
370
     9
100
AcDbLine
 10
91.16063456560542
 20
51.70541781032861
 30
0.0
 11
92.17886833051406
 21
52.72365157523726
 31
0.0
  0
LINE
  5
C3
330
1F
100
AcDbEntity
  8
1
  6
Continuous
 62
     7
370
     9
100
AcDbLine
 10
91.01436375595952
 20
50.54091323577407
 30
0.0
 11
93.33396061795224
 21
52.98437820239997
 31
0.0
  0
LINE
  5
C4
330
1F
100
AcDbEntity
  8
1
  6
Continuous
 62
     7
370
     9
100
AcDbLine
 10
92.19410824463264
 20
50.67194413130139
 30
0.0
 11
93.21234200954129
 21
51.69017789621002
 31
0.0
  0
LINE
  5
C5
330
1F
100
AcDbEntity
  8
1
  6
Continuous
 62
     7
370
     9
100
AcDbLine
 10
91.16063456560542
 20
59.62541781032861
 30
0.0
 11
92.17886833051406
 21
60.64365157523724
 31
0.0
  0
LINE
  5
C6
330
1F
100
AcDbEntity
  8
1
  6
Continuous
 62
     7
370
     9
100
AcDbLine
 10
91.01436375595952
 20
58.46091323577407
 30
0.0
 11
93.33396061795224
 21
60.90437820239995
 31
0.0
  0
LINE
  5
C7
330
1F
100
AcDbEntity
  8
1
  6
Continuous
 62
     7
370
     9
100
AcDbLine
 10
92.19410824463264
 20
58.59194413130137
 30
0.0
 11
93.21234200954129
 21
59.61017789621002
 31
0.0
  0
LINE
  5
C8
330
1F
100
AcDbEntity
  8
1
  6
Continuous
 62
     7
370
     9
100
AcDbLine
 10
138.1965205420668
 20
71.15477851493257
 30
0.0
 11
138.4965205420668
 21
70.8547785149325
 31
0.0
  0
LINE
  5
C9
330
1F
100
AcDbEntity
  8
1
  6
Continuous
 62
     7
370
     9
100
AcDbLine
 10
138.4965205420668
 20
70.8547785149325
 30
0.0
 11
140.903789689149
 21
70.85477851493256
 31
0.0
  0
LINE
  5
CA
330
1F
100
AcDbEntity
  8
1
  6
Continuous
 62
     7
370
     9
100
AcDbLine
 10
138.4965205420668
 20
70.8547785149325
 30
0.0
 11
138.4965205420668
 21
68.97373078501691
 31
0.0
  0
ELLIPSE
  5
CB
330
1F
100
AcDbEntity
  8
1
  6
Continuous
 62
     7
370
     9
100
AcDbEllipse
 10
151.0965205420666
 20
70.28080021775429
 30
0.0
 11
1.25
 21
0.0
 31
0.0
210
0.0
220
0.0
230
1.0
 40
0.467039104197238
 41
0.0
 42
6.283185307179586
  0
ELLIPSE
  5
CC
330
1F
100
AcDbEntity
  8
1
  6
Continuous
 62
     7
370
     9
100
AcDbEllipse
 10
143.4965205420668
 20
70.41070433447352
 30
0.0
 11
-0.8499999999999943
 21
2.746425776535379E-15
 31
0.0
210
0.0
220
0.0
230
1.0
 40
0.5219879437762297
 41
0.0
 42
6.283185307179586
  0
POLYLINE
  5
CD
330
1F
100
AcDbEntity
  8
1
  6
Continuous
 62
     7
370
     9
100
AcDb2dPolyline
 66
     1
 10
0.0
 20
0.0
 30
0.0
 70
     2
  0
VERTEX
  5
CE
330
CD
100
AcDbEntity
  8
1
  6
Continuous
 62
     7
370
     9
100
AcDbVertex
100
AcDb2dVertex
 10
138.1965205420668
 20
69.03842269004079
 30
0.0
  0
VERTEX
  5
CF
330
CD
100
AcDbEntity
  8
1
  6
Continuous
 62
     7
370
     9
100
AcDbVertex
100
AcDb2dVertex
 10
138.2703450153159
 20
69.02170841319233
 30
0.0
  0
VERTEX
  5
D0
330
CD
100
AcDbEntity
  8
1
  6
Continuous
 62
     7
370
     9
100
AcDbVertex
100
AcDb2dVertex
 10
138.3476361541852
 20
69.00484080027802
 30
0.0
  0
VERTEX
  5
D1
330
CD
100
AcDbEntity
  8
1
  6
Continuous
 62
     7
370
     9
100
AcDbVertex
100
AcDb2dVertex
 10
138.4283939586748
 20
68.98781985129789
 30
0.0
  0
VERTEX
  5
D2
330
CD
100
AcDbEntity
  8
1
  6
Continuous
 62
     7
370
     9
100
AcDbVertex
100
AcDb2dVertex
 10
138.5126184287848
 20
68.97064556625192
 30
0.0
  0
VERTEX
  5
D3
330
CD
100
AcDbEntity
  8
1
  6
Continuous
 62
     7
370
     9
100
AcDbVertex
100
AcDb2dVertex
 10
138.600309564515
 20
68.95331794514007
 30
0.0
  0
VERTEX
  5
D4
330
CD
100
AcDbEntity
  8
1
  6
Continuous
 62
     7
370
     9
100
AcDbVertex
100
AcDb2dVertex
 10
138.6914673658656
 20
68.93583698796243
 30
0.0
  0
VERTEX
  5
D5
330
CD
100
AcDbEntity
  8
1
  6
Continuous
 62
     7
370
     9
100
AcDbVertex
100
AcDb2dVertex
 10
138.7860918328365
 20
68.91820269471893
 30
0.0
  0
VERTEX
  5
D6
330
CD
100
AcDbEntity
  8
1
  6
Continuous
 62
     7
370
     9
100
AcDbVertex
100
AcDb2dVertex
 10
138.8841829654277
 20
68.9004150654096
 30
0.0
  0
VERTEX
  5
D7
330
CD
100
AcDbEntity
  8
1
  6
Continuous
 62
     7
370
     9
100
AcDbVertex
100
AcDb2dVertex
 10
138.9857407636392
 20
68.88247410003444
 30
0.0
  0
VERTEX
  5
D8
330
CD
100
AcDbEntity
  8
1
  6
Continuous
 62
     7
370
     9
100
AcDbVertex
100
AcDb2dVertex
 10
139.090765227471
 20
68.8643797985934
 30
0.0
  0
VERTEX
  5
D9
330
CD
100
AcDbEntity
  8
1
  6
Continuous
 62
     7
370
     9
100
AcDbVertex
100
AcDb2dVertex
 10
139.1992563569232
 20
68.84613216108659
 30
0.0
  0
VERTEX
  5
DA
330
CD
100
AcDbEntity
  8
1
  6
Continuous
 62
     7
370
     9
100
AcDbVertex
100
AcDb2dVertex
 10
139.3112141519956
 20
68.82773118751389
 30
0.0
  0
VERTEX
  5
DB
330
CD
100
AcDbEntity
  8
1
  6
Continuous
 62
     7
370
     9
100
AcDbVertex
100
AcDb2dVertex
 10
139.4266386126884
 20
68.80917687787536
 30
0.0
  0
VERTEX
  5
DC
330
CD
100
AcDbEntity
  8
1
  6
Continuous
 62
     7
370
     9
100
AcDbVertex
100
AcDb2dVertex
 10
139.5455297390015
 20
68.790469232171
 30
0.0
  0
VERTEX
  5
DD
330
CD
100
AcDbEntity
  8
1
  6
Continuous
 62
     7
370
     9
100
AcDbVertex
100
AcDb2dVertex
 10
139.6678875309349
 20
68.77160825040082
 30
0.0
  0
VERTEX
  5
DE
330
CD
100
AcDbEntity
  8
1
  6
Continuous
 62
     7
370
     9
100
AcDbVertex
100
AcDb2dVertex
 10
139.7937119884886
 20
68.75259393256476
 30
0.0
  0
VERTEX
  5
DF
330
CD
100
AcDbEntity
  8
1
  6
Continuous
 62
     7
370
     9
100
AcDbVertex
100
AcDb2dVertex
 10
139.9230031116626
 20
68.7334262786629
 30
0.0
  0
VERTEX
  5
E0
330
CD
100
AcDbEntity
  8
1
  6
Continuous
 62
     7
370
     9
100
AcDbVertex
100
AcDb2dVertex
 10
140.0557609004569
 20
68.71410528869518
 30
0.0
  0
VERTEX
  5
E1
330
CD
100
AcDbEntity
  8
1
  6
Continuous
 62
     7
370
     9
100
AcDbVertex
100
AcDb2dVertex
 10
140.1919853548716
 20
68.69463096266163
 30
0.0
  0
VERTEX
  5
E2
330
CD
100
AcDbEntity
  8
1
  6
Continuous
 62
     7
370
     9
100
AcDbVertex
100
AcDb2dVertex
 10
140.3316764749065
 20
68.67500330056224
 30
0.0
  0
SEQEND
  5
E3
330
CD
100
AcDbEntity
  8
1
  6
Continuous
 62
     7
370
     9
  0
ELLIPSE
  5
E4
330
1F
100
AcDbEntity
  8
1
  6
Continuous
 62
     7
370
     9
100
AcDbEllipse
 10
151.0965205420666
 20
40.92253902946175
 30
0.0
 11
-2.0
 21
6.462178297730347E-15
 31
0.0
210
0.0
220
0.0
230
1.0
 40
0.5000000000000284
 41
3.14159265358979
 42
6.283185307179586
  0
ELLIPSE
  5
E5
330
1F
100
AcDbEntity
  8
1
  6
Continuous
 62
     7
370
     9
100
AcDbEllipse
 10
151.0965205420666
 20
37.45843741432398
 30
0.0
 11
1.700000000000017
 21
0.0
 31
0.0
210
0.0
220
0.0
230
1.0
 40
0.5000000000000334
 41
0.0
 42
6.283185307179586
  0
ELLIPSE
  5
E6
330
1F
100
AcDbEntity
  8
1
  6
Continuous
 62
     7
370
     9
100
AcDbEllipse
 10
143.4965205420668
 20
41.39885269539157
 30
0.0
 11
-0.8499999999999943
 21
2.746425776535379E-15
 31
0.0
210
0.0
220
0.0
230
1.0
 40
0.5219879437762297
 41
0.0
 42
6.283185307179586
  0
CIRCLE
  5
E7
330
1F
100
AcDbEntity
  8
1
  6
Continuous
 62
     7
370
     9
100
AcDbCircle
 10
88.40239423184073
 20
55.90477851493254
 30
0.0
 40
16.0
  0
CIRCLE
  5
E8
330
1F
100
AcDbEntity
  8
1
  6
Continuous
 62
     7
370
     9
100
AcDbCircle
 10
88.40239423184073
 20
55.90477851493254
 30
0.0
 40
15.0
  0
CIRCLE
  5
E9
330
1F
100
AcDbEntity
  8
1
  6
Continuous
 62
     7
370
     9
100
AcDbCircle
 10
88.40239423184073
 20
55.90477851493256
 30
0.0
 40
16.45
  0
CIRCLE
  5
EA
330
1F
100
AcDbEntity
  8
1
  6
Continuous
 62
     7
370
     9
100
AcDbCircle
 10
88.40239423184073
 20
55.90477851493254
 30
0.0
 40
10.0
  0
CIRCLE
  5
EB
330
1F
100
AcDbEntity
  8
1
  6
Continuous
 62
     7
370
     9
100
AcDbCircle
 10
88.40239423184073
 20
55.90477851493254
 30
0.0
 40
9.299999999999997
  0
ARC
  5
EC
330
1F
100
AcDbEntity
  8
1
  6
Continuous
 62
     7
370
     9
100
AcDbCircle
 10
88.40239423184073
 20
55.90477851493254
 30
0.0
 40
16.75
100
AcDbArc
 50
170.1942615943676
 51
189.8053344278524
  0
LINE
  5
ED
330
1F
100
AcDbEntity
  8
1
  6
Continuous
 62
     7
370
     9
100
AcDbLine
 10
77.5921691345419
 20
43.1101885118988
 30
0.0
 11
78.00125181502085
 21
43.16041754919439
 31
0.0
  0
LINE
  5
EE
330
1F
100
AcDbEntity
  8
1
  6
Continuous
 62
     7
370
     9
100
AcDbLine
 10
73.32273361074422
 20
48.6132536022307
 30
0.0
 11
73.71687922531055
 21
48.4927511948954
 31
0.0
  0
LINE
  5
EF
330
1F
100
AcDbEntity
  8
1
  6
Continuous
 62
     7
370
     9
100
AcDbLine
 10
71.89707744222028
 20
53.05223269158903
 30
0.0
 11
72.2427395591975
 21
52.82775708814333
 31
0.0
  0
ARC
  5
F0
330
1F
100
AcDbEntity
  8
1
  6
Continuous
 62
     7
370
     9
100
AcDbCircle
 10
88.40239423184073
 20
55.90477851493254
 30
0.0
 40
16.75
100
AcDbArc
 50
194.1942615943678
 51
197.8053344278519
  0
LINE
  5
F1
330
1F
100
AcDbEntity
  8
1
  6
Continuous
 62
     7
370
     9
100
AcDbLine
 10
72.16377317960132
 20
51.79750614488373
 30
0.0
 11
72.3882502998216
 21
52.14317059748895
 31
0.0
  0
LINE
  5
F2
330
1F
100
AcDbEntity
  8
1
  6
Continuous
 62
     7
370
     9
100
AcDbLine
 10
72.4547036984809
 20
50.78289735151363
 30
0.0
 11
72.82824282131844
 21
50.60871319791399
 31
0.0
  0
ARC
  5
F3
330
1F
100
AcDbEntity
  8
1
  6
Continuous
 62
     7
370
     9
100
AcDbCircle
 10
88.40239423184073
 20
55.90477851493254
 30
0.0
 40
16.75
100
AcDbArc
 50
202.1942615943673
 51
205.8053344278527
  0
LINE
  5
F4
330
1F
100
AcDbEntity
  8
1
  6
Continuous
 62
     7
370
     9
100
AcDbLine
 10
72.89342815564066
 20
49.57749859009313
 30
0.0
 11
73.06761348619716
 21
49.95104023692275
 31
0.0
  0
LINE
  5
F5
330
1F
100
AcDbEntity
  8
1
  6
Continuous
 62
     7
370
     9
100
AcDbLine
 10
76.80778531662503
 20
43.8164558809522
 30
0.0
 11
76.81497845866241
 21
44.22855071227734
 31
0.0
  0
LINE
  5
F6
330
1F
100
AcDbEntity
  8
1
  6
Continuous
 62
     7
370
     9
100
AcDbLine
 10
75.91671073584212
 20
44.73919713115551
 30
0.0
 11
76.3288027826743
 21
44.73200403772167
 31
0.0
  0
ARC
  5
F7
330
1F
100
AcDbEntity
  8
1
  6
Continuous
 62
     7
370
     9
100
AcDbCircle
 10
88.40239423184073
 20
55.90477851493254
 30
0.0
 40
16.75
100
AcDbArc
 50
226.1942615943676
 51
229.8053344278512
  0
LINE
  5
F8
330
1F
100
AcDbEntity
  8
1
  6
Continuous
 62
     7
370
     9
100
AcDbLine
 10
74.48427196413746
 20
46.58553109138687
 30
0.0
 11
74.89135247437903
 21
46.52105587260523
 31
0.0
  0
ARC
  5
F9
330
1F
100
AcDbEntity
  8
1
  6
Continuous
 62
     7
370
     9
100
AcDbCircle
 10
88.40239423184073
 20
55.90477851493254
 30
0.0
 40
16.75
100
AcDbArc
 50
210.1942615943681
 51
213.8053344278516
  0
LINE
  5
FA
330
1F
100
AcDbEntity
  8
1
  6
Continuous
 62
     7
370
     9
100
AcDbLine
 10
73.92494751516585
 20
47.4806443418653
 30
0.0
 11
74.0454507367321
 21
47.87479261966111
 31
0.0
  0
LINE
  5
FB
330
1F
100
AcDbEntity
  8
1
  6
Continuous
 62
     7
370
     9
100
AcDbLine
 10
75.23825390717951
 20
45.54775628300563
 30
0.0
 11
75.30272956161815
 21
45.95483954387736
 31
0.0
  0
ARC
  5
FC
330
1F
100
AcDbEntity
  8
1
  6
Continuous
 62
     7
370
     9
100
AcDbCircle
 10
88.40239423184073
 20
55.90477851493254
 30
0.0
 40
16.75
100
AcDbArc
 50
218.194261594367
 51
221.8053344278512
  0
LINE
  5
FD
330
1F
100
AcDbEntity
  8
1
  6
Continuous
 62
     7
370
     9
100
AcDbLine
 10
81.53760587853515
 20
40.62612736817485
 30
0.0
 11
81.9169963907259
 21
40.78716908610872
 31
0.0
  0
ARC
  5
FE
330
1F
100
AcDbEntity
  8
1
  6
Continuous
 62
     7
370
     9
100
AcDbCircle
 10
88.40239423184073
 20
55.90477851493254
 30
0.0
 40
16.75
100
AcDbArc
 50
234.194261594367
 51
237.8053344278519
  0
LINE
  5
FF
330
1F
100
AcDbEntity
  8
1
  6
Continuous
 62
     7
370
     9
100
AcDbLine
 10
79.47803626831185
 20
41.73021203342071
 30
0.0
 11
79.87614725338668
 21
41.83688555036949
 31
0.0
  0
LINE
  5
100
330
1F
100
AcDbEntity
  8
1
  6
Continuous
 62
     7
370
     9
100
AcDbLine
 10
78.60299259993309
 20
42.32044092870605
 30
0.0
 11
78.55276322324147
 21
42.72952637334376
 31
0.0
  0
LINE
  5
101
330
1F
100
AcDbEntity
  8
1
  6
Continuous
 62
     7
370
     9
100
AcDbLine
 10
80.58893408935208
 20
41.0888296556208
 30
0.0
 11
80.48225985161372
 21
41.486943330719
 31
0.0
  0
ARC
  5
102
330
1F
100
AcDbEntity
  8
1
  6
Continuous
 62
     7
370
     9
100
AcDbCircle
 10
88.40239423184073
 20
55.90477851493254
 30
0.0
 40
16.75
100
AcDbArc
 50
242.1942615943677
 51
245.8053344278514
  0
ARC
  5
103
330
1F
100
AcDbEntity
  8
1
  6
Continuous
 62
     7
370
     9
100
AcDbCircle
 10
88.40239423184073
 20
55.90477851493254
 30
0.0
 40
16.75
100
AcDbArc
 50
258.1942615943676
 51
261.8053344278516
  0
LINE
  5
104
330
1F
100
AcDbEntity
  8
1
  6
Continuous
 62
     7
370
     9
100
AcDbLine
 10
86.01490313962722
 20
39.32580429200183
 30
0.0
 11
86.3352075934911
 21
39.58518172450206
 31
0.0
  0
LINE
  5
105
330
1F
100
AcDbEntity
  8
1
  6
Continuous
 62
     7
370
     9
100
AcDbLine
 10
84.97544325162619
 20
39.50909289403805
 30
0.0
 11
84.76316639222625
 21
39.86238091571521
 31
0.0
  0
LINE
  5
106
330
1F
100
AcDbEntity
  8
1
  6
Continuous
 62
     7
370
     9
100
AcDbLine
 10
83.73079078547448
 20
39.81942426829254
 30
0.0
 11
84.08407642001174
 21
40.03169969335416
 31
0.0
  0
LINE
  5
107
330
1F
100
AcDbEntity
  8
1
  6
Continuous
 62
     7
370
     9
100
AcDbLine
 10
82.72695569276542
 20
40.14559397419002
 30
0.0
 11
82.56591288667775
 21
40.52498704991054
 31
0.0
  0
ARC
  5
108
330
1F
100
AcDbEntity
  8
1
  6
Continuous
 62
     7
370
     9
100
AcDbCircle
 10
88.40239423184073
 20
55.90477851493254
 30
0.0
 40
16.75
100
AcDbArc
 50
250.1942615943672
 51
253.8053344278516
  0
LINE
  5
109
330
1F
100
AcDbEntity
  8
1
  6
Continuous
 62
     7
370
     9
100
AcDbLine
 10
77.59225934616836
 20
68.69944473776032
 30
0.0
 11
78.00134479080612
 21
68.64921536106871
 31
0.0
  0
LINE
  5
10A
330
1F
100
AcDbEntity
  8
1
  6
Continuous
 62
     7
370
     9
100
AcDbLine
 10
73.32278502178264
 20
63.19640975025509
 30
0.0
 11
73.71693329957844
 21
63.31691297182137
 31
0.0
  0
ARC
  5
10B
330
1F
100
AcDbEntity
  8
1
  6
Continuous
 62
     7
370
     9
100
AcDbCircle
 10
88.40239423184073
 20
55.90477851493254
 30
0.0
 40
16.75
100
AcDbArc
 50
154.1942615943669
 51
157.8053344278518
  0
LINE
  5
10C
330
1F
100
AcDbEntity
  8
1
  6
Continuous
 62
     7
370
     9
100
AcDbLine
 10
71.89709755519624
 20
58.75744071294143
 30
0.0
 11
72.24276200780147
 21
58.98191783316172
 31
0.0
  0
LINE
  5
10D
330
1F
100
AcDbEntity
  8
1
  6
Continuous
 62
     7
370
     9
100
AcDbLine
 10
72.16380213932422
 20
60.0121653792126
 30
0.0
 11
72.38827774276996
 21
59.66650326223542
 31
0.0
  0
ARC
  5
10E
330
1F
100
AcDbEntity
  8
1
  6
Continuous
 62
     7
370
     9
100
AcDbCircle
 10
88.40239423184073
 20
55.90477851493254
 30
0.0
 40
16.75
100
AcDbArc
 50
162.1942615943675
 51
165.8053344278526
  0
LINE
  5
10F
330
1F
100
AcDbEntity
  8
1
  6
Continuous
 62
     7
370
     9
100
AcDbLine
 10
72.4547398119418
 20
61.02677212128135
 30
0.0
 11
72.82828145877141
 21
61.20095745183785
 31
0.0
  0
LINE
  5
110
330
1F
100
AcDbEntity
  8
1
  6
Continuous
 62
     7
370
     9
100
AcDbLine
 10
72.89347276804676
 20
62.23216778933879
 30
0.0
 11
73.0676569216464
 21
61.85862866650125
 31
0.0
  0
LINE
  5
111
330
1F
100
AcDbEntity
  8
1
  6
Continuous
 62
     7
370
     9
100
AcDbLine
 10
75.91678946179013
 20
67.07044793176959
 30
0.0
 11
76.32888429311527
 21
67.07764107380697
 31
0.0
  0
LINE
  5
112
330
1F
100
AcDbEntity
  8
1
  6
Continuous
 62
     7
370
     9
100
AcDbLine
 10
76.80787054856174
 20
67.99318289921267
 30
0.0
 11
76.81506364199561
 21
67.58109085238051
 31
0.0
  0
ARC
  5
113
330
1F
100
AcDbEntity
  8
1
  6
Continuous
 62
     7
370
     9
100
AcDbCircle
 10
88.40239423184073
 20
55.90477851493254
 30
0.0
 40
16.75
100
AcDbArc
 50
130.1942615943676
 51
133.8053344278517
  0
LINE
  5
114
330
1F
100
AcDbEntity
  8
1
  6
Continuous
 62
     7
370
     9
100
AcDbLine
 10
74.48433767209602
 20
65.22412407134085
 30
0.0
 11
74.89142093296778
 21
65.28859972577952
 31
0.0
  0
ARC
  5
115
330
1F
100
AcDbEntity
  8
1
  6
Continuous
 62
     7
370
     9
100
AcDbCircle
 10
88.40239423184073
 20
55.90477851493254
 30
0.0
 40
16.75
100
AcDbArc
 50
146.1942615943669
 51
149.8053344278521
  0
LINE
  5
116
330
1F
100
AcDbEntity
  8
1
  6
Continuous
 62
     7
370
     9
100
AcDbLine
 10
73.92500691192538
 20
64.32901476453726
 30
0.0
 11
74.0455093192607
 21
63.93486914997094
 31
0.0
  0
LINE
  5
117
330
1F
100
AcDbEntity
  8
1
  6
Continuous
 62
     7
370
     9
100
AcDbLine
 10
75.23832693220214
 20
66.2618935635639
 30
0.0
 11
75.30280215098378
 21
65.85481305332233
 31
0.0
  0
ARC
  5
118
330
1F
100
AcDbEntity
  8
1
  6
Continuous
 62
     7
370
     9
100
AcDbCircle
 10
88.40239423184073
 20
55.90477851493254
 30
0.0
 40
16.75
100
AcDbArc
 50
138.1942615943679
 51
141.8053344278521
  0
LINE
  5
119
330
1F
100
AcDbEntity
  8
1
  6
Continuous
 62
     7
370
     9
100
AcDbLine
 10
81.53771360453868
 20
71.18347806316451
 30
0.0
 11
81.91710668025917
 21
71.02243525707685
 31
0.0
  0
LINE
  5
11A
330
1F
100
AcDbEntity
  8
1
  6
Continuous
 62
     7
370
     9
100
AcDbLine
 10
80.58903855298456
 20
70.72078246457046
 30
0.0
 11
80.48236503603579
 21
70.32267147949563
 31
0.0
  0
ARC
  5
11B
330
1F
100
AcDbEntity
  8
1
  6
Continuous
 62
     7
370
     9
100
AcDbCircle
 10
88.40239423184073
 20
55.90477851493254
 30
0.0
 40
16.75
100
AcDbArc
 50
114.1942615943676
 51
117.8053344278521
  0
ARC
  5
11C
330
1F
100
AcDbEntity
  8
1
  6
Continuous
 62
     7
370
     9
100
AcDbCircle
 10
88.40239423184073
 20
55.90477851493254
 30
0.0
 40
16.75
100
AcDbArc
 50
122.1942615943682
 51
125.8053344278518
  0
LINE
  5
11D
330
1F
100
AcDbEntity
  8
1
  6
Continuous
 62
     7
370
     9
100
AcDbLine
 10
78.60308837984115
 20
69.48918519387762
 30
0.0
 11
78.55285934254556
 21
69.08010251339867
 31
0.0
  0
LINE
  5
11E
330
1F
100
AcDbEntity
  8
1
  6
Continuous
 62
     7
370
     9
100
AcDbLine
 10
79.47813620975003
 20
70.0794079194408
 30
0.0
 11
79.87624988484825
 21
69.97273368170245
 31
0.0
  0
LINE
  5
11F
330
1F
100
AcDbEntity
  8
1
  6
Continuous
 62
     7
370
     9
100
AcDbLine
 10
84.97555885346657
 20
72.30048829796796
 30
0.0
 11
84.76328342840497
 21
71.9472026634307
 31
0.0
  0
ARC
  5
120
330
1F
100
AcDbEntity
  8
1
  6
Continuous
 62
     7
370
     9
100
AcDbCircle
 10
88.40239423184073
 20
55.90477851493254
 30
0.0
 40
16.75
100
AcDbArc
 50
98.19426159436779
 51
101.8053344278517
  0
LINE
  5
121
330
1F
100
AcDbEntity
  8
1
  6
Continuous
 62
     7
370
     9
100
AcDbLine
 10
86.01502003376248
 20
72.48376957103575
 30
0.0
 11
86.33532665191348
 21
72.22439038593039
 31
0.0
  0
LINE
  5
122
330
1F
100
AcDbEntity
  8
1
  6
Continuous
 62
     7
370
     9
100
AcDbLine
 10
83.73090419927922
 20
71.99016569944503
 30
0.0
 11
84.08419222095637
 21
71.7778888400451
 31
0.0
  0
LINE
  5
123
330
1F
100
AcDbEntity
  8
1
  6
Continuous
 62
     7
370
     9
100
AcDbLine
 10
82.72706680685653
 20
71.6640030713383
 30
0.0
 11
82.56602508892269
 21
71.28461255914752
 31
0.0
  0
ARC
  5
124
330
1F
100
AcDbEntity
  8
1
  6
Continuous
 62
     7
370
     9
100
AcDbCircle
 10
88.40239423184073
 20
55.90477851493254
 30
0.0
 40
16.75
100
AcDbArc
 50
106.1942615943674
 51
109.8053344278522
  0
LINE
  5
125
330
1F
100
AcDbEntity
  8
1
  6
Continuous
 62
     7
370
     9
100
AcDbLine
 10
146.1965205420669
 20
72.50477851493254
 30
0.0
 11
156.0965205420668
 21
72.50477851493254
 31
0.0
  0
LINE
  5
126
330
1F
100
AcDbEntity
  8
1
  6
Continuous
 62
     7
370
     9
100
AcDbLine
 10
153.0965205420666
 20
39.30477851493256
 30
0.0
 11
156.0965205420668
 21
39.30477851493256
 31
0.0
  0
LINE
  5
127
330
1F
100
AcDbEntity
  8
1
  6
Continuous
 62
     7
370
     9
100
AcDbLine
 10
109.7023942318407
 20
57.60477851493258
 30
0.0
 11
109.4023942318407
 21
57.90477851493259
 31
0.0
  0
LINE
  5
128
330
1F
100
AcDbEntity
  8
1
  6
Continuous
 62
     7
370
     9
100
AcDbLine
 10
109.4023942318407
 20
57.90477851493259
 30
0.0
 11
109.4023942318407
 21
53.90477851493259
 31
0.0
  0
LINE
  5
129
330
1F
100
AcDbEntity
  8
1
  6
Continuous
 62
     7
370
     9
100
AcDbLine
 10
105.0664884371459
 20
57.59902298274514
 30
0.0
 11
104.7373269622507
 21
57.84706394529022
 31
0.0
  0
LINE
  5
12A
330
1F
100
AcDbEntity
  8
1
  6
Continuous
 62
     7
370
     9
100
AcDbLine
 10
105.7023942318407
 20
57.90477851493257
 30
0.0
 11
105.7023942318407
 21
53.90477851493257
 31
0.0
  0
LINE
  5
12B
330
1F
100
AcDbEntity
  8
1
  6
Continuous
 62
     7
370
     9
100
AcDbLine
 10
103.9539087545802
 20
49.68280969075623
 30
0.0
 11
103.5691264819906
 21
49.53510561498987
 31
0.0
  0
ARC
  5
12C
330
1F
100
AcDbEntity
  8
1
  6
Continuous
 62
     7
370
     9
100
AcDbCircle
 10
88.40239423184073
 20
55.90477851493254
 30
0.0
 40
16.75
100
AcDbArc
 50
290.1942615943676
 51
309.8053344278525
  0
LINE
  5
12D
330
1F
100
AcDbEntity
  8
1
  6
Continuous
 62
     7
370
     9
100
AcDbLine
 10
90.67717511246877
 20
39.30996390478612
 30
0.0
 11
90.91357740535358
 21
39.64758136815888
 31
0.0
  0
LINE
  5
12E
330
1F
100
AcDbEntity
  8
1
  6
Continuous
 62
     7
370
     9
100
AcDbLine
 10
89.62746095205239
 20
39.19963824221918
 30
0.0
 11
89.3260279620402
 21
39.48072905286509
 31
0.0
  0
ARC
  5
12F
330
1F
100
AcDbEntity
  8
1
  6
Continuous
 62
     7
370
     9
100
AcDbCircle
 10
88.40239423184073
 20
55.90477851493254
 30
0.0
 40
16.75
100
AcDbArc
 50
266.1942615943673
 51
269.8053344278514
  0
LINE
  5
130
330
1F
100
AcDbEntity
  8
1
  6
Continuous
 62
     7
370
     9
100
AcDbLine
 10
88.34548529215903
 20
39.15487519065678
 30
0.0
 11
88.626574203496
 21
39.4563061439095
 31
0.0
  0
ARC
  5
131
330
1F
100
AcDbEntity
  8
1
  6
Continuous
 62
     7
370
     9
100
AcDbCircle
 10
88.40239423184073
 20
55.90477851493254
 30
0.0
 40
16.75
100
AcDbArc
 50
274.1942615943676
 51
277.8053344278517
  0
LINE
  5
132
330
1F
100
AcDbEntity
  8
1
  6
Continuous
 62
     7
370
     9
100
AcDbLine
 10
87.29063251321787
 20
39.19171518468082
 30
0.0
 11
87.03125332811251
 21
39.51202180283181
 31
0.0
  0
LINE
  5
133
330
1F
100
AcDbEntity
  8
1
  6
Continuous
 62
     7
370
     9
100
AcDbLine
 10
94.18456463827175
 20
40.18444119695512
 30
0.0
 11
93.81732952328997
 21
40.37155683398633
 31
0.0
  0
ARC
  5
134
330
1F
100
AcDbEntity
  8
1
  6
Continuous
 62
     7
370
     9
100
AcDbCircle
 10
88.40239423184073
 20
55.90477851493254
 30
0.0
 40
16.75
100
AcDbArc
 50
282.1942615943676
 51
285.8053344278521
  0
LINE
  5
135
330
1F
100
AcDbEntity
  8
1
  6
Continuous
 62
     7
370
     9
100
AcDbLine
 10
91.94044486067068
 20
39.5327078533505
 30
0.0
 11
91.60282511602736
 21
39.76911174359817
 31
0.0
  0
LINE
  5
136
330
1F
100
AcDbEntity
  8
1
  6
Continuous
 62
     7
370
     9
100
AcDbLine
 10
92.96458891046197
 20
39.78805180898011
 30
0.0
 11
93.15170328316725
 21
40.15528444258256
 31
0.0
  0
LINE
  5
137
330
1F
100
AcDbEntity
  8
1
  6
Continuous
 62
     7
370
     9
100
AcDbLine
 10
98.66133934993101
 20
37.5790719344993
 30
0.0
 11
96.81133934993099
 21
40.78336592850171
 31
0.0
  0
LINE
  5
138
330
1F
100
AcDbEntity
  8
1
  6
Continuous
 62
     7
370
     9
100
AcDbLine
 10
98.42497632710177
 20
37.44260767964235
 30
0.0
 11
96.57497632710175
 21
40.64690167364478
 31
0.0
  0
LINE
  5
139
330
1F
100
AcDbEntity
  8
1
  6
Continuous
 62
     7
370
     9
100
AcDbLine
 10
98.19790570073346
 20
37.31150839238356
 30
0.0
 11
96.34790570073343
 21
40.51580238638597
 31
0.0
  0
LINE
  5
13A
330
1F
100
AcDbEntity
  8
1
  6
Continuous
 62
     7
370
     9
100
AcDbLine
 10
97.98454714227933
 20
37.18832577122615
 30
0.0
 11
96.1345471422793
 21
40.39261976522857
 31
0.0
  0
LINE
  5
13B
330
1F
100
AcDbEntity
  8
1
  6
Continuous
 62
     7
370
     9
100
AcDbLine
 10
97.78905343338792
 20
37.07545742577281
 30
0.0
 11
95.9390534333879
 21
40.27975141977524
 31
0.0
  0
LINE
  5
13C
330
1F
100
AcDbEntity
  8
1
  6
Continuous
 62
     7
370
     9
100
AcDbLine
 10
97.61522963673201
 20
36.97510020998195
 30
0.0
 11
95.76522963673199
 21
40.17939420398437
 31
0.0
  0
LINE
  5
13D
330
1F
100
AcDbEntity
  8
1
  6
Continuous
 62
     7
370
     9
100
AcDbLine
 10
97.46645903479185
 20
36.88920746290432
 30
0.0
 11
95.61645903479183
 21
40.09350145690674
 31
0.0
  0
LINE
  5
13E
330
1F
100
AcDbEntity
  8
1
  6
Continuous
 62
     7
370
     9
100
AcDbLine
 10
97.34563727811019
 20
36.8194509891602
 30
0.0
 11
95.4956372781102
 21
40.02374498316262
 31
0.0
  0
LINE
  5
13F
330
1F
100
AcDbEntity
  8
1
  6
Continuous
 62
     7
370
     9
100
AcDbLine
 10
97.2551160247481
 20
36.76718851916419
 30
0.0
 11
95.40511602474808
 21
39.97148251316662
 31
0.0
  0
LINE
  5
140
330
1F
100
AcDbEntity
  8
1
  6
Continuous
 62
     7
370
     9
100
AcDbLine
 10
97.19665716793585
 20
36.73343728244714
 30
0.0
 11
95.34665716793586
 21
39.93773127644957
 31
0.0
  0
LINE
  5
141
330
1F
100
AcDbEntity
  8
1
  6
Continuous
 62
     7
370
     9
100
AcDbLine
 10
95.32034342427187
 20
39.92253902946177
 30
0.0
 11
97.17034342427189
 21
36.71824503545938
 31
0.0
  0
LINE
  5
142
330
1F
100
AcDbEntity
  8
1
  6
Continuous
 62
     7
370
     9
100
AcDbLine
 10
97.05239423184074
 20
40.92253902946177
 30
0.0
 11
98.90239423184076
 21
37.71824503545938
 31
0.0
  0
LINE
  5
143
330
1F
100
AcDbEntity
  8
1
  6
Continuous
 62
     7
370
     9
100
AcDbLine
 10
99.14344911375053
 20
37.85741813641943
 30
0.0
 11
97.29344911375051
 21
41.06171213042185
 31
0.0
  0
LINE
  5
144
330
1F
100
AcDbEntity
  8
1
  6
Continuous
 62
     7
370
     9
100
AcDbLine
 10
99.37981213657977
 20
37.99388239127637
 30
0.0
 11
97.52981213657975
 21
41.19817638527879
 31
0.0
  0
LINE
  5
145
330
1F
100
AcDbEntity
  8
1
  6
Continuous
 62
     7
370
     9
100
AcDbLine
 10
99.60688276294809
 20
38.12498167853516
 30
0.0
 11
97.75688276294807
 21
41.32927567253759
 31
0.0
  0
LINE
  5
146
330
1F
100
AcDbEntity
  8
1
  6
Continuous
 62
     7
370
     9
100
AcDbLine
 10
99.82024132140222
 20
38.24816429969258
 30
0.0
 11
97.9702413214022
 21
41.452458293695
 31
0.0
  0
LINE
  5
147
330
1F
100
AcDbEntity
  8
1
  6
Continuous
 62
     7
370
     9
100
AcDbLine
 10
100.0157350302936
 20
38.36103264514591
 30
0.0
 11
98.1657350302936
 21
41.56532663914832
 31
0.0
  0
LINE
  5
148
330
1F
100
AcDbEntity
  8
1
  6
Continuous
 62
     7
370
     9
100
AcDbLine
 10
100.1895588269495
 20
38.46138986093675
 30
0.0
 11
98.33955882694951
 21
41.66568385493918
 31
0.0
  0
LINE
  5
149
330
1F
100
AcDbEntity
  8
1
  6
Continuous
 62
     7
370
     9
100
AcDbLine
 10
100.3383294288897
 20
38.5472826080144
 30
0.0
 11
98.48832942888964
 21
41.75157660201683
 31
0.0
  0
LINE
  5
14A
330
1F
100
AcDbEntity
  8
1
  6
Continuous
 62
     7
370
     9
100
AcDbLine
 10
100.4591511855713
 20
38.61703908175852
 30
0.0
 11
98.6091511855713
 21
41.82133307576095
 31
0.0
  0
LINE
  5
14B
330
1F
100
AcDbEntity
  8
1
  6
Continuous
 62
     7
370
     9
100
AcDbLine
 10
100.5496724389334
 20
38.6693015517545
 30
0.0
 11
98.69967243893342
 21
41.87359554575693
 31
0.0
  0
LINE
  5
14C
330
1F
100
AcDbEntity
  8
1
  6
Continuous
 62
     7
370
     9
100
AcDbLine
 10
100.6081312957457
 20
38.70305278847158
 30
0.0
 11
98.75813129574564
 21
41.90734678247399
 31
0.0
  0
LINE
  5
14D
330
1F
100
AcDbEntity
  8
1
  6
Continuous
 62
     7
370
     9
100
AcDbLine
 10
98.78444503940963
 20
41.92253902946177
 30
0.0
 11
100.6344450394097
 21
38.71824503545938
 31
0.0
  0
LINE
  5
14E
330
1F
100
AcDbEntity
  8
1
  6
Continuous
 62
     7
370
     9
100
AcDbLine
 10
100.5246374182743
 20
38.30843741432403
 30
0.0
 11
97.5801510454072
 21
36.60843741432402
 31
0.0
  0
LINE
  5
14F
330
1F
100
AcDbEntity
  8
1
  6
Continuous
 62
     7
370
     9
100
AcDbLine
 10
100.6344450394097
 20
38.71824503545938
 30
0.0
 11
97.17034342427189
 21
36.71824503545938
 31
0.0
  0
LINE
  5
150
330
1F
100
AcDbEntity
  8
1
  6
Continuous
 62
     7
370
     9
100
AcDbLine
 10
97.5801510454072
 20
36.60843741432402
 30
0.0
 11
97.17034342427189
 21
36.71824503545938
 31
0.0
  0
LINE
  5
151
330
1F
100
AcDbEntity
  8
1
  6
Continuous
 62
     7
370
     9
100
AcDbLine
 10
100.5246374182743
 20
38.30843741432403
 30
0.0
 11
100.6344450394097
 21
38.71824503545938
 31
0.0
  0
LINE
  5
152
330
1F
100
AcDbEntity
  8
1
  6
Continuous
 62
     7
370
     9
100
AcDbLine
 10
99.12542977512555
 20
43.03702778928317
 30
0.0
 11
99.14700029175077
 21
43.44861776543419
 31
0.0
  0
LINE
  5
153
330
1F
100
AcDbEntity
  8
1
  6
Continuous
 62
     7
370
     9
100
AcDbLine
 10
96.31627263862396
 20
40.49753902946178
 30
0.0
 11
96.03048210515456
 21
40.992542753753
 31
0.0
  0
LINE
  5
154
330
1F
100
AcDbEntity
  8
1
  6
Continuous
 62
     7
370
     9
100
AcDbLine
 10
96.15609829474556
 20
41.05746989333744
 30
0.0
 11
96.31627263862396
 21
40.49753902946178
 31
0.0
  0
LINE
  5
155
330
1F
100
AcDbEntity
  8
1
  6
Continuous
 62
     7
370
     9
100
AcDbLine
 10
97.38368864451743
 20
41.76621951223279
 30
0.0
 11
97.78851582505752
 21
41.34753902946179
 31
0.0
  0
LINE
  5
156
330
1F
100
AcDbEntity
  8
1
  6
Continuous
 62
     7
370
     9
100
AcDbLine
 10
97.78851582505752
 20
41.34753902946179
 30
0.0
 11
97.50272529158812
 21
41.84254275375301
 31
0.0
  0
LINE
  5
157
330
1F
100
AcDbEntity
  8
1
  6
Continuous
 62
     7
370
     9
100
AcDbLine
 10
98.78444503940963
 20
41.92253902946177
 30
0.0
 11
95.32034342427187
 21
39.92253902946177
 31
0.0
  0
LINE
  5
158
330
1F
100
AcDbEntity
  8
1
  6
Continuous
 62
     7
370
     9
100
AcDbLine
 10
103.4321603786356
 20
48.51095476989643
 30
0.0
 11
103.2844573008942
 21
48.89573444254198
 31
0.0
  0
LINE
  5
159
330
1F
100
AcDbEntity
  8
1
  6
Continuous
 62
     7
370
     9
100
AcDbLine
 10
102.936631788943
 20
47.57900896289006
 30
0.0
 11
102.5350377567308
 21
47.48629367510641
 31
0.0
  0
LINE
  5
15A
330
1F
100
AcDbEntity
  8
1
  6
Continuous
 62
     7
370
     9
100
AcDbLine
 10
102.2568703491158
 20
46.49117179296603
 30
0.0
 11
102.1641556878022
 21
46.89276311163836
 31
0.0
  0
ARC
  5
15B
330
1F
100
AcDbEntity
  8
1
  6
Continuous
 62
     7
370
     9
100
AcDbCircle
 10
88.40239423184073
 20
55.90477851493254
 30
0.0
 40
16.75
100
AcDbArc
 50
330.1942615943678
 51
333.8053344278517
  0
LINE
  5
15C
330
1F
100
AcDbEntity
  8
1
  6
Continuous
 62
     7
370
     9
100
AcDbLine
 10
101.6364624217069
 20
45.63725986893191
 30
0.0
 11
101.2258732009028
 21
45.60133796674559
 31
0.0
  0
LINE
  5
15D
330
1F
100
AcDbEntity
  8
1
  6
Continuous
 62
     7
370
     9
100
AcDbLine
 10
100.8119187012064
 20
44.65461396305976
 30
0.0
 11
100.7759970417416
 21
45.06520040954426
 31
0.0
  0
LINE
  5
15E
330
1F
100
AcDbEntity
  8
1
  6
Continuous
 62
     7
370
     9
100
AcDbLine
 10
100.0787069706846
 20
43.89535634628878
 30
0.0
 11
99.66711421343308
 21
43.91692700866531
 31
0.0
  0
ARC
  5
15F
330
1F
100
AcDbEntity
  8
1
  6
Continuous
 62
     7
370
     9
100
AcDbCircle
 10
88.40239423184073
 20
55.90477851493254
 30
0.0
 40
16.75
100
AcDbArc
 50
314.1942615943676
 51
317.8053344278515
  0
ARC
  5
160
330
1F
100
AcDbEntity
  8
1
  6
Continuous
 62
     7
370
     9
100
AcDbCircle
 10
88.40239423184073
 20
55.90477851493254
 30
0.0
 40
16.75
100
AcDbArc
 50
322.1942615943681
 51
325.8053344278517
  0
LINE
  5
161
330
1F
100
AcDbEntity
  8
1
  6
Continuous
 62
     7
370
     9
100
AcDbLine
 10
105.7023942318407
 20
55.90477851493257
 30
0.0
 11
109.4023942318407
 21
55.90477851493259
 31
0.0
  0
LINE
  5
162
330
1F
100
AcDbEntity
  8
1
  6
Continuous
 62
     7
370
     9
100
AcDbLine
 10
109.4023942318407
 20
56.18312471685272
 30
0.0
 11
105.7023942318407
 21
56.18312471685272
 31
0.0
  0
LINE
  5
163
330
1F
100
AcDbEntity
  8
1
  6
Continuous
 62
     7
370
     9
100
AcDbLine
 10
109.4023942318407
 20
56.45605322656658
 30
0.0
 11
105.7023942318407
 21
56.45605322656658
 31
0.0
  0
LINE
  5
164
330
1F
100
AcDbEntity
  8
1
  6
Continuous
 62
     7
370
     9
100
AcDbLine
 10
109.4023942318407
 20
56.71825180108419
 30
0.0
 11
105.7023942318407
 21
56.71825180108419
 31
0.0
  0
LINE
  5
165
330
1F
100
AcDbEntity
  8
1
  6
Continuous
 62
     7
370
     9
100
AcDbLine
 10
109.4023942318407
 20
56.96461704339902
 30
0.0
 11
105.7023942318407
 21
56.964617043399
 31
0.0
  0
LINE
  5
166
330
1F
100
AcDbEntity
  8
1
  6
Continuous
 62
     7
370
     9
100
AcDbLine
 10
109.4023942318407
 20
57.19035373430566
 30
0.0
 11
105.7023942318407
 21
57.19035373430566
 31
0.0
  0
LINE
  5
167
330
1F
100
AcDbEntity
  8
1
  6
Continuous
 62
     7
370
     9
100
AcDbLine
 10
109.4023942318407
 20
57.39106816588739
 30
0.0
 11
105.7023942318407
 21
57.39106816588738
 31
0.0
  0
LINE
  5
168
330
1F
100
AcDbEntity
  8
1
  6
Continuous
 62
     7
370
     9
100
AcDbLine
 10
109.4023942318407
 20
57.56285366004266
 30
0.0
 11
105.7023942318407
 21
57.56285366004266
 31
0.0
  0
LINE
  5
169
330
1F
100
AcDbEntity
  8
1
  6
Continuous
 62
     7
370
     9
100
AcDbLine
 10
109.4023942318407
 20
57.70236660753091
 30
0.0
 11
105.7023942318407
 21
57.70236660753091
 31
0.0
  0
LINE
  5
16A
330
1F
100
AcDbEntity
  8
1
  6
Continuous
 62
     7
370
     9
100
AcDbLine
 10
109.4023942318407
 20
55.62643231301243
 30
0.0
 11
105.7023942318407
 21
55.62643231301243
 31
0.0
  0
LINE
  5
16B
330
1F
100
AcDbEntity
  8
1
  6
Continuous
 62
     7
370
     9
100
AcDbLine
 10
109.4023942318407
 20
55.35350380329857
 30
0.0
 11
105.7023942318407
 21
55.35350380329857
 31
0.0
  0
LINE
  5
16C
330
1F
100
AcDbEntity
  8
1
  6
Continuous
 62
     7
370
     9
100
AcDbLine
 10
109.4023942318407
 20
55.09130522878095
 30
0.0
 11
105.7023942318407
 21
55.09130522878095
 31
0.0
  0
LINE
  5
16D
330
1F
100
AcDbEntity
  8
1
  6
Continuous
 62
     7
370
     9
100
AcDbLine
 10
109.4023942318407
 20
54.84493998646616
 30
0.0
 11
105.7023942318407
 21
54.84493998646614
 31
0.0
  0
LINE
  5
16E
330
1F
100
AcDbEntity
  8
1
  6
Continuous
 62
     7
370
     9
100
AcDbLine
 10
109.4023942318407
 20
54.61920329555949
 30
0.0
 11
105.7023942318407
 21
54.61920329555949
 31
0.0
  0
LINE
  5
16F
330
1F
100
AcDbEntity
  8
1
  6
Continuous
 62
     7
370
     9
100
AcDbLine
 10
109.4023942318407
 20
54.41848886397779
 30
0.0
 11
105.7023942318407
 21
54.41848886397777
 31
0.0
  0
LINE
  5
170
330
1F
100
AcDbEntity
  8
1
  6
Continuous
 62
     7
370
     9
100
AcDbLine
 10
109.4023942318407
 20
54.24670336982248
 30
0.0
 11
105.7023942318407
 21
54.24670336982248
 31
0.0
  0
LINE
  5
171
330
1F
100
AcDbEntity
  8
1
  6
Continuous
 62
     7
370
     9
100
AcDbLine
 10
109.4023942318407
 20
54.10719042233424
 30
0.0
 11
105.7023942318407
 21
54.10719042233424
 31
0.0
  0
LINE
  5
172
330
1F
100
AcDbEntity
  8
1
  6
Continuous
 62
     7
370
     9
100
AcDbLine
 10
109.4023942318407
 20
54.00266548234228
 30
0.0
 11
105.7023942318407
 21
54.00266548234227
 31
0.0
  0
LINE
  5
173
330
1F
100
AcDbEntity
  8
1
  6
Continuous
 62
     7
370
     9
100
AcDbLine
 10
109.4023942318407
 20
53.93516300890815
 30
0.0
 11
105.7023942318407
 21
53.93516300890815
 31
0.0
  0
LINE
  5
174
330
1F
100
AcDbEntity
  8
1
  6
Continuous
 62
     7
370
     9
100
AcDbLine
 10
105.7023942318407
 20
53.90477851493257
 30
0.0
 11
109.4023942318407
 21
53.90477851493259
 31
0.0
  0
LINE
  5
175
330
1F
100
AcDbEntity
  8
1
  6
Continuous
 62
     7
370
     9
100
AcDbLine
 10
105.7023942318407
 20
56.75477851493257
 30
0.0
 11
105.1308131649019
 21
56.75477851493257
 31
0.0
  0
LINE
  5
176
330
1F
100
AcDbEntity
  8
1
  6
Continuous
 62
     7
370
     9
100
AcDbLine
 10
105.1373927074222
 20
56.61352813382794
 30
0.0
 11
105.7023942318407
 21
56.75477851493257
 31
0.0
  0
LINE
  5
177
330
1F
100
AcDbEntity
  8
1
  6
Continuous
 62
     7
370
     9
100
AcDbLine
 10
105.0664764910505
 20
54.21041655292704
 30
0.0
 11
104.7373127920216
 21
53.962373914377
 31
0.0
  0
LINE
  5
178
330
1F
100
AcDbEntity
  8
1
  6
Continuous
 62
     7
370
     9
100
AcDbLine
 10
105.1373927074222
 20
55.19602889603719
 30
0.0
 11
105.7023942318407
 21
55.05477851493256
 31
0.0
  0
LINE
  5
179
330
1F
100
AcDbEntity
  8
1
  6
Continuous
 62
     7
370
     9
100
AcDbLine
 10
105.7023942318407
 20
55.05477851493256
 30
0.0
 11
105.1308131649019
 21
55.05477851493256
 31
0.0
  0
ARC
  5
17A
330
1F
100
AcDbEntity
  8
1
  6
Continuous
 62
     7
370
     9
100
AcDbCircle
 10
88.40239423184073
 20
55.90477851493254
 30
0.0
 40
16.75
100
AcDbArc
 50
354.1942615943669
 51
5.805334427851585
  0
ARC
  5
17B
330
1F
100
AcDbEntity
  8
1
  6
Continuous
 62
     7
370
     9
100
AcDbCircle
 10
88.40239423184073
 20
55.90477851493254
 30
0.0
 40
16.75
100
AcDbArc
 50
346.1942615943678
 51
349.8053344278518
  0
LINE
  5
17C
330
1F
100
AcDbEntity
  8
1
  6
Continuous
 62
     7
370
     9
100
AcDbLine
 10
104.8879467541237
 20
52.94014396156051
 30
0.0
 11
104.6399057915787
 21
53.26930543645568
 31
0.0
  0
LINE
  5
17D
330
1F
100
AcDbEntity
  8
1
  6
Continuous
 62
     7
370
     9
100
AcDbLine
 10
104.3149131062135
 20
50.67465011567413
 30
0.0
 11
104.1150964844429
 21
51.03512884364523
 31
0.0
  0
ARC
  5
17E
330
1F
100
AcDbEntity
  8
1
  6
Continuous
 62
     7
370
     9
100
AcDbCircle
 10
88.40239423184073
 20
55.90477851493254
 30
0.0
 40
16.75
100
AcDbArc
 50
338.1942615943672
 51
341.8053344278517
  0
LINE
  5
17F
330
1F
100
AcDbEntity
  8
1
  6
Continuous
 62
     7
370
     9
100
AcDbLine
 10
104.6684931796179
 20
51.90771396440036
 30
0.0
 11
104.3080120159034
 21
51.70789599247517
 31
0.0
  0
LINE
  5
180
330
1F
100
AcDbEntity
  8
1
  6
Continuous
 62
     7
370
     9
100
AcDbLine
 10
109.7023942318407
 20
54.20477851493257
 30
0.0
 11
109.4023942318407
 21
53.90477851493259
 31
0.0
  0
LINE
  5
181
330
1F
100
AcDbEntity
  8
1
  6
Continuous
 62
     7
370
     9
100
AcDbLine
 10
109.7023942318407
 20
57.60477851493258
 30
0.0
 11
109.7023942318407
 21
54.20477851493257
 31
0.0
  0
LINE
  5
182
330
1F
100
AcDbEntity
  8
1
  6
Continuous
 62
     7
370
     9
100
AcDbLine
 10
103.9539526236929
 20
62.1266376892319
 30
0.0
 11
103.5691729510473
 21
62.27434076697321
 31
0.0
  0
ARC
  5
183
330
1F
100
AcDbEntity
  8
1
  6
Continuous
 62
     7
370
     9
100
AcDbCircle
 10
88.40239423184073
 20
55.90477851493254
 30
0.0
 40
16.75
100
AcDbArc
 50
50.19426159436793
 51
69.8053344278524
  0
LINE
  5
184
330
1F
100
AcDbEntity
  8
1
  6
Continuous
 62
     7
370
     9
100
AcDbLine
 10
90.67729211817459
 20
72.49957708577254
 30
0.0
 11
90.91369600842228
 21
72.16195734112922
 31
0.0
  0
ARC
  5
185
330
1F
100
AcDbEntity
  8
1
  6
Continuous
 62
     7
370
     9
100
AcDbCircle
 10
88.40239423184073
 20
55.90477851493254
 30
0.0
 40
16.75
100
AcDbArc
 50
90.19426159436745
 51
93.80533442785192
  0
LINE
  5
186
330
1F
100
AcDbEntity
  8
1
  6
Continuous
 62
     7
370
     9
100
AcDbLine
 10
88.34560339141339
 20
72.65468224004223
 30
0.0
 11
88.62669420205933
 21
72.35324925003006
 31
0.0
  0
LINE
  5
187
330
1F
100
AcDbEntity
  8
1
  6
Continuous
 62
     7
370
     9
100
AcDbLine
 10
89.62757873566215
 20
72.60991014960085
 30
0.0
 11
89.32614778240944
 21
72.32882123826383
 31
0.0
  0
ARC
  5
188
330
1F
100
AcDbEntity
  8
1
  6
Continuous
 62
     7
370
     9
100
AcDbCircle
 10
88.40239423184073
 20
55.90477851493254
 30
0.0
 40
16.75
100
AcDbArc
 50
82.19426159436793
 51
85.80533442785217
  0
LINE
  5
189
330
1F
100
AcDbEntity
  8
1
  6
Continuous
 62
     7
370
     9
100
AcDbLine
 10
87.29075035274917
 20
72.6178496835143
 30
0.0
 11
87.03137292024894
 21
72.29754522965038
 31
0.0
  0
LINE
  5
18A
330
1F
100
AcDbEntity
  8
1
  6
Continuous
 62
     7
370
     9
100
AcDbLine
 10
94.18467547817633
 20
71.62507506392538
 30
0.0
 11
93.81744284457392
 21
71.43796069122006
 31
0.0
  0
ARC
  5
18B
330
1F
100
AcDbEntity
  8
1
  6
Continuous
 62
     7
370
     9
100
AcDbCircle
 10
88.40239423184073
 20
55.90477851493254
 30
0.0
 40
16.75
100
AcDbArc
 50
74.19426159436804
 51
77.80533442785233
  0
LINE
  5
18C
330
1F
100
AcDbEntity
  8
1
  6
Continuous
 62
     7
370
     9
100
AcDbLine
 10
91.94056029583493
 20
72.2768242302242
 30
0.0
 11
91.60294283246219
 21
72.04042193733933
 31
0.0
  0
LINE
  5
18D
330
1F
100
AcDbEntity
  8
1
  6
Continuous
 62
     7
370
     9
100
AcDbLine
 10
92.96470254523632
 20
72.02147305362506
 30
0.0
 11
93.15181818226756
 21
71.6542379386433
 31
0.0
  0
LINE
  5
18E
330
1F
100
AcDbEntity
  8
1
  6
Continuous
 62
     7
370
     9
100
AcDbLine
 10
99.1255205020542
 20
68.77245363490105
 30
0.0
 11
99.14709116443078
 21
68.36086087764954
 31
0.0
  0
LINE
  5
18F
330
1F
100
AcDbEntity
  8
1
  6
Continuous
 62
     7
370
     9
100
AcDbLine
 10
100.8119980229097
 20
67.15485557016576
 30
0.0
 11
100.7760761207234
 21
66.7442663493616
 31
0.0
  0
LINE
  5
190
330
1F
100
AcDbEntity
  8
1
  6
Continuous
 62
     7
370
     9
100
AcDbLine
 10
100.078791645736
 20
67.91411835660489
 30
0.0
 11
99.66720166958504
 21
67.89254783997963
 31
0.0
  0
ARC
  5
191
330
1F
100
AcDbEntity
  8
1
  6
Continuous
 62
     7
370
     9
100
AcDbCircle
 10
88.40239423184073
 20
55.90477851493254
 30
0.0
 40
16.75
100
AcDbArc
 50
42.19426159436708
 51
45.80533442785266
  0
LINE
  5
192
330
1F
100
AcDbEntity
  8
1
  6
Continuous
 62
     7
370
     9
100
AcDbLine
 10
102.2569367216872
 20
65.31828755232334
 30
0.0
 11
102.1642214339035
 21
64.91669352011114
 31
0.0
  0
LINE
  5
193
330
1F
100
AcDbEntity
  8
1
  6
Continuous
 62
     7
370
     9
100
AcDbLine
 10
102.9366904914378
 20
64.23044558960358
 30
0.0
 11
102.5350991727655
 21
64.32316025091717
 31
0.0
  0
LINE
  5
194
330
1F
100
AcDbEntity
  8
1
  6
Continuous
 62
     7
370
     9
100
AcDbLine
 10
103.4322125102083
 20
63.29849628877594
 30
0.0
 11
103.2845084344419
 21
62.91371401618628
 31
0.0
  0
ARC
  5
195
330
1F
100
AcDbEntity
  8
1
  6
Continuous
 62
     7
370
     9
100
AcDbCircle
 10
88.40239423184073
 20
55.90477851493254
 30
0.0
 40
16.75
100
AcDbArc
 50
26.1942615943687
 51
29.80533442785316
  0
ARC
  5
196
330
1F
100
AcDbEntity
  8
1
  6
Continuous
 62
     7
370
     9
100
AcDbCircle
 10
88.40239423184073
 20
55.90477851493254
 30
0.0
 40
16.75
100
AcDbArc
 50
34.1942615943679
 51
37.80533442785275
  0
LINE
  5
197
330
1F
100
AcDbEntity
  8
1
  6
Continuous
 62
     7
370
     9
100
AcDbLine
 10
101.6365348150067
 20
66.17220385067272
 30
0.0
 11
101.2259483685222
 21
66.20812551013749
 31
0.0
  0
LINE
  5
198
330
1F
100
AcDbEntity
  8
1
  6
Continuous
 62
     7
370
     9
100
AcDbLine
 10
109.4023942318407
 20
57.80689154752289
 30
0.0
 11
105.7023942318407
 21
57.80689154752288
 31
0.0
  0
LINE
  5
199
330
1F
100
AcDbEntity
  8
1
  6
Continuous
 62
     7
370
     9
100
AcDbLine
 10
109.4023942318407
 20
57.874394020957
 30
0.0
 11
105.7023942318407
 21
57.874394020957
 31
0.0
  0
LINE
  5
19A
330
1F
100
AcDbEntity
  8
1
  6
Continuous
 62
     7
370
     9
100
AcDbLine
 10
105.7023942318407
 20
57.90477851493257
 30
0.0
 11
109.4023942318407
 21
57.90477851493259
 31
0.0
  0
ARC
  5
19B
330
1F
100
AcDbEntity
  8
1
  6
Continuous
 62
     7
370
     9
100
AcDbCircle
 10
88.40239423184073
 20
55.90477851493254
 30
0.0
 40
16.75
100
AcDbArc
 50
10.19426159436831
 51
13.80533442785197
  0
LINE
  5
19C
330
1F
100
AcDbEntity
  8
1
  6
Continuous
 62
     7
370
     9
100
AcDbLine
 10
104.8879676565884
 20
58.8692968328473
 30
0.0
 11
104.6399250180384
 21
58.54013313381839
 31
0.0
  0
LINE
  5
19D
330
1F
100
AcDbEntity
  8
1
  6
Continuous
 62
     7
370
     9
100
AcDbLine
 10
104.3149499821059
 20
61.13479471898998
 30
0.0
 11
104.1151320101807
 21
60.77431355527547
 31
0.0
  0
LINE
  5
19E
330
1F
100
AcDbEntity
  8
1
  6
Continuous
 62
     7
370
     9
100
AcDbLine
 10
104.668521361486
 20
59.9017283772924
 30
0.0
 11
104.3080426335148
 21
60.10154499906295
 31
0.0
  0
ARC
  5
19F
330
1F
100
AcDbEntity
  8
1
  6
Continuous
 62
     7
370
     9
100
AcDbCircle
 10
88.40239423184073
 20
55.90477851493254
 30
0.0
 40
16.75
100
AcDbArc
 50
18.19426159436852
 51
21.80533442785198
  0
LINE
  5
1A0
330
1F
100
AcDbEntity
  8
1
  6
Continuous
 62
     7
370
     9
100
AcDbLine
 10
145.3965205420668
 20
55.90477851493254
 30
0.0
 11
145.3965205420668
 21
72.20477851493256
 31
0.0
  0
LINE
  5
1A1
330
1F
100
AcDbEntity
  8
1
  6
Continuous
 62
     7
370
     9
100
AcDbLine
 10
146.1965205420668
 20
55.90477851493254
 30
0.0
 11
146.1965205420668
 21
72.50477851493254
 31
0.0
  0
LINE
  5
1A2
330
1F
100
AcDbEntity
  8
1
  6
Continuous
 62
     7
370
     9
100
AcDbLine
 10
144.8965205420668
 20
57.84706394529016
 30
0.0
 11
144.5965205420668
 21
57.59902298274511
 31
0.0
  0
LINE
  5
1A3
330
1F
100
AcDbEntity
  8
1
  6
Continuous
 62
     7
370
     9
100
AcDbLine
 10
138.5965205420668
 20
57.84706394529017
 30
0.0
 11
138.8965205420668
 21
57.59902298274513
 31
0.0
  0
LINE
  5
1A4
330
1F
100
AcDbEntity
  8
1
  6
Continuous
 62
     7
370
     9
100
AcDbLine
 10
138.5965205420668
 20
68.95481392336927
 30
0.0
 11
138.5965205420668
 21
55.90477851493254
 31
0.0
  0
LINE
  5
1A5
330
1F
100
AcDbEntity
  8
1
  6
Continuous
 62
     7
370
     9
100
AcDbLine
 10
144.8965205420668
 20
72.35477851493252
 30
0.0
 11
144.8965205420668
 21
55.90477851493253
 31
0.0
  0
LINE
  5
1A6
330
1F
100
AcDbEntity
  8
1
  6
Continuous
 62
     7
370
     9
100
AcDbLine
 10
138.1965205420668
 20
55.90477851493254
 30
0.0
 11
138.1965205420668
 21
71.70477851493254
 31
0.0
  0
LINE
  5
1A7
330
1F
100
AcDbEntity
  8
1
  6
Continuous
 62
     7
370
     9
100
AcDbLine
 10
138.3965205420668
 20
39.90477851493254
 30
0.0
 11
138.1965205420668
 21
40.10477851493255
 31
0.0
  0
LINE
  5
1A8
330
1F
100
AcDbEntity
  8
1
  6
Continuous
 62
     7
370
     9
100
AcDbLine
 10
138.1965205420668
 20
55.90477851493254
 30
0.0
 11
138.1965205420668
 21
40.10477851493255
 31
0.0
  0
LINE
  5
1A9
330
1F
100
AcDbEntity
  8
1
  6
Continuous
 62
     7
370
     9
100
AcDbLine
 10
146.1965205420669
 20
39.30477851493256
 30
0.0
 11
149.0965205420666
 21
39.30477851493256
 31
0.0
  0
CIRCLE
  5
1AA
330
1F
100
AcDbEntity
  8
1
  6
Continuous
 62
     7
370
     9
100
AcDbCircle
 10
143.3965205420668
 20
55.90477851493253
 30
0.0
 40
0.75
  0
LINE
  5
1AB
330
1F
100
AcDbEntity
  8
1
  6
Continuous
 62
     7
370
     9
100
AcDbLine
 10
144.5965205420668
 20
57.59902298274511
 30
0.0
 11
138.8965205420668
 21
57.59902298274513
 31
0.0
  0
LINE
  5
1AC
330
1F
100
AcDbEntity
  8
1
  6
Continuous
 62
     7
370
     9
100
AcDbLine
 10
138.5965205420668
 20
53.96249308457492
 30
0.0
 11
144.8965205420668
 21
53.96249308457492
 31
0.0
  0
LINE
  5
1AD
330
1F
100
AcDbEntity
  8
1
  6
Continuous
 62
     7
370
     9
100
AcDbLine
 10
144.5965205420668
 20
54.21053404711998
 30
0.0
 11
138.8965205420668
 21
54.21053404711996
 31
0.0
  0
LINE
  5
1AE
330
1F
100
AcDbEntity
  8
1
  6
Continuous
 62
     7
370
     9
100
AcDbLine
 10
144.5965205420668
 20
46.49126947754178
 30
0.0
 11
138.8965205420668
 21
46.49126947754176
 31
0.0
  0
LINE
  5
1AF
330
1F
100
AcDbEntity
  8
1
  6
Continuous
 62
     7
370
     9
100
AcDbLine
 10
138.5965205420668
 20
46.89286350975395
 30
0.0
 11
144.8965205420668
 21
46.89286350975395
 31
0.0
  0
LINE
  5
1B0
330
1F
100
AcDbEntity
  8
1
  6
Continuous
 62
     7
370
     9
100
AcDbLine
 10
144.8965205420668
 20
47.48639677894798
 30
0.0
 11
138.5965205420668
 21
47.48639677894796
 31
0.0
  0
LINE
  5
1B1
330
1F
100
AcDbEntity
  8
1
  6
Continuous
 62
     7
370
     9
100
AcDbLine
 10
138.8965205420668
 20
47.57911144026154
 30
0.0
 11
144.5965205420669
 21
47.57911144026154
 31
0.0
  0
LINE
  5
1B2
330
1F
100
AcDbEntity
  8
1
  6
Continuous
 62
     7
370
     9
100
AcDbLine
 10
144.5965205420668
 20
48.51106074108921
 30
0.0
 11
138.8965205420668
 21
48.5110607410892
 31
0.0
  0
LINE
  5
1B3
330
1F
100
AcDbEntity
  8
1
  6
Continuous
 62
     7
370
     9
100
AcDbLine
 10
138.5965205420668
 20
48.89584301367883
 30
0.0
 11
144.8965205420668
 21
48.89584301367883
 31
0.0
  0
LINE
  5
1B4
330
1F
100
AcDbEntity
  8
1
  6
Continuous
 62
     7
370
     9
100
AcDbLine
 10
144.8965205420668
 20
49.53521626289192
 30
0.0
 11
138.5965205420668
 21
49.53521626289191
 31
0.0
  0
LINE
  5
1B5
330
1F
100
AcDbEntity
  8
1
  6
Continuous
 62
     7
370
     9
100
AcDbLine
 10
138.8965205420668
 20
49.68291934063321
 30
0.0
 11
144.5965205420669
 21
49.68291934063321
 31
0.0
  0
LINE
  5
1B6
330
1F
100
AcDbEntity
  8
1
  6
Continuous
 62
     7
370
     9
100
AcDbLine
 10
144.5965205420668
 20
50.67476231087514
 30
0.0
 11
138.8965205420668
 21
50.67476231087512
 31
0.0
  0
LINE
  5
1B7
330
1F
100
AcDbEntity
  8
1
  6
Continuous
 62
     7
370
     9
100
AcDbLine
 10
138.5965205420668
 20
51.03524347458963
 30
0.0
 11
144.8965205420668
 21
51.03524347458963
 31
0.0
  0
LINE
  5
1B8
330
1F
100
AcDbEntity
  8
1
  6
Continuous
 62
     7
370
     9
100
AcDbLine
 10
144.8965205420668
 20
51.70801203080218
 30
0.0
 11
138.5965205420668
 21
51.70801203080217
 31
0.0
  0
LINE
  5
1B9
330
1F
100
AcDbEntity
  8
1
  6
Continuous
 62
     7
370
     9
100
AcDbLine
 10
138.8965205420668
 20
51.9078286525727
 30
0.0
 11
144.5965205420668
 21
51.9078286525727
 31
0.0
  0
LINE
  5
1BA
330
1F
100
AcDbEntity
  8
1
  6
Continuous
 62
     7
370
     9
100
AcDbLine
 10
138.8965205420668
 20
52.94026019701782
 30
0.0
 11
144.5965205420668
 21
52.94026019701782
 31
0.0
  0
LINE
  5
1BB
330
1F
100
AcDbEntity
  8
1
  6
Continuous
 62
     7
370
     9
100
AcDbLine
 10
144.8965205420668
 20
53.26942389604673
 30
0.0
 11
138.5965205420668
 21
53.26942389604672
 31
0.0
  0
LINE
  5
1BC
330
1F
100
AcDbEntity
  8
1
  6
Continuous
 62
     7
370
     9
100
AcDbLine
 10
138.8965205420668
 20
39.15477851493253
 30
0.0
 11
144.5965205420668
 21
39.15477851493253
 31
0.0
  0
LINE
  5
1BD
330
1F
100
AcDbEntity
  8
1
  6
Continuous
 62
     7
370
     9
100
AcDbLine
 10
138.8965205420668
 20
43.03710339496402
 30
0.0
 11
144.5965205420668
 21
43.03710339496402
 31
0.0
  0
LINE
  5
1BE
330
1F
100
AcDbEntity
  8
1
  6
Continuous
 62
     7
370
     9
100
AcDbLine
 10
138.5965205420668
 20
43.44869615221552
 30
0.0
 11
144.8965205420668
 21
43.44869615221552
 31
0.0
  0
LINE
  5
1BF
330
1F
100
AcDbEntity
  8
1
  6
Continuous
 62
     7
370
     9
100
AcDbLine
 10
138.8965205420668
 20
43.89543867326022
 30
0.0
 11
144.5965205420668
 21
43.89543867326022
 31
0.0
  0
LINE
  5
1C0
330
1F
100
AcDbEntity
  8
1
  6
Continuous
 62
     7
370
     9
100
AcDbLine
 10
138.8965205420668
 20
44.65470145969933
 30
0.0
 11
144.5965205420668
 21
44.65470145969933
 31
0.0
  0
LINE
  5
1C1
330
1F
100
AcDbEntity
  8
1
  6
Continuous
 62
     7
370
     9
100
AcDbLine
 10
144.8965205420668
 20
45.06529068050351
 30
0.0
 11
138.5965205420668
 21
45.06529068050349
 31
0.0
  0
LINE
  5
1C2
330
1F
100
AcDbEntity
  8
1
  6
Continuous
 62
     7
370
     9
100
AcDbLine
 10
138.5965205420668
 20
45.60143151972763
 30
0.0
 11
144.8965205420668
 21
45.60143151972763
 31
0.0
  0
LINE
  5
1C3
330
1F
100
AcDbEntity
  8
1
  6
Continuous
 62
     7
370
     9
100
AcDbLine
 10
144.5965205420668
 20
45.63735317919242
 30
0.0
 11
138.8965205420668
 21
45.6373531791924
 31
0.0
  0
LINE
  5
1C4
330
1F
100
AcDbEntity
  8
1
  6
Continuous
 62
     7
370
     9
100
AcDbLine
 10
138.8965205420668
 20
39.30997994409253
 30
0.0
 11
144.5965205420668
 21
39.30997994409253
 31
0.0
  0
LINE
  5
1C5
330
1F
100
AcDbEntity
  8
1
  6
Continuous
 62
     7
370
     9
100
AcDbLine
 10
138.8965205420668
 20
39.53273279964091
 30
0.0
 11
144.5965205420668
 21
39.53273279964091
 31
0.0
  0
LINE
  5
1C6
330
1F
100
AcDbEntity
  8
1
  6
Continuous
 62
     7
370
     9
100
AcDbLine
 10
138.8965205420668
 20
39.78808397624005
 30
0.0
 11
144.5965205420668
 21
39.78808397624005
 31
0.0
  0
LINE
  5
1C7
330
1F
100
AcDbEntity
  8
1
  6
Continuous
 62
     7
370
     9
100
AcDbLine
 10
138.5965205420668
 20
40.15531909122177
 30
0.0
 11
144.8965205420668
 21
40.15531909122177
 31
0.0
  0
LINE
  5
1C8
330
1F
100
AcDbEntity
  8
1
  6
Continuous
 62
     7
370
     9
100
AcDbLine
 10
138.8965205420668
 20
40.18448196593974
 30
0.0
 11
144.5965205420668
 21
40.18448196593974
 31
0.0
  0
LINE
  5
1C9
330
1F
100
AcDbEntity
  8
1
  6
Continuous
 62
     7
370
     9
100
AcDbLine
 10
138.8965205420668
 20
39.19964688026423
 30
0.0
 11
144.5965205420668
 21
39.19964688026423
 31
0.0
  0
LINE
  5
1CA
330
1F
100
AcDbEntity
  8
1
  6
Continuous
 62
     7
370
     9
100
AcDbLine
 10
138.5965205420668
 20
53.96249308457492
 30
0.0
 11
138.8965205420668
 21
54.21053404711996
 31
0.0
  0
LINE
  5
1CB
330
1F
100
AcDbEntity
  8
1
  6
Continuous
 62
     7
370
     9
100
AcDbLine
 10
138.8965205420668
 20
54.21053404711996
 30
0.0
 11
138.8965205420668
 21
55.90477851493254
 31
0.0
  0
LINE
  5
1CC
330
1F
100
AcDbEntity
  8
1
  6
Continuous
 62
     7
370
     9
100
AcDbLine
 10
138.8965205420668
 20
57.59902298274513
 30
0.0
 11
138.8965205420668
 21
55.90477851493254
 31
0.0
  0
LINE
  5
1CD
330
1F
100
AcDbEntity
  8
1
  6
Continuous
 62
     7
370
     9
100
AcDbLine
 10
138.8965205420668
 20
52.94026019701782
 30
0.0
 11
138.5965205420668
 21
53.26942389604672
 31
0.0
  0
LINE
  5
1CE
330
1F
100
AcDbEntity
  8
1
  6
Continuous
 62
     7
370
     9
100
AcDbLine
 10
138.8965205420668
 20
51.9078286525727
 30
0.0
 11
138.8965205420668
 21
52.94026019701782
 31
0.0
  0
LINE
  5
1CF
330
1F
100
AcDbEntity
  8
1
  6
Continuous
 62
     7
370
     9
100
AcDbLine
 10
138.5965205420668
 20
51.03524347458963
 30
0.0
 11
138.8965205420668
 21
50.67476231087512
 31
0.0
  0
LINE
  5
1D0
330
1F
100
AcDbEntity
  8
1
  6
Continuous
 62
     7
370
     9
100
AcDbLine
 10
138.5965205420668
 20
51.70801203080217
 30
0.0
 11
138.8965205420668
 21
51.9078286525727
 31
0.0
  0
LINE
  5
1D1
330
1F
100
AcDbEntity
  8
1
  6
Continuous
 62
     7
370
     9
100
AcDbLine
 10
138.8965205420668
 20
49.68291934063321
 30
0.0
 11
138.5965205420668
 21
49.53521626289191
 31
0.0
  0
LINE
  5
1D2
330
1F
100
AcDbEntity
  8
1
  6
Continuous
 62
     7
370
     9
100
AcDbLine
 10
138.8965205420668
 20
48.5110607410892
 30
0.0
 11
138.5965205420668
 21
48.89584301367883
 31
0.0
  0
LINE
  5
1D3
330
1F
100
AcDbEntity
  8
1
  6
Continuous
 62
     7
370
     9
100
AcDbLine
 10
138.5965205420668
 20
47.48639677894796
 30
0.0
 11
138.8965205420668
 21
47.57911144026154
 31
0.0
  0
LINE
  5
1D4
330
1F
100
AcDbEntity
  8
1
  6
Continuous
 62
     7
370
     9
100
AcDbLine
 10
138.5965205420668
 20
46.89286350975395
 30
0.0
 11
138.8965205420668
 21
46.49126947754175
 31
0.0
  0
LINE
  5
1D5
330
1F
100
AcDbEntity
  8
1
  6
Continuous
 62
     7
370
     9
100
AcDbLine
 10
138.8965205420668
 20
47.57911144026154
 30
0.0
 11
138.8965205420668
 21
48.5110607410892
 31
0.0
  0
LINE
  5
1D6
330
1F
100
AcDbEntity
  8
1
  6
Continuous
 62
     7
370
     9
100
AcDbLine
 10
138.8965205420668
 20
49.68291934063322
 30
0.0
 11
138.8965205420668
 21
50.67476231087512
 31
0.0
  0
LINE
  5
1D7
330
1F
100
AcDbEntity
  8
1
  6
Continuous
 62
     7
370
     9
100
AcDbLine
 10
138.8965205420668
 20
43.89543867326022
 30
0.0
 11
138.5965205420668
 21
43.91700918988548
 31
0.0
  0
LINE
  5
1D8
330
1F
100
AcDbEntity
  8
1
  6
Continuous
 62
     7
370
     9
100
AcDbLine
 10
138.8965205420668
 20
45.6373531791924
 30
0.0
 11
138.5965205420668
 21
45.60143151972763
 31
0.0
  0
LINE
  5
1D9
330
1F
100
AcDbEntity
  8
1
  6
Continuous
 62
     7
370
     9
100
AcDbLine
 10
138.8965205420668
 20
44.65470145969933
 30
0.0
 11
138.5965205420668
 21
45.06529068050349
 31
0.0
  0
LINE
  5
1DA
330
1F
100
AcDbEntity
  8
1
  6
Continuous
 62
     7
370
     9
100
AcDbLine
 10
138.8965205420668
 20
43.89543867326022
 30
0.0
 11
138.8965205420668
 21
44.65470145969933
 31
0.0
  0
LINE
  5
1DB
330
1F
100
AcDbEntity
  8
1
  6
Continuous
 62
     7
370
     9
100
AcDbLine
 10
138.5965205420668
 20
43.44869615221552
 30
0.0
 11
138.8965205420668
 21
43.03710339496402
 31
0.0
  0
LINE
  5
1DC
330
1F
100
AcDbEntity
  8
1
  6
Continuous
 62
     7
370
     9
100
AcDbLine
 10
138.3965205420668
 20
39.90477851493254
 30
0.0
 11
138.5965205420668
 21
39.90477851493254
 31
0.0
  0
LINE
  5
1DD
330
1F
100
AcDbEntity
  8
1
  6
Continuous
 62
     7
370
     9
100
AcDbLine
 10
138.8965205420668
 20
40.18448196593974
 30
0.0
 11
138.5965205420668
 21
40.37159633864503
 31
0.0
  0
LINE
  5
1DE
330
1F
100
AcDbEntity
  8
1
  6
Continuous
 62
     7
370
     9
100
AcDbLine
 10
138.5965205420668
 20
40.15531909122177
 30
0.0
 11
138.8965205420668
 21
39.78808397624005
 31
0.0
  0
LINE
  5
1DF
330
1F
100
AcDbEntity
  8
1
  6
Continuous
 62
     7
370
     9
100
AcDbLine
 10
138.8965205420668
 20
39.53273279964091
 30
0.0
 11
138.5965205420668
 21
39.76913509252573
 31
0.0
  0
LINE
  5
1E0
330
1F
100
AcDbEntity
  8
1
  6
Continuous
 62
     7
370
     9
100
AcDbLine
 10
138.5965205420668
 20
39.64759968873582
 30
0.0
 11
138.7507517920773
 21
39.64759968873582
 31
0.0
  0
LINE
  5
1E1
330
1F
100
AcDbEntity
  8
1
  6
Continuous
 62
     7
370
     9
100
AcDbLine
 10
138.8965205420668
 20
39.53273279964091
 30
0.0
 11
138.8965205420668
 21
39.78808397624005
 31
0.0
  0
LINE
  5
1E2
330
1F
100
AcDbEntity
  8
1
  6
Continuous
 62
     7
370
     9
100
AcDbLine
 10
138.5965205420668
 20
39.64759968873582
 30
0.0
 11
138.7507517920773
 21
39.64759968873582
 31
0.0
  0
LINE
  5
1E3
330
1F
100
AcDbEntity
  8
1
  6
Continuous
 62
     7
370
     9
100
AcDbLine
 10
138.8965205420668
 20
39.15477851493253
 30
0.0
 11
138.5965205420668
 21
39.45477851493254
 31
0.0
  0
LINE
  5
1E4
330
1F
100
AcDbEntity
  8
1
  6
Continuous
 62
     7
370
     9
100
AcDbLine
 10
138.8965205420668
 20
39.15477851493253
 30
0.0
 11
138.5965205420668
 21
39.45477851493254
 31
0.0
  0
LINE
  5
1E5
330
1F
100
AcDbEntity
  8
1
  6
Continuous
 62
     7
370
     9
100
AcDbLine
 10
138.8965205420668
 20
39.19964688026423
 30
0.0
 11
138.8965205420668
 21
39.30997994409253
 31
0.0
  0
LINE
  5
1E6
330
1F
100
AcDbEntity
  8
1
  6
Continuous
 62
     7
370
     9
100
AcDbLine
 10
138.5965205420668
 20
39.48073579160123
 30
0.0
 11
138.8965205420668
 21
39.19964688026423
 31
0.0
  0
LINE
  5
1E7
330
1F
100
AcDbEntity
  8
1
  6
Continuous
 62
     7
370
     9
100
AcDbLine
 10
138.5965205420668
 20
39.64759968873582
 30
0.0
 11
138.8965205420668
 21
39.30997994409253
 31
0.0
  0
LINE
  5
1E8
330
1F
100
AcDbEntity
  8
1
  6
Continuous
 62
     7
370
     9
100
AcDbLine
 10
138.8965205420668
 20
40.18448196593974
 30
0.0
 11
138.8965205420668
 21
43.03710339496402
 31
0.0
  0
LINE
  5
1E9
330
1F
100
AcDbEntity
  8
1
  6
Continuous
 62
     7
370
     9
100
AcDbLine
 10
138.8965205420668
 20
45.6373531791924
 30
0.0
 11
138.8965205420668
 21
46.49126947754176
 31
0.0
  0
LINE
  5
1EA
330
1F
100
AcDbEntity
  8
1
  6
Continuous
 62
     7
370
     9
100
AcDbLine
 10
138.5965205420668
 20
39.45477851493254
 30
0.0
 11
138.5965205420668
 21
55.90477851493254
 31
0.0
  0
LINE
  5
1EB
330
1F
100
AcDbEntity
  8
1
  6
Continuous
 62
     7
370
     9
100
AcDbLine
 10
144.8965205420668
 20
53.96249308457493
 30
0.0
 11
144.5965205420668
 21
54.21053404711998
 31
0.0
  0
LINE
  5
1EC
330
1F
100
AcDbEntity
  8
1
  6
Continuous
 62
     7
370
     9
100
AcDbLine
 10
144.5965205420668
 20
54.21053404711998
 30
0.0
 11
144.5965205420668
 21
55.90477851493256
 31
0.0
  0
LINE
  5
1ED
330
1F
100
AcDbEntity
  8
1
  6
Continuous
 62
     7
370
     9
100
AcDbLine
 10
144.5965205420668
 20
57.59902298274511
 30
0.0
 11
144.5965205420668
 21
55.90477851493253
 31
0.0
  0
LINE
  5
1EE
330
1F
100
AcDbEntity
  8
1
  6
Continuous
 62
     7
370
     9
100
AcDbLine
 10
146.1965205420668
 20
39.30477851493256
 30
0.0
 11
145.6965205420668
 21
39.30477851493256
 31
0.0
  0
LINE
  5
1EF
330
1F
100
AcDbEntity
  8
1
  6
Continuous
 62
     7
370
     9
100
AcDbLine
 10
145.6965205420668
 20
39.30477851493256
 30
0.0
 11
145.3965205420668
 21
39.60477851493252
 31
0.0
  0
LINE
  5
1F0
330
1F
100
AcDbEntity
  8
1
  6
Continuous
 62
     7
370
     9
100
AcDbLine
 10
144.5965205420668
 20
52.94026019701784
 30
0.0
 11
144.8965205420668
 21
53.26942389604673
 31
0.0
  0
LINE
  5
1F1
330
1F
100
AcDbEntity
  8
1
  6
Continuous
 62
     7
370
     9
100
AcDbLine
 10
144.5965205420668
 20
51.90782865257272
 30
0.0
 11
144.5965205420668
 21
52.94026019701784
 31
0.0
  0
LINE
  5
1F2
330
1F
100
AcDbEntity
  8
1
  6
Continuous
 62
     7
370
     9
100
AcDbLine
 10
144.8965205420668
 20
51.03524347458965
 30
0.0
 11
144.5965205420668
 21
50.67476231087514
 31
0.0
  0
LINE
  5
1F3
330
1F
100
AcDbEntity
  8
1
  6
Continuous
 62
     7
370
     9
100
AcDbLine
 10
144.8965205420668
 20
51.70801203080218
 30
0.0
 11
144.5965205420668
 21
51.90782865257272
 31
0.0
  0
LINE
  5
1F4
330
1F
100
AcDbEntity
  8
1
  6
Continuous
 62
     7
370
     9
100
AcDbLine
 10
144.5965205420668
 20
49.68291934063322
 30
0.0
 11
144.8965205420668
 21
49.53521626289192
 31
0.0
  0
LINE
  5
1F5
330
1F
100
AcDbEntity
  8
1
  6
Continuous
 62
     7
370
     9
100
AcDbLine
 10
144.5965205420668
 20
48.51106074108921
 30
0.0
 11
144.8965205420668
 21
48.89584301367884
 31
0.0
  0
LINE
  5
1F6
330
1F
100
AcDbEntity
  8
1
  6
Continuous
 62
     7
370
     9
100
AcDbLine
 10
144.8965205420668
 20
47.48639677894798
 30
0.0
 11
144.5965205420668
 21
47.57911144026156
 31
0.0
  0
LINE
  5
1F7
330
1F
100
AcDbEntity
  8
1
  6
Continuous
 62
     7
370
     9
100
AcDbLine
 10
144.8965205420668
 20
46.89286350975397
 30
0.0
 11
144.5965205420668
 21
46.49126947754176
 31
0.0
  0
LINE
  5
1F8
330
1F
100
AcDbEntity
  8
1
  6
Continuous
 62
     7
370
     9
100
AcDbLine
 10
144.5965205420668
 20
47.57911144026156
 30
0.0
 11
144.5965205420668
 21
48.51106074108921
 31
0.0
  0
LINE
  5
1F9
330
1F
100
AcDbEntity
  8
1
  6
Continuous
 62
     7
370
     9
100
AcDbLine
 10
144.5965205420668
 20
49.68291934063323
 30
0.0
 11
144.5965205420668
 21
50.67476231087514
 31
0.0
  0
LINE
  5
1FA
330
1F
100
AcDbEntity
  8
1
  6
Continuous
 62
     7
370
     9
100
AcDbLine
 10
144.5965205420668
 20
43.89543867326023
 30
0.0
 11
144.5965205420668
 21
44.65470145969934
 31
0.0
  0
LINE
  5
1FB
330
1F
100
AcDbEntity
  8
1
  6
Continuous
 62
     7
370
     9
100
AcDbLine
 10
144.5965205420668
 20
43.89543867326023
 30
0.0
 11
144.8965205420668
 21
43.91700918988549
 31
0.0
  0
LINE
  5
1FC
330
1F
100
AcDbEntity
  8
1
  6
Continuous
 62
     7
370
     9
100
AcDbLine
 10
144.5965205420668
 20
43.89543867326023
 30
0.0
 11
144.8965205420668
 21
43.91700918988549
 31
0.0
  0
LINE
  5
1FD
330
1F
100
AcDbEntity
  8
1
  6
Continuous
 62
     7
370
     9
100
AcDbLine
 10
144.5965205420668
 20
45.63735317919242
 30
0.0
 11
144.8965205420668
 21
45.60143151972764
 31
0.0
  0
LINE
  5
1FE
330
1F
100
AcDbEntity
  8
1
  6
Continuous
 62
     7
370
     9
100
AcDbLine
 10
144.5965205420668
 20
44.65470145969934
 30
0.0
 11
144.8965205420668
 21
45.06529068050351
 31
0.0
  0
LINE
  5
1FF
330
1F
100
AcDbEntity
  8
1
  6
Continuous
 62
     7
370
     9
100
AcDbLine
 10
144.8965205420668
 20
43.44869615221553
 30
0.0
 11
144.5965205420668
 21
43.03710339496403
 31
0.0
  0
LINE
  5
200
330
1F
100
AcDbEntity
  8
1
  6
Continuous
 62
     7
370
     9
100
AcDbLine
 10
144.5965205420668
 20
40.18448196593975
 30
0.0
 11
144.8965205420668
 21
40.37159633864505
 31
0.0
  0
LINE
  5
201
330
1F
100
AcDbEntity
  8
1
  6
Continuous
 62
     7
370
     9
100
AcDbLine
 10
144.8965205420668
 20
40.15531909122178
 30
0.0
 11
144.5965205420668
 21
39.78808397624006
 31
0.0
  0
LINE
  5
202
330
1F
100
AcDbEntity
  8
1
  6
Continuous
 62
     7
370
     9
100
AcDbLine
 10
144.5965205420668
 20
39.53273279964091
 30
0.0
 11
144.8965205420668
 21
39.76913509252574
 31
0.0
  0
LINE
  5
203
330
1F
100
AcDbEntity
  8
1
  6
Continuous
 62
     7
370
     9
100
AcDbLine
 10
144.5965205420668
 20
39.53273279964091
 30
0.0
 11
144.5965205420668
 21
39.78808397624006
 31
0.0
  0
LINE
  5
204
330
1F
100
AcDbEntity
  8
1
  6
Continuous
 62
     7
370
     9
100
AcDbLine
 10
144.7422892920563
 20
39.64759968873582
 30
0.0
 11
144.8965205420668
 21
39.64759968873582
 31
0.0
  0
LINE
  5
205
330
1F
100
AcDbEntity
  8
1
  6
Continuous
 62
     7
370
     9
100
AcDbLine
 10
144.5965205420668
 20
39.15477851493253
 30
0.0
 11
144.8965205420668
 21
39.45477851493254
 31
0.0
  0
LINE
  5
206
330
1F
100
AcDbEntity
  8
1
  6
Continuous
 62
     7
370
     9
100
AcDbLine
 10
144.5965205420668
 20
39.15477851493256
 30
0.0
 11
144.8965205420668
 21
39.45477851493257
 31
0.0
  0
LINE
  5
207
330
1F
100
AcDbEntity
  8
1
  6
Continuous
 62
     7
370
     9
100
AcDbLine
 10
144.5965205420668
 20
39.19964688026425
 30
0.0
 11
144.5965205420668
 21
39.30997994409256
 31
0.0
  0
LINE
  5
208
330
1F
100
AcDbEntity
  8
1
  6
Continuous
 62
     7
370
     9
100
AcDbLine
 10
144.8965205420668
 20
39.48073579160126
 30
0.0
 11
144.5965205420668
 21
39.19964688026425
 31
0.0
  0
LINE
  5
209
330
1F
100
AcDbEntity
  8
1
  6
Continuous
 62
     7
370
     9
100
AcDbLine
 10
144.8965205420668
 20
39.64759968873585
 30
0.0
 11
144.5965205420668
 21
39.30997994409256
 31
0.0
  0
LINE
  5
20A
330
1F
100
AcDbEntity
  8
1
  6
Continuous
 62
     7
370
     9
100
AcDbLine
 10
144.5965205420668
 20
40.18448196593975
 30
0.0
 11
144.5965205420668
 21
43.03710339496403
 31
0.0
  0
LINE
  5
20B
330
1F
100
AcDbEntity
  8
1
  6
Continuous
 62
     7
370
     9
100
AcDbLine
 10
144.5965205420668
 20
45.63735317919242
 30
0.0
 11
144.5965205420668
 21
46.49126947754178
 31
0.0
  0
LINE
  5
20C
330
1F
100
AcDbEntity
  8
1
  6
Continuous
 62
     7
370
     9
100
AcDbLine
 10
144.8965205420668
 20
40.10477851493255
 30
0.0
 11
145.3965205420668
 21
40.10477851493255
 31
0.0
  0
LINE
  5
20D
330
1F
100
AcDbEntity
  8
1
  6
Continuous
 62
     7
370
     9
100
AcDbLine
 10
145.3965205420668
 20
55.90477851493254
 30
0.0
 11
145.3965205420668
 21
39.60477851493252
 31
0.0
  0
LINE
  5
20E
330
1F
100
AcDbEntity
  8
1
  6
Continuous
 62
     7
370
     9
100
AcDbLine
 10
146.1965205420668
 20
55.90477851493254
 30
0.0
 11
146.1965205420668
 21
39.30477851493256
 31
0.0
  0
LINE
  5
20F
330
1F
100
AcDbEntity
  8
1
  6
Continuous
 62
     7
370
     9
100
AcDbLine
 10
144.8965205420668
 20
39.45477851493257
 30
0.0
 11
144.8965205420668
 21
55.90477851493256
 31
0.0
  0
LINE
  5
210
330
1F
100
AcDbEntity
  8
1
  6
Continuous
 62
     7
370
     9
100
AcDbLine
 10
153.0661360480911
 20
41.09618720712861
 30
0.0
 11
153.0661360480911
 21
37.89189321312637
 31
0.0
  0
LINE
  5
211
330
1F
100
AcDbEntity
  8
1
  6
Continuous
 62
     7
370
     9
100
AcDbLine
 10
152.9986335746569
 20
41.23155602383666
 30
0.0
 11
152.9986335746569
 21
38.02726202983428
 31
0.0
  0
LINE
  5
212
330
1F
100
AcDbEntity
  8
1
  6
Continuous
 62
     7
370
     9
100
AcDbLine
 10
152.894108634665
 20
41.36091017625083
 30
0.0
 11
152.894108634665
 21
38.1566161822484
 31
0.0
  0
LINE
  5
213
330
1F
100
AcDbEntity
  8
1
  6
Continuous
 62
     7
370
     9
100
AcDbLine
 10
152.7545956871767
 20
41.48173193293269
 30
0.0
 11
152.7545956871767
 21
38.27743793893015
 31
0.0
  0
LINE
  5
214
330
1F
100
AcDbEntity
  8
1
  6
Continuous
 62
     7
370
     9
100
AcDbLine
 10
153.0965205420666
 20
40.92253902946173
 30
0.0
 11
153.0965205420666
 21
37.71824503545932
 31
0.0
  0
LINE
  5
215
330
1F
100
AcDbEntity
  8
1
  6
Continuous
 62
     7
370
     9
100
AcDbLine
 10
152.5828101930214
 20
41.59166963582081
 30
0.0
 11
152.5828101930214
 21
38.38737564181827
 31
0.0
  0
LINE
  5
216
330
1F
100
AcDbEntity
  8
1
  6
Continuous
 62
     7
370
     9
100
AcDbLine
 10
152.3820957614397
 20
41.68858347258076
 30
0.0
 11
152.3820957614397
 21
38.48428947857835
 31
0.0
  0
LINE
  5
217
330
1F
100
AcDbEntity
  8
1
  6
Continuous
 62
     7
370
     9
100
AcDbLine
 10
152.1563590705331
 20
41.77058712561821
 30
0.0
 11
152.1563590705331
 21
38.56629313161585
 31
0.0
  0
LINE
  5
218
330
1F
100
AcDbEntity
  8
1
  6
Continuous
 62
     7
370
     9
100
AcDbLine
 10
151.9099938282183
 20
41.83608448710439
 30
0.0
 11
151.9099938282183
 21
38.63179049310196
 31
0.0
  0
LINE
  5
219
330
1F
100
AcDbEntity
  8
1
  6
Continuous
 62
     7
370
     9
100
AcDbLine
 10
151.6477952537007
 20
41.88380072540016
 30
0.0
 11
151.6477952537007
 21
38.67950673139768
 31
0.0
  0
LINE
  5
21A
330
1F
100
AcDbEntity
  8
1
  6
Continuous
 62
     7
370
     9
100
AcDbLine
 10
151.3748667439868
 20
41.91280709820332
 30
0.0
 11
151.3748667439868
 21
38.7085131042009
 31
0.0
  0
LINE
  5
21B
330
1F
100
AcDbEntity
  8
1
  6
Continuous
 62
     7
370
     9
100
AcDbLine
 10
151.0965205420666
 20
38.71824503545926
 30
0.0
 11
151.0965205420666
 21
41.9225390294618
 31
0.0
  0
LINE
  5
21C
330
1F
100
AcDbEntity
  8
1
  6
Continuous
 62
     7
370
     9
100
AcDbLine
 10
149.1269050360422
 20
41.09618720712861
 30
0.0
 11
149.1269050360422
 21
37.89189321312637
 31
0.0
  0
LINE
  5
21D
330
1F
100
AcDbEntity
  8
1
  6
Continuous
 62
     7
370
     9
100
AcDbLine
 10
149.1944075094763
 20
41.23155602383666
 30
0.0
 11
149.1944075094763
 21
38.02726202983428
 31
0.0
  0
LINE
  5
21E
330
1F
100
AcDbEntity
  8
1
  6
Continuous
 62
     7
370
     9
100
AcDbLine
 10
149.2989324494683
 20
41.36091017625083
 30
0.0
 11
149.2989324494683
 21
38.1566161822484
 31
0.0
  0
LINE
  5
21F
330
1F
100
AcDbEntity
  8
1
  6
Continuous
 62
     7
370
     9
100
AcDbLine
 10
149.4384453969566
 20
41.48173193293269
 30
0.0
 11
149.4384453969566
 21
38.27743793893015
 31
0.0
  0
LINE
  5
220
330
1F
100
AcDbEntity
  8
1
  6
Continuous
 62
     7
370
     9
100
AcDbLine
 10
149.0965205420666
 20
40.92253902946173
 30
0.0
 11
149.0965205420666
 21
37.71824503545932
 31
0.0
  0
LINE
  5
221
330
1F
100
AcDbEntity
  8
1
  6
Continuous
 62
     7
370
     9
100
AcDbLine
 10
149.6102308911118
 20
41.59166963582081
 30
0.0
 11
149.6102308911118
 21
38.38737564181827
 31
0.0
  0
LINE
  5
222
330
1F
100
AcDbEntity
  8
1
  6
Continuous
 62
     7
370
     9
100
AcDbLine
 10
149.8109453226936
 20
41.68858347258076
 30
0.0
 11
149.8109453226936
 21
38.48428947857835
 31
0.0
  0
LINE
  5
223
330
1F
100
AcDbEntity
  8
1
  6
Continuous
 62
     7
370
     9
100
AcDbLine
 10
150.0366820136002
 20
41.77058712561821
 30
0.0
 11
150.0366820136002
 21
38.56629313161585
 31
0.0
  0
LINE
  5
224
330
1F
100
AcDbEntity
  8
1
  6
Continuous
 62
     7
370
     9
100
AcDbLine
 10
150.283047255915
 20
41.83608448710439
 30
0.0
 11
150.283047255915
 21
38.63179049310196
 31
0.0
  0
LINE
  5
225
330
1F
100
AcDbEntity
  8
1
  6
Continuous
 62
     7
370
     9
100
AcDbLine
 10
150.5452458304326
 20
41.88380072540016
 30
0.0
 11
150.5452458304326
 21
38.67950673139768
 31
0.0
  0
LINE
  5
226
330
1F
100
AcDbEntity
  8
1
  6
Continuous
 62
     7
370
     9
100
AcDbLine
 10
150.8181743401465
 20
41.91280709820332
 30
0.0
 11
150.8181743401465
 21
38.7085131042009
 31
0.0
  0
CIRCLE
  5
227
330
1F
100
AcDbEntity
  8
1
  6
Continuous
 62
     7
370
     9
100
AcDbCircle
 10
153.8465205420668
 20
55.72477851493271
 30
0.0
 40
0.25
  0
CIRCLE
  5
228
330
1F
100
AcDbEntity
  8
1
  6
Continuous
 62
     7
370
     9
100
AcDbCircle
 10
153.8465205420668
 20
51.34477851493271
 30
0.0
 40
0.25
  0
CIRCLE
  5
229
330
1F
100
AcDbEntity
  8
1
  6
Continuous
 62
     7
370
     9
100
AcDbCircle
 10
153.8465205420668
 20
52.80477851493269
 30
0.0
 40
0.25
  0
LINE
  5
22A
330
1F
100
AcDbEntity
  8
1
  6
Continuous
 62
     7
370
     9
100
AcDbLine
 10
138.3965205420668
 20
71.90477851493254
 30
0.0
 11
138.1965205420668
 21
71.70477851493254
 31
0.0
  0
LINE
  5
22B
330
1F
100
AcDbEntity
  8
1
  6
Continuous
 62
     7
370
     9
100
AcDbLine
 10
142.3157984070597
 20
72.60991014960085
 30
0.0
 11
144.5965205420668
 21
72.60991014960085
 31
0.0
  0
LINE
  5
22C
330
1F
100
AcDbEntity
  8
1
  6
Continuous
 62
     7
370
     9
100
AcDbLine
 10
142.3098437345579
 20
72.49957708577254
 30
0.0
 11
144.5965205420668
 21
72.49957708577254
 31
0.0
  0
LINE
  5
22D
330
1F
100
AcDbEntity
  8
1
  6
Continuous
 62
     7
370
     9
100
AcDbLine
 10
141.9124629463248
 20
71.62507506392535
 30
0.0
 11
144.5965205420668
 21
71.62507506392535
 31
0.0
  0
LINE
  5
22E
330
1F
100
AcDbEntity
  8
1
  6
Continuous
 62
     7
370
     9
100
AcDbLine
 10
142.2653862566335
 20
72.2768242302242
 30
0.0
 11
144.5965205420668
 21
72.2768242302242
 31
0.0
  0
LINE
  5
22F
330
1F
100
AcDbEntity
  8
1
  6
Continuous
 62
     7
370
     9
100
AcDbLine
 10
142.1670495005757
 20
72.02147305362504
 30
0.0
 11
144.5965205420668
 21
72.02147305362504
 31
0.0
  0
LINE
  5
230
330
1F
100
AcDbEntity
  8
1
  6
Continuous
 62
     7
370
     9
100
AcDbLine
 10
141.9361084364467
 20
71.65423793864332
 30
0.0
 11
144.8965205420668
 21
71.65423793864332
 31
0.0
  0
LINE
  5
231
330
1F
100
AcDbEntity
  8
1
  6
Continuous
 62
     7
370
     9
100
AcDbLine
 10
138.8965205420668
 20
72.65477851493254
 30
0.0
 11
144.5965205420668
 21
72.65477851493254
 31
0.0
  0
LINE
  5
232
330
1F
100
AcDbEntity
  8
1
  6
Continuous
 62
     7
370
     9
100
AcDbLine
 10
138.8965205420668
 20
68.77245363490107
 30
0.0
 11
144.5965205420668
 21
68.77245363490107
 31
0.0
  0
LINE
  5
233
330
1F
100
AcDbEntity
  8
1
  6
Continuous
 62
     7
370
     9
100
AcDbLine
 10
138.5965205420668
 20
68.36086087764957
 30
0.0
 11
144.8965205420668
 21
68.36086087764957
 31
0.0
  0
LINE
  5
234
330
1F
100
AcDbEntity
  8
1
  6
Continuous
 62
     7
370
     9
100
AcDbLine
 10
138.8965205420668
 20
67.91411835660487
 30
0.0
 11
144.5965205420668
 21
67.91411835660487
 31
0.0
  0
LINE
  5
235
330
1F
100
AcDbEntity
  8
1
  6
Continuous
 62
     7
370
     9
100
AcDbLine
 10
138.8965205420668
 20
67.15485557016576
 30
0.0
 11
144.5965205420668
 21
67.15485557016576
 31
0.0
  0
LINE
  5
236
330
1F
100
AcDbEntity
  8
1
  6
Continuous
 62
     7
370
     9
100
AcDbLine
 10
144.8965205420668
 20
66.74426634936158
 30
0.0
 11
138.5965205420668
 21
66.7442663493616
 31
0.0
  0
LINE
  5
237
330
1F
100
AcDbEntity
  8
1
  6
Continuous
 62
     7
370
     9
100
AcDbLine
 10
138.5965205420668
 20
66.20812551013746
 30
0.0
 11
144.8965205420668
 21
66.20812551013746
 31
0.0
  0
LINE
  5
238
330
1F
100
AcDbEntity
  8
1
  6
Continuous
 62
     7
370
     9
100
AcDbLine
 10
144.5965205420668
 20
66.17220385067267
 30
0.0
 11
138.8965205420668
 21
66.17220385067269
 31
0.0
  0
LINE
  5
239
330
1F
100
AcDbEntity
  8
1
  6
Continuous
 62
     7
370
     9
100
AcDbLine
 10
144.5965205420668
 20
65.31828755232331
 30
0.0
 11
138.8965205420668
 21
65.31828755232333
 31
0.0
  0
LINE
  5
23A
330
1F
100
AcDbEntity
  8
1
  6
Continuous
 62
     7
370
     9
100
AcDbLine
 10
138.5965205420668
 20
64.91669352011114
 30
0.0
 11
144.8965205420668
 21
64.91669352011114
 31
0.0
  0
LINE
  5
23B
330
1F
100
AcDbEntity
  8
1
  6
Continuous
 62
     7
370
     9
100
AcDbLine
 10
144.8965205420668
 20
64.32316025091711
 30
0.0
 11
138.5965205420668
 21
64.32316025091713
 31
0.0
  0
LINE
  5
23C
330
1F
100
AcDbEntity
  8
1
  6
Continuous
 62
     7
370
     9
100
AcDbLine
 10
138.8965205420668
 20
64.23044558960355
 30
0.0
 11
144.5965205420669
 21
64.23044558960355
 31
0.0
  0
LINE
  5
23D
330
1F
100
AcDbEntity
  8
1
  6
Continuous
 62
     7
370
     9
100
AcDbLine
 10
144.5965205420668
 20
63.29849628877588
 30
0.0
 11
138.8965205420668
 21
63.29849628877589
 31
0.0
  0
LINE
  5
23E
330
1F
100
AcDbEntity
  8
1
  6
Continuous
 62
     7
370
     9
100
AcDbLine
 10
138.5965205420668
 20
62.91371401618626
 30
0.0
 11
144.8965205420668
 21
62.91371401618626
 31
0.0
  0
LINE
  5
23F
330
1F
100
AcDbEntity
  8
1
  6
Continuous
 62
     7
370
     9
100
AcDbLine
 10
144.8965205420668
 20
62.27434076697317
 30
0.0
 11
138.5965205420668
 21
62.27434076697318
 31
0.0
  0
LINE
  5
240
330
1F
100
AcDbEntity
  8
1
  6
Continuous
 62
     7
370
     9
100
AcDbLine
 10
138.8965205420668
 20
62.12663768923188
 30
0.0
 11
144.5965205420669
 21
62.12663768923188
 31
0.0
  0
LINE
  5
241
330
1F
100
AcDbEntity
  8
1
  6
Continuous
 62
     7
370
     9
100
AcDbLine
 10
144.5965205420668
 20
61.13479471898995
 30
0.0
 11
138.8965205420668
 21
61.13479471898997
 31
0.0
  0
LINE
  5
242
330
1F
100
AcDbEntity
  8
1
  6
Continuous
 62
     7
370
     9
100
AcDbLine
 10
138.5965205420668
 20
60.77431355527546
 30
0.0
 11
144.8965205420668
 21
60.77431355527546
 31
0.0
  0
LINE
  5
243
330
1F
100
AcDbEntity
  8
1
  6
Continuous
 62
     7
370
     9
100
AcDbLine
 10
144.8965205420668
 20
60.10154499906291
 30
0.0
 11
138.5965205420668
 21
60.10154499906292
 31
0.0
  0
LINE
  5
244
330
1F
100
AcDbEntity
  8
1
  6
Continuous
 62
     7
370
     9
100
AcDbLine
 10
138.8965205420668
 20
59.90172837729239
 30
0.0
 11
144.5965205420668
 21
59.90172837729239
 31
0.0
  0
LINE
  5
245
330
1F
100
AcDbEntity
  8
1
  6
Continuous
 62
     7
370
     9
100
AcDbLine
 10
138.8965205420668
 20
58.86929683284727
 30
0.0
 11
144.5965205420668
 21
58.86929683284727
 31
0.0
  0
LINE
  5
246
330
1F
100
AcDbEntity
  8
1
  6
Continuous
 62
     7
370
     9
100
AcDbLine
 10
144.8965205420668
 20
58.54013313381836
 30
0.0
 11
138.5965205420668
 21
58.54013313381837
 31
0.0
  0
LINE
  5
247
330
1F
100
AcDbEntity
  8
1
  6
Continuous
 62
     7
370
     9
100
AcDbLine
 10
138.5965205420668
 20
57.84706394529017
 30
0.0
 11
144.8965205420668
 21
57.84706394529017
 31
0.0
  0
LINE
  5
248
330
1F
100
AcDbEntity
  8
1
  6
Continuous
 62
     7
370
     9
100
AcDbLine
 10
138.8965205420668
 20
72.65477851493254
 30
0.0
 11
138.5965205420668
 21
72.35477851493255
 31
0.0
  0
LINE
  5
249
330
1F
100
AcDbEntity
  8
1
  6
Continuous
 62
     7
370
     9
100
AcDbLine
 10
138.8965205420668
 20
72.65477851493254
 30
0.0
 11
138.5965205420668
 21
72.35477851493253
 31
0.0
  0
LINE
  5
24A
330
1F
100
AcDbEntity
  8
1
  6
Continuous
 62
     7
370
     9
100
AcDbLine
 10
138.3965205420668
 20
71.90477851493254
 30
0.0
 11
138.5965205420668
 21
71.90477851493254
 31
0.0
  0
LINE
  5
24B
330
1F
100
AcDbEntity
  8
1
  6
Continuous
 62
     7
370
     9
100
AcDbLine
 10
138.5965205420668
 20
72.35477851493253
 30
0.0
 11
138.5965205420668
 21
71.90477851493254
 31
0.0
  0
LINE
  5
24C
330
1F
100
AcDbEntity
  8
1
  6
Continuous
 62
     7
370
     9
100
AcDbLine
 10
138.5965205420668
 20
68.36086087764957
 30
0.0
 11
138.8965205420668
 21
68.77245363490107
 31
0.0
  0
LINE
  5
24D
330
1F
100
AcDbEntity
  8
1
  6
Continuous
 62
     7
370
     9
100
AcDbLine
 10
138.8965205420668
 20
68.9099164822418
 30
0.0
 11
138.8965205420668
 21
68.77245363490107
 31
0.0
  0
LINE
  5
24E
330
1F
100
AcDbEntity
  8
1
  6
Continuous
 62
     7
370
     9
100
AcDbLine
 10
138.8965205420668
 20
67.91411835660487
 30
0.0
 11
138.5965205420668
 21
67.89254783997961
 31
0.0
  0
LINE
  5
24F
330
1F
100
AcDbEntity
  8
1
  6
Continuous
 62
     7
370
     9
100
AcDbLine
 10
138.8965205420668
 20
67.91411835660487
 30
0.0
 11
138.8965205420668
 21
67.15485557016576
 31
0.0
  0
LINE
  5
250
330
1F
100
AcDbEntity
  8
1
  6
Continuous
 62
     7
370
     9
100
AcDbLine
 10
138.8965205420668
 20
67.15485557016576
 30
0.0
 11
138.5965205420668
 21
66.7442663493616
 31
0.0
  0
LINE
  5
251
330
1F
100
AcDbEntity
  8
1
  6
Continuous
 62
     7
370
     9
100
AcDbLine
 10
138.5965205420668
 20
64.32316025091713
 30
0.0
 11
138.8965205420668
 21
64.23044558960355
 31
0.0
  0
LINE
  5
252
330
1F
100
AcDbEntity
  8
1
  6
Continuous
 62
     7
370
     9
100
AcDbLine
 10
138.5965205420668
 20
64.91669352011114
 30
0.0
 11
138.8965205420668
 21
65.31828755232334
 31
0.0
  0
LINE
  5
253
330
1F
100
AcDbEntity
  8
1
  6
Continuous
 62
     7
370
     9
100
AcDbLine
 10
138.8965205420668
 20
66.17220385067269
 30
0.0
 11
138.8965205420668
 21
65.31828755232333
 31
0.0
  0
LINE
  5
254
330
1F
100
AcDbEntity
  8
1
  6
Continuous
 62
     7
370
     9
100
AcDbLine
 10
138.8965205420668
 20
62.12663768923188
 30
0.0
 11
138.5965205420668
 21
62.27434076697318
 31
0.0
  0
LINE
  5
255
330
1F
100
AcDbEntity
  8
1
  6
Continuous
 62
     7
370
     9
100
AcDbLine
 10
138.8965205420668
 20
63.29849628877589
 30
0.0
 11
138.5965205420668
 21
62.91371401618626
 31
0.0
  0
LINE
  5
256
330
1F
100
AcDbEntity
  8
1
  6
Continuous
 62
     7
370
     9
100
AcDbLine
 10
138.8965205420668
 20
64.23044558960355
 30
0.0
 11
138.8965205420668
 21
63.29849628877589
 31
0.0
  0
LINE
  5
257
330
1F
100
AcDbEntity
  8
1
  6
Continuous
 62
     7
370
     9
100
AcDbLine
 10
138.8965205420668
 20
66.17220385067269
 30
0.0
 11
138.5965205420668
 21
66.20812551013746
 31
0.0
  0
LINE
  5
258
330
1F
100
AcDbEntity
  8
1
  6
Continuous
 62
     7
370
     9
100
AcDbLine
 10
138.5965205420668
 20
60.77431355527546
 30
0.0
 11
138.8965205420668
 21
61.13479471898997
 31
0.0
  0
LINE
  5
259
330
1F
100
AcDbEntity
  8
1
  6
Continuous
 62
     7
370
     9
100
AcDbLine
 10
138.8965205420668
 20
58.86929683284727
 30
0.0
 11
138.5965205420668
 21
58.54013313381837
 31
0.0
  0
LINE
  5
25A
330
1F
100
AcDbEntity
  8
1
  6
Continuous
 62
     7
370
     9
100
AcDbLine
 10
138.8965205420668
 20
59.90172837729239
 30
0.0
 11
138.8965205420668
 21
58.86929683284727
 31
0.0
  0
LINE
  5
25B
330
1F
100
AcDbEntity
  8
1
  6
Continuous
 62
     7
370
     9
100
AcDbLine
 10
138.5965205420668
 20
60.10154499906292
 30
0.0
 11
138.8965205420668
 21
59.90172837729239
 31
0.0
  0
LINE
  5
25C
330
1F
100
AcDbEntity
  8
1
  6
Continuous
 62
     7
370
     9
100
AcDbLine
 10
138.8965205420668
 20
62.12663768923187
 30
0.0
 11
138.8965205420668
 21
61.13479471898997
 31
0.0
  0
LINE
  5
25D
330
1F
100
AcDbEntity
  8
1
  6
Continuous
 62
     7
370
     9
100
AcDbLine
 10
146.1965205420668
 20
72.50477851493254
 30
0.0
 11
145.6965205420668
 21
72.50477851493254
 31
0.0
  0
LINE
  5
25E
330
1F
100
AcDbEntity
  8
1
  6
Continuous
 62
     7
370
     9
100
AcDbLine
 10
145.6965205420668
 20
72.50477851493254
 30
0.0
 11
145.3965205420668
 21
72.20477851493256
 31
0.0
  0
LINE
  5
25F
330
1F
100
AcDbEntity
  8
1
  6
Continuous
 62
     7
370
     9
100
AcDbLine
 10
144.5965205420668
 20
72.65477851493254
 30
0.0
 11
144.8965205420668
 21
72.35477851493255
 31
0.0
  0
LINE
  5
260
330
1F
100
AcDbEntity
  8
1
  6
Continuous
 62
     7
370
     9
100
AcDbLine
 10
144.5965205420668
 20
72.65477851493253
 30
0.0
 11
144.8965205420668
 21
72.35477851493252
 31
0.0
  0
LINE
  5
261
330
1F
100
AcDbEntity
  8
1
  6
Continuous
 62
     7
370
     9
100
AcDbLine
 10
144.5965205420668
 20
72.60991014960084
 30
0.0
 11
144.5965205420668
 21
72.49957708577253
 31
0.0
  0
LINE
  5
262
330
1F
100
AcDbEntity
  8
1
  6
Continuous
 62
     7
370
     9
100
AcDbLine
 10
144.5965205420668
 20
71.62507506392534
 30
0.0
 11
144.8965205420668
 21
71.43796069122004
 31
0.0
  0
LINE
  5
263
330
1F
100
AcDbEntity
  8
1
  6
Continuous
 62
     7
370
     9
100
AcDbLine
 10
144.8965205420668
 20
71.6542379386433
 30
0.0
 11
144.5965205420668
 21
72.02147305362503
 31
0.0
  0
LINE
  5
264
330
1F
100
AcDbEntity
  8
1
  6
Continuous
 62
     7
370
     9
100
AcDbLine
 10
144.5965205420668
 20
72.27682423022418
 30
0.0
 11
144.8965205420668
 21
72.04042193733935
 31
0.0
  0
LINE
  5
265
330
1F
100
AcDbEntity
  8
1
  6
Continuous
 62
     7
370
     9
100
AcDbLine
 10
144.5965205420668
 20
72.27682423022418
 30
0.0
 11
144.5965205420668
 21
72.02147305362503
 31
0.0
  0
LINE
  5
266
330
1F
100
AcDbEntity
  8
1
  6
Continuous
 62
     7
370
     9
100
AcDbLine
 10
144.7422892920563
 20
72.16195734112925
 30
0.0
 11
144.8965205420668
 21
72.16195734112925
 31
0.0
  0
LINE
  5
267
330
1F
100
AcDbEntity
  8
1
  6
Continuous
 62
     7
370
     9
100
AcDbLine
 10
144.8965205420668
 20
72.32882123826383
 30
0.0
 11
144.5965205420668
 21
72.60991014960084
 31
0.0
  0
LINE
  5
268
330
1F
100
AcDbEntity
  8
1
  6
Continuous
 62
     7
370
     9
100
AcDbLine
 10
144.8965205420668
 20
72.16195734112924
 30
0.0
 11
144.5965205420668
 21
72.49957708577253
 31
0.0
  0
LINE
  5
269
330
1F
100
AcDbEntity
  8
1
  6
Continuous
 62
     7
370
     9
100
AcDbLine
 10
144.8965205420668
 20
68.36086087764956
 30
0.0
 11
144.5965205420668
 21
68.77245363490105
 31
0.0
  0
LINE
  5
26A
330
1F
100
AcDbEntity
  8
1
  6
Continuous
 62
     7
370
     9
100
AcDbLine
 10
144.5965205420668
 20
67.91411835660486
 30
0.0
 11
144.5965205420668
 21
67.15485557016575
 31
0.0
  0
LINE
  5
26B
330
1F
100
AcDbEntity
  8
1
  6
Continuous
 62
     7
370
     9
100
AcDbLine
 10
144.5965205420668
 20
67.91411835660486
 30
0.0
 11
144.8965205420668
 21
67.8925478399796
 31
0.0
  0
LINE
  5
26C
330
1F
100
AcDbEntity
  8
1
  6
Continuous
 62
     7
370
     9
100
AcDbLine
 10
144.5965205420668
 20
67.91411835660486
 30
0.0
 11
144.8965205420668
 21
67.8925478399796
 31
0.0
  0
LINE
  5
26D
330
1F
100
AcDbEntity
  8
1
  6
Continuous
 62
     7
370
     9
100
AcDbLine
 10
144.5965205420668
 20
67.15485557016575
 30
0.0
 11
144.8965205420668
 21
66.74426634936158
 31
0.0
  0
LINE
  5
26E
330
1F
100
AcDbEntity
  8
1
  6
Continuous
 62
     7
370
     9
100
AcDbLine
 10
144.5965205420668
 20
66.17220385067267
 30
0.0
 11
144.5965205420668
 21
65.31828755232331
 31
0.0
  0
LINE
  5
26F
330
1F
100
AcDbEntity
  8
1
  6
Continuous
 62
     7
370
     9
100
AcDbLine
 10
144.8965205420668
 20
64.32316025091711
 30
0.0
 11
144.5965205420668
 21
64.23044558960353
 31
0.0
  0
LINE
  5
270
330
1F
100
AcDbEntity
  8
1
  6
Continuous
 62
     7
370
     9
100
AcDbLine
 10
144.8965205420668
 20
64.91669352011112
 30
0.0
 11
144.5965205420668
 21
65.31828755232333
 31
0.0
  0
LINE
  5
271
330
1F
100
AcDbEntity
  8
1
  6
Continuous
 62
     7
370
     9
100
AcDbLine
 10
144.5965205420668
 20
62.12663768923187
 30
0.0
 11
144.8965205420668
 21
62.27434076697317
 31
0.0
  0
LINE
  5
272
330
1F
100
AcDbEntity
  8
1
  6
Continuous
 62
     7
370
     9
100
AcDbLine
 10
144.5965205420668
 20
63.29849628877588
 30
0.0
 11
144.8965205420668
 21
62.91371401618625
 31
0.0
  0
LINE
  5
273
330
1F
100
AcDbEntity
  8
1
  6
Continuous
 62
     7
370
     9
100
AcDbLine
 10
144.5965205420668
 20
64.23044558960353
 30
0.0
 11
144.5965205420668
 21
63.29849628877588
 31
0.0
  0
LINE
  5
274
330
1F
100
AcDbEntity
  8
1
  6
Continuous
 62
     7
370
     9
100
AcDbLine
 10
144.5965205420668
 20
66.17220385067267
 30
0.0
 11
144.8965205420668
 21
66.20812551013745
 31
0.0
  0
LINE
  5
275
330
1F
100
AcDbEntity
  8
1
  6
Continuous
 62
     7
370
     9
100
AcDbLine
 10
144.8965205420668
 20
60.77431355527544
 30
0.0
 11
144.5965205420668
 21
61.13479471898995
 31
0.0
  0
LINE
  5
276
330
1F
100
AcDbEntity
  8
1
  6
Continuous
 62
     7
370
     9
100
AcDbLine
 10
144.5965205420668
 20
58.86929683284725
 30
0.0
 11
144.8965205420668
 21
58.54013313381836
 31
0.0
  0
LINE
  5
277
330
1F
100
AcDbEntity
  8
1
  6
Continuous
 62
     7
370
     9
100
AcDbLine
 10
144.5965205420668
 20
59.90172837729237
 30
0.0
 11
144.5965205420668
 21
58.86929683284725
 31
0.0
  0
LINE
  5
278
330
1F
100
AcDbEntity
  8
1
  6
Continuous
 62
     7
370
     9
100
AcDbLine
 10
144.8965205420668
 20
60.10154499906291
 30
0.0
 11
144.5965205420668
 21
59.90172837729237
 31
0.0
  0
LINE
  5
279
330
1F
100
AcDbEntity
  8
1
  6
Continuous
 62
     7
370
     9
100
AcDbLine
 10
144.5965205420668
 20
62.12663768923186
 30
0.0
 11
144.5965205420668
 21
61.13479471898995
 31
0.0
  0
LINE
  5
27A
330
1F
100
AcDbEntity
  8
1
  6
Continuous
 62
     7
370
     9
100
AcDbLine
 10
144.5965205420668
 20
71.62507506392534
 30
0.0
 11
144.5965205420668
 21
68.77245363490105
 31
0.0
  0
LINE
  5
27B
330
1F
100
AcDbEntity
  8
1
  6
Continuous
 62
     7
370
     9
100
AcDbLine
 10
144.8965205420668
 20
71.70477851493254
 30
0.0
 11
145.3965205420668
 21
71.70477851493254
 31
0.0
  0
ARC
  5
27C
330
1F
100
AcDbEntity
  8
1
  6
Continuous
 62
     7
370
     9
100
AcDbCircle
 10
148.5465205420668
 20
69.54977851493254
 30
0.0
 40
0.1500000000000057
100
AcDbArc
 50
0.0
 51
89.99999999998914
  0
LINE
  5
27D
330
1F
100
AcDbEntity
  8
1
  6
Continuous
 62
     7
370
     9
100
AcDbLine
 10
148.6965205420668
 20
69.54977851493254
 30
0.0
 11
148.6965205420668
 21
69.09977851493255
 31
0.0
  0
ARC
  5
27E
330
1F
100
AcDbEntity
  8
1
  6
Continuous
 62
     7
370
     9
100
AcDbCircle
 10
148.5465205420668
 20
69.0997785149325
 30
0.0
 40
0.1500000000000057
100
AcDbArc
 50
270.0000000000105
 51
0.0000000000217126
  0
ARC
  5
27F
330
1F
100
AcDbEntity
  8
1
  6
Continuous
 62
     7
370
     9
100
AcDbCircle
 10
147.3465205420668
 20
69.0997785149325
 30
0.0
 40
0.1500000000000057
100
AcDbArc
 50
179.9999999999783
 51
270.0000000000105
  0
LINE
  5
280
330
1F
100
AcDbEntity
  8
1
  6
Continuous
 62
     7
370
     9
100
AcDbLine
 10
147.1965205420668
 20
69.09977851493255
 30
0.0
 11
147.1965205420668
 21
69.54977851493254
 31
0.0
  0
ARC
  5
281
330
1F
100
AcDbEntity
  8
1
  6
Continuous
 62
     7
370
     9
100
AcDbCircle
 10
147.3465205420668
 20
69.54977851493254
 30
0.0
 40
0.1500000000000057
100
AcDbArc
 50
89.99999999998914
 51
179.9999999999998
  0
LINE
  5
282
330
1F
100
AcDbEntity
  8
1
  6
Continuous
 62
     7
370
     9
100
AcDbLine
 10
148.5465205420668
 20
68.94977851493252
 30
0.0
 11
147.3465205420668
 21
68.94977851493252
 31
0.0
  0
LINE
  5
283
330
1F
100
AcDbEntity
  8
1
  6
Continuous
 62
     7
370
     9
100
AcDbLine
 10
148.5465205420668
 20
69.69977851493252
 30
0.0
 11
147.3465205420668
 21
69.69977851493252
 31
0.0
  0
LINE
  5
284
330
1F
100
AcDbEntity
  8
1
  6
Continuous
 62
     7
370
     9
100
AcDbLine
 10
148.6965205420668
 20
65.72977851493255
 30
0.0
 11
148.6965205420668
 21
65.27977851493256
 31
0.0
  0
ARC
  5
285
330
1F
100
AcDbEntity
  8
1
  6
Continuous
 62
     7
370
     9
100
AcDbCircle
 10
148.5465205420668
 20
65.27977851493256
 30
0.0
 40
0.1500000000000057
100
AcDbArc
 50
270.0000000000105
 51
0.0
  0
ARC
  5
286
330
1F
100
AcDbEntity
  8
1
  6
Continuous
 62
     7
370
     9
100
AcDbCircle
 10
148.5465205420668
 20
65.72977851493255
 30
0.0
 40
0.1500000000000057
100
AcDbArc
 50
0.0
 51
89.99999999998914
  0
LINE
  5
287
330
1F
100
AcDbEntity
  8
1
  6
Continuous
 62
     7
370
     9
100
AcDbLine
 10
148.6965205420668
 20
62.88977851493252
 30
0.0
 11
148.6965205420668
 21
62.43977851493258
 31
0.0
  0
ARC
  5
288
330
1F
100
AcDbEntity
  8
1
  6
Continuous
 62
     7
370
     9
100
AcDbCircle
 10
148.5465205420668
 20
62.43977851493253
 30
0.0
 40
0.1500000000000057
100
AcDbArc
 50
269.9999999999998
 51
0.0000000000244267
  0
ARC
  5
289
330
1F
100
AcDbEntity
  8
1
  6
Continuous
 62
     7
370
     9
100
AcDbCircle
 10
148.5465205420668
 20
62.88977851493252
 30
0.0
 40
0.1500000000000057
100
AcDbArc
 50
0.0000000000027141
 51
89.99999999999991
  0
ARC
  5
28A
330
1F
100
AcDbEntity
  8
1
  6
Continuous
 62
     7
370
     9
100
AcDbCircle
 10
147.3465205420668
 20
65.27977851493256
 30
0.0
 40
0.1500000000000057
100
AcDbArc
 50
179.9999999999998
 51
270.0000000000105
  0
LINE
  5
28B
330
1F
100
AcDbEntity
  8
1
  6
Continuous
 62
     7
370
     9
100
AcDbLine
 10
147.1965205420668
 20
65.27977851493256
 30
0.0
 11
147.1965205420668
 21
65.72977851493255
 31
0.0
  0
ARC
  5
28C
330
1F
100
AcDbEntity
  8
1
  6
Continuous
 62
     7
370
     9
100
AcDbCircle
 10
147.3465205420668
 20
65.72977851493255
 30
0.0
 40
0.1500000000000057
100
AcDbArc
 50
89.99999999998914
 51
179.9999999999998
  0
ARC
  5
28D
330
1F
100
AcDbEntity
  8
1
  6
Continuous
 62
     7
370
     9
100
AcDbCircle
 10
147.3465205420668
 20
62.43977851493253
 30
0.0
 40
0.1500000000000057
100
AcDbArc
 50
179.9999999999783
 51
269.9999999999998
  0
LINE
  5
28E
330
1F
100
AcDbEntity
  8
1
  6
Continuous
 62
     7
370
     9
100
AcDbLine
 10
147.1965205420668
 20
62.43977851493258
 30
0.0
 11
147.1965205420668
 21
62.88977851493252
 31
0.0
  0
ARC
  5
28F
330
1F
100
AcDbEntity
  8
1
  6
Continuous
 62
     7
370
     9
100
AcDbCircle
 10
147.3465205420668
 20
62.88977851493252
 30
0.0
 40
0.1500000000000057
100
AcDbArc
 50
89.99999999999991
 51
179.9999999999998
  0
LINE
  5
290
330
1F
100
AcDbEntity
  8
1
  6
Continuous
 62
     7
370
     9
100
AcDbLine
 10
148.5465205420668
 20
65.12977851493253
 30
0.0
 11
147.3465205420668
 21
65.12977851493253
 31
0.0
  0
LINE
  5
291
330
1F
100
AcDbEntity
  8
1
  6
Continuous
 62
     7
370
     9
100
AcDbLine
 10
148.5465205420668
 20
65.87977851493253
 30
0.0
 11
147.3465205420668
 21
65.87977851493253
 31
0.0
  0
LINE
  5
292
330
1F
100
AcDbEntity
  8
1
  6
Continuous
 62
     7
370
     9
100
AcDbLine
 10
148.5465205420668
 20
62.28977851493255
 30
0.0
 11
147.3465205420668
 21
62.28977851493255
 31
0.0
  0
LINE
  5
293
330
1F
100
AcDbEntity
  8
1
  6
Continuous
 62
     7
370
     9
100
AcDbLine
 10
148.5465205420668
 20
63.03977851493255
 30
0.0
 11
147.3465205420668
 21
63.03977851493255
 31
0.0
  0
LINE
  5
294
330
1F
100
AcDbEntity
  8
1
  6
Continuous
 62
     7
370
     9
100
AcDbLine
 10
148.6965205420668
 20
59.53977851493255
 30
0.0
 11
148.6965205420668
 21
59.08977851493256
 31
0.0
  0
ARC
  5
295
330
1F
100
AcDbEntity
  8
1
  6
Continuous
 62
     7
370
     9
100
AcDbCircle
 10
148.5465205420668
 20
59.08977851493256
 30
0.0
 40
0.1500000000000057
100
AcDbArc
 50
269.9999999999998
 51
0.0
  0
ARC
  5
296
330
1F
100
AcDbEntity
  8
1
  6
Continuous
 62
     7
370
     9
100
AcDbCircle
 10
148.5465205420668
 20
59.53977851493255
 30
0.0
 40
0.1500000000000057
100
AcDbArc
 50
0.0
 51
89.99999999999991
  0
ARC
  5
297
330
1F
100
AcDbEntity
  8
1
  6
Continuous
 62
     7
370
     9
100
AcDbCircle
 10
147.3465205420668
 20
59.08977851493256
 30
0.0
 40
0.1500000000000057
100
AcDbArc
 50
179.9999999999998
 51
269.9999999999998
  0
LINE
  5
298
330
1F
100
AcDbEntity
  8
1
  6
Continuous
 62
     7
370
     9
100
AcDbLine
 10
147.1965205420668
 20
59.08977851493256
 30
0.0
 11
147.1965205420668
 21
59.53977851493255
 31
0.0
  0
ARC
  5
299
330
1F
100
AcDbEntity
  8
1
  6
Continuous
 62
     7
370
     9
100
AcDbCircle
 10
147.3465205420668
 20
59.53977851493255
 30
0.0
 40
0.1500000000000057
100
AcDbArc
 50
89.99999999999991
 51
179.9999999999998
  0
LINE
  5
29A
330
1F
100
AcDbEntity
  8
1
  6
Continuous
 62
     7
370
     9
100
AcDbLine
 10
148.5465205420668
 20
58.93977851493253
 30
0.0
 11
147.3465205420668
 21
58.93977851493253
 31
0.0
  0
LINE
  5
29B
330
1F
100
AcDbEntity
  8
1
  6
Continuous
 62
     7
370
     9
100
AcDbLine
 10
148.5465205420668
 20
59.68977851493253
 30
0.0
 11
147.3465205420668
 21
59.68977851493253
 31
0.0
  0
CIRCLE
  5
29C
330
1F
100
AcDbEntity
  8
1
  6
Continuous
 62
     7
370
     9
100
AcDbCircle
 10
153.8465205420668
 20
58.62477851493269
 30
0.0
 40
0.25
  0
LINE
  5
29D
330
1F
100
AcDbEntity
  8
1
  6
Continuous
 62
     7
370
     9
100
AcDbLine
 10
171.3251459652754
 20
55.90477851493254
 30
0.0
 11
171.3251459652754
 21
64.70477851493253
 31
0.0
  0
LINE
  5
29E
330
1F
100
AcDbEntity
  8
1
  6
Continuous
 62
     7
370
     9
100
AcDbLine
 10
170.3965205420668
 20
55.90477851493254
 30
0.0
 11
170.3965205420668
 21
68.10477851493255
 31
0.0
  0
LINE
  5
29F
330
1F
100
AcDbEntity
  8
1
  6
Continuous
 62
     7
370
     9
100
AcDbLine
 10
169.8965205420668
 20
55.90477851493254
 30
0.0
 11
169.8965205420668
 21
68.60477851493255
 31
0.0
  0
LINE
  5
2A0
330
1F
100
AcDbEntity
  8
1
  6
Continuous
 62
     7
370
     9
100
AcDbLine
 10
162.7965205420668
 20
58.75732433827604
 30
0.0
 11
162.7965205420668
 21
56.95834389021785
 31
0.0
  0
LINE
  5
2A1
330
1F
100
AcDbEntity
  8
1
  6
Continuous
 62
     7
370
     9
100
AcDbLine
 10
157.1965205420668
 20
58.75732433827604
 30
0.0
 11
157.1965205420668
 21
55.90477851493254
 31
0.0
  0
CIRCLE
  5
2A2
330
1F
100
AcDbEntity
  8
1
  6
Continuous
 62
     7
370
     9
100
AcDbCircle
 10
161.0965205420668
 20
55.90477851493254
 30
0.0
 40
2.000000000000028
  0
LINE
  5
2A3
330
1F
100
AcDbEntity
  8
1
  6
Continuous
 62
     7
370
     9
100
AcDbLine
 10
167.5965205420668
 20
68.60477851493255
 30
0.0
 11
167.5965205420668
 21
55.90477851493254
 31
0.0
  0
LINE
  5
2A4
330
1F
100
AcDbEntity
  8
1
  6
Continuous
 62
     7
370
     9
100
AcDbLine
 10
163.0965205420668
 20
55.90477851493254
 30
0.0
 11
163.0965205420668
 21
72.35477851493255
 31
0.0
  0
LINE
  5
2A5
330
1F
100
AcDbEntity
  8
1
  6
Continuous
 62
     7
370
     9
100
AcDbLine
 10
156.6965205420668
 20
55.90477851493254
 30
0.0
 11
156.6965205420668
 21
72.20477851493256
 31
0.0
  0
LINE
  5
2A6
330
1F
100
AcDbEntity
  8
1
  6
Continuous
 62
     7
370
     9
100
AcDbLine
 10
156.0965205420668
 20
55.90477851493254
 30
0.0
 11
156.0965205420668
 21
72.50477851493254
 31
0.0
  0
LINE
  5
2A7
330
1F
100
AcDbEntity
  8
1
  6
Continuous
 62
     7
370
     9
100
AcDbLine
 10
166.3965205420668
 20
55.90477851493254
 30
0.0
 11
166.3965205420668
 21
71.60477851493255
 31
0.0
  0
LINE
  5
2A8
330
1F
100
AcDbEntity
  8
1
  6
Continuous
 62
     7
370
     9
100
AcDbLine
 10
163.2965205420668
 20
55.90477851493254
 30
0.0
 11
163.2965205420668
 21
71.90477851493254
 31
0.0
  0
LINE
  5
2A9
330
1F
100
AcDbEntity
  8
1
  6
Continuous
 62
     7
370
     9
100
AcDbLine
 10
156.8965205420668
 20
72.35477851493253
 30
0.0
 11
156.8965205420668
 21
55.90477851493254
 31
0.0
  0
LINE
  5
2AA
330
1F
100
AcDbEntity
  8
1
  6
Continuous
 62
     7
370
     9
100
AcDbLine
 10
163.0965205420668
 20
72.35477851493253
 30
0.0
 11
163.0965205420668
 21
55.90477851493254
 31
0.0
  0
LINE
  5
2AB
330
1F
100
AcDbEntity
  8
1
  6
Continuous
 62
     7
370
     9
100
AcDbLine
 10
163.2965205420668
 20
39.90477851493254
 30
0.0
 11
166.0965205420668
 21
39.90477851493254
 31
0.0
  0
CIRCLE
  5
2AC
330
1F
100
AcDbEntity
  8
1
  6
Continuous
 62
     7
370
     9
100
AcDbCircle
 10
161.0965205420668
 20
55.90477851493254
 30
0.0
 40
1.700000000000031
  0
LINE
  5
2AD
330
1F
100
AcDbEntity
  8
1
  6
Continuous
 62
     7
370
     9
100
AcDbLine
 10
163.0965205420668
 20
45.95474397654279
 30
0.0
 11
156.8965205420668
 21
45.95474397654279
 31
0.0
  0
LINE
  5
2AE
330
1F
100
AcDbEntity
  8
1
  6
Continuous
 62
     7
370
     9
100
AcDbLine
 10
163.0965205420668
 20
46.52105587260523
 30
0.0
 11
156.8965205420668
 21
46.52105587260523
 31
0.0
  0
LINE
  5
2AF
330
1F
100
AcDbEntity
  8
1
  6
Continuous
 62
     7
370
     9
100
AcDbLine
 10
157.1965205420668
 20
46.58553109138687
 30
0.0
 11
162.7965205420668
 21
46.58553109138687
 31
0.0
  0
LINE
  5
2B0
330
1F
100
AcDbEntity
  8
1
  6
Continuous
 62
     7
370
     9
100
AcDbLine
 10
162.7965205420668
 20
47.48054226532786
 30
0.0
 11
157.1965205420668
 21
47.48054226532786
 31
0.0
  0
LINE
  5
2B1
330
1F
100
AcDbEntity
  8
1
  6
Continuous
 62
     7
370
     9
100
AcDbLine
 10
156.8965205420669
 20
47.87468787989418
 30
0.0
 11
163.0965205420668
 21
47.87468787989418
 31
0.0
  0
LINE
  5
2B2
330
1F
100
AcDbEntity
  8
1
  6
Continuous
 62
     7
370
     9
100
AcDbLine
 10
163.0965205420668
 20
48.4927511948954
 30
0.0
 11
156.8965205420669
 21
48.4927511948954
 31
0.0
  0
LINE
  5
2B3
330
1F
100
AcDbEntity
  8
1
  6
Continuous
 62
     7
370
     9
100
AcDbLine
 10
157.1965205420668
 20
48.61325360223073
 30
0.0
 11
162.7965205420668
 21
48.61325360223073
 31
0.0
  0
LINE
  5
2B4
330
1F
100
AcDbEntity
  8
1
  6
Continuous
 62
     7
370
     9
100
AcDbLine
 10
162.7965205420668
 20
49.5773892405263
 30
0.0
 11
157.1965205420668
 21
49.5773892405263
 31
0.0
  0
LINE
  5
2B5
330
1F
100
AcDbEntity
  8
1
  6
Continuous
 62
     7
370
     9
100
AcDbLine
 10
156.8965205420669
 20
49.95092836336387
 30
0.0
 11
163.0965205420668
 21
49.95092836336387
 31
0.0
  0
LINE
  5
2B6
330
1F
100
AcDbEntity
  8
1
  6
Continuous
 62
     7
370
     9
100
AcDbLine
 10
156.8965205420669
 20
50.60871319791401
 30
0.0
 11
163.0965205420668
 21
50.60871319791401
 31
0.0
  0
LINE
  5
2B7
330
1F
100
AcDbEntity
  8
1
  6
Continuous
 62
     7
370
     9
100
AcDbLine
 10
162.7965205420668
 20
50.78289735151365
 30
0.0
 11
157.1965205420668
 21
50.78289735151365
 31
0.0
  0
LINE
  5
2B8
330
1F
100
AcDbEntity
  8
1
  6
Continuous
 62
     7
370
     9
100
AcDbLine
 10
157.1965205420668
 20
51.7973916506525
 30
0.0
 11
162.7965205420668
 21
51.7973916506525
 31
0.0
  0
LINE
  5
2B9
330
1F
100
AcDbEntity
  8
1
  6
Continuous
 62
     7
370
     9
100
AcDbLine
 10
163.0965205420668
 20
52.14305376762967
 30
0.0
 11
156.8965205420669
 21
52.14305376762967
 31
0.0
  0
LINE
  5
2BA
330
1F
100
AcDbEntity
  8
1
  6
Continuous
 62
     7
370
     9
100
AcDbLine
 10
163.0965205420668
 20
52.82775708814334
 30
0.0
 11
156.8965205420669
 21
52.82775708814334
 31
0.0
  0
LINE
  5
2BB
330
1F
100
AcDbEntity
  8
1
  6
Continuous
 62
     7
370
     9
100
AcDbLine
 10
157.1965205420668
 20
53.05223269158905
 30
0.0
 11
162.7965205420668
 21
53.05223269158905
 31
0.0
  0
LINE
  5
2BC
330
1F
100
AcDbEntity
  8
1
  6
Continuous
 62
     7
370
     9
100
AcDbLine
 10
162.7965205420668
 20
39.15477851493253
 30
0.0
 11
157.1965205420668
 21
39.15477851493253
 31
0.0
  0
LINE
  5
2BD
330
1F
100
AcDbEntity
  8
1
  6
Continuous
 62
     7
370
     9
100
AcDbLine
 10
162.7965205420668
 20
39.50906873189714
 30
0.0
 11
157.1965205420668
 21
39.50906873189714
 31
0.0
  0
LINE
  5
2BE
330
1F
100
AcDbEntity
  8
1
  6
Continuous
 62
     7
370
     9
100
AcDbLine
 10
162.7965205420668
 20
39.81942426829256
 30
0.0
 11
157.1965205420668
 21
39.81942426829256
 31
0.0
  0
LINE
  5
2BF
330
1F
100
AcDbEntity
  8
1
  6
Continuous
 62
     7
370
     9
100
AcDbLine
 10
162.7965205420668
 20
40.1455539585268
 30
0.0
 11
157.1965205420668
 21
40.1455539585268
 31
0.0
  0
LINE
  5
2C0
330
1F
100
AcDbEntity
  8
1
  6
Continuous
 62
     7
370
     9
100
AcDbLine
 10
163.0965205420668
 20
40.52494447071759
 30
0.0
 11
156.8965205420668
 21
40.52494447071759
 31
0.0
  0
LINE
  5
2C1
330
1F
100
AcDbEntity
  8
1
  6
Continuous
 62
     7
370
     9
100
AcDbLine
 10
162.7965205420668
 20
40.62612736817486
 30
0.0
 11
157.1965205420668
 21
40.62612736817486
 31
0.0
  0
LINE
  5
2C2
330
1F
100
AcDbEntity
  8
1
  6
Continuous
 62
     7
370
     9
100
AcDbLine
 10
162.7965205420668
 20
41.08877456529466
 30
0.0
 11
157.1965205420668
 21
41.08877456529466
 31
0.0
  0
LINE
  5
2C3
330
1F
100
AcDbEntity
  8
1
  6
Continuous
 62
     7
370
     9
100
AcDbLine
 10
163.0965205420668
 20
41.48688555036948
 30
0.0
 11
156.8965205420668
 21
41.48688555036948
 31
0.0
  0
LINE
  5
2C4
330
1F
100
AcDbEntity
  8
1
  6
Continuous
 62
     7
370
     9
100
AcDbLine
 10
157.1965205420668
 20
41.73021203342073
 30
0.0
 11
162.7965205420668
 21
41.73021203342073
 31
0.0
  0
LINE
  5
2C5
330
1F
100
AcDbEntity
  8
1
  6
Continuous
 62
     7
370
     9
100
AcDbLine
 10
162.7965205420668
 20
42.3203718359875
 30
0.0
 11
157.1965205420668
 21
42.3203718359875
 31
0.0
  0
LINE
  5
2C6
330
1F
100
AcDbEntity
  8
1
  6
Continuous
 62
     7
370
     9
100
AcDbLine
 10
163.0965205420668
 20
42.72945451646642
 30
0.0
 11
156.8965205420668
 21
42.72945451646642
 31
0.0
  0
LINE
  5
2C7
330
1F
100
AcDbEntity
  8
1
  6
Continuous
 62
     7
370
     9
100
AcDbLine
 10
162.7965205420668
 20
43.11018851189881
 30
0.0
 11
157.1965205420668
 21
43.11018851189881
 31
0.0
  0
LINE
  5
2C8
330
1F
100
AcDbEntity
  8
1
  6
Continuous
 62
     7
370
     9
100
AcDbLine
 10
162.7965205420668
 20
43.81637413065245
 30
0.0
 11
157.1965205420668
 21
43.81637413065245
 31
0.0
  0
LINE
  5
2C9
330
1F
100
AcDbEntity
  8
1
  6
Continuous
 62
     7
370
     9
100
AcDbLine
 10
163.0965205420668
 20
44.22846617748461
 30
0.0
 11
156.8965205420668
 21
44.22846617748461
 31
0.0
  0
LINE
  5
2CA
330
1F
100
AcDbEntity
  8
1
  6
Continuous
 62
     7
370
     9
100
AcDbLine
 10
156.8965205420668
 20
44.73919713115554
 30
0.0
 11
163.0965205420668
 21
44.73919713115554
 31
0.0
  0
LINE
  5
2CB
330
1F
100
AcDbEntity
  8
1
  6
Continuous
 62
     7
370
     9
100
AcDbLine
 10
157.1965205420668
 20
45.54766346630122
 30
0.0
 11
162.7965205420668
 21
45.54766346630122
 31
0.0
  0
LINE
  5
2CC
330
1F
100
AcDbEntity
  8
1
  6
Continuous
 62
     7
370
     9
100
AcDbLine
 10
162.7965205420668
 20
39.1917073463508
 30
0.0
 11
157.1965205420668
 21
39.1917073463508
 31
0.0
  0
LINE
  5
2CD
330
1F
100
AcDbEntity
  8
1
  6
Continuous
 62
     7
370
     9
100
AcDbLine
 10
162.7965205420668
 20
39.32580429200183
 30
0.0
 11
157.1965205420668
 21
39.32580429200183
 31
0.0
  0
ARC
  5
2CE
330
1F
100
AcDbEntity
  8
1
  6
Continuous
 62
     7
370
     9
100
AcDbCircle
 10
158.4965205420668
 20
55.90477851493254
 30
0.0
 40
0.75
100
AcDbArc
 50
31.57854603590141
 51
328.4214539640982
  0
LINE
  5
2CF
330
1F
100
AcDbEntity
  8
1
  6
Continuous
 62
     7
370
     9
100
AcDbLine
 10
157.1965205420668
 20
53.05223269158905
 30
0.0
 11
156.8965205420668
 21
52.82775708814334
 31
0.0
  0
LINE
  5
2D0
330
1F
100
AcDbEntity
  8
1
  6
Continuous
 62
     7
370
     9
100
AcDbLine
 10
157.1965205420668
 20
50.78289735151365
 30
0.0
 11
157.1965205420668
 21
51.7973916506525
 31
0.0
  0
LINE
  5
2D1
330
1F
100
AcDbEntity
  8
1
  6
Continuous
 62
     7
370
     9
100
AcDbLine
 10
157.1965205420668
 20
50.78289735151365
 30
0.0
 11
156.8965205420668
 21
50.60871319791401
 31
0.0
  0
LINE
  5
2D2
330
1F
100
AcDbEntity
  8
1
  6
Continuous
 62
     7
370
     9
100
AcDbLine
 10
156.8965205420668
 20
52.14305376762967
 30
0.0
 11
157.1965205420668
 21
51.7973916506525
 31
0.0
  0
LINE
  5
2D3
330
1F
100
AcDbEntity
  8
1
  6
Continuous
 62
     7
370
     9
100
AcDbLine
 10
157.1965205420668
 20
48.61325360223073
 30
0.0
 11
157.1965205420668
 21
49.5773892405263
 31
0.0
  0
LINE
  5
2D4
330
1F
100
AcDbEntity
  8
1
  6
Continuous
 62
     7
370
     9
100
AcDbLine
 10
157.1965205420668
 20
48.61325360223073
 30
0.0
 11
156.8965205420668
 21
48.4927511948954
 31
0.0
  0
LINE
  5
2D5
330
1F
100
AcDbEntity
  8
1
  6
Continuous
 62
     7
370
     9
100
AcDbLine
 10
157.1965205420668
 20
46.58553109138687
 30
0.0
 11
157.1965205420668
 21
47.48054226532786
 31
0.0
  0
LINE
  5
2D6
330
1F
100
AcDbEntity
  8
1
  6
Continuous
 62
     7
370
     9
100
AcDbLine
 10
157.1965205420668
 20
46.58553109138687
 30
0.0
 11
156.8965205420668
 21
46.52105587260523
 31
0.0
  0
LINE
  5
2D7
330
1F
100
AcDbEntity
  8
1
  6
Continuous
 62
     7
370
     9
100
AcDbLine
 10
157.1965205420668
 20
47.48054226532786
 30
0.0
 11
156.8965205420668
 21
47.87468787989418
 31
0.0
  0
LINE
  5
2D8
330
1F
100
AcDbEntity
  8
1
  6
Continuous
 62
     7
370
     9
100
AcDbLine
 10
156.8965205420668
 20
49.95092836336387
 30
0.0
 11
157.1965205420668
 21
49.5773892405263
 31
0.0
  0
LINE
  5
2D9
330
1F
100
AcDbEntity
  8
1
  6
Continuous
 62
     7
370
     9
100
AcDbLine
 10
157.1965205420668
 20
44.73919713115554
 30
0.0
 11
157.1965205420668
 21
45.54766346630122
 31
0.0
  0
LINE
  5
2DA
330
1F
100
AcDbEntity
  8
1
  6
Continuous
 62
     7
370
     9
100
AcDbLine
 10
157.1965205420668
 20
43.81637413065245
 30
0.0
 11
156.8965205420668
 21
44.22846617748461
 31
0.0
  0
LINE
  5
2DB
330
1F
100
AcDbEntity
  8
1
  6
Continuous
 62
     7
370
     9
100
AcDbLine
 10
157.1965205420668
 20
41.73021203342073
 30
0.0
 11
157.1965205420668
 21
42.3203718359875
 31
0.0
  0
LINE
  5
2DC
330
1F
100
AcDbEntity
  8
1
  6
Continuous
 62
     7
370
     9
100
AcDbLine
 10
157.1965205420668
 20
41.73021203342073
 30
0.0
 11
156.8965205420668
 21
41.83688555036947
 31
0.0
  0
LINE
  5
2DD
330
1F
100
AcDbEntity
  8
1
  6
Continuous
 62
     7
370
     9
100
AcDbLine
 10
157.1965205420668
 20
42.3203718359875
 30
0.0
 11
156.8965205420668
 21
42.72945451646642
 31
0.0
  0
LINE
  5
2DE
330
1F
100
AcDbEntity
  8
1
  6
Continuous
 62
     7
370
     9
100
AcDbLine
 10
157.1965205420668
 20
43.11018851189881
 30
0.0
 11
156.8965205420668
 21
43.16041754919438
 31
0.0
  0
LINE
  5
2DF
330
1F
100
AcDbEntity
  8
1
  6
Continuous
 62
     7
370
     9
100
AcDbLine
 10
157.1965205420668
 20
43.11018851189881
 30
0.0
 11
157.1965205420668
 21
43.81637413065245
 31
0.0
  0
LINE
  5
2E0
330
1F
100
AcDbEntity
  8
1
  6
Continuous
 62
     7
370
     9
100
AcDbLine
 10
157.1965205420668
 20
39.81942426829256
 30
0.0
 11
157.1965205420668
 21
40.1455539585268
 31
0.0
  0
LINE
  5
2E1
330
1F
100
AcDbEntity
  8
1
  6
Continuous
 62
     7
370
     9
100
AcDbLine
 10
157.1965205420668
 20
40.62612736817486
 30
0.0
 11
157.1965205420668
 21
41.08877456529466
 31
0.0
  0
LINE
  5
2E2
330
1F
100
AcDbEntity
  8
1
  6
Continuous
 62
     7
370
     9
100
AcDbLine
 10
156.8965205420668
 20
40.03169969335416
 30
0.0
 11
157.1965205420668
 21
39.81942426829256
 31
0.0
  0
LINE
  5
2E3
330
1F
100
AcDbEntity
  8
1
  6
Continuous
 62
     7
370
     9
100
AcDbLine
 10
156.8965205420668
 20
40.52494447071759
 30
0.0
 11
157.1965205420668
 21
40.1455539585268
 31
0.0
  0
LINE
  5
2E4
330
1F
100
AcDbEntity
  8
1
  6
Continuous
 62
     7
370
     9
100
AcDbLine
 10
157.1965205420668
 20
40.62612736817486
 30
0.0
 11
156.8965205420668
 21
40.7871690861087
 31
0.0
  0
LINE
  5
2E5
330
1F
100
AcDbEntity
  8
1
  6
Continuous
 62
     7
370
     9
100
AcDbLine
 10
156.8965205420668
 20
41.48688555036948
 30
0.0
 11
157.1965205420668
 21
41.08877456529466
 31
0.0
  0
LINE
  5
2E6
330
1F
100
AcDbEntity
  8
1
  6
Continuous
 62
     7
370
     9
100
AcDbLine
 10
157.1965205420668
 20
39.15477851493253
 30
0.0
 11
156.8965205420668
 21
39.45477851493254
 31
0.0
  0
LINE
  5
2E7
330
1F
100
AcDbEntity
  8
1
  6
Continuous
 62
     7
370
     9
100
AcDbLine
 10
157.1965205420668
 20
39.15477851493253
 30
0.0
 11
156.8965205420668
 21
39.45477851493254
 31
0.0
  0
LINE
  5
2E8
330
1F
100
AcDbEntity
  8
1
  6
Continuous
 62
     7
370
     9
100
AcDbLine
 10
157.1965205420668
 20
39.15477851493253
 30
0.0
 11
156.8965205420668
 21
39.45477851493254
 31
0.0
  0
LINE
  5
2E9
330
1F
100
AcDbEntity
  8
1
  6
Continuous
 62
     7
370
     9
100
AcDbLine
 10
157.1965205420668
 20
39.32580429200183
 30
0.0
 11
157.1965205420668
 21
39.50906873189714
 31
0.0
  0
LINE
  5
2EA
330
1F
100
AcDbEntity
  8
1
  6
Continuous
 62
     7
370
     9
100
AcDbLine
 10
157.1965205420668
 20
39.15477851493253
 30
0.0
 11
157.1965205420668
 21
39.1917073463508
 31
0.0
  0
LINE
  5
2EB
330
1F
100
AcDbEntity
  8
1
  6
Continuous
 62
     7
370
     9
100
AcDbLine
 10
157.1965205420668
 20
39.1917073463508
 30
0.0
 11
156.8965205420668
 21
39.45477851493254
 31
0.0
  0
LINE
  5
2EC
330
1F
100
AcDbEntity
  8
1
  6
Continuous
 62
     7
370
     9
100
AcDbLine
 10
157.1965205420668
 20
39.50906873189714
 30
0.0
 11
156.8965205420668
 21
39.86235436643439
 31
0.0
  0
LINE
  5
2ED
330
1F
100
AcDbEntity
  8
1
  6
Continuous
 62
     7
370
     9
100
AcDbLine
 10
157.1965205420668
 20
39.32580429200183
 30
0.0
 11
156.8965205420668
 21
39.58518172450206
 31
0.0
  0
LINE
  5
2EE
330
1F
100
AcDbEntity
  8
1
  6
Continuous
 62
     7
370
     9
100
AcDbLine
 10
157.1965205420668
 20
45.54766346630122
 30
0.0
 11
156.8965205420668
 21
45.95474397654279
 31
0.0
  0
LINE
  5
2EF
330
1F
100
AcDbEntity
  8
1
  6
Continuous
 62
     7
370
     9
100
AcDbLine
 10
156.0965205420668
 20
39.30477851493256
 30
0.0
 11
156.3965205420668
 21
39.30477851493256
 31
0.0
  0
LINE
  5
2F0
330
1F
100
AcDbEntity
  8
1
  6
Continuous
 62
     7
370
     9
100
AcDbLine
 10
156.3965205420668
 20
39.30477851493256
 30
0.0
 11
156.6965205420668
 21
39.60477851493252
 31
0.0
  0
LINE
  5
2F1
330
1F
100
AcDbEntity
  8
1
  6
Continuous
 62
     7
370
     9
100
AcDbLine
 10
156.8965205420668
 20
40.40477851493254
 30
0.0
 11
156.6965205420668
 21
40.40477851493254
 31
0.0
  0
LINE
  5
2F2
330
1F
100
AcDbEntity
  8
1
  6
Continuous
 62
     7
370
     9
100
AcDbLine
 10
156.6965205420668
 20
55.90477851493254
 30
0.0
 11
156.6965205420668
 21
39.60477851493252
 31
0.0
  0
LINE
  5
2F3
330
1F
100
AcDbEntity
  8
1
  6
Continuous
 62
     7
370
     9
100
AcDbLine
 10
156.0965205420668
 20
55.90477851493254
 30
0.0
 11
156.0965205420668
 21
39.30477851493256
 31
0.0
  0
LINE
  5
2F4
330
1F
100
AcDbEntity
  8
1
  6
Continuous
 62
     7
370
     9
100
AcDbLine
 10
156.8965205420668
 20
39.45477851493254
 30
0.0
 11
156.8965205420668
 21
55.90477851493254
 31
0.0
  0
LINE
  5
2F5
330
1F
100
AcDbEntity
  8
1
  6
Continuous
 62
     7
370
     9
100
AcDbLine
 10
157.1965205420668
 20
53.05223269158905
 30
0.0
 11
157.1965205420668
 21
55.90477851493254
 31
0.0
  0
LINE
  5
2F6
330
1F
100
AcDbEntity
  8
1
  6
Continuous
 62
     7
370
     9
100
AcDbLine
 10
162.7965205420668
 20
53.05223269158905
 30
0.0
 11
163.0965205420668
 21
52.82775708814334
 31
0.0
  0
LINE
  5
2F7
330
1F
100
AcDbEntity
  8
1
  6
Continuous
 62
     7
370
     9
100
AcDbLine
 10
162.7965205420668
 20
50.78289735151365
 30
0.0
 11
162.7965205420668
 21
51.7973916506525
 31
0.0
  0
LINE
  5
2F8
330
1F
100
AcDbEntity
  8
1
  6
Continuous
 62
     7
370
     9
100
AcDbLine
 10
162.7965205420668
 20
50.78289735151365
 30
0.0
 11
163.0965205420668
 21
50.60871319791401
 31
0.0
  0
LINE
  5
2F9
330
1F
100
AcDbEntity
  8
1
  6
Continuous
 62
     7
370
     9
100
AcDbLine
 10
163.0965205420668
 20
52.14305376762967
 30
0.0
 11
162.7965205420668
 21
51.7973916506525
 31
0.0
  0
LINE
  5
2FA
330
1F
100
AcDbEntity
  8
1
  6
Continuous
 62
     7
370
     9
100
AcDbLine
 10
162.7965205420668
 20
48.61325360223073
 30
0.0
 11
162.7965205420668
 21
49.5773892405263
 31
0.0
  0
LINE
  5
2FB
330
1F
100
AcDbEntity
  8
1
  6
Continuous
 62
     7
370
     9
100
AcDbLine
 10
162.7965205420668
 20
48.61325360223073
 30
0.0
 11
163.0965205420668
 21
48.4927511948954
 31
0.0
  0
LINE
  5
2FC
330
1F
100
AcDbEntity
  8
1
  6
Continuous
 62
     7
370
     9
100
AcDbLine
 10
162.7965205420668
 20
46.58553109138687
 30
0.0
 11
162.7965205420668
 21
47.48054226532786
 31
0.0
  0
LINE
  5
2FD
330
1F
100
AcDbEntity
  8
1
  6
Continuous
 62
     7
370
     9
100
AcDbLine
 10
162.7965205420668
 20
46.58553109138687
 30
0.0
 11
163.0965205420668
 21
46.52105587260523
 31
0.0
  0
LINE
  5
2FE
330
1F
100
AcDbEntity
  8
1
  6
Continuous
 62
     7
370
     9
100
AcDbLine
 10
162.7965205420668
 20
47.48054226532786
 30
0.0
 11
163.0965205420668
 21
47.87468787989418
 31
0.0
  0
LINE
  5
2FF
330
1F
100
AcDbEntity
  8
1
  6
Continuous
 62
     7
370
     9
100
AcDbLine
 10
163.0965205420668
 20
49.95092836336387
 30
0.0
 11
162.7965205420668
 21
49.5773892405263
 31
0.0
  0
LINE
  5
300
330
1F
100
AcDbEntity
  8
1
  6
Continuous
 62
     7
370
     9
100
AcDbLine
 10
162.7965205420668
 20
44.73919713115554
 30
0.0
 11
162.7965205420668
 21
45.54766346630122
 31
0.0
  0
LINE
  5
301
330
1F
100
AcDbEntity
  8
1
  6
Continuous
 62
     7
370
     9
100
AcDbLine
 10
162.7965205420668
 20
43.81637413065245
 30
0.0
 11
163.0965205420668
 21
44.22846617748461
 31
0.0
  0
LINE
  5
302
330
1F
100
AcDbEntity
  8
1
  6
Continuous
 62
     7
370
     9
100
AcDbLine
 10
162.7965205420668
 20
41.73021203342073
 30
0.0
 11
162.7965205420668
 21
42.3203718359875
 31
0.0
  0
LINE
  5
303
330
1F
100
AcDbEntity
  8
1
  6
Continuous
 62
     7
370
     9
100
AcDbLine
 10
162.7965205420668
 20
41.73021203342073
 30
0.0
 11
163.0965205420668
 21
41.83688555036947
 31
0.0
  0
LINE
  5
304
330
1F
100
AcDbEntity
  8
1
  6
Continuous
 62
     7
370
     9
100
AcDbLine
 10
162.7965205420668
 20
42.3203718359875
 30
0.0
 11
163.0965205420668
 21
42.72945451646642
 31
0.0
  0
LINE
  5
305
330
1F
100
AcDbEntity
  8
1
  6
Continuous
 62
     7
370
     9
100
AcDbLine
 10
162.7965205420668
 20
43.11018851189881
 30
0.0
 11
163.0965205420668
 21
43.16041754919438
 31
0.0
  0
LINE
  5
306
330
1F
100
AcDbEntity
  8
1
  6
Continuous
 62
     7
370
     9
100
AcDbLine
 10
162.7965205420668
 20
43.11018851189881
 30
0.0
 11
162.7965205420668
 21
43.81637413065245
 31
0.0
  0
LINE
  5
307
330
1F
100
AcDbEntity
  8
1
  6
Continuous
 62
     7
370
     9
100
AcDbLine
 10
163.2965205420668
 20
40.65477851493254
 30
0.0
 11
163.0965205420668
 21
40.65477851493254
 31
0.0
  0
LINE
  5
308
330
1F
100
AcDbEntity
  8
1
  6
Continuous
 62
     7
370
     9
100
AcDbLine
 10
162.7965205420668
 20
39.81942426829256
 30
0.0
 11
162.7965205420668
 21
40.1455539585268
 31
0.0
  0
LINE
  5
309
330
1F
100
AcDbEntity
  8
1
  6
Continuous
 62
     7
370
     9
100
AcDbLine
 10
162.7965205420668
 20
40.62612736817486
 30
0.0
 11
162.7965205420668
 21
41.08877456529466
 31
0.0
  0
LINE
  5
30A
330
1F
100
AcDbEntity
  8
1
  6
Continuous
 62
     7
370
     9
100
AcDbLine
 10
163.0965205420668
 20
40.03169969335416
 30
0.0
 11
162.7965205420668
 21
39.81942426829256
 31
0.0
  0
LINE
  5
30B
330
1F
100
AcDbEntity
  8
1
  6
Continuous
 62
     7
370
     9
100
AcDbLine
 10
163.0965205420668
 20
40.52494447071759
 30
0.0
 11
162.7965205420668
 21
40.1455539585268
 31
0.0
  0
LINE
  5
30C
330
1F
100
AcDbEntity
  8
1
  6
Continuous
 62
     7
370
     9
100
AcDbLine
 10
162.7965205420668
 20
40.62612736817486
 30
0.0
 11
163.0965205420668
 21
40.7871690861087
 31
0.0
  0
LINE
  5
30D
330
1F
100
AcDbEntity
  8
1
  6
Continuous
 62
     7
370
     9
100
AcDbLine
 10
163.0965205420668
 20
41.48688555036948
 30
0.0
 11
162.7965205420668
 21
41.08877456529466
 31
0.0
  0
LINE
  5
30E
330
1F
100
AcDbEntity
  8
1
  6
Continuous
 62
     7
370
     9
100
AcDbLine
 10
162.7965205420668
 20
39.15477851493253
 30
0.0
 11
163.0965205420668
 21
39.45477851493254
 31
0.0
  0
LINE
  5
30F
330
1F
100
AcDbEntity
  8
1
  6
Continuous
 62
     7
370
     9
100
AcDbLine
 10
162.7965205420668
 20
39.15477851493253
 30
0.0
 11
163.0965205420668
 21
39.45477851493254
 31
0.0
  0
LINE
  5
310
330
1F
100
AcDbEntity
  8
1
  6
Continuous
 62
     7
370
     9
100
AcDbLine
 10
162.7965205420668
 20
39.15477851493253
 30
0.0
 11
163.0965205420668
 21
39.45477851493254
 31
0.0
  0
LINE
  5
311
330
1F
100
AcDbEntity
  8
1
  6
Continuous
 62
     7
370
     9
100
AcDbLine
 10
162.7965205420668
 20
39.50906873189714
 30
0.0
 11
162.7965205420668
 21
39.32580429200183
 31
0.0
  0
LINE
  5
312
330
1F
100
AcDbEntity
  8
1
  6
Continuous
 62
     7
370
     9
100
AcDbLine
 10
162.7965205420668
 20
39.15477851493253
 30
0.0
 11
162.7965205420668
 21
39.1917073463508
 31
0.0
  0
LINE
  5
313
330
1F
100
AcDbEntity
  8
1
  6
Continuous
 62
     7
370
     9
100
AcDbLine
 10
162.7965205420668
 20
39.1917073463508
 30
0.0
 11
163.0965205420668
 21
39.45477851493254
 31
0.0
  0
LINE
  5
314
330
1F
100
AcDbEntity
  8
1
  6
Continuous
 62
     7
370
     9
100
AcDbLine
 10
162.7965205420668
 20
39.50906873189714
 30
0.0
 11
163.0965205420668
 21
39.86235436643439
 31
0.0
  0
LINE
  5
315
330
1F
100
AcDbEntity
  8
1
  6
Continuous
 62
     7
370
     9
100
AcDbLine
 10
162.7965205420668
 20
39.32580429200183
 30
0.0
 11
163.0965205420668
 21
39.58518172450206
 31
0.0
  0
LINE
  5
316
330
1F
100
AcDbEntity
  8
1
  6
Continuous
 62
     7
370
     9
100
AcDbLine
 10
162.7965205420668
 20
45.54766346630122
 30
0.0
 11
163.0965205420668
 21
45.95474397654279
 31
0.0
  0
LINE
  5
317
330
1F
100
AcDbEntity
  8
1
  6
Continuous
 62
     7
370
     9
100
AcDbLine
 10
163.0965205420668
 20
55.90477851493254
 30
0.0
 11
163.0965205420668
 21
39.45477851493254
 31
0.0
  0
LINE
  5
318
330
1F
100
AcDbEntity
  8
1
  6
Continuous
 62
     7
370
     9
100
AcDbLine
 10
163.2965205420668
 20
55.90477851493254
 30
0.0
 11
163.2965205420668
 21
39.90477851493254
 31
0.0
  0
LINE
  5
319
330
1F
100
AcDbEntity
  8
1
  6
Continuous
 62
     7
370
     9
100
AcDbLine
 10
163.0965205420668
 20
39.45477851493254
 30
0.0
 11
163.0965205420668
 21
55.90477851493254
 31
0.0
  0
LINE
  5
31A
330
1F
100
AcDbEntity
  8
1
  6
Continuous
 62
     7
370
     9
100
AcDbLine
 10
162.7965205420668
 20
53.05223269158905
 30
0.0
 11
162.7965205420668
 21
54.85121313964724
 31
0.0
  0
LINE
  5
31B
330
1F
100
AcDbEntity
  8
1
  6
Continuous
 62
     7
370
     9
100
AcDbLine
 10
167.5965205420668
 20
43.20477851493254
 30
0.0
 11
169.8965205420668
 21
43.20477851493254
 31
0.0
  0
LINE
  5
31C
330
1F
100
AcDbEntity
  8
1
  6
Continuous
 62
     7
370
     9
100
AcDbLine
 10
167.5965205420668
 20
43.70477851493254
 30
0.0
 11
170.3965205420668
 21
43.70477851493254
 31
0.0
  0
LINE
  5
31D
330
1F
100
AcDbEntity
  8
1
  6
Continuous
 62
     7
370
     9
100
AcDbLine
 10
166.3965205420668
 20
43.70477851493254
 30
0.0
 11
167.5965205420668
 21
43.70477851493254
 31
0.0
  0
LINE
  5
31E
330
1F
100
AcDbEntity
  8
1
  6
Continuous
 62
     7
370
     9
100
AcDbLine
 10
166.0965205420668
 20
39.90477851493254
 30
0.0
 11
166.3965205420668
 21
40.20477851493254
 31
0.0
  0
LINE
  5
31F
330
1F
100
AcDbEntity
  8
1
  6
Continuous
 62
     7
370
     9
100
AcDbLine
 10
166.3965205420668
 20
55.90477851493254
 30
0.0
 11
166.3965205420668
 21
40.20477851493254
 31
0.0
  0
LINE
  5
320
330
1F
100
AcDbEntity
  8
1
  6
Continuous
 62
     7
370
     9
100
AcDbLine
 10
167.5965205420668
 20
43.20477851493254
 30
0.0
 11
167.5965205420668
 21
55.90477851493254
 31
0.0
  0
LINE
  5
321
330
1F
100
AcDbEntity
  8
1
  6
Continuous
 62
     7
370
     9
100
AcDbLine
 10
170.3965205420668
 20
46.90477851493254
 30
0.0
 11
171.1251459652754
 21
46.90477851493254
 31
0.0
  0
LINE
  5
322
330
1F
100
AcDbEntity
  8
1
  6
Continuous
 62
     7
370
     9
100
AcDbLine
 10
171.1251459652754
 20
46.90477851493254
 30
0.0
 11
171.3251459652754
 21
47.10477851493256
 31
0.0
  0
LINE
  5
323
330
1F
100
AcDbEntity
  8
1
  6
Continuous
 62
     7
370
     9
100
AcDbLine
 10
169.8965205420668
 20
43.20477851493254
 30
0.0
 11
170.3965205420668
 21
43.70477851493254
 31
0.0
  0
LINE
  5
324
330
1F
100
AcDbEntity
  8
1
  6
Continuous
 62
     7
370
     9
100
AcDbLine
 10
171.3251459652754
 20
55.90477851493254
 30
0.0
 11
171.3251459652754
 21
47.10477851493256
 31
0.0
  0
LINE
  5
325
330
1F
100
AcDbEntity
  8
1
  6
Continuous
 62
     7
370
     9
100
AcDbLine
 10
170.3965205420668
 20
55.90477851493254
 30
0.0
 11
170.3965205420668
 21
43.70477851493254
 31
0.0
  0
LINE
  5
326
330
1F
100
AcDbEntity
  8
1
  6
Continuous
 62
     7
370
     9
100
AcDbLine
 10
169.8965205420668
 20
55.90477851493254
 30
0.0
 11
169.8965205420668
 21
43.20477851493254
 31
0.0
  0
LINE
  5
327
330
1F
100
AcDbEntity
  8
1
  6
Continuous
 62
     7
370
     9
100
AcDbLine
 10
163.2965205420668
 20
71.90477851493254
 30
0.0
 11
166.0965205420668
 21
71.90477851493254
 31
0.0
  0
LINE
  5
328
330
1F
100
AcDbEntity
  8
1
  6
Continuous
 62
     7
370
     9
100
AcDbLine
 10
162.7965205420668
 20
72.65477851493254
 30
0.0
 11
157.1965205420668
 21
72.65477851493254
 31
0.0
  0
LINE
  5
329
330
1F
100
AcDbEntity
  8
1
  6
Continuous
 62
     7
370
     9
100
AcDbLine
 10
162.7965205420668
 20
72.30048829796793
 30
0.0
 11
157.1965205420668
 21
72.30048829796793
 31
0.0
  0
LINE
  5
32A
330
1F
100
AcDbEntity
  8
1
  6
Continuous
 62
     7
370
     9
100
AcDbLine
 10
162.7965205420668
 20
71.99013276157253
 30
0.0
 11
157.1965205420668
 21
71.99013276157253
 31
0.0
  0
LINE
  5
32B
330
1F
100
AcDbEntity
  8
1
  6
Continuous
 62
     7
370
     9
100
AcDbLine
 10
162.7965205420668
 20
71.66400307133829
 30
0.0
 11
157.1965205420668
 21
71.66400307133829
 31
0.0
  0
LINE
  5
32C
330
1F
100
AcDbEntity
  8
1
  6
Continuous
 62
     7
370
     9
100
AcDbLine
 10
163.0965205420668
 20
71.2846125591475
 30
0.0
 11
156.8965205420668
 21
71.2846125591475
 31
0.0
  0
LINE
  5
32D
330
1F
100
AcDbEntity
  8
1
  6
Continuous
 62
     7
370
     9
100
AcDbLine
 10
162.7965205420668
 20
71.18342966169023
 30
0.0
 11
157.1965205420668
 21
71.18342966169023
 31
0.0
  0
LINE
  5
32E
330
1F
100
AcDbEntity
  8
1
  6
Continuous
 62
     7
370
     9
100
AcDbLine
 10
162.7965205420668
 20
70.72078246457043
 30
0.0
 11
157.1965205420668
 21
70.72078246457043
 31
0.0
  0
LINE
  5
32F
330
1F
100
AcDbEntity
  8
1
  6
Continuous
 62
     7
370
     9
100
AcDbLine
 10
163.0965205420668
 20
70.32267147949561
 30
0.0
 11
156.8965205420668
 21
70.32267147949561
 31
0.0
  0
LINE
  5
330
330
1F
100
AcDbEntity
  8
1
  6
Continuous
 62
     7
370
     9
100
AcDbLine
 10
162.7965205420668
 20
72.61784968351428
 30
0.0
 11
157.1965205420668
 21
72.61784968351428
 31
0.0
  0
LINE
  5
331
330
1F
100
AcDbEntity
  8
1
  6
Continuous
 62
     7
370
     9
100
AcDbLine
 10
162.7965205420668
 20
72.48375273786324
 30
0.0
 11
157.1965205420668
 21
72.48375273786324
 31
0.0
  0
LINE
  5
332
330
1F
100
AcDbEntity
  8
1
  6
Continuous
 62
     7
370
     9
100
AcDbLine
 10
157.1965205420668
 20
70.07934499644436
 30
0.0
 11
162.7965205420668
 21
70.07934499644436
 31
0.0
  0
LINE
  5
333
330
1F
100
AcDbEntity
  8
1
  6
Continuous
 62
     7
370
     9
100
AcDbLine
 10
162.7965205420668
 20
69.48918519387759
 30
0.0
 11
157.1965205420668
 21
69.48918519387759
 31
0.0
  0
LINE
  5
334
330
1F
100
AcDbEntity
  8
1
  6
Continuous
 62
     7
370
     9
100
AcDbLine
 10
163.0965205420668
 20
69.08010251339867
 30
0.0
 11
156.8965205420668
 21
69.08010251339867
 31
0.0
  0
LINE
  5
335
330
1F
100
AcDbEntity
  8
1
  6
Continuous
 62
     7
370
     9
100
AcDbLine
 10
162.7965205420668
 20
68.69936851796628
 30
0.0
 11
157.1965205420668
 21
68.69936851796628
 31
0.0
  0
LINE
  5
336
330
1F
100
AcDbEntity
  8
1
  6
Continuous
 62
     7
370
     9
100
AcDbLine
 10
162.7965205420668
 20
67.99318289921264
 30
0.0
 11
157.1965205420668
 21
67.99318289921264
 31
0.0
  0
LINE
  5
337
330
1F
100
AcDbEntity
  8
1
  6
Continuous
 62
     7
370
     9
100
AcDbLine
 10
163.0965205420668
 20
67.58109085238048
 30
0.0
 11
156.8965205420668
 21
67.58109085238048
 31
0.0
  0
LINE
  5
338
330
1F
100
AcDbEntity
  8
1
  6
Continuous
 62
     7
370
     9
100
AcDbLine
 10
156.8965205420668
 20
67.07035989870955
 30
0.0
 11
163.0965205420668
 21
67.07035989870955
 31
0.0
  0
LINE
  5
339
330
1F
100
AcDbEntity
  8
1
  6
Continuous
 62
     7
370
     9
100
AcDbLine
 10
157.1965205420668
 20
66.26189356356387
 30
0.0
 11
162.7965205420668
 21
66.26189356356387
 31
0.0
  0
LINE
  5
33A
330
1F
100
AcDbEntity
  8
1
  6
Continuous
 62
     7
370
     9
100
AcDbLine
 10
163.0965205420668
 20
65.8548130533223
 30
0.0
 11
156.8965205420668
 21
65.8548130533223
 31
0.0
  0
LINE
  5
33B
330
1F
100
AcDbEntity
  8
1
  6
Continuous
 62
     7
370
     9
100
AcDbLine
 10
163.0965205420668
 20
65.28850115725986
 30
0.0
 11
156.8965205420668
 21
65.28850115725986
 31
0.0
  0
LINE
  5
33C
330
1F
100
AcDbEntity
  8
1
  6
Continuous
 62
     7
370
     9
100
AcDbLine
 10
157.1965205420668
 20
65.22402593847822
 30
0.0
 11
162.7965205420668
 21
65.22402593847822
 31
0.0
  0
LINE
  5
33D
330
1F
100
AcDbEntity
  8
1
  6
Continuous
 62
     7
370
     9
100
AcDbLine
 10
162.7965205420668
 20
64.32901476453723
 30
0.0
 11
157.1965205420668
 21
64.32901476453723
 31
0.0
  0
LINE
  5
33E
330
1F
100
AcDbEntity
  8
1
  6
Continuous
 62
     7
370
     9
100
AcDbLine
 10
156.8965205420669
 20
63.93486914997091
 30
0.0
 11
163.0965205420668
 21
63.93486914997091
 31
0.0
  0
LINE
  5
33F
330
1F
100
AcDbEntity
  8
1
  6
Continuous
 62
     7
370
     9
100
AcDbLine
 10
163.0965205420668
 20
63.31680583496968
 30
0.0
 11
156.8965205420669
 21
63.31680583496968
 31
0.0
  0
LINE
  5
340
330
1F
100
AcDbEntity
  8
1
  6
Continuous
 62
     7
370
     9
100
AcDbLine
 10
157.1965205420668
 20
63.19630342763436
 30
0.0
 11
162.7965205420668
 21
63.19630342763436
 31
0.0
  0
LINE
  5
341
330
1F
100
AcDbEntity
  8
1
  6
Continuous
 62
     7
370
     9
100
AcDbLine
 10
162.7965205420668
 20
62.23216778933879
 30
0.0
 11
157.1965205420668
 21
62.23216778933879
 31
0.0
  0
LINE
  5
342
330
1F
100
AcDbEntity
  8
1
  6
Continuous
 62
     7
370
     9
100
AcDbLine
 10
156.8965205420669
 20
61.85862866650122
 30
0.0
 11
163.0965205420668
 21
61.85862866650122
 31
0.0
  0
LINE
  5
343
330
1F
100
AcDbEntity
  8
1
  6
Continuous
 62
     7
370
     9
100
AcDbLine
 10
156.8965205420669
 20
61.20084383195108
 30
0.0
 11
163.0965205420668
 21
61.20084383195108
 31
0.0
  0
LINE
  5
344
330
1F
100
AcDbEntity
  8
1
  6
Continuous
 62
     7
370
     9
100
AcDbLine
 10
162.7965205420668
 20
61.02665967835144
 30
0.0
 11
157.1965205420668
 21
61.02665967835144
 31
0.0
  0
LINE
  5
345
330
1F
100
AcDbEntity
  8
1
  6
Continuous
 62
     7
370
     9
100
AcDbLine
 10
157.1965205420668
 20
60.01216537921259
 30
0.0
 11
162.7965205420668
 21
60.01216537921259
 31
0.0
  0
LINE
  5
346
330
1F
100
AcDbEntity
  8
1
  6
Continuous
 62
     7
370
     9
100
AcDbLine
 10
163.0965205420668
 20
59.66650326223542
 30
0.0
 11
156.8965205420669
 21
59.66650326223542
 31
0.0
  0
LINE
  5
347
330
1F
100
AcDbEntity
  8
1
  6
Continuous
 62
     7
370
     9
100
AcDbLine
 10
163.0965205420668
 20
58.98179994172175
 30
0.0
 11
156.8965205420669
 21
58.98179994172175
 31
0.0
  0
LINE
  5
348
330
1F
100
AcDbEntity
  8
1
  6
Continuous
 62
     7
370
     9
100
AcDbLine
 10
157.1965205420668
 20
58.75732433827604
 30
0.0
 11
162.7965205420668
 21
58.75732433827604
 31
0.0
  0
LINE
  5
349
330
1F
100
AcDbEntity
  8
1
  6
Continuous
 62
     7
370
     9
100
AcDbLine
 10
157.1965205420668
 20
72.65477851493254
 30
0.0
 11
156.8965205420668
 21
72.35477851493255
 31
0.0
  0
LINE
  5
34A
330
1F
100
AcDbEntity
  8
1
  6
Continuous
 62
     7
370
     9
100
AcDbLine
 10
157.1965205420668
 20
72.65477851493254
 30
0.0
 11
156.8965205420668
 21
72.35477851493255
 31
0.0
  0
LINE
  5
34B
330
1F
100
AcDbEntity
  8
1
  6
Continuous
 62
     7
370
     9
100
AcDbLine
 10
157.1965205420668
 20
72.65477851493254
 30
0.0
 11
156.8965205420668
 21
72.35477851493253
 31
0.0
  0
LINE
  5
34C
330
1F
100
AcDbEntity
  8
1
  6
Continuous
 62
     7
370
     9
100
AcDbLine
 10
157.1965205420668
 20
72.65477851493254
 30
0.0
 11
157.1965205420668
 21
72.61784968351428
 31
0.0
  0
LINE
  5
34D
330
1F
100
AcDbEntity
  8
1
  6
Continuous
 62
     7
370
     9
100
AcDbLine
 10
157.1965205420668
 20
72.61784968351428
 30
0.0
 11
156.8965205420668
 21
72.35477851493253
 31
0.0
  0
LINE
  5
34E
330
1F
100
AcDbEntity
  8
1
  6
Continuous
 62
     7
370
     9
100
AcDbLine
 10
157.1965205420668
 20
71.99013276157253
 30
0.0
 11
157.1965205420668
 21
71.66400307133829
 31
0.0
  0
LINE
  5
34F
330
1F
100
AcDbEntity
  8
1
  6
Continuous
 62
     7
370
     9
100
AcDbLine
 10
157.1965205420668
 20
71.18342966169023
 30
0.0
 11
157.1965205420668
 21
70.72078246457043
 31
0.0
  0
LINE
  5
350
330
1F
100
AcDbEntity
  8
1
  6
Continuous
 62
     7
370
     9
100
AcDbLine
 10
157.1965205420668
 20
72.30048829796793
 30
0.0
 11
156.8965205420668
 21
71.9472026634307
 31
0.0
  0
LINE
  5
351
330
1F
100
AcDbEntity
  8
1
  6
Continuous
 62
     7
370
     9
100
AcDbLine
 10
156.8965205420668
 20
71.77785733651093
 30
0.0
 11
157.1965205420668
 21
71.99013276157253
 31
0.0
  0
LINE
  5
352
330
1F
100
AcDbEntity
  8
1
  6
Continuous
 62
     7
370
     9
100
AcDbLine
 10
156.8965205420668
 20
71.2846125591475
 30
0.0
 11
157.1965205420668
 21
71.66400307133829
 31
0.0
  0
LINE
  5
353
330
1F
100
AcDbEntity
  8
1
  6
Continuous
 62
     7
370
     9
100
AcDbLine
 10
157.1965205420668
 20
71.18342966169023
 30
0.0
 11
156.8965205420668
 21
71.02238794375639
 31
0.0
  0
LINE
  5
354
330
1F
100
AcDbEntity
  8
1
  6
Continuous
 62
     7
370
     9
100
AcDbLine
 10
156.8965205420668
 20
70.32267147949561
 30
0.0
 11
157.1965205420668
 21
70.72078246457043
 31
0.0
  0
LINE
  5
355
330
1F
100
AcDbEntity
  8
1
  6
Continuous
 62
     7
370
     9
100
AcDbLine
 10
157.1965205420668
 20
72.48375273786324
 30
0.0
 11
157.1965205420668
 21
72.30048829796793
 31
0.0
  0
LINE
  5
356
330
1F
100
AcDbEntity
  8
1
  6
Continuous
 62
     7
370
     9
100
AcDbLine
 10
157.1965205420668
 20
72.48375273786327
 30
0.0
 11
156.8965205420668
 21
72.22437530536304
 31
0.0
  0
LINE
  5
357
330
1F
100
AcDbEntity
  8
1
  6
Continuous
 62
     7
370
     9
100
AcDbLine
 10
156.0965205420668
 20
72.50477851493254
 30
0.0
 11
156.3965205420668
 21
72.50477851493254
 31
0.0
  0
LINE
  5
358
330
1F
100
AcDbEntity
  8
1
  6
Continuous
 62
     7
370
     9
100
AcDbLine
 10
156.3965205420668
 20
72.50477851493254
 30
0.0
 11
156.6965205420668
 21
72.20477851493256
 31
0.0
  0
LINE
  5
359
330
1F
100
AcDbEntity
  8
1
  6
Continuous
 62
     7
370
     9
100
AcDbLine
 10
156.8965205420668
 20
71.40477851493254
 30
0.0
 11
156.6965205420668
 21
71.40477851493254
 31
0.0
  0
LINE
  5
35A
330
1F
100
AcDbEntity
  8
1
  6
Continuous
 62
     7
370
     9
100
AcDbLine
 10
157.1965205420668
 20
70.07934499644436
 30
0.0
 11
157.1965205420668
 21
69.48918519387759
 31
0.0
  0
LINE
  5
35B
330
1F
100
AcDbEntity
  8
1
  6
Continuous
 62
     7
370
     9
100
AcDbLine
 10
157.1965205420668
 20
70.07934499644436
 30
0.0
 11
156.8965205420668
 21
69.97267147949562
 31
0.0
  0
LINE
  5
35C
330
1F
100
AcDbEntity
  8
1
  6
Continuous
 62
     7
370
     9
100
AcDbLine
 10
157.1965205420668
 20
69.48918519387759
 30
0.0
 11
156.8965205420668
 21
69.08010251339867
 31
0.0
  0
LINE
  5
35D
330
1F
100
AcDbEntity
  8
1
  6
Continuous
 62
     7
370
     9
100
AcDbLine
 10
157.1965205420668
 20
68.69936851796628
 30
0.0
 11
156.8965205420668
 21
68.64913948067071
 31
0.0
  0
LINE
  5
35E
330
1F
100
AcDbEntity
  8
1
  6
Continuous
 62
     7
370
     9
100
AcDbLine
 10
157.1965205420668
 20
67.07035989870955
 30
0.0
 11
157.1965205420668
 21
66.26189356356387
 31
0.0
  0
LINE
  5
35F
330
1F
100
AcDbEntity
  8
1
  6
Continuous
 62
     7
370
     9
100
AcDbLine
 10
157.1965205420668
 20
67.99318289921264
 30
0.0
 11
156.8965205420668
 21
67.58109085238048
 31
0.0
  0
LINE
  5
360
330
1F
100
AcDbEntity
  8
1
  6
Continuous
 62
     7
370
     9
100
AcDbLine
 10
157.1965205420668
 20
68.69936851796628
 30
0.0
 11
157.1965205420668
 21
67.99318289921264
 31
0.0
  0
LINE
  5
361
330
1F
100
AcDbEntity
  8
1
  6
Continuous
 62
     7
370
     9
100
AcDbLine
 10
157.1965205420668
 20
65.22402593847822
 30
0.0
 11
157.1965205420668
 21
64.32901476453723
 31
0.0
  0
LINE
  5
362
330
1F
100
AcDbEntity
  8
1
  6
Continuous
 62
     7
370
     9
100
AcDbLine
 10
157.1965205420668
 20
65.22402593847822
 30
0.0
 11
156.8965205420668
 21
65.28850115725986
 31
0.0
  0
LINE
  5
363
330
1F
100
AcDbEntity
  8
1
  6
Continuous
 62
     7
370
     9
100
AcDbLine
 10
157.1965205420668
 20
63.19630342763436
 30
0.0
 11
157.1965205420668
 21
62.23216778933879
 31
0.0
  0
LINE
  5
364
330
1F
100
AcDbEntity
  8
1
  6
Continuous
 62
     7
370
     9
100
AcDbLine
 10
157.1965205420668
 20
63.19630342763436
 30
0.0
 11
156.8965205420668
 21
63.31680583496968
 31
0.0
  0
LINE
  5
365
330
1F
100
AcDbEntity
  8
1
  6
Continuous
 62
     7
370
     9
100
AcDbLine
 10
157.1965205420668
 20
64.32901476453723
 30
0.0
 11
156.8965205420668
 21
63.93486914997091
 31
0.0
  0
LINE
  5
366
330
1F
100
AcDbEntity
  8
1
  6
Continuous
 62
     7
370
     9
100
AcDbLine
 10
157.1965205420668
 20
66.26189356356387
 30
0.0
 11
156.8965205420668
 21
65.8548130533223
 31
0.0
  0
LINE
  5
367
330
1F
100
AcDbEntity
  8
1
  6
Continuous
 62
     7
370
     9
100
AcDbLine
 10
157.1965205420668
 20
61.02665967835144
 30
0.0
 11
156.8965205420668
 21
61.20084383195108
 31
0.0
  0
LINE
  5
368
330
1F
100
AcDbEntity
  8
1
  6
Continuous
 62
     7
370
     9
100
AcDbLine
 10
156.8965205420668
 20
59.66650326223542
 30
0.0
 11
157.1965205420668
 21
60.01216537921259
 31
0.0
  0
LINE
  5
369
330
1F
100
AcDbEntity
  8
1
  6
Continuous
 62
     7
370
     9
100
AcDbLine
 10
157.1965205420668
 20
58.75732433827604
 30
0.0
 11
156.8965205420668
 21
58.98179994172175
 31
0.0
  0
LINE
  5
36A
330
1F
100
AcDbEntity
  8
1
  6
Continuous
 62
     7
370
     9
100
AcDbLine
 10
157.1965205420668
 20
61.02665967835144
 30
0.0
 11
157.1965205420668
 21
60.01216537921259
 31
0.0
  0
LINE
  5
36B
330
1F
100
AcDbEntity
  8
1
  6
Continuous
 62
     7
370
     9
100
AcDbLine
 10
156.8965205420668
 20
61.85862866650122
 30
0.0
 11
157.1965205420668
 21
62.23216778933879
 31
0.0
  0
LINE
  5
36C
330
1F
100
AcDbEntity
  8
1
  6
Continuous
 62
     7
370
     9
100
AcDbLine
 10
162.7965205420668
 20
72.65477851493254
 30
0.0
 11
163.0965205420668
 21
72.35477851493255
 31
0.0
  0
LINE
  5
36D
330
1F
100
AcDbEntity
  8
1
  6
Continuous
 62
     7
370
     9
100
AcDbLine
 10
162.7965205420668
 20
72.65477851493254
 30
0.0
 11
163.0965205420668
 21
72.35477851493255
 31
0.0
  0
LINE
  5
36E
330
1F
100
AcDbEntity
  8
1
  6
Continuous
 62
     7
370
     9
100
AcDbLine
 10
162.7965205420668
 20
72.65477851493254
 30
0.0
 11
163.0965205420668
 21
72.35477851493253
 31
0.0
  0
LINE
  5
36F
330
1F
100
AcDbEntity
  8
1
  6
Continuous
 62
     7
370
     9
100
AcDbLine
 10
162.7965205420668
 20
72.65477851493254
 30
0.0
 11
162.7965205420668
 21
72.61784968351428
 31
0.0
  0
LINE
  5
370
330
1F
100
AcDbEntity
  8
1
  6
Continuous
 62
     7
370
     9
100
AcDbLine
 10
162.7965205420668
 20
72.61784968351428
 30
0.0
 11
163.0965205420668
 21
72.35477851493253
 31
0.0
  0
LINE
  5
371
330
1F
100
AcDbEntity
  8
1
  6
Continuous
 62
     7
370
     9
100
AcDbLine
 10
163.2965205420668
 20
71.15477851493254
 30
0.0
 11
163.0965205420668
 21
71.15477851493254
 31
0.0
  0
LINE
  5
372
330
1F
100
AcDbEntity
  8
1
  6
Continuous
 62
     7
370
     9
100
AcDbLine
 10
162.7965205420668
 20
71.99013276157253
 30
0.0
 11
162.7965205420668
 21
71.66400307133829
 31
0.0
  0
LINE
  5
373
330
1F
100
AcDbEntity
  8
1
  6
Continuous
 62
     7
370
     9
100
AcDbLine
 10
162.7965205420668
 20
71.18342966169023
 30
0.0
 11
162.7965205420668
 21
70.72078246457043
 31
0.0
  0
LINE
  5
374
330
1F
100
AcDbEntity
  8
1
  6
Continuous
 62
     7
370
     9
100
AcDbLine
 10
162.7965205420668
 20
72.30048829796793
 30
0.0
 11
163.0965205420668
 21
71.9472026634307
 31
0.0
  0
LINE
  5
375
330
1F
100
AcDbEntity
  8
1
  6
Continuous
 62
     7
370
     9
100
AcDbLine
 10
163.0965205420668
 20
71.77785733651093
 30
0.0
 11
162.7965205420668
 21
71.99013276157253
 31
0.0
  0
LINE
  5
376
330
1F
100
AcDbEntity
  8
1
  6
Continuous
 62
     7
370
     9
100
AcDbLine
 10
163.0965205420668
 20
71.2846125591475
 30
0.0
 11
162.7965205420668
 21
71.66400307133829
 31
0.0
  0
LINE
  5
377
330
1F
100
AcDbEntity
  8
1
  6
Continuous
 62
     7
370
     9
100
AcDbLine
 10
162.7965205420668
 20
71.18342966169023
 30
0.0
 11
163.0965205420668
 21
71.02238794375639
 31
0.0
  0
LINE
  5
378
330
1F
100
AcDbEntity
  8
1
  6
Continuous
 62
     7
370
     9
100
AcDbLine
 10
163.0965205420668
 20
70.32267147949561
 30
0.0
 11
162.7965205420668
 21
70.72078246457043
 31
0.0
  0
LINE
  5
379
330
1F
100
AcDbEntity
  8
1
  6
Continuous
 62
     7
370
     9
100
AcDbLine
 10
162.7965205420668
 20
72.30048829796793
 30
0.0
 11
162.7965205420668
 21
72.48375273786327
 31
0.0
  0
LINE
  5
37A
330
1F
100
AcDbEntity
  8
1
  6
Continuous
 62
     7
370
     9
100
AcDbLine
 10
162.7965205420668
 20
72.48375273786327
 30
0.0
 11
163.0965205420668
 21
72.22437530536304
 31
0.0
  0
LINE
  5
37B
330
1F
100
AcDbEntity
  8
1
  6
Continuous
 62
     7
370
     9
100
AcDbLine
 10
162.7965205420668
 20
70.07934499644436
 30
0.0
 11
162.7965205420668
 21
69.48918519387759
 31
0.0
  0
LINE
  5
37C
330
1F
100
AcDbEntity
  8
1
  6
Continuous
 62
     7
370
     9
100
AcDbLine
 10
162.7965205420668
 20
70.07934499644436
 30
0.0
 11
163.0965205420668
 21
69.97267147949562
 31
0.0
  0
LINE
  5
37D
330
1F
100
AcDbEntity
  8
1
  6
Continuous
 62
     7
370
     9
100
AcDbLine
 10
162.7965205420668
 20
69.48918519387759
 30
0.0
 11
163.0965205420668
 21
69.08010251339867
 31
0.0
  0
LINE
  5
37E
330
1F
100
AcDbEntity
  8
1
  6
Continuous
 62
     7
370
     9
100
AcDbLine
 10
162.7965205420668
 20
68.69936851796628
 30
0.0
 11
163.0965205420668
 21
68.64913948067071
 31
0.0
  0
LINE
  5
37F
330
1F
100
AcDbEntity
  8
1
  6
Continuous
 62
     7
370
     9
100
AcDbLine
 10
162.7965205420668
 20
67.07035989870955
 30
0.0
 11
162.7965205420668
 21
66.26189356356387
 31
0.0
  0
LINE
  5
380
330
1F
100
AcDbEntity
  8
1
  6
Continuous
 62
     7
370
     9
100
AcDbLine
 10
162.7965205420668
 20
67.99318289921264
 30
0.0
 11
163.0965205420668
 21
67.58109085238048
 31
0.0
  0
LINE
  5
381
330
1F
100
AcDbEntity
  8
1
  6
Continuous
 62
     7
370
     9
100
AcDbLine
 10
162.7965205420668
 20
68.69936851796628
 30
0.0
 11
162.7965205420668
 21
67.99318289921264
 31
0.0
  0
LINE
  5
382
330
1F
100
AcDbEntity
  8
1
  6
Continuous
 62
     7
370
     9
100
AcDbLine
 10
162.7965205420668
 20
65.22402593847822
 30
0.0
 11
162.7965205420668
 21
64.32901476453723
 31
0.0
  0
LINE
  5
383
330
1F
100
AcDbEntity
  8
1
  6
Continuous
 62
     7
370
     9
100
AcDbLine
 10
162.7965205420668
 20
65.22402593847822
 30
0.0
 11
163.0965205420668
 21
65.28850115725986
 31
0.0
  0
LINE
  5
384
330
1F
100
AcDbEntity
  8
1
  6
Continuous
 62
     7
370
     9
100
AcDbLine
 10
162.7965205420668
 20
63.19630342763436
 30
0.0
 11
162.7965205420668
 21
62.23216778933879
 31
0.0
  0
LINE
  5
385
330
1F
100
AcDbEntity
  8
1
  6
Continuous
 62
     7
370
     9
100
AcDbLine
 10
162.7965205420668
 20
63.19630342763436
 30
0.0
 11
163.0965205420668
 21
63.31680583496968
 31
0.0
  0
LINE
  5
386
330
1F
100
AcDbEntity
  8
1
  6
Continuous
 62
     7
370
     9
100
AcDbLine
 10
162.7965205420668
 20
64.32901476453723
 30
0.0
 11
163.0965205420668
 21
63.93486914997091
 31
0.0
  0
LINE
  5
387
330
1F
100
AcDbEntity
  8
1
  6
Continuous
 62
     7
370
     9
100
AcDbLine
 10
162.7965205420668
 20
66.26189356356387
 30
0.0
 11
163.0965205420668
 21
65.8548130533223
 31
0.0
  0
LINE
  5
388
330
1F
100
AcDbEntity
  8
1
  6
Continuous
 62
     7
370
     9
100
AcDbLine
 10
162.7965205420668
 20
61.02665967835144
 30
0.0
 11
163.0965205420668
 21
61.20084383195108
 31
0.0
  0
LINE
  5
389
330
1F
100
AcDbEntity
  8
1
  6
Continuous
 62
     7
370
     9
100
AcDbLine
 10
163.0965205420668
 20
59.66650326223542
 30
0.0
 11
162.7965205420668
 21
60.01216537921259
 31
0.0
  0
LINE
  5
38A
330
1F
100
AcDbEntity
  8
1
  6
Continuous
 62
     7
370
     9
100
AcDbLine
 10
162.7965205420668
 20
58.75732433827604
 30
0.0
 11
163.0965205420668
 21
58.98179994172175
 31
0.0
  0
LINE
  5
38B
330
1F
100
AcDbEntity
  8
1
  6
Continuous
 62
     7
370
     9
100
AcDbLine
 10
162.7965205420668
 20
61.02665967835144
 30
0.0
 11
162.7965205420668
 21
60.01216537921259
 31
0.0
  0
LINE
  5
38C
330
1F
100
AcDbEntity
  8
1
  6
Continuous
 62
     7
370
     9
100
AcDbLine
 10
163.0965205420668
 20
61.85862866650122
 30
0.0
 11
162.7965205420668
 21
62.23216778933879
 31
0.0
  0
LINE
  5
38D
330
1F
100
AcDbEntity
  8
1
  6
Continuous
 62
     7
370
     9
100
AcDbLine
 10
167.5965205420668
 20
68.60477851493255
 30
0.0
 11
169.8965205420668
 21
68.60477851493255
 31
0.0
  0
LINE
  5
38E
330
1F
100
AcDbEntity
  8
1
  6
Continuous
 62
     7
370
     9
100
AcDbLine
 10
167.5965205420668
 20
68.10477851493255
 30
0.0
 11
170.3965205420668
 21
68.10477851493255
 31
0.0
  0
LINE
  5
38F
330
1F
100
AcDbEntity
  8
1
  6
Continuous
 62
     7
370
     9
100
AcDbLine
 10
166.0965205420668
 20
71.90477851493254
 30
0.0
 11
166.3965205420668
 21
71.60477851493255
 31
0.0
  0
LINE
  5
390
330
1F
100
AcDbEntity
  8
1
  6
Continuous
 62
     7
370
     9
100
AcDbLine
 10
166.3965205420668
 20
68.10477851493255
 30
0.0
 11
167.5965205420668
 21
68.10477851493255
 31
0.0
  0
LINE
  5
391
330
1F
100
AcDbEntity
  8
1
  6
Continuous
 62
     7
370
     9
100
AcDbLine
 10
169.8965205420668
 20
68.60477851493255
 30
0.0
 11
170.3965205420668
 21
68.10477851493255
 31
0.0
  0
LINE
  5
392
330
1F
100
AcDbEntity
  8
1
  6
Continuous
 62
     7
370
     9
100
AcDbLine
 10
170.3965205420668
 20
64.90477851493254
 30
0.0
 11
171.1251459652754
 21
64.90477851493254
 31
0.0
  0
LINE
  5
393
330
1F
100
AcDbEntity
  8
1
  6
Continuous
 62
     7
370
     9
100
AcDbLine
 10
171.1251459652754
 20
64.90477851493254
 30
0.0
 11
171.3251459652754
 21
64.70477851493253
 31
0.0
  0
LINE
  5
394
330
1F
100
AcDbEntity
  8
25
  6
DASHDOT
 62
     7
370
     9
100
AcDbLine
 10
151.0965205420666
 20
69.16881106916517
 30
0.0
 11
151.0965205420666
 21
71.39278936634342
 31
0.0
  0
LINE
  5
395
330
1F
100
AcDbEntity
  8
25
  6
DASHDOT
 62
     7
370
     9
100
AcDbLine
 10
149.5237982528063
 20
70.28080021775429
 30
0.0
 11
152.669242831327
 21
70.28080021775429
 31
0.0
  0
LINE
  5
396
330
1F
100
AcDbEntity
  8
25
  6
Continuous
 62
     7
370
     9
100
AcDbLine
 10
184.2573618191845
 20
55.56993723781487
 30
0.0
 11
183.5876792649491
 21
56.23961979205022
 31
0.0
  0
LINE
  5
397
330
1F
100
AcDbEntity
  8
25
  6
Continuous
 62
     7
370
     9
100
AcDbLine
 10
184.2573618191845
 20
56.23961979205022
 30
0.0
 11
183.5876792649491
 21
55.56993723781487
 31
0.0
  0
MTEXT
  5
398
330
1F
100
AcDbEntity
  8
25
  6
Continuous
 62
     7
370
     9
100
AcDbMText
 10
172.9861658370673
 20
24.13765098148698
 30
0.0
 40
1.25
 41
7.097318799424426
 46
1.25
 71
     1
 72
     1
  1
{\fＭＳ 明朝;\T0.761675;(IN AIR)}
 73
     1
 44
1.0
1001
ACAD
1000
ACAD_MTEXT_DEFINED_HEIGHT_BEGIN
1070
    46
1040
1.25
1000
ACAD_MTEXT_DEFINED_HEIGHT_END
  0
DIMENSION
  5
3A3
330
1F
100
AcDbEntity
  8
25
  6
Continuous
 62
     7
370
     9
100
AcDbDimension
280
     0
  2
Dim1
 10
190.2834489609958
 20
64.90477851493247
 30
0.0
 11
188.7834489609958
 21
55.84757132565559
 31
0.0
 70
   160
  1
φ<>
 71
     5
 42
-1.0
 73
     0
 74
     0
 75
     0
  3
Standard
100
AcDbAlignedDimension
 13
171.1251459652754
 23
46.90477851493254
 33
0.0
 14
171.1251459652754
 24
64.90477851493254
 34
0.0
 50
89.99999999999991
100
AcDbRotatedDimension
1001
ACAD
1000
DSTYLE
1002
{
1070
   279
1070
     2
1070
   340
1005
399
1070
   140
1040
2.0
1070
    40
1040
1.0
1070
   147
1040
0.0
1070
    76
1070
     0
1070
    75
1070
     0
1070
   344
1005
51
1070
   343
1005
51
1070
   173
1070
     1
1070
   289
1070
     2
1070
   288
1070
     1
1070
    77
1070
     1
1070
   172
1070
     1
1070
   174
1070
     0
1070
    74
1070
     0
1070
    73
1070
     0
1070
   284
1070
     8
1070
    78
1070
     8
1070
    42
1040
2.0
1070
    44
1040
1.0
1070
    43
1040
10.0
1070
   271
1070
     2
1070
    41
1040
1.0
1002
}
  0
DIMENSION
  5
3AD
330
1F
100
AcDbEntity
  8
25
  6
Continuous
 62
     7
370
     9
100
AcDbDimension
280
     0
  2
Dim2
 10
194.7151036372548
 20
71.90477851493245
 30
0.0
 11
193.2151036372548
 21
56.16411808824552
 31
0.0
 70
   160
  1
φ<>
 71
     5
 42
-1.0
 73
     0
 74
     0
 75
     0
  3
Standard
100
AcDbAlignedDimension
 13
166.0965205420668
 23
39.90477851493254
 33
0.0
 14
166.0965205420668
 24
71.90477851493254
 34
0.0
 50
89.99999999999991
100
AcDbRotatedDimension
1001
ACAD
1000
DSTYLE
1002
{
1070
   279
1070
     2
1070
   340
1005
399
1070
   140
1040
2.0
1070
    40
1040
1.0
1070
   147
1040
0.0
1070
    76
1070
     0
1070
    75
1070
     0
1070
   344
1005
51
1070
   343
1005
51
1070
   173
1070
     1
1070
   289
1070
     2
1070
   288
1070
     1
1070
    77
1070
     1
1070
   172
1070
     1
1070
   174
1070
     0
1070
    74
1070
     0
1070
    73
1070
     0
1070
   284
1070
     8
1070
    78
1070
     8
1070
    42
1040
2.0
1070
    44
1040
1.0
1070
    43
1040
10.0
1070
   271
1070
     2
1070
    41
1040
1.0
1002
}
  0
DIMENSION
  5
3B7
330
1F
100
AcDbEntity
  8
25
  6
Continuous
 62
     7
370
     9
100
AcDbDimension
280
     0
  2
Dim3
 10
126.460040702421
 20
71.90477851493259
 30
0.0
 11
124.960040702421
 21
55.84757132565559
 31
0.0
 70
   160
  1
φ<>
 71
     5
 42
-1.0
 73
     0
 74
     0
 75
     0
  3
Standard
100
AcDbAlignedDimension
 13
138.3965205420668
 23
39.90477851493254
 33
0.0
 14
138.3965205420668
 24
71.90477851493254
 34
0.0
 50
89.99999999999991
100
AcDbRotatedDimension
1001
ACAD
1000
DSTYLE
1002
{
1070
   279
1070
     2
1070
   340
1005
399
1070
   140
1040
2.0
1070
    40
1040
1.0
1070
   147
1040
0.0
1070
    76
1070
     0
1070
    75
1070
     0
1070
   344
1005
51
1070
   343
1005
51
1070
   173
1070
     1
1070
   289
1070
     2
1070
   288
1070
     1
1070
    77
1070
     1
1070
   172
1070
     1
1070
   174
1070
     0
1070
    74
1070
     0
1070
    73
1070
     0
1070
   284
1070
     8
1070
    78
1070
     8
1070
    42
1040
2.0
1070
    44
1040
1.0
1070
    43
1040
10.0
1070
   271
1070
     2
1070
    41
1040
1.0
1002
}
  0
DIMENSION
  5
3C1
330
1F
100
AcDbEntity
  8
25
  6
Continuous
 62
     7
370
     9
100
AcDbDimension
280
     0
  2
Dim4
 10
120.8541923662718
 20
72.6547785149326
 30
0.0
 11
119.3541923662718
 21
55.95308691318556
 31
0.0
 70
   160
  1
φ<>
 71
     5
 42
-1.0
 73
     0
 74
     0
 75
     0
  3
Standard
100
AcDbAlignedDimension
 13
138.8965205420668
 23
39.15477851493253
 33
0.0
 14
138.8965205420668
 24
72.65477851493254
 34
0.0
 50
89.99999999999991
100
AcDbRotatedDimension
1001
ACAD
1000
DSTYLE
1002
{
1070
   279
1070
     2
1070
   340
1005
399
1070
   140
1040
2.0
1070
    40
1040
1.0
1070
   147
1040
0.0
1070
    76
1070
     0
1070
    75
1070
     0
1070
   344
1005
51
1070
   343
1005
51
1070
   173
1070
     1
1070
   289
1070
     2
1070
   288
1070
     1
1070
    77
1070
     1
1070
   172
1070
     1
1070
   174
1070
     0
1070
    74
1070
     0
1070
    73
1070
     0
1070
   284
1070
     8
1070
    78
1070
     8
1070
    42
1040
2.0
1070
    44
1040
1.0
1070
    43
1040
10.0
1070
   271
1070
     2
1070
    41
1040
1.0
1002
}
  0
DIMENSION
  5
3CB
330
1F
100
AcDbEntity
  8
25
  6
Continuous
 62
     7
370
     9
100
AcDbDimension
280
     0
  2
Dim5
 10
166.3965205420677
 20
30.10237699959984
 30
0.0
 11
168.3965205420668
 21
31.60237699959984
 31
0.0
 70
   160
  1
<>
 71
     5
 42
-1.0
 73
     0
 74
     0
 75
     0
  3
Standard
100
AcDbAlignedDimension
 13
170.3965205420668
 23
43.70477851493254
 33
0.0
 14
166.3965205420668
 24
40.20477851493254
 34
0.0
 50
179.9999999999998
100
AcDbRotatedDimension
1001
ACAD
1000
DSTYLE
1002
{
1070
   279
1070
     2
1070
   340
1005
399
1070
   140
1040
2.0
1070
    40
1040
1.0
1070
   147
1040
0.0
1070
    76
1070
     0
1070
    75
1070
     0
1070
   344
1005
51
1070
   343
1005
51
1070
   173
1070
     1
1070
   289
1070
     2
1070
   288
1070
     1
1070
    77
1070
     1
1070
   172
1070
     1
1070
   174
1070
     0
1070
    74
1070
     0
1070
    73
1070
     0
1070
   284
1070
     8
1070
    78
1070
     8
1070
    42
1040
2.0
1070
    44
1040
1.0
1070
    43
1040
10.0
1070
   271
1070
     2
1070
    41
1040
1.0
1002
}
  0
DIMENSION
  5
3D5
330
1F
100
AcDbEntity
  8
25
  6
Continuous
 62
     7
370
     9
100
AcDbDimension
280
     0
  2
Dim6
 10
156.8965205420676
 20
30.1023769995999
 30
0.0
 11
159.9965205420668
 21
31.60237699959987
 31
0.0
 70
   160
  1
<>
 71
     5
 42
-1.0
 73
     0
 74
     0
 75
     0
  3
Standard
100
AcDbAlignedDimension
 13
163.0965205420668
 23
39.45477851493251
 33
0.0
 14
156.8965205420668
 24
39.45477851493254
 34
0.0
 50
179.9999999999995
100
AcDbRotatedDimension
1001
ACAD
1000
DSTYLE
1002
{
1070
   279
1070
     2
1070
   340
1005
399
1070
   140
1040
2.0
1070
    40
1040
1.0
1070
   147
1040
0.0
1070
    76
1070
     0
1070
    75
1070
     0
1070
   344
1005
51
1070
   343
1005
51
1070
   173
1070
     1
1070
   289
1070
     2
1070
   288
1070
     1
1070
    77
1070
     1
1070
   172
1070
     1
1070
   174
1070
     0
1070
    74
1070
     0
1070
    73
1070
     0
1070
   284
1070
     8
1070
    78
1070
     8
1070
    42
1040
2.0
1070
    44
1040
1.0
1070
    43
1040
10.0
1070
   271
1070
     2
1070
    41
1040
1.0
1002
}
  0
DIMENSION
  5
3DF
330
1F
100
AcDbEntity
  8
25
  6
Continuous
 62
     7
370
     9
100
AcDbDimension
280
     0
  2
Dim7
 10
163.0965205420676
 20
30.10237699959978
 30
0.0
 11
164.7465205420669
 21
31.60237699959981
 31
0.0
 70
   160
  1
<>
 71
     5
 42
-1.0
 73
     0
 74
     0
 75
     0
  3
Standard
100
AcDbAlignedDimension
 13
166.3965205420668
 23
40.20477851493254
 33
0.0
 14
163.0965205420668
 24
39.45477851493251
 34
0.0
 50
-179.999999999999
100
AcDbRotatedDimension
1001
ACAD
1000
DSTYLE
1002
{
1070
   279
1070
     2
1070
   340
1005
399
1070
   140
1040
2.0
1070
    40
1040
1.0
1070
   147
1040
0.0
1070
    76
1070
     0
1070
    75
1070
     0
1070
   344
1005
51
1070
   343
1005
51
1070
   173
1070
     1
1070
   289
1070
     2
1070
   288
1070
     1
1070
    77
1070
     1
1070
   172
1070
     1
1070
   174
1070
     0
1070
    74
1070
     0
1070
    73
1070
     0
1070
   284
1070
     8
1070
    78
1070
     8
1070
    42
1040
2.0
1070
    44
1040
1.0
1070
    43
1040
10.0
1070
   271
1070
     2
1070
    41
1040
1.0
1002
}
  0
DIMENSION
  5
3E9
330
1F
100
AcDbEntity
  8
25
  6
Continuous
 62
     7
370
     9
100
AcDbDimension
280
     0
  2
Dim8
 10
166.3965205420677
 20
24.74519247939273
 30
0.0
 11
175.1595205420668
 21
26.24519247939273
 31
0.0
 70
   160
  1
<>
 71
     5
 42
-1.0
 73
     0
 74
     0
 75
     0
  3
Standard
100
AcDbAlignedDimension
 13
183.9225205420668
 23
55.90477851493254
 33
0.0
 14
166.3965205420668
 24
29.60237699959984
 34
0.0
 50
179.9999999999998
100
AcDbRotatedDimension
1001
ACAD
1000
DSTYLE
1002
{
1070
   279
1070
     2
1070
   340
1005
399
1070
   140
1040
2.0
1070
    40
1040
1.0
1070
   147
1040
0.0
1070
    76
1070
     0
1070
    75
1070
     0
1070
   344
1005
51
1070
   343
1005
51
1070
   173
1070
     1
1070
   289
1070
     2
1070
   288
1070
     1
1070
    77
1070
     1
1070
   172
1070
     1
1070
   174
1070
     0
1070
    74
1070
     0
1070
    73
1070
     0
1070
   284
1070
     8
1070
    78
1070
     8
1070
    42
1040
2.0
1070
    44
1040
1.0
1070
    43
1040
10.0
1070
   271
1070
     2
1070
    41
1040
1.0
1002
}
  0
DIMENSION
  5
3F3
330
1F
100
AcDbEntity
  8
25
  6
Continuous
 62
     7
370
     9
100
AcDbDimension
280
     0
  2
Dim9
 10
138.5965205420676
 20
30.10237699959984
 30
0.0
 11
141.7465205420668
 21
31.60237699959984
 31
0.0
 70
   160
  1
<>
 71
     5
 42
-1.0
 73
     0
 74
     0
 75
     0
  3
Standard
100
AcDbAlignedDimension
 13
144.8965205420668
 23
39.45477851493254
 33
0.0
 14
138.5965205420668
 24
39.45477851493254
 34
0.0
 50
179.9999999999998
100
AcDbRotatedDimension
1001
ACAD
1000
DSTYLE
1002
{
1070
   279
1070
     2
1070
   340
1005
399
1070
   140
1040
2.0
1070
    40
1040
1.0
1070
   147
1040
0.0
1070
    76
1070
     0
1070
    75
1070
     0
1070
   344
1005
51
1070
   343
1005
51
1070
   173
1070
     1
1070
   289
1070
     2
1070
   288
1070
     1
1070
    77
1070
     1
1070
   172
1070
     1
1070
   174
1070
     0
1070
    74
1070
     0
1070
    73
1070
     0
1070
   284
1070
     8
1070
    78
1070
     8
1070
    42
1040
2.0
1070
    44
1040
1.0
1070
    43
1040
10.0
1070
   271
1070
     2
1070
    41
1040
1.0
1002
}
  0
DIMENSION
  5
3FD
330
1F
100
AcDbEntity
  8
25
  6
Continuous
 62
     7
370
     9
100
AcDbDimension
280
     0
  2
Dim10
 10
138.1965205420676
 20
24.74519247939273
 30
0.0
 11
152.2965205420668
 21
26.24519247939273
 31
0.0
 70
   160
  1
<>
 71
     5
 42
-1.0
 73
     0
 74
     0
 75
     0
  3
Standard
100
AcDbAlignedDimension
 13
166.3965205420668
 23
29.60237699959984
 33
0.0
 14
138.1965205420668
 24
29.60237699959984
 34
0.0
 50
179.9999999999998
100
AcDbRotatedDimension
1001
ACAD
1000
DSTYLE
1002
{
1070
   279
1070
     2
1070
   340
1005
399
1070
   140
1040
2.0
1070
    40
1040
1.0
1070
   147
1040
0.0
1070
    76
1070
     0
1070
    75
1070
     0
1070
   344
1005
51
1070
   343
1005
51
1070
   173
1070
     1
1070
   289
1070
     2
1070
   288
1070
     1
1070
    77
1070
     1
1070
   172
1070
     1
1070
   174
1070
     0
1070
    74
1070
     0
1070
    73
1070
     0
1070
   284
1070
     8
1070
    78
1070
     8
1070
    42
1040
2.0
1070
    44
1040
1.0
1070
    43
1040
10.0
1070
   271
1070
     2
1070
    41
1040
1.0
1002
}
  0
DIMENSION
  5
407
330
1F
100
AcDbEntity
  8
25
  6
Continuous
 62
     7
370
     9
100
AcDbDimension
280
     0
  2
Dim11
 10
144.8965205420676
 20
30.10237699959984
 30
0.0
 11
150.8965205420668
 21
31.60237699959984
 31
0.0
 70
   160
  1
<>
 71
     5
 42
-1.0
 73
     0
 74
     0
 75
     0
  3
Standard
100
AcDbAlignedDimension
 13
156.8965205420668
 23
39.45477851493254
 33
0.0
 14
144.8965205420668
 24
39.45477851493254
 34
0.0
 50
179.9999999999998
100
AcDbRotatedDimension
1001
ACAD
1000
DSTYLE
1002
{
1070
   279
1070
     2
1070
   340
1005
399
1070
   140
1040
2.0
1070
    40
1040
1.0
1070
   147
1040
0.0
1070
    76
1070
     0
1070
    75
1070
     0
1070
   344
1005
51
1070
   343
1005
51
1070
   173
1070
     1
1070
   289
1070
     2
1070
   288
1070
     1
1070
    77
1070
     1
1070
   172
1070
     1
1070
   174
1070
     0
1070
    74
1070
     0
1070
    73
1070
     0
1070
   284
1070
     8
1070
    78
1070
     8
1070
    42
1040
2.0
1070
    44
1040
1.0
1070
    43
1040
10.0
1070
   271
1070
     2
1070
    41
1040
1.0
1002
}
  0
INSERT
  5
408
330
1F
100
AcDbEntity
  8
25
  6
Continuous
 62
     7
370
     9
100
AcDbBlockReference
  2
MARK_OPEN
 10
139.6925368729502
 20
71.15477851493257
 30
0.0
 50
316.1794809424779
  0
POLYLINE
  5
409
330
1F
100
AcDbEntity
  8
25
  6
Continuous
 62
     7
370
     9
100
AcDb2dPolyline
 66
     1
 10
0.0
 20
0.0
 30
0.0
  0
VERTEX
  5
40A
330
409
100
AcDbEntity
  8
25
  6
Continuous
 62
     7
370
     9
100
AcDbVertex
100
AcDb2dVertex
 10
139.6925368729502
 20
71.15477851493257
 30
0.0
  0
VERTEX
  5
40B
330
409
100
AcDbEntity
  8
25
  6
Continuous
 62
     7
370
     9
100
AcDbVertex
100
AcDb2dVertex
 10
133.4962554631082
 20
77.1010599247745
 30
0.0
  0
VERTEX
  5
40C
330
409
100
AcDbEntity
  8
25
  6
Continuous
 62
     7
370
     9
100
AcDbVertex
100
AcDb2dVertex
 10
121.5145631355354
 20
77.1010599247745
 30
0.0
  0
SEQEND
  5
40D
330
409
100
AcDbEntity
  8
25
  6
Continuous
 62
     7
370
     9
  0
INSERT
  5
40E
330
1F
100
AcDbEntity
  8
25
  6
Continuous
 62
     7
370
     9
100
AcDbBlockReference
  2
MARK_OPEN
 10
143.4424669019617
 20
72.65477851493254
 30
0.0
 50
313.5445872475236
  0
POLYLINE
  5
40F
330
1F
100
AcDbEntity
  8
25
  6
Continuous
 62
     7
370
     9
100
AcDb2dPolyline
 66
     1
 10
0.0
 20
0.0
 30
0.0
  0
VERTEX
  5
410
330
40F
100
AcDbEntity
  8
25
  6
Continuous
 62
     7
370
     9
100
AcDbVertex
100
AcDb2dVertex
 10
143.4424669019617
 20
72.65477851493254
 30
0.0
  0
VERTEX
  5
411
330
40F
100
AcDbEntity
  8
25
  6
Continuous
 62
     7
370
     9
100
AcDbVertex
100
AcDb2dVertex
 10
135.8050508467255
 20
80.69040278766828
 30
0.0
  0
VERTEX
  5
412
330
40F
100
AcDbEntity
  8
25
  6
Continuous
 62
     7
370
     9
100
AcDbVertex
100
AcDb2dVertex
 10
124.8526809873328
 20
80.79890298221663
 30
0.0
  0
SEQEND
  5
413
330
40F
100
AcDbEntity
  8
25
  6
Continuous
 62
     7
370
     9
  0
INSERT
  5
414
330
1F
100
AcDbEntity
  8
25
  6
Continuous
 62
     7
370
     9
100
AcDbBlockReference
  2
MARK_OPEN
 10
150.7617077013566
 20
72.50477851493257
 30
0.0
 50
312.3382688001406
  0
POLYLINE
  5
415
330
1F
100
AcDbEntity
  8
25
  6
Continuous
 62
     7
370
     9
100
AcDb2dPolyline
 66
     1
 10
0.0
 20
0.0
 30
0.0
  0
VERTEX
  5
416
330
415
100
AcDbEntity
  8
25
  6
Continuous
 62
     7
370
     9
100
AcDbVertex
100
AcDb2dVertex
 10
150.7617077013566
 20
72.50477851493257
 30
0.0
  0
VERTEX
  5
417
330
415
100
AcDbEntity
  8
25
  6
Continuous
 62
     7
370
     9
100
AcDbVertex
100
AcDb2dVertex
 10
139.0236133918496
 20
85.3874793573814
 30
0.0
  0
VERTEX
  5
418
330
415
100
AcDbEntity
  8
25
  6
Continuous
 62
     7
370
     9
100
AcDbVertex
100
AcDb2dVertex
 10
125.0845317668673
 20
85.3874793573814
 30
0.0
  0
SEQEND
  5
419
330
415
100
AcDbEntity
  8
25
  6
Continuous
 62
     7
370
     9
  0
INSERT
  5
41A
330
1F
100
AcDbEntity
  8
25
  6
Continuous
 62
     7
370
     9
100
AcDbBlockReference
  2
MARK_OPEN
 10
168.4376586585489
 20
68.60477851493253
 30
0.0
 50
229.9999999999999
  0
POLYLINE
  5
41B
330
1F
100
AcDbEntity
  8
25
  6
Continuous
 62
     7
370
     9
100
AcDb2dPolyline
 66
     1
 10
0.0
 20
0.0
 30
0.0
  0
VERTEX
  5
41C
330
41B
100
AcDbEntity
  8
25
  6
Continuous
 62
     7
370
     9
100
AcDbVertex
100
AcDb2dVertex
 10
168.4376586585489
 20
68.60477851493253
 30
0.0
  0
VERTEX
  5
41D
330
41B
100
AcDbEntity
  8
25
  6
Continuous
 62
     7
370
     9
100
AcDbVertex
100
AcDb2dVertex
 10
177.5504855849605
 20
79.46502274317288
 30
0.0
  0
VERTEX
  5
41E
330
41B
100
AcDbEntity
  8
25
  6
Continuous
 62
     7
370
     9
100
AcDbVertex
100
AcDb2dVertex
 10
189.6939128230294
 20
79.46502274317288
 30
0.0
  0
SEQEND
  5
41F
330
41B
100
AcDbEntity
  8
25
  6
Continuous
 62
     7
370
     9
  0
INSERT
  5
420
330
1F
100
AcDbEntity
  8
25
  6
Continuous
 62
     7
370
     9
100
AcDbBlockReference
  2
MARK_OPEN
 10
159.4262663516097
 20
72.65477851493254
 30
0.0
 50
229.9999999999999
  0
POLYLINE
  5
421
330
1F
100
AcDbEntity
  8
25
  6
Continuous
 62
     7
370
     9
100
AcDb2dPolyline
 66
     1
 10
0.0
 20
0.0
 30
0.0
  0
VERTEX
  5
422
330
421
100
AcDbEntity
  8
25
  6
Continuous
 62
     7
370
     9
100
AcDbVertex
100
AcDb2dVertex
 10
159.4262663516097
 20
72.65477851493254
 30
0.0
  0
VERTEX
  5
423
330
421
100
AcDbEntity
  8
25
  6
Continuous
 62
     7
370
     9
100
AcDbVertex
100
AcDb2dVertex
 10
168.5390932780214
 20
83.51502274317289
 30
0.0
  0
VERTEX
  5
424
330
421
100
AcDbEntity
  8
25
  6
Continuous
 62
     7
370
     9
100
AcDbVertex
100
AcDb2dVertex
 10
182.1108329682711
 20
83.51502274317289
 30
0.0
  0
SEQEND
  5
425
330
421
100
AcDbEntity
  8
25
  6
Continuous
 62
     7
370
     9
  0
LINE
  5
426
330
1F
100
AcDbEntity
  8
1
  6
Continuous
 62
     7
370
     9
100
AcDbLine
 10
138.1965205420668
 20
71.15477851493257
 30
0.0
 11
141.4586144275366
 21
71.15477851493257
 31
0.0
  0
POLYLINE
  5
427
330
1F
100
AcDbEntity
  8
1
  6
Continuous
 62
     7
370
     9
100
AcDb2dPolyline
 66
     1
 10
0.0
 20
0.0
 30
0.0
 70
     2
  0
VERTEX
  5
428
330
427
100
AcDbEntity
  8
1
  6
Continuous
 62
     7
370
     9
100
AcDbVertex
100
AcDb2dVertex
 10
141.9361084364467
 20
71.65423793864332
 30
0.0
  0
VERTEX
  5
429
330
427
100
AcDbEntity
  8
1
  6
Continuous
 62
     7
370
     9
100
AcDbVertex
100
AcDb2dVertex
 10
141.9379026461503
 20
71.65698103185917
 30
0.0
  0
VERTEX
  5
42A
330
427
100
AcDbEntity
  8
1
  6
Continuous
 62
     7
370
     9
100
AcDbVertex
100
AcDb2dVertex
 10
141.943235734845
 20
71.66513483490994
 30
0.0
  0
VERTEX
  5
42B
330
427
100
AcDbEntity
  8
1
  6
Continuous
 62
     7
370
     9
100
AcDbVertex
100
AcDb2dVertex
 10
141.9519570610313
 20
71.67847130629993
 30
0.0
  0
VERTEX
  5
42C
330
427
100
AcDbEntity
  8
1
  6
Continuous
 62
     7
370
     9
100
AcDbVertex
100
AcDb2dVertex
 10
141.96381007022
 20
71.69660634806037
 30
0.0
  0
VERTEX
  5
42D
330
427
100
AcDbEntity
  8
1
  6
Continuous
 62
     7
370
     9
100
AcDbVertex
100
AcDb2dVertex
 10
141.9784280748074
 20
71.71899807006503
 30
0.0
  0
VERTEX
  5
42E
330
427
100
AcDbEntity
  8
1
  6
Continuous
 62
     7
370
     9
100
AcDbVertex
100
AcDb2dVertex
 10
141.9953351481263
 20
71.74495165561234
 30
0.0
  0
VERTEX
  5
42F
330
427
100
AcDbEntity
  8
1
  6
Continuous
 62
     7
370
     9
100
AcDbVertex
100
AcDb2dVertex
 10
142.0139564237256
 20
71.77363539360086
 30
0.0
  0
VERTEX
  5
430
330
427
100
AcDbEntity
  8
1
  6
Continuous
 62
     7
370
     9
100
AcDbVertex
100
AcDb2dVertex
 10
142.0336404725712
 20
71.80411065548098
 30
0.0
  0
VERTEX
  5
431
330
427
100
AcDbEntity
  8
1
  6
Continuous
 62
     7
370
     9
100
AcDbVertex
100
AcDb2dVertex
 10
142.0536937776223
 20
71.83537568497907
 30
0.0
  0
VERTEX
  5
432
330
427
100
AcDbEntity
  8
1
  6
Continuous
 62
     7
370
     9
100
AcDbVertex
100
AcDb2dVertex
 10
142.0734242764691
 20
71.86641973198141
 30
0.0
  0
VERTEX
  5
433
330
427
100
AcDbEntity
  8
1
  6
Continuous
 62
     7
370
     9
100
AcDbVertex
100
AcDb2dVertex
 10
142.0921882701247
 20
71.89628113953972
 30
0.0
  0
VERTEX
  5
434
330
427
100
AcDbEntity
  8
1
  6
Continuous
 62
     7
370
     9
100
AcDbVertex
100
AcDb2dVertex
 10
142.109433413075
 20
71.9241012617569
 30
0.0
  0
VERTEX
  5
435
330
427
100
AcDbEntity
  8
1
  6
Continuous
 62
     7
370
     9
100
AcDbVertex
100
AcDb2dVertex
 10
142.1247304815763
 20
71.94916606794051
 30
0.0
  0
VERTEX
  5
436
330
427
100
AcDbEntity
  8
1
  6
Continuous
 62
     7
370
     9
100
AcDbVertex
100
AcDb2dVertex
 10
142.1377882760139
 20
71.97092909695557
 30
0.0
  0
VERTEX
  5
437
330
427
100
AcDbEntity
  8
1
  6
Continuous
 62
     7
370
     9
100
AcDbVertex
100
AcDb2dVertex
 10
142.1484490590312
 20
71.98901274952404
 30
0.0
  0
VERTEX
  5
438
330
427
100
AcDbEntity
  8
1
  6
Continuous
 62
     7
370
     9
100
AcDbVertex
100
AcDb2dVertex
 10
142.156665730321
 20
72.00318905511433
 30
0.0
  0
VERTEX
  5
439
330
427
100
AcDbEntity
  8
1
  6
Continuous
 62
     7
370
     9
100
AcDbVertex
100
AcDb2dVertex
 10
142.1624656559142
 20
72.01334511409044
 30
0.0
  0
VERTEX
  5
43A
330
427
100
AcDbEntity
  8
1
  6
Continuous
 62
     7
370
     9
100
AcDbVertex
100
AcDb2dVertex
 10
142.1659088604063
 20
72.01944147551777
 30
0.0
  0
VERTEX
  5
43B
330
427
100
AcDbEntity
  8
1
  6
Continuous
 62
     7
370
     9
100
AcDbVertex
100
AcDb2dVertex
 10
142.1670495005757
 20
72.02147305362504
 30
0.0
  0
VERTEX
  5
43C
330
427
100
AcDbEntity
  8
1
  6
Continuous
 62
     7
370
     9
100
AcDbVertex
100
AcDb2dVertex
 10
142.1681811848565
 20
72.02349489211258
 30
0.0
  0
VERTEX
  5
43D
330
427
100
AcDbEntity
  8
1
  6
Continuous
 62
     7
370
     9
100
AcDbVertex
100
AcDb2dVertex
 10
142.1714928972572
 20
72.02944873879939
 30
0.0
  0
VERTEX
  5
43E
330
427
100
AcDbEntity
  8
1
  6
Continuous
 62
     7
370
     9
100
AcDbVertex
100
AcDb2dVertex
 10
142.1767455914249
 20
72.03901551071739
 30
0.0
  0
VERTEX
  5
43F
330
427
100
AcDbEntity
  8
1
  6
Continuous
 62
     7
370
     9
100
AcDbVertex
100
AcDb2dVertex
 10
142.1835754707614
 20
72.05171302322562
 30
0.0
  0
VERTEX
  5
440
330
427
100
AcDbEntity
  8
1
  6
Continuous
 62
     7
370
     9
100
AcDbVertex
100
AcDb2dVertex
 10
142.1915394269372
 20
72.06695913331036
 30
0.0
  0
VERTEX
  5
441
330
427
100
AcDbEntity
  8
1
  6
Continuous
 62
     7
370
     9
100
AcDbVertex
100
AcDb2dVertex
 10
142.2001670724854
 20
72.0841403025498
 30
0.0
  0
VERTEX
  5
442
330
427
100
AcDbEntity
  8
1
  6
Continuous
 62
     7
370
     9
100
AcDbVertex
100
AcDb2dVertex
 10
142.2090106986542
 20
72.10267146011842
 30
0.0
  0
VERTEX
  5
443
330
427
100
AcDbEntity
  8
1
  6
Continuous
 62
     7
370
     9
100
AcDbVertex
100
AcDb2dVertex
 10
142.2176854357541
 20
72.12203562682089
 30
0.0
  0
VERTEX
  5
444
330
427
100
AcDbEntity
  8
1
  6
Continuous
 62
     7
370
     9
100
AcDbVertex
100
AcDb2dVertex
 10
142.2258943024455
 20
72.14179699132032
 30
0.0
  0
VERTEX
  5
445
330
427
100
AcDbEntity
  8
1
  6
Continuous
 62
     7
370
     9
100
AcDbVertex
100
AcDb2dVertex
 10
142.2334361283881
 20
72.16158774058083
 30
0.0
  0
VERTEX
  5
446
330
427
100
AcDbEntity
  8
1
  6
Continuous
 62
     7
370
     9
100
AcDbVertex
100
AcDb2dVertex
 10
142.240197773053
 20
72.18107534578569
 30
0.0
  0
VERTEX
  5
447
330
427
100
AcDbEntity
  8
1
  6
Continuous
 62
     7
370
     9
100
AcDbVertex
100
AcDb2dVertex
 10
142.2461348950624
 20
72.19992165996638
 30
0.0
  0
VERTEX
  5
448
330
427
100
AcDbEntity
  8
1
  6
Continuous
 62
     7
370
     9
100
AcDbVertex
100
AcDb2dVertex
 10
142.2512471761505
 20
72.21774698914209
 30
0.0
  0
VERTEX
  5
449
330
427
100
AcDbEntity
  8
1
  6
Continuous
 62
     7
370
     9
100
AcDbVertex
100
AcDb2dVertex
 10
142.2555540957647
 20
72.23411084157586
 30
0.0
  0
VERTEX
  5
44A
330
427
100
AcDbEntity
  8
1
  6
Continuous
 62
     7
370
     9
100
AcDbVertex
100
AcDb2dVertex
 10
142.2590761628512
 20
72.2485167154001
 30
0.0
  0
VERTEX
  5
44B
330
427
100
AcDbEntity
  8
1
  6
Continuous
 62
     7
370
     9
100
AcDbVertex
100
AcDb2dVertex
 10
142.2618243375492
 20
72.26044212482941
 30
0.0
  0
VERTEX
  5
44C
330
427
100
AcDbEntity
  8
1
  6
Continuous
 62
     7
370
     9
100
AcDbVertex
100
AcDb2dVertex
 10
142.2637978275607
 20
72.26938859619908
 30
0.0
  0
VERTEX
  5
44D
330
427
100
AcDbEntity
  8
1
  6
Continuous
 62
     7
370
     9
100
AcDbVertex
100
AcDb2dVertex
 10
142.26498818894
 20
72.27494116405752
 30
0.0
  0
VERTEX
  5
44E
330
427
100
AcDbEntity
  8
1
  6
Continuous
 62
     7
370
     9
100
AcDbVertex
100
AcDb2dVertex
 10
142.2653862566335
 20
72.27682423022418
 30
0.0
  0
VERTEX
  5
44F
330
427
100
AcDbEntity
  8
1
  6
Continuous
 62
     7
370
     9
100
AcDbVertex
100
AcDb2dVertex
 10
142.2657832173915
 20
72.27871513250751
 30
0.0
  0
VERTEX
  5
450
330
427
100
AcDbEntity
  8
1
  6
Continuous
 62
     7
370
     9
100
AcDbVertex
100
AcDb2dVertex
 10
142.2669568541155
 20
72.28438217814234
 30
0.0
  0
VERTEX
  5
451
330
427
100
AcDbEntity
  8
1
  6
Continuous
 62
     7
370
     9
100
AcDbVertex
100
AcDb2dVertex
 10
142.2688570168958
 20
72.29380055050424
 30
0.0
  0
VERTEX
  5
452
330
427
100
AcDbEntity
  8
1
  6
Continuous
 62
     7
370
     9
100
AcDbVertex
100
AcDb2dVertex
 10
142.2714051459732
 20
72.30690458377634
 30
0.0
  0
VERTEX
  5
453
330
427
100
AcDbEntity
  8
1
  6
Continuous
 62
     7
370
     9
100
AcDbVertex
100
AcDb2dVertex
 10
142.2745009326968
 20
72.32355722713474
 30
0.0
  0
VERTEX
  5
454
330
427
100
AcDbEntity
  8
1
  6
Continuous
 62
     7
370
     9
100
AcDbVertex
100
AcDb2dVertex
 10
142.2780300847352
 20
72.34351779987581
 30
0.0
  0
VERTEX
  5
455
330
427
100
AcDbEntity
  8
1
  6
Continuous
 62
     7
370
     9
100
AcDbVertex
100
AcDb2dVertex
 10
142.2818720310991
 20
72.36641573318279
 30
0.0
  0
VERTEX
  5
456
330
427
100
AcDbEntity
  8
1
  6
Continuous
 62
     7
370
     9
100
AcDbVertex
100
AcDb2dVertex
 10
142.2859065335357
 20
72.39173690529988
 30
0.0
  0
VERTEX
  5
457
330
427
100
AcDbEntity
  8
1
  6
Continuous
 62
     7
370
     9
100
AcDbVertex
100
AcDb2dVertex
 10
142.2900184978912
 20
72.41882670689036
 30
0.0
  0
VERTEX
  5
458
330
427
100
AcDbEntity
  8
1
  6
Continuous
 62
     7
370
     9
100
AcDbVertex
100
AcDb2dVertex
 10
142.2941007223574
 20
72.44691069629447
 30
0.0
  0
VERTEX
  5
459
330
427
100
AcDbEntity
  8
1
  6
Continuous
 62
     7
370
     9
100
AcDbVertex
100
AcDb2dVertex
 10
142.2980547760818
 20
72.47513036053017
 30
0.0
  0
VERTEX
  5
45A
330
427
100
AcDbEntity
  8
1
  6
Continuous
 62
     7
370
     9
100
AcDbVertex
100
AcDb2dVertex
 10
142.3017905693233
 20
72.50258881978841
 30
0.0
  0
VERTEX
  5
45B
330
427
100
AcDbEntity
  8
1
  6
Continuous
 62
     7
370
     9
100
AcDbVertex
100
AcDb2dVertex
 10
142.3052253777044
 20
72.52839985650736
 30
0.0
  0
VERTEX
  5
45C
330
427
100
AcDbEntity
  8
1
  6
Continuous
 62
     7
370
     9
100
AcDbVertex
100
AcDb2dVertex
 10
142.3082830826902
 20
72.55173366897507
 30
0.0
  0
VERTEX
  5
45D
330
427
100
AcDbEntity
  8
1
  6
Continuous
 62
     7
370
     9
100
AcDbVertex
100
AcDb2dVertex
 10
142.3108942018945
 20
72.57185414550916
 30
0.0
  0
VERTEX
  5
45E
330
427
100
AcDbEntity
  8
1
  6
Continuous
 62
     7
370
     9
100
AcDbVertex
100
AcDb2dVertex
 10
142.3129969642324
 20
72.58814481187245
 30
0.0
  0
VERTEX
  5
45F
330
427
100
AcDbEntity
  8
1
  6
Continuous
 62
     7
370
     9
100
AcDbVertex
100
AcDb2dVertex
 10
142.3145393234495
 20
72.60012329609992
 30
0.0
  0
VERTEX
  5
460
330
427
100
AcDbEntity
  8
1
  6
Continuous
 62
     7
370
     9
100
AcDbVertex
100
AcDb2dVertex
 10
142.3154814933547
 20
72.60744650452982
 30
0.0
  0
VERTEX
  5
461
330
427
100
AcDbEntity
  8
1
  6
Continuous
 62
     7
370
     9
100
AcDbVertex
100
AcDb2dVertex
 10
142.3157984070597
 20
72.60991014960085
 30
0.0
  0
SEQEND
  5
462
330
427
100
AcDbEntity
  8
1
  6
Continuous
 62
     7
370
     9
  0
POLYLINE
  5
463
330
1F
100
AcDbEntity
  8
1
  6
Continuous
 62
     7
370
     9
100
AcDb2dPolyline
 66
     1
 10
0.0
 20
0.0
 30
0.0
 70
     2
  0
VERTEX
  5
464
330
463
100
AcDbEntity
  8
1
  6
Continuous
 62
     7
370
     9
100
AcDbVertex
100
AcDb2dVertex
 10
140.903789689149
 20
70.85477851493256
 30
0.0
  0
VERTEX
  5
465
330
463
100
AcDbEntity
  8
1
  6
Continuous
 62
     7
370
     9
100
AcDbVertex
100
AcDb2dVertex
 10
140.9077050624486
 20
70.85648428941505
 30
0.0
  0
VERTEX
  5
466
330
463
100
AcDbEntity
  8
1
  6
Continuous
 62
     7
370
     9
100
AcDbVertex
100
AcDb2dVertex
 10
140.9193440211245
 20
70.86155601244832
 30
0.0
  0
VERTEX
  5
467
330
463
100
AcDbEntity
  8
1
  6
Continuous
 62
     7
370
     9
100
AcDbVertex
100
AcDb2dVertex
 10
140.9383859781802
 20
70.86986335337014
 30
0.0
  0
VERTEX
  5
468
330
463
100
AcDbEntity
  8
1
  6
Continuous
 62
     7
370
     9
100
AcDbVertex
100
AcDb2dVertex
 10
140.9643003038686
 20
70.88120863594217
 30
0.0
  0
VERTEX
  5
469
330
463
100
AcDbEntity
  8
1
  6
Continuous
 62
     7
370
     9
100
AcDbVertex
100
AcDb2dVertex
 10
140.9963540574294
 20
70.89534962129014
 30
0.0
  0
VERTEX
  5
46A
330
463
100
AcDbEntity
  8
1
  6
Continuous
 62
     7
370
     9
100
AcDbVertex
100
AcDb2dVertex
 10
141.0336265055265
 20
70.91202023536928
 30
0.0
  0
VERTEX
  5
46B
330
463
100
AcDbEntity
  8
1
  6
Continuous
 62
     7
370
     9
100
AcDbVertex
100
AcDb2dVertex
 10
141.0750326250469
 20
70.93094198565502
 30
0.0
  0
VERTEX
  5
46C
330
463
100
AcDbEntity
  8
1
  6
Continuous
 62
     7
370
     9
100
AcDbVertex
100
AcDb2dVertex
 10
141.1193567243735
 20
70.95182117684574
 30
0.0
  0
VERTEX
  5
46D
330
463
100
AcDbEntity
  8
1
  6
Continuous
 62
     7
370
     9
100
AcDbVertex
100
AcDb2dVertex
 10
141.1652956445842
 20
70.97433102512191
 30
0.0
  0
VERTEX
  5
46E
330
463
100
AcDbEntity
  8
1
  6
Continuous
 62
     7
370
     9
100
AcDbVertex
100
AcDb2dVertex
 10
141.2115091066575
 20
70.99808239716279
 30
0.0
  0
VERTEX
  5
46F
330
463
100
AcDbEntity
  8
1
  6
Continuous
 62
     7
370
     9
100
AcDbVertex
100
AcDb2dVertex
 10
141.2566731182073
 20
71.02259097008547
 30
0.0
  0
VERTEX
  5
470
330
463
100
AcDbEntity
  8
1
  6
Continuous
 62
     7
370
     9
100
AcDbVertex
100
AcDb2dVertex
 10
141.2995313735894
 20
71.04725101774038
 30
0.0
  0
VERTEX
  5
471
330
463
100
AcDbEntity
  8
1
  6
Continuous
 62
     7
370
     9
100
AcDbVertex
100
AcDb2dVertex
 10
141.3389395608179
 20
71.07132604184405
 30
0.0
  0
VERTEX
  5
472
330
463
100
AcDbEntity
  8
1
  6
Continuous
 62
     7
370
     9
100
AcDbVertex
100
AcDb2dVertex
 10
141.3738984952409
 20
71.0939639099154
 30
0.0
  0
VERTEX
  5
473
330
463
100
AcDbEntity
  8
1
  6
Continuous
 62
     7
370
     9
100
AcDbVertex
100
AcDb2dVertex
 10
141.4035738588497
 20
71.1142394848683
 30
0.0
  0
VERTEX
  5
474
330
463
100
AcDbEntity
  8
1
  6
Continuous
 62
     7
370
     9
100
AcDbVertex
100
AcDb2dVertex
 10
141.4273026537639
 20
71.13122191468636
 30
0.0
  0
VERTEX
  5
475
330
463
100
AcDbEntity
  8
1
  6
Continuous
 62
     7
370
     9
100
AcDbVertex
100
AcDb2dVertex
 10
141.4445887753948
 20
71.14405808812185
 30
0.0
  0
VERTEX
  5
476
330
463
100
AcDbEntity
  8
1
  6
Continuous
 62
     7
370
     9
100
AcDbVertex
100
AcDb2dVertex
 10
141.4550918660081
 20
71.15205955966145
 30
0.0
  0
VERTEX
  5
477
330
463
100
AcDbEntity
  8
1
  6
Continuous
 62
     7
370
     9
100
AcDbVertex
100
AcDb2dVertex
 10
141.4586144275366
 20
71.15477851493257
 30
0.0
  0
VERTEX
  5
478
330
463
100
AcDbEntity
  8
1
  6
Continuous
 62
     7
370
     9
100
AcDbVertex
100
AcDb2dVertex
 10
141.4621316071011
 20
71.15751135192237
 30
0.0
  0
VERTEX
  5
479
330
463
100
AcDbEntity
  8
1
  6
Continuous
 62
     7
370
     9
100
AcDbVertex
100
AcDb2dVertex
 10
141.4725557139811
 20
71.16571654648438
 30
0.0
  0
VERTEX
  5
47A
330
463
100
AcDbEntity
  8
1
  6
Continuous
 62
     7
370
     9
100
AcDbVertex
100
AcDb2dVertex
 10
141.4895134068493
 20
71.1793998373876
 30
0.0
  0
VERTEX
  5
47B
330
463
100
AcDbEntity
  8
1
  6
Continuous
 62
     7
370
     9
100
AcDbVertex
100
AcDb2dVertex
 10
141.5124109614475
 20
71.19852628828926
 30
0.0
  0
VERTEX
  5
47C
330
463
100
AcDbEntity
  8
1
  6
Continuous
 62
     7
370
     9
100
AcDbVertex
100
AcDb2dVertex
 10
141.5404726370955
 20
71.22296405429987
 30
0.0
  0
VERTEX
  5
47D
330
463
100
AcDbEntity
  8
1
  6
Continuous
 62
     7
370
     9
100
AcDbVertex
100
AcDb2dVertex
 10
141.5727865157519
 20
71.25242432405332
 30
0.0
  0
VERTEX
  5
47E
330
463
100
AcDbEntity
  8
1
  6
Continuous
 62
     7
370
     9
100
AcDbVertex
100
AcDb2dVertex
 10
141.6083518884517
 20
71.28641113324561
 30
0.0
  0
VERTEX
  5
47F
330
463
100
AcDbEntity
  8
1
  6
Continuous
 62
     7
370
     9
100
AcDbVertex
100
AcDb2dVertex
 10
141.6461228565737
 20
71.32419283890138
 30
0.0
  0
VERTEX
  5
480
330
463
100
AcDbEntity
  8
1
  6
Continuous
 62
     7
370
     9
100
AcDbVertex
100
AcDb2dVertex
 10
141.685044377071
 20
71.3648026910473
 30
0.0
  0
VERTEX
  5
481
330
463
100
AcDbEntity
  8
1
  6
Continuous
 62
     7
370
     9
100
AcDbVertex
100
AcDb2dVertex
 10
141.7240791214684
 20
71.40707015494814
 30
0.0
  0
VERTEX
  5
482
330
463
100
AcDbEntity
  8
1
  6
Continuous
 62
     7
370
     9
100
AcDbVertex
100
AcDb2dVertex
 10
141.7622257333047
 20
71.44967873174058
 30
0.0
  0
VERTEX
  5
483
330
463
100
AcDbEntity
  8
1
  6
Continuous
 62
     7
370
     9
100
AcDbVertex
100
AcDb2dVertex
 10
141.7985308574821
 20
71.49124129386057
 30
0.0
  0
VERTEX
  5
484
330
463
100
AcDbEntity
  8
1
  6
Continuous
 62
     7
370
     9
100
AcDbVertex
100
AcDb2dVertex
 10
141.8320982978902
 20
71.53038137687076
 30
0.0
  0
VERTEX
  5
485
330
463
100
AcDbEntity
  8
1
  6
Continuous
 62
     7
370
     9
100
AcDbVertex
100
AcDb2dVertex
 10
141.8620986628725
 20
71.56580890061642
 30
0.0
  0
VERTEX
  5
486
330
463
100
AcDbEntity
  8
1
  6
Continuous
 62
     7
370
     9
100
AcDbVertex
100
AcDb2dVertex
 10
141.8877819485683
 20
71.59638125623198
 30
0.0
  0
VERTEX
  5
487
330
463
100
AcDbEntity
  8
1
  6
Continuous
 62
     7
370
     9
100
AcDbVertex
100
AcDb2dVertex
 10
141.9084939723923
 20
71.62114485437965
 30
0.0
  0
VERTEX
  5
488
330
463
100
AcDbEntity
  8
1
  6
Continuous
 62
     7
370
     9
100
AcDbVertex
100
AcDb2dVertex
 10
141.9236958298358
 20
71.63935697779654
 30
0.0
  0
VERTEX
  5
489
330
463
100
AcDbEntity
  8
1
  6
Continuous
 62
     7
370
     9
100
AcDbVertex
100
AcDb2dVertex
 10
141.9329840686532
 20
71.6504919208649
 30
0.0
  0
VERTEX
  5
48A
330
463
100
AcDbEntity
  8
1
  6
Continuous
 62
     7
370
     9
100
AcDbVertex
100
AcDb2dVertex
 10
141.9361084364467
 20
71.65423793864333
 30
0.0
  0
SEQEND
  5
48B
330
463
100
AcDbEntity
  8
1
  6
Continuous
 62
     7
370
     9
  0
LINE
  5
48C
330
1F
100
AcDbEntity
  8
1
  6
Continuous
 62
     7
370
     9
100
AcDbLine
 10
140.3316764749065
 20
68.67500330056224
 30
0.0
 11
140.903789689149
 21
70.85477851493256
 31
0.0
  0
INSERT
  5
498
330
1F
100
AcDbEntity
  8
0
100
AcDbBlockReference
  2
*G27
 10
0.0
 20
0.0
 30
0.0
  0
HATCH
  5
499
330
1F
100
AcDbEntity
  8
1
  6
Continuous
 62
     7
370
     9
100
AcDbHatch
 10
0.0
 20
0.0
 30
0.0
210
0.0
220
0.0
230
1.0
  2
SOLID
 70
     1
 71
     0
 91
        1
 92
        0
 93
        8
 72
     2
 10
148.5465205420668
 20
69.0997785149325
 40
0.1500000000000057
 50
270.0000000000001
 51
360.0
 73
     1
 72
     1
 10
148.6965205420668
 20
69.0997785149325
 11
148.6965205420668
 21
69.54977851493254
 72
     2
 10
148.5465205420668
 20
69.54977851493254
 40
0.1500000000000057
 50
0.0
 51
89.99999999999991
 73
     1
 72
     1
 10
148.5465205420668
 20
69.69977851493252
 11
147.3465205420668
 21
69.69977851493252
 72
     2
 10
147.3465205420668
 20
69.54977851493254
 40
0.1500000000000057
 50
89.99999999999991
 51
179.9999999999998
 73
     1
 72
     1
 10
147.1965205420668
 20
69.54977851493254
 11
147.1965205420668
 21
69.0997785149325
 72
     2
 10
147.3465205420668
 20
69.0997785149325
 40
0.1500000000000057
 50
179.9999999999998
 51
270.0000000000001
 73
     1
 72
     1
 10
147.3465205420668
 20
68.94977851493252
 11
148.5465205420668
 21
68.94977851493252
 97
        0
 75
     0
 76
     1
 98
        0
  0
HATCH
  5
49A
330
1F
100
AcDbEntity
  8
1
  6
Continuous
 62
     7
370
     9
100
AcDbHatch
 10
0.0
 20
0.0
 30
0.0
210
0.0
220
0.0
230
1.0
  2
SOLID
 70
     1
 71
     0
 91
        1
 92
        0
 93
        8
 72
     2
 10
148.5465205420668
 20
65.72977851493255
 40
0.1500000000000057
 50
0.0
 51
89.99999999999991
 73
     1
 72
     1
 10
148.5465205420668
 20
65.87977851493253
 11
147.3465205420668
 21
65.87977851493253
 72
     2
 10
147.3465205420668
 20
65.72977851493255
 40
0.1500000000000057
 50
89.99999999999991
 51
179.9999999999998
 73
     1
 72
     1
 10
147.1965205420668
 20
65.72977851493255
 11
147.1965205420668
 21
65.27977851493256
 72
     2
 10
147.3465205420668
 20
65.27977851493256
 40
0.1500000000000057
 50
179.9999999999998
 51
270.0000000000001
 73
     1
 72
     1
 10
147.3465205420668
 20
65.12977851493253
 11
148.5465205420668
 21
65.12977851493253
 72
     2
 10
148.5465205420668
 20
65.27977851493256
 40
0.1500000000000057
 50
270.0000000000001
 51
360.0
 73
     1
 72
     1
 10
148.6965205420668
 20
65.27977851493256
 11
148.6965205420668
 21
65.72977851493255
 97
        0
 75
     0
 76
     1
 98
        0
  0
HATCH
  5
49B
330
1F
100
AcDbEntity
  8
1
  6
Continuous
 62
     7
370
     9
100
AcDbHatch
 10
0.0
 20
0.0
 30
0.0
210
0.0
220
0.0
230
1.0
  2
SOLID
 70
     1
 71
     0
 91
        1
 92
        0
 93
        8
 72
     2
 10
148.5465205420668
 20
62.88977851493252
 40
0.1500000000000057
 50
0.0
 51
89.99999999999991
 73
     1
 72
     1
 10
148.5465205420668
 20
63.03977851493255
 11
147.3465205420668
 21
63.03977851493255
 72
     2
 10
147.3465205420668
 20
62.88977851493252
 40
0.1500000000000057
 50
89.99999999999991
 51
179.9999999999998
 73
     1
 72
     1
 10
147.1965205420668
 20
62.88977851493252
 11
147.1965205420668
 21
62.43977851493253
 72
     2
 10
147.3465205420668
 20
62.43977851493253
 40
0.1500000000000057
 50
179.9999999999998
 51
270.0000000000001
 73
     1
 72
     1
 10
147.3465205420668
 20
62.28977851493255
 11
148.5465205420668
 21
62.28977851493255
 72
     2
 10
148.5465205420668
 20
62.43977851493253
 40
0.1500000000000057
 50
270.0000000000001
 51
360.0
 73
     1
 72
     1
 10
148.6965205420668
 20
62.43977851493253
 11
148.6965205420668
 21
62.88977851493252
 97
        0
 75
     0
 76
     1
 98
        0
  0
HATCH
  5
49C
330
1F
100
AcDbEntity
  8
1
  6
Continuous
 62
     7
370
     9
100
AcDbHatch
 10
0.0
 20
0.0
 30
0.0
210
0.0
220
0.0
230
1.0
  2
SOLID
 70
     1
 71
     0
 91
        1
 92
        0
 93
        8
 72
     2
 10
148.5465205420668
 20
59.08977851493256
 40
0.1500000000000057
 50
270.0000000000001
 51
360.0
 73
     1
 72
     1
 10
148.6965205420668
 20
59.08977851493256
 11
148.6965205420668
 21
59.53977851493255
 72
     2
 10
148.5465205420668
 20
59.53977851493255
 40
0.1500000000000057
 50
0.0
 51
89.99999999999991
 73
     1
 72
     1
 10
148.5465205420668
 20
59.68977851493253
 11
147.3465205420668
 21
59.68977851493253
 72
     2
 10
147.3465205420668
 20
59.53977851493255
 40
0.1500000000000057
 50
89.99999999999991
 51
179.9999999999998
 73
     1
 72
     1
 10
147.1965205420668
 20
59.53977851493255
 11
147.1965205420668
 21
59.08977851493256
 72
     2
 10
147.3465205420668
 20
59.08977851493256
 40
0.1500000000000057
 50
179.9999999999998
 51
270.0000000000001
 73
     1
 72
     1
 10
147.3465205420668
 20
58.93977851493253
 11
148.5465205420668
 21
58.93977851493253
 97
        0
 75
     0
 76
     1
 98
        0
  0
HATCH
  5
49D
330
1F
100
AcDbEntity
  8
1
  6
Continuous
 62
     7
370
     9
100
AcDbHatch
 10
0.0
 20
0.0
 30
0.0
210
0.0
220
0.0
230
1.0
  2
SOLID
 70
     1
 71
     0
 91
        1
 92
        0
 93
        1
 72
     2
 10
143.3965205420668
 20
55.90477851493253
 40
0.75
 50
0.0
 51
360.0
 73
     1
 97
        0
 75
     0
 76
     1
 98
        0
  0
HATCH
  5
49E
330
1F
100
AcDbEntity
  8
1
  6
Continuous
 62
     7
370
     9
100
AcDbHatch
 10
0.0
 20
0.0
 30
0.0
210
0.0
220
0.0
230
1.0
  2
SOLID
 70
     1
 71
     0
 91
        1
 92
        0
 93
        1
 72
     2
 10
153.8465205420668
 20
52.80477851493269
 40
0.25
 50
0.0
 51
360.0
 73
     1
 97
        0
 75
     0
 76
     1
 98
        0
  0
HATCH
  5
49F
330
1F
100
AcDbEntity
  8
1
  6
Continuous
 62
     7
370
     9
100
AcDbHatch
 10
0.0
 20
0.0
 30
0.0
210
0.0
220
0.0
230
1.0
  2
SOLID
 70
     1
 71
     0
 91
        1
 92
        0
 93
        1
 72
     2
 10
153.8465205420668
 20
55.72477851493271
 40
0.25
 50
0.0
 51
360.0
 73
     1
 97
        0
 75
     0
 76
     1
 98
        0
  0
HATCH
  5
4A0
330
1F
100
AcDbEntity
  8
1
  6
Continuous
 62
     7
370
     9
100
AcDbHatch
 10
0.0
 20
0.0
 30
0.0
210
0.0
220
0.0
230
1.0
  2
SOLID
 70
     1
 71
     0
 91
        1
 92
        0
 93
        1
 72
     2
 10
153.8465205420668
 20
58.62477851493269
 40
0.25
 50
0.0
 51
360.0
 73
     1
 97
        0
 75
     0
 76
     1
 98
        0
  0
MTEXT
  5
4A1
330
1F
100
AcDbEntity
  8
1
  6
Continuous
 62
     7
370
     9
100
AcDbMText
 10
146.2713089159337
 20
57.63899494942657
 30
0.0
 40
3.5
 41
5.850570570570571
 46
3.5
 71
     7
 72
     1
  1
{\fＭＳ 明朝;\T0.750000;∞}
 11
1.615544574432587E-15
 21
-1.0
 31
0.0
 73
     1
 44
1.0
1001
ACAD
1000
ACAD_MTEXT_DEFINED_HEIGHT_BEGIN
1070
    46
1040
3.5
1000
ACAD_MTEXT_DEFINED_HEIGHT_END
  0
DIMENSION
  5
4A9
330
1F
100
AcDbEntity
  8
25
  6
Continuous
 62
     7
370
     9
100
AcDbDimension
280
     0
  2
Dim12
 10
82.65784862402758
 20
48.59107933054199
 30
0.0
 11
100.2668486989724
 21
72.6289996315396
 31
0.0
 70
   163
  1
<>
 71
     5
 42
-1.0
 73
     0
 74
     0
 75
     0
  3
Standard
100
AcDbDiametricDimension
 15
94.14693983965377
 25
63.21847769932308
 35
0.0
 40
0.0
1001
ACAD
1000
DSTYLE
1002
{
1070
   340
1005
399
1070
   140
1040
2.0
1070
    40
1040
1.0
1070
   147
1040
0.0
1070
    76
1070
     1
1070
    75
1070
     1
1070
   344
1005
51
1070
   343
1005
51
1070
   173
1070
     1
1070
   289
1070
     2
1070
   288
1070
     1
1070
    77
1070
     1
1070
   172
1070
     1
1070
   174
1070
     0
1070
    74
1070
     0
1070
    73
1070
     0
1070
   284
1070
     8
1070
    78
1070
     8
1070
    42
1040
0.0
1070
    44
1040
0.0
1070
    43
1040
10.0
1070
   271
1070
     2
1070
    41
1040
1.0
1002
}
  0
DIMENSION
  5
4B3
330
1F
100
AcDbEntity
  8
25
  6
Continuous
 62
     7
370
     9
100
AcDbDimension
280
     0
  2
Dim13
 10
170.3965205420668
 20
30.10237699959973
 30
0.0
 11
174.9084792986086
 21
31.60237699960028
 31
0.0
 70
   160
  1
(0.9)
 71
     5
 42
-1.0
 73
     0
 74
     0
 75
     0
 53
0.0000000000068191
  3
Standard
100
AcDbAlignedDimension
 13
171.3251459652754
 23
47.10477851493256
 33
0.0
 14
170.3965205420668
 24
43.70477851493254
 34
0.0
 50
-179.999999999993
100
AcDbRotatedDimension
1001
ACAD
1000
DSTYLE
1002
{
1070
   279
1070
     2
1070
   340
1005
399
1070
   140
1040
2.0
1070
    40
1040
1.0
1070
   147
1040
0.0
1070
    76
1070
     0
1070
    75
1070
     0
1070
   344
1005
51
1070
   343
1005
51
1070
   173
1070
     1
1070
   289
1070
     2
1070
   288
1070
     1
1070
    77
1070
     1
1070
   172
1070
     1
1070
   174
1070
     0
1070
    74
1070
     0
1070
    73
1070
     0
1070
   284
1070
     8
1070
    78
1070
     8
1070
    42
1040
2.0
1070
    44
1040
1.0
1070
    43
1040
10.0
1070
   271
1070
     2
1070
    41
1040
1.0
1002
}
  0
DIMENSION
  5
4BD
330
1F
100
AcDbEntity
  8
25
  6
Continuous
 62
     7
370
     9
100
AcDbDimension
280
     0
  2
Dim14
 10
138.1965205420676
 20
30.10237699959984
 30
0.0
 11
135.2375478089751
 21
31.7674835825784
 31
0.0
 70
   160
  1
(0.4)
 71
     5
 42
-1.0
 73
     0
 74
     0
 75
     0
  3
Standard
100
AcDbAlignedDimension
 13
138.5965205420668
 23
39.45477851493254
 33
0.0
 14
138.1965205420668
 24
40.10477851493255
 34
0.0
 50
179.9999999999998
100
AcDbRotatedDimension
1001
ACAD
1000
DSTYLE
1002
{
1070
   279
1070
     2
1070
   340
1005
399
1070
   140
1040
2.0
1070
    40
1040
1.0
1070
   147
1040
0.0
1070
    76
1070
     0
1070
    75
1070
     0
1070
   344
1005
51
1070
   343
1005
51
1070
   173
1070
     1
1070
   289
1070
     2
1070
   288
1070
     1
1070
    77
1070
     1
1070
   172
1070
     1
1070
   174
1070
     0
1070
    74
1070
     0
1070
    73
1070
     0
1070
   284
1070
     8
1070
    78
1070
     8
1070
    42
1040
2.0
1070
    44
1040
1.0
1070
    43
1040
10.0
1070
   271
1070
     2
1070
    41
1040
1.0
1002
}
  0
MTEXT
  5
4BE
330
1F
100
AcDbEntity
  8
1
  6
Continuous
 62
     7
370
     9
100
AcDbMText
 10
154.8489903617497
 20
57.85028525452393
 30
0.0
 40
2.200000000000003
 41
1.649472000000002
 46
2.200000000000003
 71
     1
 72
     1
  1
{\fＭＳ ゴシック;\T0.750000;8}
 11
-1.608122649676637E-16
 21
-1.0
 31
0.0
 73
     1
 44
1.0
1001
ACAD
1000
ACAD_MTEXT_DEFINED_HEIGHT_BEGIN
1070
    46
1040
2.200000000000003
1000
ACAD_MTEXT_DEFINED_HEIGHT_END
  0
MTEXT
  5
4BF
330
1F
100
AcDbEntity
  8
1
  6
Continuous
 62
     7
370
     9
100
AcDbMText
 10
154.8489903617497
 20
50.11261839147167
 30
0.0
 40
2.200000000000003
 41
0.3623840000000004
 46
2.200000000000003
 71
     1
 72
     1
  1
{\fＭＳ ゴシック;\T0.750000;.}
 11
-1.608122649676637E-16
 21
-1.0
 31
0.0
 73
     1
 44
1.0
1001
ACAD
1000
ACAD_MTEXT_DEFINED_HEIGHT_BEGIN
1070
    46
1040
2.200000000000003
1000
ACAD_MTEXT_DEFINED_HEIGHT_END
  0
MTEXT
  5
4C0
330
1F
100
AcDbEntity
  8
1
  6
Continuous
 62
     7
370
     9
100
AcDbMText
 10
154.8489903617497
 20
50.97236060665821
 30
0.0
 40
2.200000000000003
 41
0.8403560000000011
 46
2.200000000000003
 71
     1
 72
     1
  1
{\fＭＳ ゴシック;\T0.750000;1}
 11
-1.608122649676637E-16
 21
-1.0
 31
0.0
 73
     1
 44
1.0
1001
ACAD
1000
ACAD_MTEXT_DEFINED_HEIGHT_BEGIN
1070
    46
1040
2.200000000000003
1000
ACAD_MTEXT_DEFINED_HEIGHT_END
  0
MTEXT
  5
4C1
330
1F
100
AcDbEntity
  8
1
  6
Continuous
 62
     7
370
     9
100
AcDbMText
 10
154.8489903617497
 20
55.11474659661283
 30
0.0
 40
2.200000000000003
 41
1.758812000000002
 46
2.200000000000003
 71
     1
 72
     1
  1
{\fＭＳ ゴシック;\T0.750000;4}
 11
-1.608122649676637E-16
 21
-1.0
 31
0.0
 73
     1
 44
1.0
1001
ACAD
1000
ACAD_MTEXT_DEFINED_HEIGHT_BEGIN
1070
    46
1040
2.200000000000003
1000
ACAD_MTEXT_DEFINED_HEIGHT_END
  0
MTEXT
  5
4C2
330
1F
100
AcDbEntity
  8
1
  6
Continuous
 62
     7
370
     9
100
AcDbMText
 10
154.8489903617497
 20
49.79998689612469
 30
0.0
 40
2.200000000000003
 41
1.758812000000002
 46
2.200000000000003
 71
     1
 72
     1
  1
{\fＭＳ ゴシック;\T0.750000;4}
 11
-1.608122649676637E-16
 21
-1.0
 31
0.0
 73
     1
 44
1.0
1001
ACAD
1000
ACAD_MTEXT_DEFINED_HEIGHT_BEGIN
1070
    46
1040
2.200000000000003
1000
ACAD_MTEXT_DEFINED_HEIGHT_END
  0
MTEXT
  5
4C3
330
1F
100
AcDbEntity
  8
1
  6
Continuous
 62
     7
370
     9
100
AcDbMText
 10
154.8489903617497
 20
60.27319054942703
 30
0.0
 40
2.200000000000003
 41
1.583868000000002
 46
2.200000000000003
 71
     1
 72
     1
  1
{\fＭＳ ゴシック;\T0.750000;6}
 11
-1.608122649676637E-16
 21
-1.0
 31
0.0
 73
     1
 44
1.0
1001
ACAD
1000
ACAD_MTEXT_DEFINED_HEIGHT_BEGIN
1070
    46
1040
2.200000000000003
1000
ACAD_MTEXT_DEFINED_HEIGHT_END
  0
MTEXT
  5
4C4
330
1F
100
AcDbEntity
  8
1
  6
Continuous
 62
     7
370
     9
100
AcDbMText
 10
154.8489903617497
 20
61.05477302311604
 30
0.0
 40
2.200000000000003
 41
0.8403560000000011
 46
2.200000000000003
 71
     1
 72
     1
  1
{\fＭＳ ゴシック;\T0.750000;1}
 11
-1.608122649676637E-16
 21
-1.0
 31
0.0
 73
     1
 44
1.0
1001
ACAD
1000
ACAD_MTEXT_DEFINED_HEIGHT_BEGIN
1070
    46
1040
2.200000000000003
1000
ACAD_MTEXT_DEFINED_HEIGHT_END
  0
MTEXT
  5
4C5
330
1F
100
AcDbEntity
  8
1
  6
Continuous
 62
     7
370
     9
100
AcDbMText
 10
154.8489903617497
 20
64.17636839746004
 30
0.0
 40
2.200000000000003
 41
1.743192000000002
 46
2.200000000000003
 71
     1
 72
     1
  1
{\fＭＳ ゴシック;\T0.750000;C}
 11
-1.608122649676637E-16
 21
-1.0
 31
0.0
 73
     1
 44
1.0
1001
ACAD
1000
ACAD_MTEXT_DEFINED_HEIGHT_BEGIN
1070
    46
1040
2.200000000000003
1000
ACAD_MTEXT_DEFINED_HEIGHT_END
  0
MTEXT
  5
4C6
330
1F
100
AcDbEntity
  8
25
  6
Continuous
 62
     7
370
     9
100
AcDbMText
 10
131.8410352264795
 20
77.4135599247745
 30
0.0
 40
1.5
 41
11.69384870595
 46
1.5
 71
     9
 72
     1
  1
{\fＭＳ ゴシック;\T0.764137;M30.5 P=0.5}
 73
     1
 44
1.0
1001
ACAD
1000
ACAD_MTEXT_DEFINED_HEIGHT_BEGIN
1070
    46
1040
1.5
1000
ACAD_MTEXT_DEFINED_HEIGHT_END
  0
MTEXT
  5
4C7
330
1F
100
AcDbEntity
  8
25
  6
Continuous
 62
     7
370
     9
100
AcDbMText
 10
181.8981183554421
 20
79.77752274317288
 30
0.0
 40
1.5
 41
7.4245522677
 46
1.5
 71
     7
 72
     1
  1
{\fＭＳ ゴシック;\T0.772570;1-32UNF}
 73
     1
 44
1.0
1001
ACAD
1000
ACAD_MTEXT_DEFINED_HEIGHT_BEGIN
1070
    46
1040
1.5
1000
ACAD_MTEXT_DEFINED_HEIGHT_END
  0
MTEXT
  5
4C8
330
1F
100
AcDbEntity
  8
25
  6
Continuous
 62
     7
370
     9
100
AcDbMText
 10
135.3679500843769
 20
85.9575894839684
 30
0.0
 40
1.5
 41
10.608112117575
 46
1.5
 71
     9
 72
     1
  1
{\fＭＳ ゴシック;\T0.792205;Index Ring}
 73
     1
 44
1.0
1001
ACAD
1000
ACAD_MTEXT_DEFINED_HEIGHT_BEGIN
1070
    46
1040
1.5
1000
ACAD_MTEXT_DEFINED_HEIGHT_END
  0
MTEXT
  5
4C9
330
1F
100
AcDbEntity
  8
25
  6
Continuous
 62
     7
370
     9
100
AcDbMText
 10
133.8360200728306
 20
81.36179944932945
 30
0.0
 40
1.5
 41
10.63382586417
 46
1.5
 71
     9
 72
     1
  1
{\fＭＳ ゴシック;\T0.760398;Focus Ring}
 73
     1
 44
1.0
1001
ACAD
1000
ACAD_MTEXT_DEFINED_HEIGHT_BEGIN
1070
    46
1040
1.5
1000
ACAD_MTEXT_DEFINED_HEIGHT_END
  0
MTEXT
  5
4CA
330
1F
100
AcDbEntity
  8
25
  6
Continuous
 62
     7
370
     9
100
AcDbMText
 10
172.6726334210409
 20
84.11302069455549
 30
0.0
 40
1.5
 41
9.540533557679998
 46
1.5
 71
     7
 72
     1
  1
{\fＭＳ ゴシック;\T0.794866;Iris Ring}
 73
     1
 44
1.0
1001
ACAD
1000
ACAD_MTEXT_DEFINED_HEIGHT_BEGIN
1070
    46
1040
1.5
1000
ACAD_MTEXT_DEFINED_HEIGHT_END
  0
ELLIPSE
  5
4CB
330
1F
100
AcDbEntity
  8
1
  6
Continuous
 62
     7
370
     9
100
AcDbEllipse
 10
151.0965205420666
 20
37.71824503545932
 30
0.0
 11
2.0
 21
0.0
 31
0.0
210
0.0
220
0.0
230
1.0
 40
0.500000000000032
 41
-0.7975916433582766
 42
3.971456425098931
  0
VIEWPORT
  5
3F
330
1B
100
AcDbEntity
 67
     1
  8
0
100
AcDbViewport
 10
210.0
 20
148.5
 30
0.0
 40
420.0
 41
297.0
 68
     1
 69
     1
 12
210.0
 22
148.5
 13
0.0
 23
0.0
 14
0.5
 24
0.5
 15
0.5
 25
0.5
 16
0.0
 26
0.0
 36
1.0
 17
0.0
 27
0.0
 37
0.0
 42
50.0
 43
0.0
 44
0.0
 45
9.0
 50
0.0
 51
0.0
 72
   100
 90
   557152
  1

281
     0
 71
     1
 74
     0
110
0.0
120
0.0
130
0.0
111
1.0
121
0.0
131
0.0
112
0.0
122
1.0
132
0.0
 79
     0
146
0.0
170
     0
 61
     5
292
     1
282
     1
141
0.0
142
0.0
 63
   256
  0
ENDSEC
  0
SECTION
  2
OBJECTS
  0
DICTIONARY
  5
C
330
0
100
AcDbDictionary
281
     1
  3
ACAD_GROUP
350
D
  3
ACAD_LAYOUT
350
1A
  3
ACAD_MATERIAL
350
3B
  3
ACAD_MLEADERSTYLE
350
4CD
  3
ACAD_MLINESTYLE
350
17
  3
ACAD_PLOTSETTINGS
350
19
  3
ACAD_PLOTSTYLENAME
350
E
  3
ACAD_TABLESTYLE
350
4CC
  3
ACAD_VISUALSTYLE
350
2A
  0
DICTIONARY
  5
D
102
{ACAD_REACTORS
330
C
102
}
330
C
100
AcDbDictionary
281
     1
  0
DICTIONARY
  5
1A
102
{ACAD_REACTORS
330
C
102
}
330
C
100
AcDbDictionary
281
     1
  3
Layout1
350
1E
  3
Layout2
350
26
  3
Model
350
22
  0
DICTIONARY
  5
3B
102
{ACAD_REACTORS
330
C
102
}
330
C
100
AcDbDictionary
281
     1
  3
ByBlock
350
3D
  3
ByLayer
350
3C
  3
Global
350
3E
  0
DICTIONARY
  5
4CD
102
{ACAD_REACTORS
330
C
102
}
330
C
100
AcDbDictionary
281
     1
  0
DICTIONARY
  5
17
102
{ACAD_REACTORS
330
C
102
}
330
C
100
AcDbDictionary
281
     1
  3
Standard
350
18
  0
DICTIONARY
  5
19
102
{ACAD_REACTORS
330
C
102
}
330
C
100
AcDbDictionary
281
     1
  0
ACDBDICTIONARYWDFLT
  5
E
102
{ACAD_REACTORS
330
C
102
}
330
C
100
AcDbDictionary
281
     1
  3
Normal
350
F
100
AcDbDictionaryWithDefault
340
F
  0
DICTIONARY
  5
4CC
102
{ACAD_REACTORS
330
C
102
}
330
C
100
AcDbDictionary
281
     1
  0
DICTIONARY
  5
2A
102
{ACAD_REACTORS
330
C
102
}
330
C
100
AcDbDictionary
281
     1
  3
2dWireframe
350
2F
  3
3D Hidden
350
31
  3
3dWireframe
350
30
  3
Basic
350
32
  3
Brighten
350
36
  3
ColorChange
350
3A
  3
Conceptual
350
34
  3
Dim
350
35
  3
Facepattern
350
39
  3
Flat
350
2B
  3
FlatWithEdges
350
2C
  3
Gouraud
350
2D
  3
GouraudWithEdges
350
2E
  3
Linepattern
350
38
  3
Realistic
350
33
  3
Thicken
350
37
  0
LAYOUT
  5
1E
102
{ACAD_REACTORS
330
1A
102
}
330
1A
100
AcDbPlotSettings
  1

  2
none_device
  4

  6

 40
0.0
 41
0.0
 42
0.0
 43
0.0
 44
0.0
 45
0.0
 46
0.0
 47
0.0
 48
0.0
 49
0.0
140
0.0
141
0.0
142
1.0
143
1.0
 70
   688
 72
     0
 73
     0
 74
     5
  7

 75
    16
 76
     0
 77
     2
 78
   300
147
1.0
148
0.0
149
0.0
100
AcDbLayout
  1
Layout1
 70
     1
 71
     1
 10
0.0
 20
0.0
 11
420.0
 21
297.0
 12
0.0
 22
0.0
 32
0.0
 14
0.0
 24
0.0
 34
0.0
 15
420.0
 25
297.0
 35
0.0
146
0.0
 13
0.0
 23
0.0
 33
0.0
 16
1.0
 26
0.0
 36
0.0
 17
0.0
 27
1.0
 37
0.0
 76
     0
330
1B
331
3F
  0
LAYOUT
  5
26
102
{ACAD_REACTORS
330
1A
102
}
330
1A
100
AcDbPlotSettings
  1

  2
none_device
  4

  6

 40
0.0
 41
0.0
 42
0.0
 43
0.0
 44
0.0
 45
0.0
 46
0.0
 47
0.0
 48
0.0
 49
0.0
140
0.0
141
0.0
142
1.0
143
1.0
 70
   688
 72
     0
 73
     0
 74
     5
  7

 75
    16
 76
     0
 77
     2
 78
   300
147
1.0
148
0.0
149
0.0
100
AcDbLayout
  1
Layout2
 70
     1
 71
     2
 10
0.0
 20
0.0
 11
0.0
 21
0.0
 12
0.0
 22
0.0
 32
0.0
 14
0.0
 24
0.0
 34
0.0
 15
0.0
 25
0.0
 35
0.0
146
0.0
 13
0.0
 23
0.0
 33
0.0
 16
1.0
 26
0.0
 36
0.0
 17
0.0
 27
1.0
 37
0.0
 76
     0
330
23
  0
LAYOUT
  5
22
102
{ACAD_REACTORS
330
1A
102
}
330
1A
100
AcDbPlotSettings
  1

  2
none_device
  4

  6

 40
0.0
 41
0.0
 42
0.0
 43
0.0
 44
0.0
 45
0.0
 46
0.0
 47
0.0
 48
0.0
 49
0.0
140
0.0
141
0.0
142
1.0
143
1.0
 70
  1712
 72
     0
 73
     0
 74
     0
  7

 75
     0
 76
     0
 77
     2
 78
   300
147
1.0
148
0.0
149
0.0
100
AcDbLayout
  1
Model
 70
     1
 71
     0
 10
0.0
 20
0.0
 11
420.0
 21
297.0
 12
0.0
 22
0.0
 32
0.0
 14
66.75613012615688
 24
22.88765098148698
 34
0.0
 15
195.7151036372548
 25
87.4575894839684
 35
0.0
146
0.0
 13
0.0
 23
0.0
 33
0.0
 16
1.0
 26
0.0
 36
0.0
 17
0.0
 27
1.0
 37
0.0
 76
     0
330
1F
331
29
  0
MATERIAL
  5
3D
102
{ACAD_REACTORS
330
3B
102
}
330
3B
100
AcDbMaterial
  1
ByBlock
 72
     1
 94
      127
  0
MATERIAL
  5
3C
102
{ACAD_REACTORS
330
3B
102
}
330
3B
100
AcDbMaterial
  1
ByLayer
 72
     1
 94
      127
  0
MATERIAL
  5
3E
102
{ACAD_REACTORS
330
3B
102
}
330
3B
100
AcDbMaterial
  1
Global
 72
     1
 94
      127
  0
MLINESTYLE
  5
18
102
{ACAD_REACTORS
330
17
102
}
330
17
100
AcDbMlineStyle
  2
Standard
 70
     0
  3

 62
   256
 51
90.0
 52
90.0
 71
     2
 49
0.5
 62
   256
  6
BYLAYER
 49
-0.5
 62
   256
  6
BYLAYER
  0
ACDBPLACEHOLDER
  5
F
102
{ACAD_REACTORS
330
E
102
}
330
E
  0
VISUALSTYLE
  5
2F
102
{ACAD_REACTORS
330
2A
102
}
330
2A
100
AcDbVisualStyle
  2
2dWireframe
 70
     4
177
     2
291
     0
 71
     0
176
     1
 72
     2
176
     1
 73
     0
176
     1
 90
        0
176
     1
 40
-0.6
176
     1
 41
-30.0
176
     1
 62
     5
 63
     7
421
 16777215
176
     1
 74
     1
176
     1
 91
        4
176
     1
 64
     7
176
     1
 65
   257
176
     1
 75
     1
176
     1
175
     1
176
     1
 42
1.0
176
     1
 92
        0
176
     1
 66
   257
176
     1
 43
1.0
176
     1
 76
     1
176
     1
 77
     6
176
     1
 78
     2
176
     1
 67
     7
176
     1
 79
     5
176
     1
170
     0
176
     1
171
     0
176
     1
290
     0
176
     1
 93
        1
176
     1
 44
0.0
176
     1
173
     0
176
     1
  0
VISUALSTYLE
  5
31
102
{ACAD_REACTORS
330
2A
102
}
330
2A
100
AcDbVisualStyle
  2
3D Hidden
 70
     6
177
     2
291
     0
 71
     1
176
     1
 72
     2
176
     1
 73
     2
176
     1
 90
        0
176
     1
 40
-0.6
176
     1
 41
-30.0
176
     1
 62
     5
 63
     7
421
 16777215
176
     1
 74
     2
176
     1
 91
        2
176
     1
 64
     7
176
     1
 65
   257
176
     1
 75
     2
176
     1
175
     1
176
     1
 42
40.0
176
     1
 92
        0
176
     1
 66
   257
176
     1
 43
1.0
176
     1
 76
     1
176
     1
 77
     6
176
     1
 78
     2
176
     1
 67
     7
176
     1
 79
     3
176
     1
170
     0
176
     1
171
     0
176
     1
290
     0
176
     1
 93
        1
176
     1
 44
0.0
176
     1
173
     0
176
     1
  0
VISUALSTYLE
  5
30
102
{ACAD_REACTORS
330
2A
102
}
330
2A
100
AcDbVisualStyle
  2
3dWireframe
 70
     5
177
     2
291
     0
 71
     0
176
     1
 72
     2
176
     1
 73
     0
176
     1
 90
        0
176
     1
 40
-0.6
176
     1
 41
-30.0
176
     1
 62
     5
 63
     7
421
 16777215
176
     1
 74
     1
176
     1
 91
        4
176
     1
 64
     7
176
     1
 65
   257
176
     1
 75
     1
176
     1
175
     1
176
     1
 42
1.0
176
     1
 92
        0
176
     1
 66
   257
176
     1
 43
1.0
176
     1
 76
     1
176
     1
 77
     6
176
     1
 78
     2
176
     1
 67
     7
176
     1
 79
     5
176
     1
170
     0
176
     1
171
     0
176
     1
290
     0
176
     1
 93
        1
176
     1
 44
0.0
176
     1
173
     0
176
     1
  0
VISUALSTYLE
  5
32
102
{ACAD_REACTORS
330
2A
102
}
330
2A
100
AcDbVisualStyle
  2
Basic
 70
     7
177
     2
291
     1
 71
     1
176
     1
 72
     0
176
     1
 73
     1
176
     1
 90
        0
176
     1
 40
-0.6
176
     1
 41
-30.0
176
     1
 62
     5
 63
     7
421
 16777215
176
     1
 74
     0
176
     1
 91
        4
176
     1
 64
     7
176
     1
 65
   257
176
     1
 75
     1
176
     1
175
     1
176
     1
 42
1.0
176
     1
 92
        8
176
     1
 66
     7
176
     1
 43
1.0
176
     1
 76
     1
176
     1
 77
     6
176
     1
 78
     2
176
     1
 67
     7
176
     1
 79
     5
176
     1
170
     0
176
     1
171
     0
176
     1
290
     0
176
     1
 93
        1
176
     1
 44
0.0
176
     1
173
     0
176
     1
  0
VISUALSTYLE
  5
36
102
{ACAD_REACTORS
330
2A
102
}
330
2A
100
AcDbVisualStyle
  2
Brighten
 70
    12
177
     2
291
     1
 71
     2
176
     1
 72
     2
176
     1
 73
     0
176
     1
 90
        0
176
     1
 40
-0.6
176
     1
 41
-30.0
176
     1
 62
     5
 63
     7
421
 16777215
176
     1
 74
     1
176
     1
 91
        4
176
     1
 64
     7
176
     1
 65
   257
176
     1
 75
     1
176
     1
175
     1
176
     1
 42
1.0
176
     1
 92
        8
176
     1
 66
     7
176
     1
 43
1.0
176
     1
 76
     1
176
     1
 77
     6
176
     1
 78
     2
176
     1
 67
     7
176
     1
 79
     5
176
     1
170
     0
176
     1
171
     0
176
     1
290
     0
176
     1
 93
        1
176
     1
 44
50.0
176
     1
173
     0
176
     1
  0
VISUALSTYLE
  5
3A
102
{ACAD_REACTORS
330
2A
102
}
330
2A
100
AcDbVisualStyle
  2
ColorChange
 70
    16
177
     2
291
     1
 71
     2
176
     1
 72
     2
176
     1
 73
     3
176
     1
 90
        0
176
     1
 40
-0.6
176
     1
 41
-30.0
176
     1
 62
     5
 63
     8
421
  8421504
176
     1
 74
     1
176
     1
 91
        4
176
     1
 64
     7
176
     1
 65
   257
176
     1
 75
     1
176
     1
175
     1
176
     1
 42
1.0
176
     1
 92
        8
176
     1
 66
     8
424
  8421504
176
     1
 43
1.0
176
     1
 76
     1
176
     1
 77
     6
176
     1
 78
     2
176
     1
 67
     7
176
     1
 79
     5
176
     1
170
     0
176
     1
171
     0
176
     1
290
     0
176
     1
 93
        1
176
     1
 44
0.0
176
     1
173
     0
176
     1
  0
VISUALSTYLE
  5
34
102
{ACAD_REACTORS
330
2A
102
}
330
2A
100
AcDbVisualStyle
  2
Conceptual
 70
     9
177
     2
291
     0
 71
     3
176
     1
 72
     2
176
     1
 73
     0
176
     1
 90
        0
176
     1
 40
-0.6
176
     1
 41
-30.0
176
     1
 62
     5
 63
     7
421
 16777215
176
     1
 74
     2
176
     1
 91
        2
176
     1
 64
     7
176
     1
 65
   257
176
     1
 75
     1
176
     1
175
     1
176
     1
 42
40.0
176
     1
 92
        8
176
     1
 66
     7
176
     1
 43
1.0
176
     1
 76
     1
176
     1
 77
     6
176
     1
 78
     2
176
     1
 67
     7
176
     1
 79
     3
176
     1
170
     0
176
     1
171
     0
176
     1
290
     0
176
     1
 93
        1
176
     1
 44
0.0
176
     1
173
     0
176
     1
  0
VISUALSTYLE
  5
35
102
{ACAD_REACTORS
330
2A
102
}
330
2A
100
AcDbVisualStyle
  2
Dim
 70
    11
177
     2
291
     1
 71
     2
176
     1
 72
     2
176
     1
 73
     0
176
     1
 90
        0
176
     1
 40
-0.6
176
     1
 41
-30.0
176
     1
 62
     5
 63
     7
421
 16777215
176
     1
 74
     1
176
     1
 91
        4
176
     1
 64
     7
176
     1
 65
   257
176
     1
 75
     1
176
     1
175
     1
176
     1
 42
1.0
176
     1
 92
        8
176
     1
 66
     7
176
     1
 43
1.0
176
     1
 76
     1
176
     1
 77
     6
176
     1
 78
     2
176
     1
 67
     7
176
     1
 79
     5
176
     1
170
     0
176
     1
171
     0
176
     1
290
     0
176
     1
 93
        1
176
     1
 44
-50.0
176
     1
173
     0
176
     1
  0
VISUALSTYLE
  5
39
102
{ACAD_REACTORS
330
2A
102
}
330
2A
100
AcDbVisualStyle
  2
Facepattern
 70
    15
177
     2
291
     1
 71
     2
176
     1
 72
     2
176
     1
 73
     0
176
     1
 90
        0
176
     1
 40
-0.6
176
     1
 41
-30.0
176
     1
 62
     5
 63
     7
421
 16777215
176
     1
 74
     1
176
     1
 91
        4
176
     1
 64
     7
176
     1
 65
   257
176
     1
 75
     1
176
     1
175
     1
176
     1
 42
1.0
176
     1
 92
        8
176
     1
 66
     7
176
     1
 43
1.0
176
     1
 76
     1
176
     1
 77
     6
176
     1
 78
     2
176
     1
 67
     7
176
     1
 79
     5
176
     1
170
     0
176
     1
171
     0
176
     1
290
     0
176
     1
 93
        1
176
     1
 44
0.0
176
     1
173
     0
176
     1
  0
VISUALSTYLE
  5
2B
102
{ACAD_REACTORS
330
2A
102
}
330
2A
100
AcDbVisualStyle
  2
Flat
 70
     0
177
     2
291
     1
 71
     2
176
     1
 72
     1
176
     1
 73
     1
176
     1
 90
        2
176
     1
 40
-0.6
176
     1
 41
30.0
176
     1
 62
     5
 63
     7
421
 16777215
176
     1
 74
     0
176
     1
 91
        4
176
     1
 64
     7
176
     1
 65
   257
176
     1
 75
     1
176
     1
175
     1
176
     1
 42
1.0
176
     1
 92
        8
176
     1
 66
     7
176
     1
 43
1.0
176
     1
 76
     1
176
     1
 77
     6
176
     1
 78
     2
176
     1
 67
     7
176
     1
 79
     5
176
     1
170
     0
176
     1
171
     0
176
     1
290
     0
176
     1
 93
       13
176
     1
 44
0.0
176
     1
173
     0
176
     1
  0
VISUALSTYLE
  5
2C
102
{ACAD_REACTORS
330
2A
102
}
330
2A
100
AcDbVisualStyle
  2
FlatWithEdges
 70
     1
177
     2
291
     1
 71
     2
176
     1
 72
     1
176
     1
 73
     1
176
     1
 90
        2
176
     1
 40
-0.6
176
     1
 41
30.0
176
     1
 62
     5
 63
     7
421
 16777215
176
     1
 74
     1
176
     1
 91
        4
176
     1
 64
     7
176
     1
 65
   257
176
     1
 75
     1
176
     1
175
     1
176
     1
 42
1.0
176
     1
 92
        0
176
     1
 66
   257
176
     1
 43
1.0
176
     1
 76
     1
176
     1
 77
     6
176
     1
 78
     2
176
     1
 67
     7
176
     1
 79
     5
176
     1
170
     0
176
     1
171
     0
176
     1
290
     0
176
     1
 93
       13
176
     1
 44
0.0
176
     1
173
     0
176
     1
  0
VISUALSTYLE
  5
2D
102
{ACAD_REACTORS
330
2A
102
}
330
2A
100
AcDbVisualStyle
  2
Gouraud
 70
     2
177
     2
291
     1
 71
     2
176
     1
 72
     2
176
     1
 73
     1
176
     1
 90
        2
176
     1
 40
-0.6
176
     1
 41
30.0
176
     1
 62
     5
 63
     7
421
 16777215
176
     1
 74
     0
176
     1
 91
        4
176
     1
 64
     7
176
     1
 65
   257
176
     1
 75
     1
176
     1
175
     1
176
     1
 42
1.0
176
     1
 92
        0
176
     1
 66
     7
176
     1
 43
1.0
176
     1
 76
     1
176
     1
 77
     6
176
     1
 78
     2
176
     1
 67
     7
176
     1
 79
     5
176
     1
170
     0
176
     1
171
     0
176
     1
290
     0
176
     1
 93
       13
176
     1
 44
0.0
176
     1
173
     0
176
     1
  0
VISUALSTYLE
  5
2E
102
{ACAD_REACTORS
330
2A
102
}
330
2A
100
AcDbVisualStyle
  2
GouraudWithEdges
 70
     3
177
     2
291
     1
 71
     2
176
     1
 72
     2
176
     1
 73
     1
176
     1
 90
        2
176
     1
 40
-0.6
176
     1
 41
30.0
176
     1
 62
     5
 63
     7
421
 16777215
176
     1
 74
     1
176
     1
 91
        4
176
     1
 64
     7
176
     1
 65
   257
176
     1
 75
     1
176
     1
175
     1
176
     1
 42
1.0
176
     1
 92
        0
176
     1
 66
   257
176
     1
 43
1.0
176
     1
 76
     1
176
     1
 77
     6
176
     1
 78
     2
176
     1
 67
     7
176
     1
 79
     5
176
     1
170
     0
176
     1
171
     0
176
     1
290
     0
176
     1
 93
       13
176
     1
 44
0.0
176
     1
173
     0
176
     1
  0
VISUALSTYLE
  5
38
102
{ACAD_REACTORS
330
2A
102
}
330
2A
100
AcDbVisualStyle
  2
Linepattern
 70
    14
177
     2
291
     1
 71
     2
176
     1
 72
     2
176
     1
 73
     0
176
     1
 90
        0
176
     1
 40
-0.6
176
     1
 41
-30.0
176
     1
 62
     5
 63
     7
421
 16777215
176
     1
 74
     1
176
     1
 91
        4
176
     1
 64
     7
176
     1
 65
   257
176
     1
 75
     7
176
     1
175
     7
176
     1
 42
1.0
176
     1
 92
        8
176
     1
 66
     7
176
     1
 43
1.0
176
     1
 76
     1
176
     1
 77
     6
176
     1
 78
     2
176
     1
 67
     7
176
     1
 79
     5
176
     1
170
     0
176
     1
171
     0
176
     1
290
     0
176
     1
 93
        1
176
     1
 44
0.0
176
     1
173
     0
176
     1
  0
VISUALSTYLE
  5
33
102
{ACAD_REACTORS
330
2A
102
}
330
2A
100
AcDbVisualStyle
  2
Realistic
 70
     8
177
     2
291
     0
 71
     2
176
     1
 72
     2
176
     1
 73
     0
176
     1
 90
        0
176
     1
 40
-0.6
176
     1
 41
-30.0
176
     1
 62
     5
 63
     7
421
 16777215
176
     1
 74
     1
176
     1
 91
        0
176
     1
 64
     7
176
     1
 65
   257
176
     1
 75
     1
176
     1
175
     1
176
     1
 42
1.0
176
     1
 92
        8
176
     1
 66
     8
424
  7895160
176
     1
 43
1.0
176
     1
 76
     1
176
     1
 77
     6
176
     1
 78
     2
176
     1
 67
     7
176
     1
 79
     5
176
     1
170
     0
176
     1
171
     0
176
     1
290
     0
176
     1
 93
       13
176
     1
 44
0.0
176
     1
173
     0
176
     1
  0
VISUALSTYLE
  5
37
102
{ACAD_REACTORS
330
2A
102
}
330
2A
100
AcDbVisualStyle
  2
Thicken
 70
    13
177
     2
291
     1
 71
     2
176
     1
 72
     2
176
     1
 73
     0
176
     1
 90
        0
176
     1
 40
-0.6
176
     1
 41
-30.0
176
     1
 62
     5
 63
     7
421
 16777215
176
     1
 74
     1
176
     1
 91
        4
176
     1
 64
     7
176
     1
 65
   257
176
     1
 75
     1
176
     1
175
     1
176
     1
 42
1.0
176
     1
 92
       12
176
     1
 66
     7
176
     1
 43
1.0
176
     1
 76
     1
176
     1
 77
     6
176
     1
 78
     2
176
     1
 67
     7
176
     1
 79
     5
176
     1
170
     0
176
     1
171
     0
176
     1
290
     0
176
     1
 93
        1
176
     1
 44
0.0
176
     1
173
     0
176
     1
  0
ENDSEC
  0
EOF
