  0
SECTION
  2
HEADER
  9
$ACADVER
  1
AC1024
  9
$ACADMAINTVER
 70
     6
  9
$DWGCODEPAGE
  3
ANSI_932
  9
$INSBASE
 10
0.0
 20
0.0
 30
0.0
  9
$EXTMIN
 10
105.4129228883565
 20
126.7649235631915
 30
0.0
  9
$EXTMAX
 10
259.9753086419752
 20
196.1872698198654
 30
0.0
  9
$LIMMIN
 10
0.0
 20
0.0
  9
$LIMMAX
 10
420.0
 20
297.0
  9
$ORTHOMODE
 70
     0
  9
$REGENMODE
 70
     1
  9
$FILLMODE
 70
     1
  9
$QTEXTMODE
 70
     0
  9
$MIRRTEXT
 70
     1
  9
$LTSCALE
 40
0.25
  9
$ATTMODE
 70
     1
  9
$TEXTSIZE
 40
5.0
  9
$TRACEWID
 40
0.05
  9
$TEXTSTYLE
  7
Standard
  9
$CLAYER
  8
0
  9
$CELTYPE
  6
ByLayer
  9
$CECOLOR
 62
   256
  9
$CELTSCALE
 40
1.0
  9
$DISPSILH
 70
     0
  9
$DIMSCALE
 40
1.0
  9
$DIMASZ
 40
4.0
  9
$DIMEXO
 40
2.0
  9
$DIMDLI
 40
10.0
  9
$DIMRND
 40
0.0
  9
$DIMDLE
 40
0.0
  9
$DIMEXE
 40
2.0
  9
$DIMTP
 40
0.0
  9
$DIMTM
 40
0.0
  9
$DIMTXT
 40
3.5
  9
$DIMCEN
 40
0.09
  9
$DIMTSZ
 40
0.0
  9
$DIMTOL
 70
     0
  9
$DIMLIM
 70
     0
  9
$DIMTIH
 70
     0
  9
$DIMTOH
 70
     0
  9
$DIMSE1
 70
     0
  9
$DIMSE2
 70
     0
  9
$DIMTAD
 70
     3
  9
$DIMZIN
 70
     8
  9
$DIMBLK
  1

  9
$DIMASO
 70
     1
  9
$DIMSHO
 70
     1
  9
$DIMPOST
  1

  9
$DIMAPOST
  1

  9
$DIMALT
 70
     0
  9
$DIMALTD
 70
     2
  9
$DIMALTF
 40
25.4
  9
$DIMLFAC
 40
1.0
  9
$DIMTOFL
 70
     1
  9
$DIMTVP
 40
0.7
  9
$DIMTIX
 70
     0
  9
$DIMSOXD
 70
     0
  9
$DIMSAH
 70
     0
  9
$DIMBLK1
  1

  9
$DIMBLK2
  1

  9
$DIMSTYLE
  2
Standard
  9
$DIMCLRD
 70
     0
  9
$DIMCLRE
 70
     0
  9
$DIMCLRT
 70
     0
  9
$DIMTFAC
 40
0.5
  9
$DIMGAP
 40
0.09
  9
$DIMJUST
 70
     0
  9
$DIMSD1
 70
     0
  9
$DIMSD2
 70
     0
  9
$DIMTOLJ
 70
     1
  9
$DIMTZIN
 70
     8
  9
$DIMALTZ
 70
     0
  9
$DIMALTTZ
 70
     0
  9
$DIMUPT
 70
     1
  9
$DIMDEC
 70
     2
  9
$DIMTDEC
 70
     4
  9
$DIMALTU
 70
     2
  9
$DIMALTTD
 70
     2
  9
$DIMTXSTY
  7
Standard
  9
$DIMAUNIT
 70
     0
  9
$DIMADEC
 70
     0
  9
$DIMALTRND
 40
0.0
  9
$DIMAZIN
 70
     0
  9
$DIMDSEP
 70
    46
  9
$DIMATFIT
 70
     2
  9
$DIMFRAC
 70
     0
  9
$DIMLDRBLK
  1

  9
$DIMLUNIT
 70
     2
  9
$DIMLWD
 70
    -2
  9
$DIMLWE
 70
    -2
  9
$DIMTMOVE
 70
     2
  9
$DIMFXL
 40
1.0
  9
$DIMFXLON
 70
     0
  9
$DIMJOGANG
 40
0.7853981633974483
  9
$DIMTFILL
 70
     0
  9
$DIMTFILLCLR
 70
     0
  9
$DIMARCSYM
 70
     0
  9
$DIMLTYPE
  6

  9
$DIMLTEX1
  6

  9
$DIMLTEX2
  6

  9
$DIMTXTDIRECTION
 70
     0
  9
$LUNITS
 70
     2
  9
$LUPREC
 70
     4
  9
$SKETCHINC
 40
0.1
  9
$FILLETRAD
 40
0.5
  9
$AUNITS
 70
     0
  9
$AUPREC
 70
     0
  9
$MENU
  1
.
  9
$ELEVATION
 40
0.0
  9
$PELEVATION
 40
0.0
  9
$THICKNESS
 40
0.0
  9
$LIMCHECK
 70
     0
  9
$CHAMFERA
 40
0.5
  9
$CHAMFERB
 40
0.5
  9
$CHAMFERC
 40
1.0
  9
$CHAMFERD
 40
0.0
  9
$SKPOLY
 70
     0
  9
$TDCREATE
 40
2456776.985590278
  9
$TDUCREATE
 40
2456776.610590278
  9
$TDUPDATE
 40
2456776.610592627
  9
$TDUUPDATE
 40
2456776.235592627
  9
$TDINDWG
 40
0.0000000116
  9
$TDUSRTIMER
 40
0.0000000116
  9
$USRTIMER
 70
     1
  9
$ANGBASE
 50
0.0
  9
$ANGDIR
 70
     0
  9
$PDMODE
 70
     0
  9
$PDSIZE
 40
0.0
  9
$PLINEWID
 40
0.0
  9
$SPLFRAME
 70
     0
  9
$SPLINETYPE
 70
     6
  9
$SPLINESEGS
 70
     8
  9
$HANDSEED
  5
4F4
  9
$SURFTAB1
 70
     6
  9
$SURFTAB2
 70
     6
  9
$SURFTYPE
 70
     6
  9
$SURFU
 70
     6
  9
$SURFV
 70
     6
  9
$UCSBASE
  2

  9
$UCSNAME
  2

  9
$UCSORG
 10
0.0
 20
0.0
 30
0.0
  9
$UCSXDIR
 10
1.0
 20
0.0
 30
0.0
  9
$UCSYDIR
 10
0.0
 20
1.0
 30
0.0
  9
$UCSORTHOREF
  2

  9
$UCSORTHOVIEW
 70
     0
  9
$UCSORGTOP
 10
0.0
 20
0.0
 30
0.0
  9
$UCSORGBOTTOM
 10
0.0
 20
0.0
 30
0.0
  9
$UCSORGLEFT
 10
0.0
 20
0.0
 30
0.0
  9
$UCSORGRIGHT
 10
0.0
 20
0.0
 30
0.0
  9
$UCSORGFRONT
 10
0.0
 20
0.0
 30
0.0
  9
$UCSORGBACK
 10
0.0
 20
0.0
 30
0.0
  9
$PUCSBASE
  2

  9
$PUCSNAME
  2

  9
$PUCSORG
 10
0.0
 20
0.0
 30
0.0
  9
$PUCSXDIR
 10
1.0
 20
0.0
 30
0.0
  9
$PUCSYDIR
 10
0.0
 20
1.0
 30
0.0
  9
$PUCSORTHOREF
  2

  9
$PUCSORTHOVIEW
 70
     0
  9
$PUCSORGTOP
 10
0.0
 20
0.0
 30
0.0
  9
$PUCSORGBOTTOM
 10
0.0
 20
0.0
 30
0.0
  9
$PUCSORGLEFT
 10
0.0
 20
0.0
 30
0.0
  9
$PUCSORGRIGHT
 10
0.0
 20
0.0
 30
0.0
  9
$PUCSORGFRONT
 10
0.0
 20
0.0
 30
0.0
  9
$PUCSORGBACK
 10
0.0
 20
0.0
 30
0.0
  9
$USERI1
 70
     0
  9
$USERI2
 70
     0
  9
$USERI3
 70
     0
  9
$USERI4
 70
     0
  9
$USERI5
 70
     0
  9
$USERR1
 40
0.0
  9
$USERR2
 40
0.0
  9
$USERR3
 40
0.0
  9
$USERR4
 40
0.0
  9
$USERR5
 40
0.0
  9
$WORLDVIEW
 70
     1
  9
$SHADEDGE
 70
     3
  9
$SHADEDIF
 70
    70
  9
$TILEMODE
 70
     1
  9
$MAXACTVP
 70
    64
  9
$PINSBASE
 10
0.0
 20
0.0
 30
0.0
  9
$PLIMCHECK
 70
     0
  9
$PEXTMIN
 10
0.0
 20
0.0
 30
0.0
  9
$PEXTMAX
 10
420.0
 20
297.0
 30
0.0
  9
$PLIMMIN
 10
0.0
 20
0.0
  9
$PLIMMAX
 10
420.0
 20
297.0
  9
$UNITMODE
 70
     0
  9
$VISRETAIN
 70
     1
  9
$PLINEGEN
 70
     0
  9
$PSLTSCALE
 70
     1
  9
$TREEDEPTH
 70
  3020
  9
$CMLSTYLE
  2
Standard
  9
$CMLJUST
 70
     0
  9
$CMLSCALE
 40
1.0
  9
$PROXYGRAPHICS
 70
     1
  9
$MEASUREMENT
 70
     1
  9
$CELWEIGHT
370
    -1
  9
$ENDCAPS
280
     0
  9
$JOINSTYLE
280
     0
  9
$LWDISPLAY
290
     0
  9
$INSUNITS
 70
     4
  9
$HYPERLINKBASE
  1

  9
$STYLESHEET
  1

  9
$XEDIT
290
     1
  9
$CEPSNTYPE
380
     0
  9
$PSTYLEMODE
290
     1
  9
$FINGERPRINTGUID
  2
{C7F9C0FC-3FDA-41F9-AEA9-32FF515C57AE}
  9
$VERSIONGUID
  2
{FAEB1C32-E019-11D5-929B-00C0DF256EC4}
  9
$EXTNAMES
290
     1
  9
$PSVPSCALE
 40
0.0
  9
$OLESTARTUP
290
     0
  9
$SORTENTS
280
   127
  9
$INDEXCTL
280
     0
  9
$HIDETEXT
280
     1
  9
$XCLIPFRAME
280
     2
  9
$HALOGAP
280
     0
  9
$OBSCOLOR
 70
   257
  9
$OBSLTYPE
280
     0
  9
$INTERSECTIONDISPLAY
280
     0
  9
$INTERSECTIONCOLOR
 70
   257
  9
$DIMASSOC
280
     1
  9
$PROJECTNAME
  1

  9
$CAMERADISPLAY
290
     0
  9
$LENSLENGTH
 40
50.0
  9
$CAMERAHEIGHT
 40
0.0
  9
$STEPSPERSEC
 40
2.0
  9
$STEPSIZE
 40
6.0
  9
$3DDWFPREC
 40
2.0
  9
$PSOLWIDTH
 40
0.25
  9
$PSOLHEIGHT
 40
4.0
  9
$LOFTANG1
 40
1.570796326794897
  9
$LOFTANG2
 40
1.570796326794897
  9
$LOFTMAG1
 40
0.0
  9
$LOFTMAG2
 40
0.0
  9
$LOFTPARAM
 70
     7
  9
$LOFTNORMALS
280
     1
  9
$LATITUDE
 40
37.795
  9
$LONGITUDE
 40
-122.394
  9
$NORTHDIRECTION
 40
0.0
  9
$TIMEZONE
 70
 -8000
  9
$LIGHTGLYPHDISPLAY
280
     1
  9
$TILEMODELIGHTSYNCH
280
     1
  9
$SOLIDHIST
280
     1
  9
$SHOWHIST
280
     1
  9
$DWFFRAME
280
     2
  9
$DGNFRAME
280
     2
  9
$REALWORLDSCALE
290
     1
  9
$INTERFERECOLOR
 62
   256
  9
$CSHADOW
280
     0
  9
$SHADOWPLANELOCATION
 40
0.0
  0
ENDSEC
  0
SECTION
  2
CLASSES
  0
CLASS
  1
ACDBDICTIONARYWDFLT
  2
AcDbDictionaryWithDefault
  3
ObjectDBX Classes
 90
        0
 91
        4
280
     0
281
     0
  0
CLASS
  1
VISUALSTYLE
  2
AcDbVisualStyle
  3
ObjectDBX Classes
 90
     4095
 91
        4
280
     0
281
     0
  0
CLASS
  1
MATERIAL
  2
AcDbMaterial
  3
ObjectDBX Classes
 90
     1153
 91
        4
280
     0
281
     0
  0
ENDSEC
  0
SECTION
  2
TABLES
  0
TABLE
  2
VPORT
  5
8
330
0
100
AcDbSymbolTable
 70
     1
  0
VPORT
  5
29
330
8
100
AcDbSymbolTableRecord
100
AcDbViewportTableRecord
  2
*Active
 70
     0
 10
0.0
 20
0.0
 11
1.0
 21
1.0
 12
10.42990654205607
 22
4.5
 13
0.0
 23
0.0
 14
0.5
 24
0.5
 15
0.5
 25
0.5
 16
0.0
 26
0.0
 36
1.0
 17
0.0
 27
0.0
 37
0.0
 40
9.0
 41
1.972972972850329
 42
50.0
 43
0.0
 44
0.0
 50
0.0
 51
0.0
 71
     0
 72
   100
 73
     1
 74
     3
 75
     0
 76
     0
 77
     0
 78
     0
281
     0
 65
     1
110
0.0
120
0.0
130
0.0
111
1.0
121
0.0
131
0.0
112
0.0
122
1.0
132
0.0
 79
     0
146
0.0
 60
     3
 61
     5
292
     1
282
     1
141
0.0
142
0.0
 63
   250
  0
ENDTAB
  0
TABLE
  2
LTYPE
  5
5
330
0
100
AcDbSymbolTable
 70
     9
  0
LTYPE
  5
14
330
5
100
AcDbSymbolTableRecord
100
AcDbLinetypeTableRecord
  2
ByBlock
 70
     0
  3

 72
    65
 73
     0
 40
0.0
  0
LTYPE
  5
15
330
5
100
AcDbSymbolTableRecord
100
AcDbLinetypeTableRecord
  2
ByLayer
 70
     0
  3

 72
    65
 73
     0
 40
0.0
  0
LTYPE
  5
16
330
5
100
AcDbSymbolTableRecord
100
AcDbLinetypeTableRecord
  2
Continuous
 70
     0
  3
Solid line
 72
    65
 73
     0
 40
0.0
  0
LTYPE
  5
8E
330
5
100
AcDbSymbolTableRecord
100
AcDbLinetypeTableRecord
  2
DOT
 70
     0
  3
DOT
 72
    65
 73
     2
 40
4.0
 49
6.0
 74
     0
 49
-2.0
 74
     0
  0
LTYPE
  5
8F
330
5
100
AcDbSymbolTableRecord
100
AcDbLinetypeTableRecord
  2
HIDDEN
 70
     0
  3
HIDDEN
 72
    65
 73
     2
 40
4.2
 49
8.4
 74
     0
 49
-4.2
 74
     0
  0
LTYPE
  5
90
330
5
100
AcDbSymbolTableRecord
100
AcDbLinetypeTableRecord
  2
DASHDOT
 70
     0
  3
DASHDOT
 72
    65
 73
     4
 40
14.5
 49
30.0
 74
     0
 49
-9.0
 74
     0
 49
2.5
 74
     0
 49
-9.0
 74
     0
  0
LTYPE
  5
91
330
5
100
AcDbSymbolTableRecord
100
AcDbLinetypeTableRecord
  2
PHANTOM
 70
     0
  3
PHANTOM
 72
    65
 73
     6
 40
12.0
 49
30.0
 74
     0
 49
-9.0
 74
     0
 49
2.5
 74
     0
 49
-5.0
 74
     0
 49
2.5
 74
     0
 49
-9.0
 74
     0
  0
LTYPE
  5
92
330
5
100
AcDbSymbolTableRecord
100
AcDbLinetypeTableRecord
  2
ACAD_ISO14W100
 70
     0
  3
ACAD_ISO14W100
 72
    65
 73
     8
 40
1.5
 49
12.0
 74
     0
 49
-3.0
 74
     0
 49
0.5
 74
     0
 49
-3.0
 74
     0
 49
0.5
 74
     0
 49
-3.0
 74
     0
 49
0.5
 74
     0
 49
-3.0
 74
     0
  0
LTYPE
  5
93
330
5
100
AcDbSymbolTableRecord
100
AcDbLinetypeTableRecord
  2
ACAD_ISO06W100
 70
     0
  3
ACAD_ISO06W100
 72
    65
 73
     8
 40
13.5
 49
24.0
 74
     0
 49
-3.0
 74
     0
 49
0.5
 74
     0
 49
-3.0
 74
     0
 49
0.5
 74
     0
 49
-3.0
 74
     0
 49
0.5
 74
     0
 49
-3.0
 74
     0
  0
LTYPE
  5
94
330
5
100
AcDbSymbolTableRecord
100
AcDbLinetypeTableRecord
  2
ACAD_ISO11W100
 70
     0
  3
ACAD_ISO11W100
 72
    65
 73
     6
 40
15.5
 49
12.0
 74
     0
 49
-3.0
 74
     0
 49
12.0
 74
     0
 49
-3.0
 74
     0
 49
0.5
 74
     0
 49
-3.0
 74
     0
  0
LTYPE
  5
95
330
5
100
AcDbSymbolTableRecord
100
AcDbLinetypeTableRecord
  2
ACAD_ISO13W100
 70
     0
  3
ACAD_ISO13W100
 72
    65
 73
     8
 40
13.0
 49
12.0
 74
     0
 49
-3.0
 74
     0
 49
12.0
 74
     0
 49
-3.0
 74
     0
 49
0.5
 74
     0
 49
-3.0
 74
     0
 49
0.5
 74
     0
 49
-3.0
 74
     0
  0
ENDTAB
  0
TABLE
  2
LAYER
  5
2
330
0
100
AcDbSymbolTable
 70
    32
  0
LAYER
  5
10
330
2
100
AcDbSymbolTableRecord
100
AcDbLayerTableRecord
  2
0
 70
     0
 62
     7
  6
Continuous
370
    -3
390
F
347
3E
  0
LAYER
  5
96
330
2
100
AcDbSymbolTableRecord
100
AcDbLayerTableRecord
  2
1
 70
     0
 62
     7
  6
Continuous
370
     9
390
F
347
3E
  0
LAYER
  5
97
330
2
100
AcDbSymbolTableRecord
100
AcDbLayerTableRecord
  2
2
 70
     0
 62
   134
  6
Continuous
370
     9
390
F
347
3E
  0
LAYER
  5
98
330
2
100
AcDbSymbolTableRecord
100
AcDbLayerTableRecord
  2
3
 70
     0
 62
   214
  6
Continuous
370
     9
390
F
347
3E
  0
LAYER
  5
99
330
2
100
AcDbSymbolTableRecord
100
AcDbLayerTableRecord
  2
4
 70
     0
 62
    54
  6
Continuous
370
     9
390
F
347
3E
  0
LAYER
  5
9A
330
2
100
AcDbSymbolTableRecord
100
AcDbLayerTableRecord
  2
5
 70
     0
 62
    94
  6
Continuous
370
     9
390
F
347
3E
  0
LAYER
  5
9B
330
2
100
AcDbSymbolTableRecord
100
AcDbLayerTableRecord
  2
6
 70
     0
 62
    14
  6
Continuous
370
     9
390
F
347
3E
  0
LAYER
  5
9C
330
2
100
AcDbSymbolTableRecord
100
AcDbLayerTableRecord
  2
7
 70
     0
 62
     4
  6
Continuous
370
     9
390
F
347
3E
  0
LAYER
  5
9D
330
2
100
AcDbSymbolTableRecord
100
AcDbLayerTableRecord
  2
8
 70
     0
 62
     6
  6
Continuous
370
     9
390
F
347
3E
  0
LAYER
  5
9E
330
2
100
AcDbSymbolTableRecord
100
AcDbLayerTableRecord
  2
9
 70
     0
 62
     2
  6
Continuous
370
     9
390
F
347
3E
  0
LAYER
  5
9F
330
2
100
AcDbSymbolTableRecord
100
AcDbLayerTableRecord
  2
10
 70
     0
 62
     3
  6
Continuous
370
     9
390
F
347
3E
  0
LAYER
  5
A0
330
2
100
AcDbSymbolTableRecord
100
AcDbLayerTableRecord
  2
11
 70
     0
 62
   251
  6
Continuous
370
     9
390
F
347
3E
  0
LAYER
  5
A1
330
2
100
AcDbSymbolTableRecord
100
AcDbLayerTableRecord
  2
12
 70
     0
 62
   136
  6
Continuous
370
     9
390
F
347
3E
  0
LAYER
  5
A2
330
2
100
AcDbSymbolTableRecord
100
AcDbLayerTableRecord
  2
13
 70
     0
 62
   216
  6
Continuous
370
     9
390
F
347
3E
  0
LAYER
  5
A3
330
2
100
AcDbSymbolTableRecord
100
AcDbLayerTableRecord
  2
14
 70
     0
 62
    56
  6
Continuous
370
     9
390
F
347
3E
  0
LAYER
  5
A4
330
2
100
AcDbSymbolTableRecord
100
AcDbLayerTableRecord
  2
15
 70
     0
 62
    96
  6
Continuous
370
     9
390
F
347
3E
  0
LAYER
  5
A5
330
2
100
AcDbSymbolTableRecord
100
AcDbLayerTableRecord
  2
16
 70
     0
 62
    16
  6
Continuous
370
     9
390
F
347
3E
  0
LAYER
  5
A6
330
2
100
AcDbSymbolTableRecord
100
AcDbLayerTableRecord
  2
17
 70
     0
 62
   132
  6
Continuous
370
     9
390
F
347
3E
  0
LAYER
  5
A7
330
2
100
AcDbSymbolTableRecord
100
AcDbLayerTableRecord
  2
18
 70
     0
 62
   212
  6
Continuous
370
     9
390
F
347
3E
  0
LAYER
  5
A8
330
2
100
AcDbSymbolTableRecord
100
AcDbLayerTableRecord
  2
19
 70
     0
 62
    52
  6
Continuous
370
     9
390
F
347
3E
  0
LAYER
  5
A9
330
2
100
AcDbSymbolTableRecord
100
AcDbLayerTableRecord
  2
20
 70
     0
 62
   250
  6
Continuous
370
     9
390
F
347
3E
  0
LAYER
  5
AA
330
2
100
AcDbSymbolTableRecord
100
AcDbLayerTableRecord
  2
21
 70
     0
 62
     7
  6
Continuous
370
     9
390
F
347
3E
  0
LAYER
  5
AB
330
2
100
AcDbSymbolTableRecord
100
AcDbLayerTableRecord
  2
22
 70
     0
 62
     7
  6
Continuous
370
     9
390
F
347
3E
  0
LAYER
  5
AC
330
2
100
AcDbSymbolTableRecord
100
AcDbLayerTableRecord
  2
23
 70
     0
 62
     5
  6
Continuous
370
     9
390
F
347
3E
  0
LAYER
  5
AD
330
2
100
AcDbSymbolTableRecord
100
AcDbLayerTableRecord
  2
24
 70
     0
 62
   104
  6
Continuous
370
     9
390
F
347
3E
  0
LAYER
  5
AE
330
2
100
AcDbSymbolTableRecord
100
AcDbLayerTableRecord
  2
25
 70
     0
 62
     7
  6
Continuous
370
     9
390
F
347
3E
  0
LAYER
  5
AF
330
2
100
AcDbSymbolTableRecord
100
AcDbLayerTableRecord
  2
26
 70
     0
 62
     1
  6
Continuous
370
     9
390
F
347
3E
  0
LAYER
  5
B0
330
2
100
AcDbSymbolTableRecord
100
AcDbLayerTableRecord
  2
27
 70
     0
 62
    12
  6
Continuous
370
     9
390
F
347
3E
  0
LAYER
  5
B1
330
2
100
AcDbSymbolTableRecord
100
AcDbLayerTableRecord
  2
28
 70
     0
 62
   104
  6
Continuous
370
     9
390
F
347
3E
  0
LAYER
  5
B2
330
2
100
AcDbSymbolTableRecord
100
AcDbLayerTableRecord
  2
29
 70
     0
 62
     1
  6
Continuous
370
     9
390
F
347
3E
  0
LAYER
  5
B3
330
2
100
AcDbSymbolTableRecord
100
AcDbLayerTableRecord
  2
30
 70
     0
 62
   104
  6
Continuous
370
     9
390
F
347
3E
  0
LAYER
  5
B4
330
2
100
AcDbSymbolTableRecord
100
AcDbLayerTableRecord
  2
1319
 70
     0
 62
   240
  6
Continuous
370
     9
390
F
347
3E
  0
ENDTAB
  0
TABLE
  2
STYLE
  5
3
330
0
100
AcDbSymbolTable
 70
     3
  0
STYLE
  5
11
330
3
100
AcDbSymbolTableRecord
100
AcDbTextStyleTableRecord
  2
Standard
 70
     0
 40
0.0
 41
1.0
 50
0.0
 71
     0
 42
5.0
  3
txt
  4
bigfont
  0
STYLE
  5
41
330
3
100
AcDbSymbolTableRecord
100
AcDbTextStyleTableRecord
  2
T_STANDARD
 70
     4
 40
10.0
 41
1.0
 50
0.0
 71
     0
 42
10.0
  3
txt
  4
bigfont
  0
STYLE
  5
424
330
3
100
AcDbSymbolTableRecord
100
AcDbTextStyleTableRecord
  2
ＭＳ ゴシック
 70
     0
 40
0.0
 41
1.0
 50
0.0
 71
     0
 42
0.0
  3
MSGOTHIC.TTC
  4

  0
ENDTAB
  0
TABLE
  2
VIEW
  5
6
330
0
100
AcDbSymbolTable
 70
     0
  0
ENDTAB
  0
TABLE
  2
UCS
  5
7
330
0
100
AcDbSymbolTable
 70
     0
  0
ENDTAB
  0
TABLE
  2
APPID
  5
9
330
0
100
AcDbSymbolTable
 70
     2
  0
APPID
  5
12
330
9
100
AcDbSymbolTableRecord
100
AcDbRegAppTableRecord
  2
ACAD
 70
     0
  0
APPID
  5
40
330
9
100
AcDbSymbolTableRecord
100
AcDbRegAppTableRecord
  2
ODA
 70
     0
  0
ENDTAB
  0
TABLE
  2
DIMSTYLE
  5
A
330
0
100
AcDbSymbolTable
 70
     1
100
AcDbDimStyleTable
  0
DIMSTYLE
105
27
102
{ACAD_REACTORS
330
42E
330
438
330
442
330
44C
330
456
330
460
330
46A
330
474
330
47E
330
4C0
330
4D5
330
4DF
330
4E9
102
}
330
A
100
AcDbSymbolTableRecord
100
AcDbDimStyleTableRecord
  2
Standard
 70
     0
178
     0
340
11
  0
ENDTAB
  0
TABLE
  2
BLOCK_RECORD
  5
1
330
0
100
AcDbSymbolTable
 70
    30
  0
BLOCK_RECORD
  5
1F
330
1
100
AcDbSymbolTableRecord
100
AcDbBlockTableRecord
  2
*Model_Space
340
22
 70
     0
280
     1
281
     0
  0
BLOCK_RECORD
  5
1B
330
1
100
AcDbSymbolTableRecord
100
AcDbBlockTableRecord
  2
*Paper_Space
340
1E
 70
     0
280
     1
281
     0
  0
BLOCK_RECORD
  5
23
330
1
100
AcDbSymbolTableRecord
100
AcDbBlockTableRecord
  2
*Paper_Space0
340
26
 70
     0
280
     1
281
     0
  0
BLOCK_RECORD
  5
42
330
1
100
AcDbSymbolTableRecord
100
AcDbBlockTableRecord
  2
_ORIGIN
340
0
 70
     0
280
     1
281
     0
  0
BLOCK_RECORD
  5
47
330
1
100
AcDbSymbolTableRecord
100
AcDbBlockTableRecord
  2
_DOTBLANK
340
0
 70
     0
280
     1
281
     0
  0
BLOCK_RECORD
  5
4C
330
1
100
AcDbSymbolTableRecord
100
AcDbBlockTableRecord
  2
_DOT
340
0
 70
     0
280
     1
281
     0
  0
BLOCK_RECORD
  5
51
330
1
100
AcDbSymbolTableRecord
100
AcDbBlockTableRecord
  2
_OPEN
340
0
102
{BLKREFS
331
42C
331
42D
331
436
331
437
331
440
331
441
331
44A
331
44B
331
454
331
455
331
45E
331
45F
331
468
331
469
331
472
331
473
331
47C
331
47D
331
4BE
331
4BF
331
4D3
331
4D4
331
4DD
331
4DE
331
4E7
331
4E8
102
}
 70
     0
280
     1
281
     0
  0
BLOCK_RECORD
  5
57
330
1
100
AcDbSymbolTableRecord
100
AcDbBlockTableRecord
  2
_CLOSED
340
0
 70
     0
280
     1
281
     0
  0
BLOCK_RECORD
  5
5E
330
1
100
AcDbSymbolTableRecord
100
AcDbBlockTableRecord
  2
_CLOSEDBLANK
340
0
 70
     0
280
     1
281
     0
  0
BLOCK_RECORD
  5
64
330
1
100
AcDbSymbolTableRecord
100
AcDbBlockTableRecord
  2
_ARROWFILLED
340
0
 70
     0
280
     1
281
     0
  0
BLOCK_RECORD
  5
68
330
1
100
AcDbSymbolTableRecord
100
AcDbBlockTableRecord
  2
_BOXBLANK
340
0
 70
     0
280
     1
281
     0
  0
BLOCK_RECORD
  5
70
330
1
100
AcDbSymbolTableRecord
100
AcDbBlockTableRecord
  2
_BOXFILLED
340
0
 70
     0
280
     1
281
     0
  0
BLOCK_RECORD
  5
75
330
1
100
AcDbSymbolTableRecord
100
AcDbBlockTableRecord
  2
_INTEGRAL
340
0
 70
     0
280
     1
281
     0
  0
BLOCK_RECORD
  5
7A
330
1
100
AcDbSymbolTableRecord
100
AcDbBlockTableRecord
  2
_OBLIQUE
340
0
 70
     0
280
     1
281
     0
  0
BLOCK_RECORD
  5
7E
330
1
100
AcDbSymbolTableRecord
100
AcDbBlockTableRecord
  2
_NONE
340
0
 70
     0
280
     1
281
     0
  0
BLOCK_RECORD
  5
81
330
1
100
AcDbSymbolTableRecord
100
AcDbBlockTableRecord
  2
MARK_OPEN
340
0
102
{BLKREFS
331
487
331
48D
331
493
331
499
331
49F
331
4A5
102
}
 70
     0
280
     1
281
     0
  0
BLOCK_RECORD
  5
86
330
1
100
AcDbSymbolTableRecord
100
AcDbBlockTableRecord
  2
MARK_ORIGIN
340
0
 70
     0
280
     1
281
     0
  0
BLOCK_RECORD
  5
8A
330
1
100
AcDbSymbolTableRecord
100
AcDbBlockTableRecord
  2
MARK_DOT
340
0
 70
     0
280
     1
281
     0
  0
BLOCK_RECORD
  5
425
330
1
100
AcDbSymbolTableRecord
100
AcDbBlockTableRecord
  2
Dim1
340
0
 70
     0
280
     1
281
     0
  0
BLOCK_RECORD
  5
42F
330
1
100
AcDbSymbolTableRecord
100
AcDbBlockTableRecord
  2
Dim2
340
0
 70
     0
280
     1
281
     0
  0
BLOCK_RECORD
  5
439
330
1
100
AcDbSymbolTableRecord
100
AcDbBlockTableRecord
  2
Dim3
340
0
 70
     0
280
     1
281
     0
  0
BLOCK_RECORD
  5
443
330
1
100
AcDbSymbolTableRecord
100
AcDbBlockTableRecord
  2
Dim4
340
0
 70
     0
280
     1
281
     0
  0
BLOCK_RECORD
  5
44D
330
1
100
AcDbSymbolTableRecord
100
AcDbBlockTableRecord
  2
Dim5
340
0
 70
     0
280
     1
281
     0
  0
BLOCK_RECORD
  5
457
330
1
100
AcDbSymbolTableRecord
100
AcDbBlockTableRecord
  2
Dim6
340
0
 70
     0
280
     1
281
     0
  0
BLOCK_RECORD
  5
461
330
1
100
AcDbSymbolTableRecord
100
AcDbBlockTableRecord
  2
Dim7
340
0
 70
     0
280
     1
281
     0
  0
BLOCK_RECORD
  5
46B
330
1
100
AcDbSymbolTableRecord
100
AcDbBlockTableRecord
  2
Dim8
340
0
 70
     0
280
     1
281
     0
  0
BLOCK_RECORD
  5
475
330
1
100
AcDbSymbolTableRecord
100
AcDbBlockTableRecord
  2
Dim9
340
0
 70
     0
280
     1
281
     0
  0
BLOCK_RECORD
  5
4B9
330
1
100
AcDbSymbolTableRecord
100
AcDbBlockTableRecord
  2
Dim10
340
0
 70
     0
280
     1
281
     0
  0
BLOCK_RECORD
  5
4C1
330
1
100
AcDbSymbolTableRecord
100
AcDbBlockTableRecord
  2
*G26
340
0
102
{BLKREFS
331
4CA
102
}
 70
     0
280
     1
281
     0
  0
BLOCK_RECORD
  5
4CC
330
1
100
AcDbSymbolTableRecord
100
AcDbBlockTableRecord
  2
Dim11
340
0
 70
     0
280
     1
281
     0
  0
BLOCK_RECORD
  5
4D6
330
1
100
AcDbSymbolTableRecord
100
AcDbBlockTableRecord
  2
Dim12
340
0
 70
     0
280
     1
281
     0
  0
BLOCK_RECORD
  5
4E0
330
1
100
AcDbSymbolTableRecord
100
AcDbBlockTableRecord
  2
Dim13
340
0
 70
     0
280
     1
281
     0
  0
ENDTAB
  0
ENDSEC
  0
SECTION
  2
BLOCKS
  0
BLOCK
  5
20
330
1F
100
AcDbEntity
  8
0
100
AcDbBlockBegin
  2
*Model_Space
 70
     0
 10
0.0
 20
0.0
 30
0.0
  3
*Model_Space
  1

  0
ENDBLK
  5
21
330
1F
100
AcDbEntity
  8
0
100
AcDbBlockEnd
  0
BLOCK
  5
1C
330
1B
100
AcDbEntity
 67
     1
  8
0
100
AcDbBlockBegin
  2
*Paper_Space
 70
     0
 10
0.0
 20
0.0
 30
0.0
  3
*Paper_Space
  1

  0
ENDBLK
  5
1D
330
1B
100
AcDbEntity
 67
     1
  8
0
100
AcDbBlockEnd
  0
BLOCK
  5
24
330
23
100
AcDbEntity
  8
0
100
AcDbBlockBegin
  2
*Paper_Space0
 70
     0
 10
0.0
 20
0.0
 30
0.0
  3
*Paper_Space0
  1

  0
ENDBLK
  5
25
330
23
100
AcDbEntity
  8
0
100
AcDbBlockEnd
  0
BLOCK
  5
45
330
42
100
AcDbEntity
  8
0
100
AcDbBlockBegin
  2
_ORIGIN
 70
     0
 10
0.0
 20
0.0
 30
0.0
  3
_ORIGIN
  1

  0
CIRCLE
  5
43
330
42
100
AcDbEntity
  8
0
100
AcDbCircle
 10
0.0
 20
0.0
 30
0.0
 40
0.5
  0
LINE
  5
44
330
42
100
AcDbEntity
  8
0
100
AcDbLine
 10
0.0
 20
0.0
 30
0.0
 11
-1.0
 21
0.0
 31
0.0
  0
ENDBLK
  5
46
330
42
100
AcDbEntity
  8
0
100
AcDbBlockEnd
  0
BLOCK
  5
4A
330
47
100
AcDbEntity
  8
0
100
AcDbBlockBegin
  2
_DOTBLANK
 70
     0
 10
0.0
 20
0.0
 30
0.0
  3
_DOTBLANK
  1

  0
CIRCLE
  5
48
330
47
100
AcDbEntity
  8
0
100
AcDbCircle
 10
0.0
 20
0.0
 30
0.0
 40
0.5
  0
LINE
  5
49
330
47
100
AcDbEntity
  8
0
100
AcDbLine
 10
-0.5
 20
0.0
 30
0.0
 11
-1.0
 21
0.0
 31
0.0
  0
ENDBLK
  5
4B
330
47
100
AcDbEntity
  8
0
100
AcDbBlockEnd
  0
BLOCK
  5
4F
330
4C
100
AcDbEntity
  8
0
100
AcDbBlockBegin
  2
_DOT
 70
     0
 10
0.0
 20
0.0
 30
0.0
  3
_DOT
  1

  0
LWPOLYLINE
  5
4D
330
4C
100
AcDbEntity
  8
0
100
AcDbPolyline
 90
        2
 70
     1
 43
0.5
 10
-0.25
 20
0.0
 42
1.0
 10
0.25
 20
0.0
 42
1.0
  0
LINE
  5
4E
330
4C
100
AcDbEntity
  8
0
100
AcDbLine
 10
-0.5
 20
0.0
 30
0.0
 11
-1.0
 21
0.0
 31
0.0
  0
ENDBLK
  5
50
330
4C
100
AcDbEntity
  8
0
100
AcDbBlockEnd
  0
BLOCK
  5
55
330
51
100
AcDbEntity
  8
0
100
AcDbBlockBegin
  2
_OPEN
 70
     0
 10
0.0
 20
0.0
 30
0.0
  3
_OPEN
  1

  0
LINE
  5
52
330
51
100
AcDbEntity
  8
0
100
AcDbLine
 10
0.0
 20
0.0
 30
0.0
 11
-1.0
 21
0.1666666666666667
 31
0.0
  0
LINE
  5
53
330
51
100
AcDbEntity
  8
0
100
AcDbLine
 10
0.0
 20
0.0
 30
0.0
 11
-1.0
 21
-0.1666666666666667
 31
0.0
  0
LINE
  5
54
330
51
100
AcDbEntity
  8
0
100
AcDbLine
 10
0.0
 20
0.0
 30
0.0
 11
-1.0
 21
0.0
 31
0.0
  0
ENDBLK
  5
56
330
51
100
AcDbEntity
  8
0
100
AcDbBlockEnd
  0
BLOCK
  5
5C
330
57
100
AcDbEntity
  8
0
100
AcDbBlockBegin
  2
_CLOSED
 70
     0
 10
0.0
 20
0.0
 30
0.0
  3
_CLOSED
  1

  0
LINE
  5
58
330
57
100
AcDbEntity
  8
0
100
AcDbLine
 10
0.0
 20
0.0
 30
0.0
 11
-1.0
 21
0.1666666666666667
 31
0.0
  0
LINE
  5
59
330
57
100
AcDbEntity
  8
0
100
AcDbLine
 10
0.0
 20
0.0
 30
0.0
 11
-1.0
 21
-0.1666666666666667
 31
0.0
  0
LINE
  5
5A
330
57
100
AcDbEntity
  8
0
100
AcDbLine
 10
-1.0
 20
0.1666666666666667
 30
0.0
 11
-1.0
 21
-0.1666666666666667
 31
0.0
  0
LINE
  5
5B
330
57
100
AcDbEntity
  8
0
100
AcDbLine
 10
0.0
 20
0.0
 30
0.0
 11
-1.0
 21
0.0
 31
0.0
  0
ENDBLK
  5
5D
330
57
100
AcDbEntity
  8
0
100
AcDbBlockEnd
  0
BLOCK
  5
62
330
5E
100
AcDbEntity
  8
0
100
AcDbBlockBegin
  2
_CLOSEDBLANK
 70
     0
 10
0.0
 20
0.0
 30
0.0
  3
_CLOSEDBLANK
  1

  0
LINE
  5
5F
330
5E
100
AcDbEntity
  8
0
100
AcDbLine
 10
0.0
 20
0.0
 30
0.0
 11
-1.0
 21
0.1666666666666667
 31
0.0
  0
LINE
  5
60
330
5E
100
AcDbEntity
  8
0
100
AcDbLine
 10
0.0
 20
0.0
 30
0.0
 11
-1.0
 21
-0.1666666666666667
 31
0.0
  0
LINE
  5
61
330
5E
100
AcDbEntity
  8
0
100
AcDbLine
 10
-1.0
 20
0.1666666666666667
 30
0.0
 11
-1.0
 21
-0.1666666666666667
 31
0.0
  0
ENDBLK
  5
63
330
5E
100
AcDbEntity
  8
0
100
AcDbBlockEnd
  0
BLOCK
  5
66
330
64
100
AcDbEntity
  8
0
100
AcDbBlockBegin
  2
_ARROWFILLED
 70
     0
 10
0.0
 20
0.0
 30
0.0
  3
_ARROWFILLED
  1

  0
SOLID
  5
65
330
64
100
AcDbEntity
  8
0
100
AcDbTrace
 10
0.0
 20
0.0
 30
0.0
 11
-1.0
 21
-0.1666666666666667
 31
0.0
 12
-1.0
 22
0.1666666666666667
 32
0.0
 13
0.0
 23
0.0
 33
0.0
  0
ENDBLK
  5
67
330
64
100
AcDbEntity
  8
0
100
AcDbBlockEnd
  0
BLOCK
  5
6E
330
68
100
AcDbEntity
  8
0
100
AcDbBlockBegin
  2
_BOXBLANK
 70
     0
 10
0.0
 20
0.0
 30
0.0
  3
_BOXBLANK
  1

  0
LINE
  5
69
330
68
100
AcDbEntity
  8
0
100
AcDbLine
 10
-0.5
 20
-0.5
 30
0.0
 11
0.5
 21
-0.5
 31
0.0
  0
LINE
  5
6A
330
68
100
AcDbEntity
  8
0
100
AcDbLine
 10
0.5
 20
-0.5
 30
0.0
 11
0.5
 21
0.5
 31
0.0
  0
LINE
  5
6B
330
68
100
AcDbEntity
  8
0
100
AcDbLine
 10
0.5
 20
0.5
 30
0.0
 11
-0.5
 21
0.5
 31
0.0
  0
LINE
  5
6C
330
68
100
AcDbEntity
  8
0
100
AcDbLine
 10
-0.5
 20
0.5
 30
0.0
 11
-0.5
 21
-0.5
 31
0.0
  0
LINE
  5
6D
330
68
100
AcDbEntity
  8
0
100
AcDbLine
 10
-0.5
 20
0.0
 30
0.0
 11
-1.0
 21
0.0
 31
0.0
  0
ENDBLK
  5
6F
330
68
100
AcDbEntity
  8
0
100
AcDbBlockEnd
  0
BLOCK
  5
73
330
70
100
AcDbEntity
  8
0
100
AcDbBlockBegin
  2
_BOXFILLED
 70
     0
 10
0.0
 20
0.0
 30
0.0
  3
_BOXFILLED
  1

  0
SOLID
  5
71
330
70
100
AcDbEntity
  8
0
100
AcDbTrace
 10
-0.5
 20
0.5
 30
0.0
 11
0.5
 21
0.5
 31
0.0
 12
-0.5
 22
-0.5
 32
0.0
 13
0.5
 23
-0.5
 33
0.0
  0
LINE
  5
72
330
70
100
AcDbEntity
  8
0
100
AcDbLine
 10
-0.5
 20
0.0
 30
0.0
 11
-1.0
 21
0.0
 31
0.0
  0
ENDBLK
  5
74
330
70
100
AcDbEntity
  8
0
100
AcDbBlockEnd
  0
BLOCK
  5
78
330
75
100
AcDbEntity
  8
0
100
AcDbBlockBegin
  2
_INTEGRAL
 70
     0
 10
0.0
 20
0.0
 30
0.0
  3
_INTEGRAL
  1

  0
ARC
  5
76
330
75
100
AcDbEntity
  8
0
100
AcDbCircle
 10
0.444888
 20
-0.0913346
 30
0.0
 40
0.4541666
100
AcDbArc
 50
101.9999999999999
 51
167.9999999999998
  0
ARC
  5
77
330
75
100
AcDbEntity
  8
0
100
AcDbCircle
 10
-0.444888
 20
0.0913346
 30
0.0
 40
0.4541666
100
AcDbArc
 50
281.9999999999997
 51
347.9999999999997
  0
ENDBLK
  5
79
330
75
100
AcDbEntity
  8
0
100
AcDbBlockEnd
  0
BLOCK
  5
7C
330
7A
100
AcDbEntity
  8
0
100
AcDbBlockBegin
  2
_OBLIQUE
 70
     0
 10
0.0
 20
0.0
 30
0.0
  3
_OBLIQUE
  1

  0
LINE
  5
7B
330
7A
100
AcDbEntity
  8
0
100
AcDbLine
 10
-0.5
 20
-0.5
 30
0.0
 11
0.5
 21
0.5
 31
0.0
  0
ENDBLK
  5
7D
330
7A
100
AcDbEntity
  8
0
100
AcDbBlockEnd
  0
BLOCK
  5
7F
330
7E
100
AcDbEntity
  8
0
100
AcDbBlockBegin
  2
_NONE
 70
     0
 10
0.0
 20
0.0
 30
0.0
  3
_NONE
  1

  0
ENDBLK
  5
80
330
7E
100
AcDbEntity
  8
0
100
AcDbBlockEnd
  0
BLOCK
  5
84
330
81
100
AcDbEntity
  8
0
100
AcDbBlockBegin
  2
MARK_OPEN
 70
     0
 10
0.0
 20
0.0
 30
0.0
  3
MARK_OPEN
  1

  0
LINE
  5
82
330
81
100
AcDbEntity
  8
0
100
AcDbLine
 10
0.0
 20
0.0
 30
0.0
 11
-1.0
 21
0.1666666666666667
 31
0.0
  0
LINE
  5
83
330
81
100
AcDbEntity
  8
0
100
AcDbLine
 10
0.0
 20
0.0
 30
0.0
 11
-1.0
 21
-0.1666666666666667
 31
0.0
  0
ENDBLK
  5
85
330
81
100
AcDbEntity
  8
0
100
AcDbBlockEnd
  0
BLOCK
  5
88
330
86
100
AcDbEntity
  8
0
100
AcDbBlockBegin
  2
MARK_ORIGIN
 70
     0
 10
0.0
 20
0.0
 30
0.0
  3
MARK_ORIGIN
  1

  0
CIRCLE
  5
87
330
86
100
AcDbEntity
  8
0
100
AcDbCircle
 10
0.0
 20
0.0
 30
0.0
 40
0.5
  0
ENDBLK
  5
89
330
86
100
AcDbEntity
  8
0
100
AcDbBlockEnd
  0
BLOCK
  5
8C
330
8A
100
AcDbEntity
  8
0
100
AcDbBlockBegin
  2
MARK_DOT
 70
     0
 10
0.0
 20
0.0
 30
0.0
  3
MARK_DOT
  1

  0
LWPOLYLINE
  5
8B
330
8A
100
AcDbEntity
  8
0
100
AcDbPolyline
 90
        2
 70
     1
 43
0.5
 10
-0.25
 20
0.0
 42
1.0
 10
0.25
 20
0.0
 42
1.0
  0
ENDBLK
  5
8D
330
8A
100
AcDbEntity
  8
0
100
AcDbBlockEnd
  0
BLOCK
  5
426
330
425
100
AcDbEntity
  8
0
100
AcDbBlockBegin
  2
Dim1
 70
     0
 10
0.0
 20
0.0
 30
0.0
  3
Dim1
  1

  0
LINE
  5
428
330
425
100
AcDbEntity
  8
25
  6
Continuous
 62
     7
370
     9
100
AcDbLine
 10
238.6558285718149
 20
171.5536866395232
 30
0.0
 11
253.8446083235457
 21
171.553686639523
 31
0.0
  0
LINE
  5
429
330
425
100
AcDbEntity
  8
25
  6
Continuous
 62
     7
370
     9
100
AcDbLine
 10
238.6558285718149
 20
154.0536866395294
 30
0.0
 11
253.8446083235457
 21
154.0536866395291
 31
0.0
  0
LINE
  5
42A
330
425
100
AcDbEntity
  8
25
  6
Continuous
 62
     7
370
     9
100
AcDbLine
 10
252.8446083235457
 20
171.553686639523
 30
0.0
 11
252.8446083235457
 21
154.0536866395291
 31
0.0
  0
MTEXT
  5
42B
330
425
100
AcDbEntity
  8
25
  6
Continuous
 62
     7
370
     9
100
AcDbMText
 10
252.1924142139604
 20
162.7589150197936
 30
0.0
 40
2.0
 41
34.51
 46
2.0
 71
     8
 72
     1
  1
φ17.5
  7
ＭＳ ゴシック
 11
1.615544574432587E-15
 21
1.0
 31
0.0
 73
     1
 44
1.0
1001
ACAD
1000
ACAD_MTEXT_DEFINED_HEIGHT_BEGIN
1070
    46
1040
2.0
1000
ACAD_MTEXT_DEFINED_HEIGHT_END
  0
INSERT
  5
42C
330
425
100
AcDbEntity
  8
25
  6
Continuous
 62
     7
370
     9
100
AcDbBlockReference
  2
_OPEN
 10
252.8446083235457
 20
171.553686639523
 30
0.0
 50
89.99999999999991
  0
INSERT
  5
42D
330
425
100
AcDbEntity
  8
25
  6
Continuous
 62
     7
370
     9
100
AcDbBlockReference
  2
_OPEN
 10
252.8446083235457
 20
154.0536866395291
 30
0.0
 50
269.9999999999998
  0
ENDBLK
  5
427
330
425
100
AcDbEntity
  8
0
100
AcDbBlockEnd
  0
BLOCK
  5
430
330
42F
100
AcDbEntity
  8
0
100
AcDbBlockBegin
  2
Dim2
 70
     0
 10
0.0
 20
0.0
 30
0.0
  3
Dim2
  1

  0
LINE
  5
432
330
42F
100
AcDbEntity
  8
25
  6
Continuous
 62
     7
370
     9
100
AcDbLine
 10
230.8750264045723
 20
178.8036866395263
 30
0.0
 11
259.9753086419752
 21
178.8036866395259
 31
0.0
  0
LINE
  5
433
330
42F
100
AcDbEntity
  8
25
  6
Continuous
 62
     7
370
     9
100
AcDbLine
 10
230.8750264045723
 20
146.8036866395263
 30
0.0
 11
259.9753086419752
 21
146.8036866395259
 31
0.0
  0
LINE
  5
434
330
42F
100
AcDbEntity
  8
25
  6
Continuous
 62
     7
370
     9
100
AcDbLine
 10
258.9753086419752
 20
178.8036866395259
 30
0.0
 11
258.9753086419752
 21
146.8036866395259
 31
0.0
  0
MTEXT
  5
435
330
42F
100
AcDbEntity
  8
25
  6
Continuous
 62
     7
370
     9
100
AcDbMText
 10
257.8764962681311
 20
162.7589150197936
 30
0.0
 40
2.0
 41
24.51
 46
2.0
 71
     8
 72
     1
  1
φ32
  7
ＭＳ ゴシック
 11
1.615544574432587E-15
 21
1.0
 31
0.0
 73
     1
 44
1.0
1001
ACAD
1000
ACAD_MTEXT_DEFINED_HEIGHT_BEGIN
1070
    46
1040
2.0
1000
ACAD_MTEXT_DEFINED_HEIGHT_END
  0
INSERT
  5
436
330
42F
100
AcDbEntity
  8
25
  6
Continuous
 62
     7
370
     9
100
AcDbBlockReference
  2
_OPEN
 10
258.9753086419752
 20
178.8036866395259
 30
0.0
 50
89.99999999999991
  0
INSERT
  5
437
330
42F
100
AcDbEntity
  8
25
  6
Continuous
 62
     7
370
     9
100
AcDbBlockReference
  2
_OPEN
 10
258.9753086419752
 20
146.8036866395259
 30
0.0
 50
269.9999999999998
  0
ENDBLK
  5
431
330
42F
100
AcDbEntity
  8
0
100
AcDbBlockEnd
  0
BLOCK
  5
43A
330
439
100
AcDbEntity
  8
0
100
AcDbBlockBegin
  2
Dim3
 70
     0
 10
0.0
 20
0.0
 30
0.0
  3
Dim3
  1

  0
LINE
  5
43C
330
439
100
AcDbEntity
  8
25
  6
Continuous
 62
     7
370
     9
100
AcDbLine
 10
194.9010264045724
 20
180.3036866395263
 30
0.0
 11
157.0326110033092
 21
180.3036866395267
 31
0.0
  0
LINE
  5
43D
330
439
100
AcDbEntity
  8
25
  6
Continuous
 62
     7
370
     9
100
AcDbLine
 10
194.9010264045724
 20
145.3036866395263
 30
0.0
 11
157.0326110033092
 21
145.3036866395267
 31
0.0
  0
LINE
  5
43E
330
439
100
AcDbEntity
  8
25
  6
Continuous
 62
     7
370
     9
100
AcDbLine
 10
158.0326110033092
 20
180.3036866395267
 30
0.0
 11
158.0326110033092
 21
145.3036866395267
 31
0.0
  0
MTEXT
  5
43F
330
439
100
AcDbEntity
  8
25
  6
Continuous
 62
     7
370
     9
100
AcDbMText
 10
157.5326110033092
 20
162.6401524041997
 30
0.0
 40
2.0
 41
24.51
 46
2.0
 71
     8
 72
     1
  1
φ35
  7
ＭＳ ゴシック
 11
1.615544574432587E-15
 21
1.0
 31
0.0
 73
     1
 44
1.0
1001
ACAD
1000
ACAD_MTEXT_DEFINED_HEIGHT_BEGIN
1070
    46
1040
2.0
1000
ACAD_MTEXT_DEFINED_HEIGHT_END
  0
INSERT
  5
440
330
439
100
AcDbEntity
  8
25
  6
Continuous
 62
     7
370
     9
100
AcDbBlockReference
  2
_OPEN
 10
158.0326110033092
 20
180.3036866395267
 30
0.0
 50
89.99999999999991
  0
INSERT
  5
441
330
439
100
AcDbEntity
  8
25
  6
Continuous
 62
     7
370
     9
100
AcDbBlockReference
  2
_OPEN
 10
158.0326110033092
 20
145.3036866395267
 30
0.0
 50
269.9999999999998
  0
ENDBLK
  5
43B
330
439
100
AcDbEntity
  8
0
100
AcDbBlockEnd
  0
BLOCK
  5
444
330
443
100
AcDbEntity
  8
0
100
AcDbBlockBegin
  2
Dim4
 70
     0
 10
0.0
 20
0.0
 30
0.0
  3
Dim4
  1

  0
LINE
  5
446
330
443
100
AcDbEntity
  8
25
  6
Continuous
 62
     7
370
     9
100
AcDbLine
 10
169.6511264045723
 20
178.8036866395264
 30
0.0
 11
161.5326110033093
 21
178.8036866395264
 31
0.0
  0
LINE
  5
447
330
443
100
AcDbEntity
  8
25
  6
Continuous
 62
     7
370
     9
100
AcDbLine
 10
169.6511264045723
 20
146.8036866395264
 30
0.0
 11
161.5326110033093
 21
146.8036866395264
 31
0.0
  0
LINE
  5
448
330
443
100
AcDbEntity
  8
25
  6
Continuous
 62
     7
370
     9
100
AcDbLine
 10
162.5326110033093
 20
178.8036866395264
 30
0.0
 11
162.5326110033093
 21
146.8036866395264
 31
0.0
  0
MTEXT
  5
449
330
443
100
AcDbEntity
  8
25
  6
Continuous
 62
     7
370
     9
100
AcDbMText
 10
162.0326110033093
 20
162.6401524041997
 30
0.0
 40
2.0
 41
24.51
 46
2.0
 71
     8
 72
     1
  1
φ32
  7
ＭＳ ゴシック
 11
1.615544574432587E-15
 21
1.0
 31
0.0
 73
     1
 44
1.0
1001
ACAD
1000
ACAD_MTEXT_DEFINED_HEIGHT_BEGIN
1070
    46
1040
2.0
1000
ACAD_MTEXT_DEFINED_HEIGHT_END
  0
INSERT
  5
44A
330
443
100
AcDbEntity
  8
25
  6
Continuous
 62
     7
370
     9
100
AcDbBlockReference
  2
_OPEN
 10
162.5326110033093
 20
178.8036866395264
 30
0.0
 50
89.99999999999991
  0
INSERT
  5
44B
330
443
100
AcDbEntity
  8
25
  6
Continuous
 62
     7
370
     9
100
AcDbBlockReference
  2
_OPEN
 10
162.5326110033093
 20
146.8036866395264
 30
0.0
 50
269.9999999999998
  0
ENDBLK
  5
445
330
443
100
AcDbEntity
  8
0
100
AcDbBlockEnd
  0
BLOCK
  5
44E
330
44D
100
AcDbEntity
  8
0
100
AcDbBlockBegin
  2
Dim5
 70
     0
 10
0.0
 20
0.0
 30
0.0
  3
Dim5
  1

  0
LINE
  5
450
330
44D
100
AcDbEntity
  8
25
  6
Continuous
 62
     7
370
     9
100
AcDbLine
 10
233.1885264045724
 20
148.5911866395263
 30
0.0
 11
233.1885264045732
 21
135.766487114223
 31
0.0
  0
LINE
  5
451
330
44D
100
AcDbEntity
  8
25
  6
Continuous
 62
     7
370
     9
100
AcDbLine
 10
229.2010264045725
 20
145.1036866395263
 30
0.0
 11
229.2010264045732
 21
135.766487114223
 31
0.0
  0
LINE
  5
452
330
44D
100
AcDbEntity
  8
25
  6
Continuous
 62
     7
370
     9
100
AcDbLine
 10
233.1885264045731
 20
136.766487114223
 30
0.0
 11
229.2010264045732
 21
136.766487114223
 31
0.0
  0
MTEXT
  5
453
330
44D
100
AcDbEntity
  8
25
  6
Continuous
 62
     7
370
     9
100
AcDbMText
 10
231.1947764045723
 20
137.266487114223
 30
0.0
 40
2.0
 41
6.89
 46
2.0
 71
     8
 72
     1
  1
4
  7
ＭＳ ゴシック
 73
     1
 44
1.0
1001
ACAD
1000
ACAD_MTEXT_DEFINED_HEIGHT_BEGIN
1070
    46
1040
2.0
1000
ACAD_MTEXT_DEFINED_HEIGHT_END
  0
INSERT
  5
454
330
44D
100
AcDbEntity
  8
25
  6
Continuous
 62
     7
370
     9
100
AcDbBlockReference
  2
_OPEN
 10
233.1885264045731
 20
136.766487114223
 30
0.0
 50
359.9999999999997
  0
INSERT
  5
455
330
44D
100
AcDbEntity
  8
25
  6
Continuous
 62
     7
370
     9
100
AcDbBlockReference
  2
_OPEN
 10
229.2010264045732
 20
136.766487114223
 30
0.0
 50
179.9999999999998
  0
ENDBLK
  5
44F
330
44D
100
AcDbEntity
  8
0
100
AcDbBlockEnd
  0
BLOCK
  5
458
330
457
100
AcDbEntity
  8
0
100
AcDbBlockBegin
  2
Dim6
 70
     0
 10
0.0
 20
0.0
 30
0.0
  3
Dim6
  1

  0
LINE
  5
45A
330
457
100
AcDbEntity
  8
25
  6
Continuous
 62
     7
370
     9
100
AcDbLine
 10
211.3010264045726
 20
144.0130257291922
 30
0.0
 11
211.3010264045733
 21
135.766487114223
 31
0.0
  0
LINE
  5
45B
330
457
100
AcDbEntity
  8
25
  6
Continuous
 62
     7
370
     9
100
AcDbLine
 10
225.9010264045725
 20
144.6015770719538
 30
0.0
 11
225.9010264045732
 21
135.7664871142231
 31
0.0
  0
LINE
  5
45C
330
457
100
AcDbEntity
  8
25
  6
Continuous
 62
     7
370
     9
100
AcDbLine
 10
211.3010264045732
 20
136.766487114223
 30
0.0
 11
225.9010264045731
 21
136.7664871142231
 31
0.0
  0
MTEXT
  5
45D
330
457
100
AcDbEntity
  8
25
  6
Continuous
 62
     7
370
     9
100
AcDbMText
 10
218.6010264045723
 20
137.266487114223
 30
0.0
 40
2.0
 41
26.85
 46
2.0
 71
     8
 72
     1
  1
14.6
  7
ＭＳ ゴシック
 73
     1
 44
1.0
1001
ACAD
1000
ACAD_MTEXT_DEFINED_HEIGHT_BEGIN
1070
    46
1040
2.0
1000
ACAD_MTEXT_DEFINED_HEIGHT_END
  0
INSERT
  5
45E
330
457
100
AcDbEntity
  8
25
  6
Continuous
 62
     7
370
     9
100
AcDbBlockReference
  2
_OPEN
 10
211.3010264045732
 20
136.766487114223
 30
0.0
 50
180.0000000000003
  0
INSERT
  5
45F
330
457
100
AcDbEntity
  8
25
  6
Continuous
 62
     7
370
     9
100
AcDbBlockReference
  2
_OPEN
 10
225.9010264045731
 20
136.7664871142231
 30
0.0
 50
0.0000000000002544
  0
ENDBLK
  5
459
330
457
100
AcDbEntity
  8
0
100
AcDbBlockEnd
  0
BLOCK
  5
462
330
461
100
AcDbEntity
  8
0
100
AcDbBlockBegin
  2
Dim7
 70
     0
 10
0.0
 20
0.0
 30
0.0
  3
Dim7
  1

  0
LINE
  5
464
330
461
100
AcDbEntity
  8
25
  6
Continuous
 62
     7
370
     9
100
AcDbLine
 10
196.1010264045726
 20
143.8536866395263
 30
0.0
 11
196.1010264045733
 21
135.7664871142231
 31
0.0
  0
LINE
  5
465
330
461
100
AcDbEntity
  8
25
  6
Continuous
 62
     7
370
     9
100
AcDbLine
 10
211.3010264045726
 20
144.0130257291922
 30
0.0
 11
211.3010264045733
 21
135.766487114223
 31
0.0
  0
LINE
  5
466
330
461
100
AcDbEntity
  8
25
  6
Continuous
 62
     7
370
     9
100
AcDbLine
 10
196.1010264045732
 20
136.7664871142231
 30
0.0
 11
211.3010264045732
 21
136.766487114223
 31
0.0
  0
MTEXT
  5
467
330
461
100
AcDbEntity
  8
25
  6
Continuous
 62
     7
370
     9
100
AcDbMText
 10
203.7010264045724
 20
137.266487114223
 30
0.0
 40
2.0
 41
26.85
 46
2.0
 71
     8
 72
     1
  1
15.2
  7
ＭＳ ゴシック
 73
     1
 44
1.0
1001
ACAD
1000
ACAD_MTEXT_DEFINED_HEIGHT_BEGIN
1070
    46
1040
2.0
1000
ACAD_MTEXT_DEFINED_HEIGHT_END
  0
INSERT
  5
468
330
461
100
AcDbEntity
  8
25
  6
Continuous
 62
     7
370
     9
100
AcDbBlockReference
  2
_OPEN
 10
196.1010264045732
 20
136.7664871142231
 30
0.0
 50
179.9999999999994
  0
INSERT
  5
469
330
461
100
AcDbEntity
  8
25
  6
Continuous
 62
     7
370
     9
100
AcDbBlockReference
  2
_OPEN
 10
211.3010264045732
 20
136.766487114223
 30
0.0
 50
359.9999999999994
  0
ENDBLK
  5
463
330
461
100
AcDbEntity
  8
0
100
AcDbBlockEnd
  0
BLOCK
  5
46C
330
46B
100
AcDbEntity
  8
0
100
AcDbBlockBegin
  2
Dim8
 70
     0
 10
0.0
 20
0.0
 30
0.0
  3
Dim8
  1

  0
LINE
  5
46E
330
46B
100
AcDbEntity
  8
25
  6
Continuous
 62
     7
370
     9
100
AcDbLine
 10
246.7010264045724
 20
160.8036866395263
 30
0.0
 11
246.7010264045732
 21
129.976945297905
 31
0.0
  0
LINE
  5
46F
330
46B
100
AcDbEntity
  8
25
  6
Continuous
 62
     7
370
     9
100
AcDbLine
 10
229.2010264045724
 20
145.1036866395263
 30
0.0
 11
229.2010264045732
 21
129.9769452979052
 31
0.0
  0
LINE
  5
470
330
46B
100
AcDbEntity
  8
25
  6
Continuous
 62
     7
370
     9
100
AcDbLine
 10
246.7010264045732
 20
130.976945297905
 30
0.0
 11
229.2010264045732
 21
130.9769452979052
 31
0.0
  0
MTEXT
  5
471
330
46B
100
AcDbEntity
  8
25
  6
Continuous
 62
     7
370
     9
100
AcDbMText
 10
237.9510264045724
 20
131.4769452979051
 30
0.0
 40
2.0
 41
46.85000000000001
 46
2.0
 71
     8
 72
     1
  1
17.526
  7
ＭＳ ゴシック
 73
     1
 44
1.0
1001
ACAD
1000
ACAD_MTEXT_DEFINED_HEIGHT_BEGIN
1070
    46
1040
2.0
1000
ACAD_MTEXT_DEFINED_HEIGHT_END
  0
INSERT
  5
472
330
46B
100
AcDbEntity
  8
25
  6
Continuous
 62
     7
370
     9
100
AcDbBlockReference
  2
_OPEN
 10
246.7010264045732
 20
130.976945297905
 30
0.0
 50
359.9999999999995
  0
INSERT
  5
473
330
46B
100
AcDbEntity
  8
25
  6
Continuous
 62
     7
370
     9
100
AcDbBlockReference
  2
_OPEN
 10
229.2010264045732
 20
130.9769452979052
 30
0.0
 50
179.9999999999994
  0
ENDBLK
  5
46D
330
46B
100
AcDbEntity
  8
0
100
AcDbBlockEnd
  0
BLOCK
  5
476
330
475
100
AcDbEntity
  8
0
100
AcDbBlockBegin
  2
Dim9
 70
     0
 10
0.0
 20
0.0
 30
0.0
  3
Dim9
  1

  0
LINE
  5
478
330
475
100
AcDbEntity
  8
25
  6
Continuous
 62
     7
370
     9
100
AcDbLine
 10
181.8010264045726
 20
144.8036866395262
 30
0.0
 11
181.8010264045733
 21
135.766487114223
 31
0.0
  0
LINE
  5
479
330
475
100
AcDbEntity
  8
25
  6
Continuous
 62
     7
370
     9
100
AcDbLine
 10
196.1010264045726
 20
143.8536866395263
 30
0.0
 11
196.1010264045733
 21
135.7664871142231
 31
0.0
  0
LINE
  5
47A
330
475
100
AcDbEntity
  8
25
  6
Continuous
 62
     7
370
     9
100
AcDbLine
 10
181.8010264045732
 20
136.766487114223
 30
0.0
 11
196.1010264045732
 21
136.7664871142231
 31
0.0
  0
MTEXT
  5
47B
330
475
100
AcDbEntity
  8
25
  6
Continuous
 62
     7
370
     9
100
AcDbMText
 10
188.9510264045724
 20
137.2664871142231
 30
0.0
 40
2.0
 41
26.85
 46
2.0
 71
     8
 72
     1
  1
14.3
  7
ＭＳ ゴシック
 73
     1
 44
1.0
1001
ACAD
1000
ACAD_MTEXT_DEFINED_HEIGHT_BEGIN
1070
    46
1040
2.0
1000
ACAD_MTEXT_DEFINED_HEIGHT_END
  0
INSERT
  5
47C
330
475
100
AcDbEntity
  8
25
  6
Continuous
 62
     7
370
     9
100
AcDbBlockReference
  2
_OPEN
 10
181.8010264045732
 20
136.766487114223
 30
0.0
 50
180.0
  0
INSERT
  5
47D
330
475
100
AcDbEntity
  8
25
  6
Continuous
 62
     7
370
     9
100
AcDbBlockReference
  2
_OPEN
 10
196.1010264045732
 20
136.7664871142231
 30
0.0
 50
0.0000000000000509
  0
ENDBLK
  5
477
330
475
100
AcDbEntity
  8
0
100
AcDbBlockEnd
  0
BLOCK
  5
4BA
330
4B9
100
AcDbEntity
  8
0
100
AcDbBlockBegin
  2
Dim10
 70
     0
 10
0.0
 20
0.0
 30
0.0
  3
Dim10
  1

  0
LINE
  5
4BC
330
4B9
100
AcDbEntity
  8
25
  6
Continuous
 62
     7
370
     9
100
AcDbLine
 10
114.3537594687385
 20
145.8625512038341
 30
0.0
 11
141.743200944639
 21
186.3721611209662
 31
0.0
  0
MTEXT
  5
4BD
330
4B9
100
AcDbEntity
  8
25
  6
Continuous
 62
     7
370
     9
100
AcDbMText
 10
136.3666426879788
 20
179.3127883387878
 30
0.0
 40
2.0
 41
37.84
 46
2.0
 71
     7
 72
     1
  1
φ24.9
  7
ＭＳ ゴシック
 11
0.5601112776257793
 21
0.8284173807184499
 31
0.0
 73
     1
 44
1.0
1001
ACAD
1000
ACAD_MTEXT_DEFINED_HEIGHT_BEGIN
1070
    46
1040
2.0
1000
ACAD_MTEXT_DEFINED_HEIGHT_END
  0
INSERT
  5
4BE
330
4B9
100
AcDbEntity
  8
25
  6
Continuous
 62
     7
370
     9
100
AcDbBlockReference
  2
_OPEN
 10
118.8346496897447
 20
152.4898902495817
 30
0.0
 41
2.0
 42
2.0
 43
2.0
 50
55.93650631939214
  0
INSERT
  5
4BF
330
4B9
100
AcDbEntity
  8
25
  6
Continuous
 62
     7
370
     9
100
AcDbBlockReference
  2
_OPEN
 10
132.7814205026266
 20
173.117483029471
 30
0.0
 41
2.0
 42
2.0
 43
2.0
 50
235.9365063193922
  0
ENDBLK
  5
4BB
330
4B9
100
AcDbEntity
  8
0
100
AcDbBlockEnd
  0
BLOCK
  5
4C2
330
4C1
100
AcDbEntity
  8
0
100
AcDbBlockBegin
  2
*G26
 70
     1
 10
0.0
 20
0.0
 30
0.0
  3
*G26
  1

  0
LINE
  5
4C4
330
4C1
100
AcDbEntity
  8
1
  6
Continuous
 62
     7
370
     9
100
AcDbLine
 10
173.9772111875361
 20
177.5036866395262
 30
0.0
 11
174.4672798100543
 21
177.9937552620443
 31
0.0
  0
LINE
  5
4C5
330
4C1
100
AcDbEntity
  8
1
  6
Continuous
 62
     7
370
     9
100
AcDbLine
 10
173.2701044063496
 20
177.5036866395262
 30
0.0
 11
174.5701044063496
 21
178.8036866395262
 31
0.0
  0
LINE
  5
4C6
330
4C1
100
AcDbEntity
  8
1
  6
Continuous
 62
     7
370
     9
100
AcDbLine
 10
172.562997625163
 20
177.5036866395262
 30
0.0
 11
173.8629976251631
 21
178.8036866395262
 31
0.0
  0
LINE
  5
4C7
330
4C1
100
AcDbEntity
  8
1
  6
Continuous
 62
     7
370
     9
100
AcDbLine
 10
171.8558908439765
 20
177.5036866395262
 30
0.0
 11
173.1558908439765
 21
178.8036866395262
 31
0.0
  0
LINE
  5
4C8
330
4C1
100
AcDbEntity
  8
1
  6
Continuous
 62
     7
370
     9
100
AcDbLine
 10
171.4511264045723
 20
177.8060289813086
 30
0.0
 11
172.44878406279
 21
178.8036866395262
 31
0.0
  0
LINE
  5
4C9
330
4C1
100
AcDbEntity
  8
1
  6
Continuous
 62
     7
370
     9
100
AcDbLine
 10
171.4511264045723
 20
178.5131357624952
 30
0.0
 11
171.7416772816034
 21
178.8036866395262
 31
0.0
  0
ENDBLK
  5
4C3
330
4C1
100
AcDbEntity
  8
0
100
AcDbBlockEnd
  0
BLOCK
  5
4CD
330
4CC
100
AcDbEntity
  8
0
100
AcDbBlockBegin
  2
Dim11
 70
     0
 10
0.0
 20
0.0
 30
0.0
  3
Dim11
  1

  0
LINE
  5
4CF
330
4CC
100
AcDbEntity
  8
25
  6
Continuous
 62
     7
370
     9
100
AcDbLine
 10
229.2010264045724
 20
145.1036866395263
 30
0.0
 11
229.2010264045732
 21
129.964445297905
 31
0.0
  0
LINE
  5
4D0
330
4CC
100
AcDbEntity
  8
25
  6
Continuous
 62
     7
370
     9
100
AcDbLine
 10
171.4511264045726
 20
134.1414871142231
 30
0.0
 11
171.4511264045733
 21
129.9644452979051
 31
0.0
  0
LINE
  5
4D1
330
4CC
100
AcDbEntity
  8
25
  6
Continuous
 62
     7
370
     9
100
AcDbLine
 10
229.2010264045732
 20
130.964445297905
 30
0.0
 11
171.4511264045731
 21
130.9644452979051
 31
0.0
  0
MTEXT
  5
4D2
330
4CC
100
AcDbEntity
  8
25
  6
Continuous
 62
     7
370
     9
100
AcDbMText
 10
200.3260764045723
 20
131.464445297905
 30
0.0
 40
2.0
 41
40.21000000000001
 46
2.0
 71
     8
 72
     1
  1
57.75
  7
ＭＳ ゴシック
 73
     1
 44
1.0
1001
ACAD
1000
ACAD_MTEXT_DEFINED_HEIGHT_BEGIN
1070
    46
1040
2.0
1000
ACAD_MTEXT_DEFINED_HEIGHT_END
  0
INSERT
  5
4D3
330
4CC
100
AcDbEntity
  8
25
  6
Continuous
 62
     7
370
     9
100
AcDbBlockReference
  2
_OPEN
 10
229.2010264045732
 20
130.964445297905
 30
0.0
 50
359.9999999999998
  0
INSERT
  5
4D4
330
4CC
100
AcDbEntity
  8
25
  6
Continuous
 62
     7
370
     9
100
AcDbBlockReference
  2
_OPEN
 10
171.4511264045731
 20
130.9644452979051
 30
0.0
 50
179.9999999999998
  0
ENDBLK
  5
4CE
330
4CC
100
AcDbEntity
  8
0
100
AcDbBlockEnd
  0
BLOCK
  5
4D7
330
4D6
100
AcDbEntity
  8
0
100
AcDbBlockBegin
  2
Dim12
 70
     0
 10
0.0
 20
0.0
 30
0.0
  3
Dim12
  1

  0
LINE
  5
4D9
330
4D6
100
AcDbEntity
  8
25
  6
Continuous
 62
     7
370
     9
100
AcDbLine
 10
237.2331788410026
 20
152.9911866395298
 30
0.0
 11
237.2331788410031
 21
135.766487114223
 31
0.0
  0
LINE
  5
4DA
330
4D6
100
AcDbEntity
  8
25
  6
Continuous
 62
     7
370
     9
100
AcDbLine
 10
233.1885264045724
 20
148.5911866395263
 30
0.0
 11
233.1885264045728
 21
135.766487114223
 31
0.0
  0
LINE
  5
4DB
330
4D6
100
AcDbEntity
  8
25
  6
Continuous
 62
     7
370
     9
100
AcDbLine
 10
245.3816872427984
 20
136.766487114223
 30
0.0
 11
233.1885264045727
 21
136.766487114223
 31
0.0
  0
MTEXT
  5
4DC
330
4D6
100
AcDbEntity
  8
25
  6
Continuous
 62
     7
370
     9
100
AcDbMText
 10
238.3816872427983
 20
137.3106995884774
 30
0.0
 40
2.0
 41
40.61
 46
2.0
 71
     7
 72
     1
  1
4 （∞)
  7
ＭＳ ゴシック
 73
     1
 44
1.0
1001
ACAD
1000
ACAD_MTEXT_DEFINED_HEIGHT_BEGIN
1070
    46
1040
2.0
1000
ACAD_MTEXT_DEFINED_HEIGHT_END
  0
INSERT
  5
4DD
330
4D6
100
AcDbEntity
  8
25
  6
Continuous
 62
     7
370
     9
100
AcDbBlockReference
  2
_OPEN
 10
237.2331788410031
 20
136.766487114223
 30
0.0
 50
359.9999999999997
  0
INSERT
  5
4DE
330
4D6
100
AcDbEntity
  8
25
  6
Continuous
 62
     7
370
     9
100
AcDbBlockReference
  2
_OPEN
 10
233.1885264045727
 20
136.766487114223
 30
0.0
 50
179.9999999999998
  0
ENDBLK
  5
4D8
330
4D6
100
AcDbEntity
  8
0
100
AcDbBlockEnd
  0
BLOCK
  5
4E1
330
4E0
100
AcDbEntity
  8
0
100
AcDbBlockBegin
  2
Dim13
 70
     0
 10
0.0
 20
0.0
 30
0.0
  3
Dim13
  1

  0
LINE
  5
4E3
330
4E0
100
AcDbEntity
  8
25
  6
Continuous
 62
     7
370
     9
100
AcDbLine
 10
225.9010264045725
 20
144.6015770719538
 30
0.0
 11
225.9010264045732
 21
135.7664871142231
 31
0.0
  0
LINE
  5
4E4
330
4E0
100
AcDbEntity
  8
25
  6
Continuous
 62
     7
370
     9
100
AcDbLine
 10
229.2010264045725
 20
145.1036866395263
 30
0.0
 11
229.2010264045732
 21
135.7664871142231
 31
0.0
  0
LINE
  5
4E5
330
4E0
100
AcDbEntity
  8
25
  6
Continuous
 62
     7
370
     9
100
AcDbLine
 10
225.9010264045731
 20
136.7664871142231
 30
0.0
 11
229.2010264045731
 21
136.7664871142231
 31
0.0
  0
MTEXT
  5
4E6
330
4E0
100
AcDbEntity
  8
25
  6
Continuous
 62
     7
370
     9
100
AcDbMText
 10
227.6003276939491
 20
135.8100137174212
 30
0.0
 40
2.0
 41
20.18
 46
2.0
 71
     2
 72
     1
  1
3.3
  7
ＭＳ ゴシック
 73
     1
 44
1.0
1001
ACAD
1000
ACAD_MTEXT_DEFINED_HEIGHT_BEGIN
1070
    46
1040
2.0
1000
ACAD_MTEXT_DEFINED_HEIGHT_END
  0
INSERT
  5
4E7
330
4E0
100
AcDbEntity
  8
25
  6
Continuous
 62
     7
370
     9
100
AcDbBlockReference
  2
_OPEN
 10
225.9010264045731
 20
136.7664871142231
 30
0.0
 50
180.0000000000008
  0
INSERT
  5
4E8
330
4E0
100
AcDbEntity
  8
25
  6
Continuous
 62
     7
370
     9
100
AcDbBlockReference
  2
_OPEN
 10
229.2010264045731
 20
136.7664871142231
 30
0.0
 50
0.0000000000008142
  0
ENDBLK
  5
4E2
330
4E0
100
AcDbEntity
  8
0
100
AcDbBlockEnd
  0
ENDSEC
  0
SECTION
  2
ENTITIES
  0
LINE
  5
B5
330
1F
100
AcDbEntity
  8
29
  6
DASHDOT
 62
     1
370
     9
100
AcDbLine
 10
125.8080350961857
 20
148.7514832865704
 30
0.0
 11
125.8080350961857
 21
143.0344364026537
 31
0.0
  0
LINE
  5
B6
330
1F
100
AcDbEntity
  8
11
  6
Continuous
 62
   251
370
    30
100
AcDbLine
 10
225.9010264045725
 20
146.6036866395263
 30
0.0
 11
225.9010264045725
 21
162.8036866395262
 31
0.0
  0
LINE
  5
B7
330
1F
100
AcDbEntity
  8
24
  6
Continuous
 62
   104
370
     9
100
AcDbLine
 10
233.9331788410025
 20
154.2536866395295
 30
0.0
 11
234.1331788410026
 21
154.0536866395294
 31
0.0
  0
LINE
  5
B8
330
1F
100
AcDbEntity
  8
24
  6
Continuous
 62
   104
370
     9
100
AcDbLine
 10
233.9331788410025
 20
171.3536866395233
 30
0.0
 11
234.1331788410026
 21
171.5536866395233
 31
0.0
  0
LINE
  5
B9
330
1F
100
AcDbEntity
  8
25
  6
DASHDOT
 62
     7
370
     9
100
AcDbLine
 10
221.9010264045723
 20
165.1903428442387
 30
0.0
 11
221.9010264045723
 21
160.3664722338559
 31
0.0
  0
LINE
  5
BA
330
1F
100
AcDbEntity
  8
25
  6
DASHDOT
 62
     7
370
     9
100
AcDbLine
 10
201.05318283297
 20
148.7514832865704
 30
0.0
 11
201.05318283297
 21
143.0344364026537
 31
0.0
  0
LINE
  5
BB
330
1F
100
AcDbEntity
  8
25
  6
DASHDOT
 62
     7
370
     9
100
AcDbLine
 10
125.8080350961857
 20
143.1158712110254
 30
0.0
 11
125.8080350961857
 21
182.2353575325942
 31
0.0
  0
LINE
  5
BC
330
1F
100
AcDbEntity
  8
25
  6
DASHDOT
 62
     7
370
     9
100
AcDbLine
 10
148.9313058353163
 20
162.8036866395262
 30
0.0
 11
105.4129228883565
 21
162.8036866395262
 31
0.0
  0
ARC
  5
BD
330
1F
100
AcDbEntity
  8
25
  6
Continuous
 62
     7
370
     9
100
AcDbCircle
 10
127.0580350961857
 20
145.0536866395262
 30
0.0
 40
0.5
100
AcDbArc
 50
269.9999999999998
 51
0.0
  0
LINE
  5
BE
330
1F
100
AcDbEntity
  8
25
  6
Continuous
 62
     7
370
     9
100
AcDbLine
 10
124.0580350961857
 20
146.0448088174928
 30
0.0
 11
124.0580350961857
 21
145.0536866395262
 31
0.0
  0
ARC
  5
BF
330
1F
100
AcDbEntity
  8
25
  6
Continuous
 62
     7
370
     9
100
AcDbCircle
 10
124.5580350961857
 20
145.0536866395262
 30
0.0
 40
0.5
100
AcDbArc
 50
179.9999999999998
 51
269.9999999999998
  0
LINE
  5
C0
330
1F
100
AcDbEntity
  8
25
  6
Continuous
 62
     7
370
     9
100
AcDbLine
 10
124.5580350961857
 20
144.5536866395262
 30
0.0
 11
127.0580350961857
 21
144.5536866395262
 31
0.0
  0
LINE
  5
C1
330
1F
100
AcDbEntity
  8
25
  6
Continuous
 62
     7
370
     9
100
AcDbLine
 10
127.5580350961857
 20
145.0536866395262
 30
0.0
 11
127.5580350961857
 21
145.5536866395262
 31
0.0
  0
POLYLINE
  5
C2
330
1F
100
AcDbEntity
  8
1
  6
Continuous
 62
     7
370
     9
100
AcDb2dPolyline
 66
     1
 10
0.0
 20
0.0
 30
0.0
 70
     2
  0
VERTEX
  5
C3
330
C2
100
AcDbEntity
  8
1
  6
Continuous
 62
     7
370
     9
100
AcDbVertex
100
AcDb2dVertex
 10
171.4511264045723
 20
176.0627388639697
 30
0.0
  0
VERTEX
  5
C4
330
C2
100
AcDbEntity
  8
1
  6
Continuous
 62
     7
370
     9
100
AcDbVertex
100
AcDb2dVertex
 10
171.4583478422068
 20
176.0595947847832
 30
0.0
  0
VERTEX
  5
C5
330
C2
100
AcDbEntity
  8
1
  6
Continuous
 62
     7
370
     9
100
AcDbVertex
100
AcDb2dVertex
 10
171.4798136653791
 20
176.0502536846151
 30
0.0
  0
VERTEX
  5
C6
330
C2
100
AcDbEntity
  8
1
  6
Continuous
 62
     7
370
     9
100
AcDbVertex
100
AcDb2dVertex
 10
171.5149253333372
 20
176.0350167418048
 30
0.0
  0
VERTEX
  5
C7
330
C2
100
AcDbEntity
  8
1
  6
Continuous
 62
     7
370
     9
100
AcDbVertex
100
AcDb2dVertex
 10
171.5626781279078
 20
176.0144670056906
 30
0.0
  0
VERTEX
  5
C8
330
C2
100
AcDbEntity
  8
1
  6
Continuous
 62
     7
370
     9
100
AcDbVertex
100
AcDb2dVertex
 10
171.6216603246789
 20
175.9895541504379
 30
0.0
  0
VERTEX
  5
C9
330
C2
100
AcDbEntity
  8
1
  6
Continuous
 62
     7
370
     9
100
AcDbVertex
100
AcDb2dVertex
 10
171.6900687769278
 20
175.9616502956571
 30
0.0
  0
VERTEX
  5
CA
330
C2
100
AcDbEntity
  8
1
  6
Continuous
 62
     7
370
     9
100
AcDbVertex
100
AcDb2dVertex
 10
171.7657513486066
 20
175.9325366500991
 30
0.0
  0
VERTEX
  5
CB
330
C2
100
AcDbEntity
  8
1
  6
Continuous
 62
     7
370
     9
100
AcDbVertex
100
AcDb2dVertex
 10
171.8462824728283
 20
175.9042948407785
 30
0.0
  0
VERTEX
  5
CC
330
C2
100
AcDbEntity
  8
1
  6
Continuous
 62
     7
370
     9
100
AcDbVertex
100
AcDb2dVertex
 10
171.9290713600532
 20
175.879100240369
 30
0.0
  0
VERTEX
  5
CD
330
C2
100
AcDbEntity
  8
1
  6
Continuous
 62
     7
370
     9
100
AcDbVertex
100
AcDb2dVertex
 10
172.0114946467597
 20
175.8589416737274
 30
0.0
  0
VERTEX
  5
CE
330
C2
100
AcDbEntity
  8
1
  6
Continuous
 62
     7
370
     9
100
AcDbVertex
100
AcDb2dVertex
 10
172.0910385046813
 20
175.8453156535173
 30
0.0
  0
VERTEX
  5
CF
330
C2
100
AcDbEntity
  8
1
  6
Continuous
 62
     7
370
     9
100
AcDbVertex
100
AcDb2dVertex
 10
172.1654312195732
 20
175.8389573694259
 30
0.0
  0
VERTEX
  5
D0
330
C2
100
AcDbEntity
  8
1
  6
Continuous
 62
     7
370
     9
100
AcDbVertex
100
AcDb2dVertex
 10
172.2327471937938
 20
175.8396707746105
 30
0.0
  0
VERTEX
  5
D1
330
C2
100
AcDbEntity
  8
1
  6
Continuous
 62
     7
370
     9
100
AcDbVertex
100
AcDb2dVertex
 10
172.2914675111118
 20
175.8463052723232
 30
0.0
  0
VERTEX
  5
D2
330
C2
100
AcDbEntity
  8
1
  6
Continuous
 62
     7
370
     9
100
AcDbVertex
100
AcDb2dVertex
 10
172.3404898952261
 20
175.8568993049046
 30
0.0
  0
VERTEX
  5
D3
330
C2
100
AcDbEntity
  8
1
  6
Continuous
 62
     7
370
     9
100
AcDbVertex
100
AcDb2dVertex
 10
172.3790904996577
 20
175.8689772697221
 30
0.0
  0
VERTEX
  5
D4
330
C2
100
AcDbEntity
  8
1
  6
Continuous
 62
     7
370
     9
100
AcDbVertex
100
AcDb2dVertex
 10
172.406849381807
 20
175.8799531232742
 30
0.0
  0
VERTEX
  5
D5
330
C2
100
AcDbEntity
  8
1
  6
Continuous
 62
     7
370
     9
100
AcDbVertex
100
AcDb2dVertex
 10
172.4235586119333
 20
175.88756935168
 30
0.0
  0
VERTEX
  5
D6
330
C2
100
AcDbEntity
  8
1
  6
Continuous
 62
     7
370
     9
100
AcDbVertex
100
AcDb2dVertex
 10
172.4291350999474
 20
175.8902895436076
 30
0.0
  0
VERTEX
  5
D7
330
C2
100
AcDbEntity
  8
1
  6
Continuous
 62
     7
370
     9
100
AcDbVertex
100
AcDb2dVertex
 10
172.4346890748565
 20
175.8930900032511
 30
0.0
  0
VERTEX
  5
D8
330
C2
100
AcDbEntity
  8
1
  6
Continuous
 62
     7
370
     9
100
AcDbVertex
100
AcDb2dVertex
 10
172.4510690657491
 20
175.9018804772201
 30
0.0
  0
VERTEX
  5
D9
330
C2
100
AcDbEntity
  8
1
  6
Continuous
 62
     7
370
     9
100
AcDbVertex
100
AcDb2dVertex
 10
172.4774680191487
 20
175.9177096084346
 30
0.0
  0
VERTEX
  5
DA
330
C2
100
AcDbEntity
  8
1
  6
Continuous
 62
     7
370
     9
100
AcDbVertex
100
AcDb2dVertex
 10
172.5126615042062
 20
175.941958485255
 30
0.0
  0
VERTEX
  5
DB
330
C2
100
AcDbEntity
  8
1
  6
Continuous
 62
     7
370
     9
100
AcDbVertex
100
AcDb2dVertex
 10
172.5551609657611
 20
175.975884646014
 30
0.0
  0
VERTEX
  5
DC
330
C2
100
AcDbEntity
  8
1
  6
Continuous
 62
     7
370
     9
100
AcDbVertex
100
AcDb2dVertex
 10
172.6033796029405
 20
176.0201484431959
 30
0.0
  0
VERTEX
  5
DD
330
C2
100
AcDbEntity
  8
1
  6
Continuous
 62
     7
370
     9
100
AcDbVertex
100
AcDb2dVertex
 10
172.6557763824769
 20
176.0744380705476
 30
0.0
  0
VERTEX
  5
DE
330
C2
100
AcDbEntity
  8
1
  6
Continuous
 62
     7
370
     9
100
AcDbVertex
100
AcDb2dVertex
 10
172.7109502294762
 20
176.1372867866022
 30
0.0
  0
VERTEX
  5
DF
330
C2
100
AcDbEntity
  8
1
  6
Continuous
 62
     7
370
     9
100
AcDbVertex
100
AcDb2dVertex
 10
172.7676694994294
 20
176.20613076304
 30
0.0
  0
VERTEX
  5
E0
330
C2
100
AcDbEntity
  8
1
  6
Continuous
 62
     7
370
     9
100
AcDbVertex
100
AcDb2dVertex
 10
172.8248382475218
 20
176.2775993771856
 30
0.0
  0
VERTEX
  5
E1
330
C2
100
AcDbEntity
  8
1
  6
Continuous
 62
     7
370
     9
100
AcDbVertex
100
AcDb2dVertex
 10
172.8814166000012
 20
176.3479752230938
 30
0.0
  0
VERTEX
  5
E2
330
C2
100
AcDbEntity
  8
1
  6
Continuous
 62
     7
370
     9
100
AcDbVertex
100
AcDb2dVertex
 10
172.9363238826477
 20
176.4137216762629
 30
0.0
  0
VERTEX
  5
E3
330
C2
100
AcDbEntity
  8
1
  6
Continuous
 62
     7
370
     9
100
AcDbVertex
100
AcDb2dVertex
 10
172.9883573373362
 20
176.4719608935935
 30
0.0
  0
VERTEX
  5
E4
330
C2
100
AcDbEntity
  8
1
  6
Continuous
 62
     7
370
     9
100
AcDbVertex
100
AcDb2dVertex
 10
173.0361552610573
 20
176.5207981342606
 30
0.0
  0
VERTEX
  5
E5
330
C2
100
AcDbEntity
  8
1
  6
Continuous
 62
     7
370
     9
100
AcDbVertex
100
AcDb2dVertex
 10
173.0782222113749
 20
176.559425988445
 30
0.0
  0
VERTEX
  5
E6
330
C2
100
AcDbEntity
  8
1
  6
Continuous
 62
     7
370
     9
100
AcDbVertex
100
AcDb2dVertex
 10
173.1130182567197
 20
176.587995307194
 30
0.0
  0
VERTEX
  5
E7
330
C2
100
AcDbEntity
  8
1
  6
Continuous
 62
     7
370
     9
100
AcDbVertex
100
AcDb2dVertex
 10
173.1390979106909
 20
176.607295441919
 30
0.0
  0
VERTEX
  5
E8
330
C2
100
AcDbEntity
  8
1
  6
Continuous
 62
     7
370
     9
100
AcDbVertex
100
AcDb2dVertex
 10
173.155271343487
 20
176.6183313438917
 30
0.0
  0
VERTEX
  5
E9
330
C2
100
AcDbEntity
  8
1
  6
Continuous
 62
     7
370
     9
100
AcDbVertex
100
AcDb2dVertex
 10
173.1607538854064
 20
176.6219083290666
 30
0.0
  0
VERTEX
  5
EA
330
C2
100
AcDbEntity
  8
1
  6
Continuous
 62
     7
370
     9
100
AcDbVertex
100
AcDb2dVertex
 10
173.1662579276537
 20
176.6254157647913
 30
0.0
  0
VERTEX
  5
EB
330
C2
100
AcDbEntity
  8
1
  6
Continuous
 62
     7
370
     9
100
AcDbVertex
100
AcDb2dVertex
 10
173.1827441346953
 20
176.6354384330068
 30
0.0
  0
VERTEX
  5
EC
330
C2
100
AcDbEntity
  8
1
  6
Continuous
 62
     7
370
     9
100
AcDbVertex
100
AcDb2dVertex
 10
173.2101026196856
 20
176.6505841014382
 30
0.0
  0
VERTEX
  5
ED
330
C2
100
AcDbEntity
  8
1
  6
Continuous
 62
     7
370
     9
100
AcDbVertex
100
AcDb2dVertex
 10
173.2480522500723
 20
176.6688631251553
 30
0.0
  0
VERTEX
  5
EE
330
C2
100
AcDbEntity
  8
1
  6
Continuous
 62
     7
370
     9
100
AcDbVertex
100
AcDb2dVertex
 10
173.2960232664616
 20
176.688103425846
 30
0.0
  0
VERTEX
  5
EF
330
C2
100
AcDbEntity
  8
1
  6
Continuous
 62
     7
370
     9
100
AcDbVertex
100
AcDb2dVertex
 10
173.3530445452107
 20
176.7063890939048
 30
0.0
  0
VERTEX
  5
F0
330
C2
100
AcDbEntity
  8
1
  6
Continuous
 62
     7
370
     9
100
AcDbVertex
100
AcDb2dVertex
 10
173.4176712456339
 20
176.7224218106064
 30
0.0
  0
VERTEX
  5
F1
330
C2
100
AcDbEntity
  8
1
  6
Continuous
 62
     7
370
     9
100
AcDbVertex
100
AcDb2dVertex
 10
173.4879805392695
 20
176.7357235428299
 30
0.0
  0
VERTEX
  5
F2
330
C2
100
AcDbEntity
  8
1
  6
Continuous
 62
     7
370
     9
100
AcDbVertex
100
AcDb2dVertex
 10
173.5616479132634
 20
176.7466374159478
 30
0.0
  0
VERTEX
  5
F3
330
C2
100
AcDbEntity
  8
1
  6
Continuous
 62
     7
370
     9
100
AcDbVertex
100
AcDb2dVertex
 10
173.6360978105991
 20
176.756132055521
 30
0.0
  0
VERTEX
  5
F4
330
C2
100
AcDbEntity
  8
1
  6
Continuous
 62
     7
370
     9
100
AcDbVertex
100
AcDb2dVertex
 10
173.7087046397624
 20
176.7654613900011
 30
0.0
  0
VERTEX
  5
F5
330
C2
100
AcDbEntity
  8
1
  6
Continuous
 62
     7
370
     9
100
AcDbVertex
100
AcDb2dVertex
 10
173.7770077702253
 20
176.7757657542969
 30
0.0
  0
VERTEX
  5
F6
330
C2
100
AcDbEntity
  8
1
  6
Continuous
 62
     7
370
     9
100
AcDbVertex
100
AcDb2dVertex
 10
173.8389000880423
 20
176.7877130851051
 30
0.0
  0
VERTEX
  5
F7
330
C2
100
AcDbEntity
  8
1
  6
Continuous
 62
     7
370
     9
100
AcDbVertex
100
AcDb2dVertex
 10
173.8927550775352
 20
176.8012680642575
 30
0.0
  0
VERTEX
  5
F8
330
C2
100
AcDbEntity
  8
1
  6
Continuous
 62
     7
370
     9
100
AcDbVertex
100
AcDb2dVertex
 10
173.9374710145895
 20
176.8156450165759
 30
0.0
  0
VERTEX
  5
F9
330
C2
100
AcDbEntity
  8
1
  6
Continuous
 62
     7
370
     9
100
AcDbVertex
100
AcDb2dVertex
 10
173.972429513916
 20
176.8294550517138
 30
0.0
  0
VERTEX
  5
FA
330
C2
100
AcDbEntity
  8
1
  6
Continuous
 62
     7
370
     9
100
AcDbVertex
100
AcDb2dVertex
 10
173.9973849515834
 20
176.841010375615
 30
0.0
  0
VERTEX
  5
FB
330
C2
100
AcDbEntity
  8
1
  6
Continuous
 62
     7
370
     9
100
AcDbVertex
100
AcDb2dVertex
 10
174.0123166025041
 20
176.8487104128891
 30
0.0
  0
VERTEX
  5
FC
330
C2
100
AcDbEntity
  8
1
  6
Continuous
 62
     7
370
     9
100
AcDbVertex
100
AcDb2dVertex
 10
174.0172830401095
 20
176.851414624363
 30
0.0
  0
VERTEX
  5
FD
330
C2
100
AcDbEntity
  8
1
  6
Continuous
 62
     7
370
     9
100
AcDbVertex
100
AcDb2dVertex
 10
174.0222205482022
 20
176.8541774051925
 30
0.0
  0
VERTEX
  5
FE
330
C2
100
AcDbEntity
  8
1
  6
Continuous
 62
     7
370
     9
100
AcDbVertex
100
AcDb2dVertex
 10
174.036727415778
 20
176.8627307111687
 30
0.0
  0
VERTEX
  5
FF
330
C2
100
AcDbEntity
  8
1
  6
Continuous
 62
     7
370
     9
100
AcDbVertex
100
AcDb2dVertex
 10
174.0599147570482
 20
176.8777846027787
 30
0.0
  0
VERTEX
  5
100
330
C2
100
AcDbEntity
  8
1
  6
Continuous
 62
     7
370
     9
100
AcDbVertex
100
AcDb2dVertex
 10
174.0903915102896
 20
176.9002602873269
 30
0.0
  0
VERTEX
  5
101
330
C2
100
AcDbEntity
  8
1
  6
Continuous
 62
     7
370
     9
100
AcDbVertex
100
AcDb2dVertex
 10
174.1263892822822
 20
176.9309637662055
 30
0.0
  0
VERTEX
  5
102
330
C2
100
AcDbEntity
  8
1
  6
Continuous
 62
     7
370
     9
100
AcDbVertex
100
AcDb2dVertex
 10
174.1659170294463
 20
176.9702464449838
 30
0.0
  0
VERTEX
  5
103
330
C2
100
AcDbEntity
  8
1
  6
Continuous
 62
     7
370
     9
100
AcDbVertex
100
AcDb2dVertex
 10
174.2069286407903
 20
177.0177358018899
 30
0.0
  0
VERTEX
  5
104
330
C2
100
AcDbEntity
  8
1
  6
Continuous
 62
     7
370
     9
100
AcDbVertex
100
AcDb2dVertex
 10
174.247485631964
 20
177.0722031646957
 30
0.0
  0
VERTEX
  5
105
330
C2
100
AcDbEntity
  8
1
  6
Continuous
 62
     7
370
     9
100
AcDbVertex
100
AcDb2dVertex
 10
174.2858984494251
 20
177.1316036951158
 30
0.0
  0
VERTEX
  5
106
330
C2
100
AcDbEntity
  8
1
  6
Continuous
 62
     7
370
     9
100
AcDbVertex
100
AcDb2dVertex
 10
174.3208330466881
 20
177.19328348684
 30
0.0
  0
VERTEX
  5
107
330
C2
100
AcDbEntity
  8
1
  6
Continuous
 62
     7
370
     9
100
AcDbVertex
100
AcDb2dVertex
 10
174.3513739252695
 20
177.2543098590715
 30
0.0
  0
VERTEX
  5
108
330
C2
100
AcDbEntity
  8
1
  6
Continuous
 62
     7
370
     9
100
AcDbVertex
100
AcDb2dVertex
 10
174.3770400854069
 20
177.3118527203123
 30
0.0
  0
VERTEX
  5
109
330
C2
100
AcDbEntity
  8
1
  6
Continuous
 62
     7
370
     9
100
AcDbVertex
100
AcDb2dVertex
 10
174.3977556261562
 20
177.3635339543006
 30
0.0
  0
VERTEX
  5
10A
330
C2
100
AcDbEntity
  8
1
  6
Continuous
 62
     7
370
     9
100
AcDbVertex
100
AcDb2dVertex
 10
174.4137814573417
 20
177.4076706338823
 30
0.0
  0
VERTEX
  5
10B
330
C2
100
AcDbEntity
  8
1
  6
Continuous
 62
     7
370
     9
100
AcDbVertex
100
AcDb2dVertex
 10
174.4256182652382
 20
177.443364230981
 30
0.0
  0
VERTEX
  5
10C
330
C2
100
AcDbEntity
  8
1
  6
Continuous
 62
     7
370
     9
100
AcDbVertex
100
AcDb2dVertex
 10
174.4338932216218
 20
177.4704253944275
 30
0.0
  0
VERTEX
  5
10D
330
C2
100
AcDbEntity
  8
1
  6
Continuous
 62
     7
370
     9
100
AcDbVertex
100
AcDb2dVertex
 10
174.4392438424582
 20
177.4891632178239
 30
0.0
  0
VERTEX
  5
10E
330
C2
100
AcDbEntity
  8
1
  6
Continuous
 62
     7
370
     9
100
AcDbVertex
100
AcDb2dVertex
 10
174.4422119514485
 20
177.5000996973038
 30
0.0
  0
VERTEX
  5
10F
330
C2
100
AcDbEntity
  8
1
  6
Continuous
 62
     7
370
     9
100
AcDbVertex
100
AcDb2dVertex
 10
174.4431590663391
 20
177.5036866395262
 30
0.0
  0
VERTEX
  5
110
330
C2
100
AcDbEntity
  8
1
  6
Continuous
 62
     7
370
     9
100
AcDbVertex
100
AcDb2dVertex
 10
174.4440804153546
 20
177.5072262752355
 30
0.0
  0
VERTEX
  5
111
330
C2
100
AcDbEntity
  8
1
  6
Continuous
 62
     7
370
     9
100
AcDbVertex
100
AcDb2dVertex
 10
174.4466695599824
 20
177.5174734070855
 30
0.0
  0
VERTEX
  5
112
330
C2
100
AcDbEntity
  8
1
  6
Continuous
 62
     7
370
     9
100
AcDbVertex
100
AcDb2dVertex
 10
174.4504378018714
 20
177.5333834852262
 30
0.0
  0
VERTEX
  5
113
330
C2
100
AcDbEntity
  8
1
  6
Continuous
 62
     7
370
     9
100
AcDbVertex
100
AcDb2dVertex
 10
174.4546826883687
 20
177.5534355849882
 30
0.0
  0
VERTEX
  5
114
330
C2
100
AcDbEntity
  8
1
  6
Continuous
 62
     7
370
     9
100
AcDbVertex
100
AcDb2dVertex
 10
174.4586299803546
 20
177.5759103874156
 30
0.0
  0
VERTEX
  5
115
330
C2
100
AcDbEntity
  8
1
  6
Continuous
 62
     7
370
     9
100
AcDbVertex
100
AcDb2dVertex
 10
174.4615864271903
 20
177.5991879156314
 30
0.0
  0
VERTEX
  5
116
330
C2
100
AcDbEntity
  8
1
  6
Continuous
 62
     7
370
     9
100
AcDbVertex
100
AcDb2dVertex
 10
174.4630703784696
 20
177.621999882173
 30
0.0
  0
VERTEX
  5
117
330
C2
100
AcDbEntity
  8
1
  6
Continuous
 62
     7
370
     9
100
AcDbVertex
100
AcDb2dVertex
 10
174.4628929356089
 20
177.6435833321756
 30
0.0
  0
VERTEX
  5
118
330
C2
100
AcDbEntity
  8
1
  6
Continuous
 62
     7
370
     9
100
AcDbVertex
100
AcDb2dVertex
 10
174.4611741395493
 20
177.6637063379326
 30
0.0
  0
VERTEX
  5
119
330
C2
100
AcDbEntity
  8
1
  6
Continuous
 62
     7
370
     9
100
AcDbVertex
100
AcDb2dVertex
 10
174.4582937741759
 20
177.6825670131307
 30
0.0
  0
VERTEX
  5
11A
330
C2
100
AcDbEntity
  8
1
  6
Continuous
 62
     7
370
     9
100
AcDbVertex
100
AcDb2dVertex
 10
174.4547911641919
 20
177.7005967776076
 30
0.0
  0
VERTEX
  5
11B
330
C2
100
AcDbEntity
  8
1
  6
Continuous
 62
     7
370
     9
100
AcDbVertex
100
AcDb2dVertex
 10
174.4512393973997
 20
177.7182205802226
 30
0.0
  0
VERTEX
  5
11C
330
C2
100
AcDbEntity
  8
1
  6
Continuous
 62
     7
370
     9
100
AcDbVertex
100
AcDb2dVertex
 10
174.4481241750967
 20
177.7356355825039
 30
0.0
  0
VERTEX
  5
11D
330
C2
100
AcDbEntity
  8
1
  6
Continuous
 62
     7
370
     9
100
AcDbVertex
100
AcDb2dVertex
 10
174.4457549905201
 20
177.7526636744069
 30
0.0
  0
VERTEX
  5
11E
330
C2
100
AcDbEntity
  8
1
  6
Continuous
 62
     7
370
     9
100
AcDbVertex
100
AcDb2dVertex
 10
174.4442273080632
 20
177.7687137918633
 30
0.0
  0
VERTEX
  5
11F
330
C2
100
AcDbEntity
  8
1
  6
Continuous
 62
     7
370
     9
100
AcDbVertex
100
AcDb2dVertex
 10
174.4434411755209
 20
177.7828621723021
 30
0.0
  0
VERTEX
  5
120
330
C2
100
AcDbEntity
  8
1
  6
Continuous
 62
     7
370
     9
100
AcDbVertex
100
AcDb2dVertex
 10
174.4431675427509
 20
177.7940292563617
 30
0.0
  0
VERTEX
  5
121
330
C2
100
AcDbEntity
  8
1
  6
Continuous
 62
     7
370
     9
100
AcDbVertex
100
AcDb2dVertex
 10
174.4431419569355
 20
177.8012080963765
 30
0.0
  0
VERTEX
  5
122
330
C2
100
AcDbEntity
  8
1
  6
Continuous
 62
     7
370
     9
100
AcDbVertex
100
AcDb2dVertex
 10
174.4431590663391
 20
177.8036866395262
 30
0.0
  0
VERTEX
  5
123
330
C2
100
AcDbEntity
  8
1
  6
Continuous
 62
     7
370
     9
100
AcDbVertex
100
AcDb2dVertex
 10
174.4431895205065
 20
177.8061979843092
 30
0.0
  0
VERTEX
  5
124
330
C2
100
AcDbEntity
  8
1
  6
Continuous
 62
     7
370
     9
100
AcDbVertex
100
AcDb2dVertex
 10
174.4433591061573
 20
177.81385486879
 30
0.0
  0
VERTEX
  5
125
330
C2
100
AcDbEntity
  8
1
  6
Continuous
 62
     7
370
     9
100
AcDbVertex
100
AcDb2dVertex
 10
174.4438917367618
 20
177.8269834048953
 30
0.0
  0
VERTEX
  5
126
330
C2
100
AcDbEntity
  8
1
  6
Continuous
 62
     7
370
     9
100
AcDbVertex
100
AcDb2dVertex
 10
174.4451259893208
 20
177.8459954679216
 30
0.0
  0
VERTEX
  5
127
330
C2
100
AcDbEntity
  8
1
  6
Continuous
 62
     7
370
     9
100
AcDbVertex
100
AcDb2dVertex
 10
174.4474673903901
 20
177.8712233166153
 30
0.0
  0
VERTEX
  5
128
330
C2
100
AcDbEntity
  8
1
  6
Continuous
 62
     7
370
     9
100
AcDbVertex
100
AcDb2dVertex
 10
174.4513295377543
 20
177.9027445904998
 30
0.0
  0
VERTEX
  5
129
330
C2
100
AcDbEntity
  8
1
  6
Continuous
 62
     7
370
     9
100
AcDbVertex
100
AcDb2dVertex
 10
174.4570708992646
 20
177.9402382143929
 30
0.0
  0
VERTEX
  5
12A
330
C2
100
AcDbEntity
  8
1
  6
Continuous
 62
     7
370
     9
100
AcDbVertex
100
AcDb2dVertex
 10
174.4649346821011
 20
177.9829047464379
 30
0.0
  0
VERTEX
  5
12B
330
C2
100
AcDbEntity
  8
1
  6
Continuous
 62
     7
370
     9
100
AcDbVertex
100
AcDb2dVertex
 10
174.4749988910711
 20
178.0294701614923
 30
0.0
  0
VERTEX
  5
12C
330
C2
100
AcDbEntity
  8
1
  6
Continuous
 62
     7
370
     9
100
AcDbVertex
100
AcDb2dVertex
 10
174.4871426267728
 20
178.0782734316976
 30
0.0
  0
VERTEX
  5
12D
330
C2
100
AcDbEntity
  8
1
  6
Continuous
 62
     7
370
     9
100
AcDbVertex
100
AcDb2dVertex
 10
174.5010329346351
 20
178.1274199344837
 30
0.0
  0
VERTEX
  5
12E
330
C2
100
AcDbEntity
  8
1
  6
Continuous
 62
     7
370
     9
100
AcDbVertex
100
AcDb2dVertex
 10
174.5161342980732
 20
178.1749689410866
 30
0.0
  0
VERTEX
  5
12F
330
C2
100
AcDbEntity
  8
1
  6
Continuous
 62
     7
370
     9
100
AcDbVertex
100
AcDb2dVertex
 10
174.5317404177335
 20
178.2191173344861
 30
0.0
  0
VERTEX
  5
130
330
C2
100
AcDbEntity
  8
1
  6
Continuous
 62
     7
370
     9
100
AcDbVertex
100
AcDb2dVertex
 10
174.5470255011832
 20
178.2583445252902
 30
0.0
  0
VERTEX
  5
131
330
C2
100
AcDbEntity
  8
1
  6
Continuous
 62
     7
370
     9
100
AcDbVertex
100
AcDb2dVertex
 10
174.5611101639033
 20
178.2914943826487
 30
0.0
  0
VERTEX
  5
132
330
C2
100
AcDbEntity
  8
1
  6
Continuous
 62
     7
370
     9
100
AcDbVertex
100
AcDb2dVertex
 10
174.5731354390633
 20
178.3177860735235
 30
0.0
  0
VERTEX
  5
133
330
C2
100
AcDbEntity
  8
1
  6
Continuous
 62
     7
370
     9
100
AcDbVertex
100
AcDb2dVertex
 10
174.5823374784801
 20
178.3367629960287
 30
0.0
  0
VERTEX
  5
134
330
C2
100
AcDbEntity
  8
1
  6
Continuous
 62
     7
370
     9
100
AcDbVertex
100
AcDb2dVertex
 10
174.5881153941899
 20
178.3482032620472
 30
0.0
  0
VERTEX
  5
135
330
C2
100
AcDbEntity
  8
1
  6
Continuous
 62
     7
370
     9
100
AcDbVertex
100
AcDb2dVertex
 10
174.590085350079
 20
178.3520229954109
 30
0.0
  0
VERTEX
  5
136
330
C2
100
AcDbEntity
  8
1
  6
Continuous
 62
     7
370
     9
100
AcDbVertex
100
AcDb2dVertex
 10
174.5920685355038
 20
178.3558278199524
 30
0.0
  0
VERTEX
  5
137
330
C2
100
AcDbEntity
  8
1
  6
Continuous
 62
     7
370
     9
100
AcDbVertex
100
AcDb2dVertex
 10
174.5980413186446
 20
178.3670510504511
 30
0.0
  0
VERTEX
  5
138
330
C2
100
AcDbEntity
  8
1
  6
Continuous
 62
     7
370
     9
100
AcDbVertex
100
AcDb2dVertex
 10
174.6080592961579
 20
178.3851393874088
 30
0.0
  0
VERTEX
  5
139
330
C2
100
AcDbEntity
  8
1
  6
Continuous
 62
     7
370
     9
100
AcDbVertex
100
AcDb2dVertex
 10
174.6221712468229
 20
178.4092351760728
 30
0.0
  0
VERTEX
  5
13A
330
C2
100
AcDbEntity
  8
1
  6
Continuous
 62
     7
370
     9
100
AcDbVertex
100
AcDb2dVertex
 10
174.6403633639663
 20
178.438261372895
 30
0.0
  0
VERTEX
  5
13B
330
C2
100
AcDbEntity
  8
1
  6
Continuous
 62
     7
370
     9
100
AcDbVertex
100
AcDb2dVertex
 10
174.6624990381093
 20
178.4710194602596
 30
0.0
  0
VERTEX
  5
13C
330
C2
100
AcDbEntity
  8
1
  6
Continuous
 62
     7
370
     9
100
AcDbVertex
100
AcDb2dVertex
 10
174.6882673104417
 20
178.5062846562044
 30
0.0
  0
VERTEX
  5
13D
330
C2
100
AcDbEntity
  8
1
  6
Continuous
 62
     7
370
     9
100
AcDbVertex
100
AcDb2dVertex
 10
174.7171513224962
 20
178.5428846026581
 30
0.0
  0
VERTEX
  5
13E
330
C2
100
AcDbEntity
  8
1
  6
Continuous
 62
     7
370
     9
100
AcDbVertex
100
AcDb2dVertex
 10
174.7484239610769
 20
178.5797522165821
 30
0.0
  0
VERTEX
  5
13F
330
C2
100
AcDbEntity
  8
1
  6
Continuous
 62
     7
370
     9
100
AcDbVertex
100
AcDb2dVertex
 10
174.781172405757
 20
178.6159494656567
 30
0.0
  0
VERTEX
  5
140
330
C2
100
AcDbEntity
  8
1
  6
Continuous
 62
     7
370
     9
100
AcDbVertex
100
AcDb2dVertex
 10
174.8143476749347
 20
178.6506650783128
 30
0.0
  0
VERTEX
  5
141
330
C2
100
AcDbEntity
  8
1
  6
Continuous
 62
     7
370
     9
100
AcDbVertex
100
AcDb2dVertex
 10
174.8468307686358
 20
178.6831942249598
 30
0.0
  0
VERTEX
  5
142
330
C2
100
AcDbEntity
  8
1
  6
Continuous
 62
     7
370
     9
100
AcDbVertex
100
AcDb2dVertex
 10
174.8775045573223
 20
178.7129109568833
 30
0.0
  0
VERTEX
  5
143
330
C2
100
AcDbEntity
  8
1
  6
Continuous
 62
     7
370
     9
100
AcDbVertex
100
AcDb2dVertex
 10
174.9053205937132
 20
178.7392441781817
 30
0.0
  0
VERTEX
  5
144
330
C2
100
AcDbEntity
  8
1
  6
Continuous
 62
     7
370
     9
100
AcDbVertex
100
AcDb2dVertex
 10
174.9293523636087
 20
178.7616653408234
 30
0.0
  0
VERTEX
  5
145
330
C2
100
AcDbEntity
  8
1
  6
Continuous
 62
     7
370
     9
100
AcDbVertex
100
AcDb2dVertex
 10
174.9488304405428
 20
178.7796916851335
 30
0.0
  0
VERTEX
  5
146
330
C2
100
AcDbEntity
  8
1
  6
Continuous
 62
     7
370
     9
100
AcDbVertex
100
AcDb2dVertex
 10
174.963159514797
 20
178.792903886037
 30
0.0
  0
VERTEX
  5
147
330
C2
100
AcDbEntity
  8
1
  6
Continuous
 62
     7
370
     9
100
AcDbVertex
100
AcDb2dVertex
 10
174.9719211909249
 20
178.8009726937836
 30
0.0
  0
VERTEX
  5
148
330
C2
100
AcDbEntity
  8
1
  6
Continuous
 62
     7
370
     9
100
AcDbVertex
100
AcDb2dVertex
 10
174.9748688457538
 20
178.8036866395262
 30
0.0
  0
SEQEND
  5
149
330
C2
100
AcDbEntity
  8
1
  6
Continuous
 62
     7
370
     9
  0
CIRCLE
  5
14A
330
1F
100
AcDbEntity
  8
1
  6
Continuous
 62
     7
370
     9
100
AcDbCircle
 10
125.8080350961857
 20
162.8036866395262
 30
0.0
 40
12.45
  0
CIRCLE
  5
14B
330
1F
100
AcDbEntity
  8
1
  6
Continuous
 62
     7
370
     9
100
AcDbCircle
 10
125.8080350961857
 20
162.8036866395262
 30
0.0
 40
13.34999999999999
  0
CIRCLE
  5
14C
330
1F
100
AcDbEntity
  8
1
  6
Continuous
 62
     7
370
     9
100
AcDbCircle
 10
125.8080350961857
 20
162.8036866395261
 30
0.0
 40
15.0
  0
CIRCLE
  5
14D
330
1F
100
AcDbEntity
  8
1
  6
Continuous
 62
     7
370
     9
100
AcDbCircle
 10
125.8080350961857
 20
162.8036866395261
 30
0.0
 40
15.8
  0
CIRCLE
  5
14E
330
1F
100
AcDbEntity
  8
1
  6
Continuous
 62
     7
370
     9
100
AcDbCircle
 10
125.8080350961857
 20
162.8036866395261
 30
0.0
 40
15.25
  0
CIRCLE
  5
14F
330
1F
100
AcDbEntity
  8
1
  6
Continuous
 62
     7
370
     9
100
AcDbCircle
 10
125.8080350961857
 20
162.8036866395261
 30
0.0
 40
16.0
  0
LINE
  5
150
330
1F
100
AcDbEntity
  8
1
  6
Continuous
 62
     7
370
     9
100
AcDbLine
 10
118.4357705463507
 20
155.3538737518061
 30
0.0
 11
121.657432854674
 21
158.7475750943422
 31
0.0
  0
LINE
  5
151
330
1F
100
AcDbEntity
  8
1
  6
Continuous
 62
     7
370
     9
100
AcDbLine
 10
118.6389244486367
 20
156.9712412164652
 30
0.0
 11
120.0531380110098
 21
158.3854547788383
 31
0.0
  0
LINE
  5
152
330
1F
100
AcDbEntity
  8
1
  6
Continuous
 62
     7
370
     9
100
AcDbLine
 10
120.0743045583967
 20
155.5358611067052
 30
0.0
 11
121.4885181207698
 21
156.9500746690783
 31
0.0
  0
LINE
  5
153
330
1F
100
AcDbEntity
  8
1
  6
Continuous
 62
     7
370
     9
100
AcDbLine
 10
118.6389244486367
 20
167.9712412164652
 30
0.0
 11
120.0531380110098
 21
169.3854547788383
 31
0.0
  0
LINE
  5
154
330
1F
100
AcDbEntity
  8
1
  6
Continuous
 62
     7
370
     9
100
AcDbLine
 10
118.4357705463507
 20
166.3538737518061
 30
0.0
 11
121.657432854674
 21
169.7475750943422
 31
0.0
  0
LINE
  5
155
330
1F
100
AcDbEntity
  8
1
  6
Continuous
 62
     7
370
     9
100
AcDbLine
 10
120.0743045583967
 20
166.5358611067052
 30
0.0
 11
121.4885181207698
 21
167.9500746690783
 31
0.0
  0
LINE
  5
156
330
1F
100
AcDbEntity
  8
1
  6
Continuous
 62
     7
370
     9
100
AcDbLine
 10
171.4511264045723
 20
162.8036866395262
 30
0.0
 11
171.4511264045723
 21
147.0036866395263
 31
0.0
  0
LINE
  5
157
330
1F
100
AcDbEntity
  8
1
  6
Continuous
 62
     7
370
     9
100
AcDbLine
 10
176.8511264045724
 20
178.6036866395263
 30
0.0
 11
176.8511264045724
 21
147.0036866395263
 31
0.0
  0
LINE
  5
158
330
1F
100
AcDbEntity
  8
1
  6
Continuous
 62
     7
370
     9
100
AcDbLine
 10
129.4357705463507
 20
155.3538737518061
 30
0.0
 11
132.657432854674
 21
158.7475750943422
 31
0.0
  0
LINE
  5
159
330
1F
100
AcDbEntity
  8
1
  6
Continuous
 62
     7
370
     9
100
AcDbLine
 10
131.0743045583967
 20
155.5358611067052
 30
0.0
 11
132.4885181207698
 21
156.9500746690783
 31
0.0
  0
LINE
  5
15A
330
1F
100
AcDbEntity
  8
1
  6
Continuous
 62
     7
370
     9
100
AcDbLine
 10
129.6389244486367
 20
156.9712412164652
 30
0.0
 11
131.0531380110098
 21
158.3854547788383
 31
0.0
  0
LINE
  5
15B
330
1F
100
AcDbEntity
  8
1
  6
Continuous
 62
     7
370
     9
100
AcDbLine
 10
171.6511264045724
 20
146.8036866395262
 30
0.0
 11
176.6511264045724
 21
146.8036866395262
 31
0.0
  0
LINE
  5
15C
330
1F
100
AcDbEntity
  8
1
  6
Continuous
 62
     7
370
     9
100
AcDbLine
 10
171.6511264045724
 20
146.8036866395262
 30
0.0
 11
171.4511264045723
 21
147.0036866395263
 31
0.0
  0
LINE
  5
15D
330
1F
100
AcDbEntity
  8
1
  6
Continuous
 62
     7
370
     9
100
AcDbLine
 10
181.8010264045724
 20
148.8536866395263
 30
0.0
 11
176.8511264045724
 21
148.8536866395263
 31
0.0
  0
LINE
  5
15E
330
1F
100
AcDbEntity
  8
1
  6
Continuous
 62
     7
370
     9
100
AcDbLine
 10
176.6511264045724
 20
146.8036866395262
 30
0.0
 11
176.8511264045724
 21
147.0036866395263
 31
0.0
  0
LINE
  5
15F
330
1F
100
AcDbEntity
  8
1
  6
Continuous
 62
     7
370
     9
100
AcDbLine
 10
129.4357705463507
 20
166.3538737518061
 30
0.0
 11
132.657432854674
 21
169.7475750943422
 31
0.0
  0
LINE
  5
160
330
1F
100
AcDbEntity
  8
1
  6
Continuous
 62
     7
370
     9
100
AcDbLine
 10
129.6389244486367
 20
167.9712412164652
 30
0.0
 11
131.0531380110098
 21
169.3854547788383
 31
0.0
  0
LINE
  5
161
330
1F
100
AcDbEntity
  8
1
  6
Continuous
 62
     7
370
     9
100
AcDbLine
 10
131.0743045583967
 20
166.5358611067052
 30
0.0
 11
132.4885181207698
 21
167.9500746690783
 31
0.0
  0
LINE
  5
162
330
1F
100
AcDbEntity
  8
1
  6
Continuous
 62
     7
370
     9
100
AcDbLine
 10
171.6511264045724
 20
178.8036866395262
 30
0.0
 11
176.6511264045724
 21
178.8036866395262
 31
0.0
  0
LINE
  5
163
330
1F
100
AcDbEntity
  8
1
  6
Continuous
 62
     7
370
     9
100
AcDbLine
 10
171.7511264045723
 20
177.5036866395262
 30
0.0
 11
171.7511264045723
 21
175.9426566991278
 31
0.0
  0
LINE
  5
164
330
1F
100
AcDbEntity
  8
1
  6
Continuous
 62
     7
370
     9
100
AcDbLine
 10
171.4511264045723
 20
162.8036866395262
 30
0.0
 11
171.4511264045723
 21
178.6036866395263
 31
0.0
  0
LINE
  5
165
330
1F
100
AcDbEntity
  8
1
  6
Continuous
 62
     7
370
     9
100
AcDbLine
 10
171.6511264045724
 20
178.8036866395262
 30
0.0
 11
171.4511264045723
 21
178.6036866395263
 31
0.0
  0
LINE
  5
166
330
1F
100
AcDbEntity
  8
1
  6
Continuous
 62
     7
370
     9
100
AcDbLine
 10
171.7511264045723
 20
177.5036866395262
 30
0.0
 11
174.4431590663391
 21
177.5036866395262
 31
0.0
  0
LINE
  5
167
330
1F
100
AcDbEntity
  8
1
  6
Continuous
 62
     7
370
     9
100
AcDbLine
 10
171.4511264045723
 20
177.8036866395262
 30
0.0
 11
174.4431590663391
 21
177.8036866395262
 31
0.0
  0
LINE
  5
168
330
1F
100
AcDbEntity
  8
1
  6
Continuous
 62
     7
370
     9
100
AcDbLine
 10
171.4511264045723
 20
177.8036866395262
 30
0.0
 11
171.7511264045723
 21
177.5036866395262
 31
0.0
  0
LINE
  5
169
330
1F
100
AcDbEntity
  8
1
  6
Continuous
 62
     7
370
     9
100
AcDbLine
 10
181.8010264045724
 20
176.7536866395263
 30
0.0
 11
176.8511264045724
 21
176.7536866395263
 31
0.0
  0
LINE
  5
16A
330
1F
100
AcDbEntity
  8
1
  6
Continuous
 62
     7
370
     9
100
AcDbLine
 10
176.6511264045724
 20
178.8036866395262
 30
0.0
 11
176.8511264045724
 21
178.6036866395263
 31
0.0
  0
CIRCLE
  5
16B
330
1F
100
AcDbEntity
  8
1
  6
Continuous
 62
     7
370
     9
100
AcDbCircle
 10
125.8080350961857
 20
162.8036870615758
 30
0.0
 40
16.84999999999997
  0
ARC
  5
16C
330
1F
100
AcDbEntity
  8
1
  6
Continuous
 62
     7
370
     9
100
AcDbCircle
 10
125.8080350961857
 20
162.8036870615758
 30
0.0
 40
17.24999999999999
100
AcDbArc
 50
194.4513969026443
 51
197.5482124488631
  0
LINE
  5
16D
330
1F
100
AcDbEntity
  8
1
  6
Continuous
 62
     7
370
     9
100
AcDbLine
 10
110.2446934451293
 20
155.3642719869553
 30
0.0
 11
110.7693410525119
 21
155.2038711164245
 31
0.0
  0
LINE
  5
16E
330
1F
100
AcDbEntity
  8
1
  6
Continuous
 62
     7
370
     9
100
AcDbLine
 10
109.3607883509648
 20
157.6026703819429
 30
0.0
 11
109.858006637349
 21
157.3708136872272
 31
0.0
  0
ARC
  5
16F
330
1F
100
AcDbEntity
  8
1
  6
Continuous
 62
     7
370
     9
100
AcDbCircle
 10
125.8080350961857
 20
162.8036870615758
 30
0.0
 40
17.24999999999999
100
AcDbArc
 50
202.4513969026403
 51
205.5482124488648
  0
LINE
  5
170
330
1F
100
AcDbEntity
  8
1
  6
Continuous
 62
     7
370
     9
100
AcDbLine
 10
109.8655191265158
 20
156.215919263845
 30
0.0
 11
110.0973773022277
 21
156.713140726236
 31
0.0
  0
ARC
  5
171
330
1F
100
AcDbEntity
  8
1
  6
Continuous
 62
     7
370
     9
100
AcDbCircle
 10
125.8080350961857
 20
162.8036870615758
 30
0.0
 40
17.24999999999999
100
AcDbArc
 50
210.4513969026442
 51
213.5482124488702
  0
LINE
  5
172
330
1F
100
AcDbEntity
  8
1
  6
Continuous
 62
     7
370
     9
100
AcDbLine
 10
112.2989400541599
 20
152.0767652689312
 30
0.0
 11
112.3847636282131
 21
152.6186339896038
 31
0.0
  0
LINE
  5
173
330
1F
100
AcDbEntity
  8
1
  6
Continuous
 62
     7
370
     9
100
AcDbLine
 10
111.4315212814928
 20
153.2706733441859
 30
0.0
 11
111.9733865409739
 21
153.1848503183317
 31
0.0
  0
LINE
  5
174
330
1F
100
AcDbEntity
  8
1
  6
Continuous
 62
     7
370
     9
100
AcDbLine
 10
110.9375106688341
 20
154.0612615825947
 30
0.0
 11
111.0979125639334
 21
154.5859125411902
 31
0.0
  0
LINE
  5
175
330
1F
100
AcDbEntity
  8
1
  6
Continuous
 62
     7
370
     9
100
AcDbLine
 10
114.6160977390219
 20
149.6772618744458
 30
0.0
 11
115.1606280892354
 21
149.7441217943951
 31
0.0
  0
LINE
  5
176
330
1F
100
AcDbEntity
  8
1
  6
Continuous
 62
     7
370
     9
100
AcDbLine
 10
113.923308608111
 20
150.3010562862688
 30
0.0
 11
113.9328834028718
 21
150.8495959107372
 31
0.0
  0
LINE
  5
177
330
1F
100
AcDbEntity
  8
1
  6
Continuous
 62
     7
370
     9
100
AcDbLine
 10
112.8981716062173
 20
151.3626239697832
 30
0.0
 11
113.4467077268837
 21
151.3530492361814
 31
0.0
  0
ARC
  5
178
330
1F
100
AcDbEntity
  8
1
  6
Continuous
 62
     7
370
     9
100
AcDbCircle
 10
125.8080350961857
 20
162.8036870615758
 30
0.0
 40
17.24999999999999
100
AcDbArc
 50
226.4513969026458
 51
229.5482124488701
  0
ARC
  5
179
330
1F
100
AcDbEntity
  8
1
  6
Continuous
 62
     7
370
     9
100
AcDbCircle
 10
125.8080350961857
 20
162.8036870615758
 30
0.0
 40
17.24999999999999
100
AcDbArc
 50
218.4513969026441
 51
221.5482124488644
  0
LINE
  5
17A
330
1F
100
AcDbEntity
  8
1
  6
Continuous
 62
     7
370
     9
100
AcDbLine
 10
118.6677875413131
 20
147.1008413049896
 30
0.0
 11
119.1727946177043
 21
147.3152040909254
 31
0.0
  0
LINE
  5
17B
330
1F
100
AcDbEntity
  8
1
  6
Continuous
 62
     7
370
     9
100
AcDbLine
 10
116.5518622018436
 20
148.2473907142887
 30
0.0
 11
117.0817881177315
 21
148.3893839354991
 31
0.0
  0
LINE
  5
17C
330
1F
100
AcDbEntity
  8
1
  6
Continuous
 62
     7
370
     9
100
AcDbLine
 10
115.7789998444764
 20
148.7686967901159
 30
0.0
 11
115.712139497456
 21
149.3132306185445
 31
0.0
  0
ARC
  5
17D
330
1F
100
AcDbEntity
  8
1
  6
Continuous
 62
     7
370
     9
100
AcDbCircle
 10
125.8080350961857
 20
162.8036870615758
 30
0.0
 40
17.24999999999999
100
AcDbArc
 50
234.4513969026433
 51
237.5482124488696
  0
LINE
  5
17E
330
1F
100
AcDbEntity
  8
1
  6
Continuous
 62
     7
370
     9
100
AcDbLine
 10
117.8298948441578
 20
147.5095124150324
 30
0.0
 11
117.6879007159585
 21
148.0394417158486
 31
0.0
  0
ARC
  5
17F
330
1F
100
AcDbEntity
  8
1
  6
Continuous
 62
     7
370
     9
100
AcDbCircle
 10
125.8080350961857
 20
162.8036870615758
 30
0.0
 40
17.24999999999999
100
AcDbArc
 50
242.4513969026412
 51
245.5482124488657
  0
LINE
  5
180
330
1F
100
AcDbEntity
  8
1
  6
Continuous
 62
     7
370
     9
100
AcDbLine
 10
123.2726795053171
 20
145.7410239626381
 30
0.0
 11
123.6990370725289
 21
146.086281512998
 31
0.0
  0
LINE
  5
181
330
1F
100
AcDbEntity
  8
1
  6
Continuous
 62
     7
370
     9
100
AcDbLine
 10
120.922689677527
 20
146.2599299266204
 30
0.0
 11
121.3929485261167
 21
146.5424899494871
 31
0.0
  0
LINE
  5
182
330
1F
100
AcDbEntity
  8
1
  6
Continuous
 62
     7
370
     9
100
AcDbLine
 10
120.0360752688449
 20
146.5480117525779
 30
0.0
 11
119.8217111136562
 21
147.0530220547271
 31
0.0
  0
ARC
  5
183
330
1F
100
AcDbEntity
  8
1
  6
Continuous
 62
     7
370
     9
100
AcDbCircle
 10
125.8080350961857
 20
162.8036870615758
 30
0.0
 40
17.24999999999999
100
AcDbArc
 50
250.451396902641
 51
253.5482124488671
  0
LINE
  5
184
330
1F
100
AcDbEntity
  8
1
  6
Continuous
 62
     7
370
     9
100
AcDbLine
 10
122.3546003260643
 20
145.9029093194565
 30
0.0
 11
122.0720384983312
 21
146.3731711718481
 31
0.0
  0
ARC
  5
185
330
1F
100
AcDbEntity
  8
1
  6
Continuous
 62
     7
370
     9
100
AcDbCircle
 10
125.8080350961857
 20
162.8036870615758
 30
0.0
 40
17.24999999999999
100
AcDbArc
 50
258.4513969026435
 51
261.5482124488664
  0
LINE
  5
186
330
1F
100
AcDbEntity
  8
1
  6
Continuous
 62
     7
370
     9
100
AcDbLine
 10
110.2447441681844
 20
170.2432082484798
 30
0.0
 11
110.76939512678
 21
170.4036101435791
 31
0.0
  0
LINE
  5
187
330
1F
100
AcDbEntity
  8
1
  6
Continuous
 62
     7
370
     9
100
AcDbLine
 10
108.797029715851
 20
165.6651894554631
 30
0.0
 11
109.257143831853
 21
165.9639910561322
 31
0.0
  0
LINE
  5
188
330
1F
100
AcDbEntity
  8
1
  6
Continuous
 62
     7
370
     9
100
AcDbLine
 10
109.3608238124112
 20
168.0048158800996
 30
0.0
 11
109.8580452748021
 21
168.2366740558115
 31
0.0
  0
ARC
  5
189
330
1F
100
AcDbEntity
  8
1
  6
Continuous
 62
     7
370
     9
100
AcDbCircle
 10
125.8080350961857
 20
162.8036870615758
 30
0.0
 40
17.24999999999999
100
AcDbArc
 50
162.4513969026463
 51
165.5482124488635
  0
LINE
  5
18A
330
1F
100
AcDbEntity
  8
1
  6
Continuous
 62
     7
370
     9
100
AcDbLine
 10
109.1038598747504
 20
167.1086876622247
 30
0.0
 11
109.4026595668215
 21
166.6485764852059
 31
0.0
  0
LINE
  5
18B
330
1F
100
AcDbEntity
  8
1
  6
Continuous
 62
     7
370
     9
100
AcDbLine
 10
108.7970102062302
 20
159.9423006505307
 30
0.0
 11
109.2571213832489
 21
159.6435009584597
 31
0.0
  0
LINE
  5
18C
330
1F
100
AcDbEntity
  8
1
  6
Continuous
 62
     7
370
     9
100
AcDbLine
 10
109.103830523204
 20
158.4988003518034
 30
0.0
 11
109.402632123873
 21
158.9589144678053
 31
0.0
  0
ARC
  5
18D
330
1F
100
AcDbEntity
  8
1
  6
Continuous
 62
     7
370
     9
100
AcDbCircle
 10
125.8080350961857
 20
162.8036870615758
 30
0.0
 40
17.24999999999999
100
AcDbArc
 50
170.4513969026415
 51
189.5482124488661
  0
ARC
  5
18E
330
1F
100
AcDbEntity
  8
1
  6
Continuous
 62
     7
370
     9
100
AcDbCircle
 10
125.8080350961857
 20
162.8036870615758
 30
0.0
 40
17.24999999999999
100
AcDbArc
 50
154.4513969026429
 51
157.5482124488701
  0
LINE
  5
18F
330
1F
100
AcDbEntity
  8
1
  6
Continuous
 62
     7
370
     9
100
AcDbLine
 10
109.8655640429614
 20
169.3915635568591
 30
0.0
 11
110.0974207376771
 21
168.894345270475
 31
0.0
  0
LINE
  5
190
330
1F
100
AcDbEntity
  8
1
  6
Continuous
 62
     7
370
     9
100
AcDbLine
 10
114.6161872365924
 20
175.9301885561751
 30
0.0
 11
115.1607210650209
 21
175.8633282091548
 31
0.0
  0
ARC
  5
191
330
1F
100
AcDbEntity
  8
1
  6
Continuous
 62
     7
370
     9
100
AcDbCircle
 10
125.8080350961857
 20
162.8036870615758
 30
0.0
 40
17.24999999999999
100
AcDbArc
 50
138.4513969026395
 51
141.5482124488632
  0
ARC
  5
192
330
1F
100
AcDbEntity
  8
1
  6
Continuous
 62
     7
370
     9
100
AcDbCircle
 10
125.8080350961857
 20
162.8036870615758
 30
0.0
 40
17.24999999999999
100
AcDbArc
 50
146.4513969026466
 51
149.5482124488667
  0
LINE
  5
193
330
1F
100
AcDbEntity
  8
1
  6
Continuous
 62
     7
370
     9
100
AcDbLine
 10
111.4315862788902
 20
172.3367987992868
 30
0.0
 11
111.9734549995628
 21
172.4226223733398
 31
0.0
  0
LINE
  5
194
330
1F
100
AcDbEntity
  8
1
  6
Continuous
 62
     7
370
     9
100
AcDbLine
 10
112.2990131917246
 20
173.5307009603637
 30
0.0
 11
112.3848362175789
 21
172.9888357008827
 31
0.0
  0
LINE
  5
195
330
1F
100
AcDbEntity
  8
1
  6
Continuous
 62
     7
370
     9
100
AcDbLine
 10
112.8982496128565
 20
174.2448381738731
 30
0.0
 11
113.4467892373249
 21
174.2544129686339
 31
0.0
  0
LINE
  5
196
330
1F
100
AcDbEntity
  8
1
  6
Continuous
 62
     7
370
     9
100
AcDbLine
 10
113.9233938526035
 20
175.3063988678738
 30
0.0
 11
113.9329685862052
 21
174.7578627472074
 31
0.0
  0
ARC
  5
197
330
1F
100
AcDbEntity
  8
1
  6
Continuous
 62
     7
370
     9
100
AcDbCircle
 10
125.8080350961857
 20
162.8036870615758
 30
0.0
 40
17.24999999999999
100
AcDbArc
 50
130.451396902643
 51
133.5482124488658
  0
LINE
  5
198
330
1F
100
AcDbEntity
  8
1
  6
Continuous
 62
     7
370
     9
100
AcDbLine
 10
110.9375702759314
 20
171.5462139291113
 30
0.0
 11
111.0979711464622
 21
171.0215663217287
 31
0.0
  0
LINE
  5
199
330
1F
100
AcDbEntity
  8
1
  6
Continuous
 62
     7
370
     9
100
AcDbLine
 10
116.5519614483771
 20
177.3600465180588
 30
0.0
 11
117.0818907491933
 21
177.2180523898596
 31
0.0
  0
ARC
  5
19A
330
1F
100
AcDbEntity
  8
1
  6
Continuous
 62
     7
370
     9
100
AcDbCircle
 10
125.8080350961857
 20
162.8036870615758
 30
0.0
 40
17.24999999999999
100
AcDbArc
 50
122.4513969026436
 51
125.5482124488649
  0
LINE
  5
19B
330
1F
100
AcDbEntity
  8
1
  6
Continuous
 62
     7
370
     9
100
AcDbLine
 10
115.7790955367097
 20
176.8387457116982
 30
0.0
 11
115.7122356167604
 21
176.2942153614846
 31
0.0
  0
LINE
  5
19C
330
1F
100
AcDbEntity
  8
1
  6
Continuous
 62
     7
370
     9
100
AcDbLine
 10
118.6678946050886
 20
178.5065815007356
 30
0.0
 11
119.1729049072379
 21
178.2922173455468
 31
0.0
  0
ARC
  5
19D
330
1F
100
AcDbEntity
  8
1
  6
Continuous
 62
     7
370
     9
100
AcDbCircle
 10
125.8080350961857
 20
162.8036870615758
 30
0.0
 40
17.24999999999999
100
AcDbArc
 50
114.4513969026443
 51
117.5482124488646
  0
LINE
  5
19E
330
1F
100
AcDbEntity
  8
1
  6
Continuous
 62
     7
370
     9
100
AcDbLine
 10
117.8299991215914
 20
178.0979161035405
 30
0.0
 11
117.6880059003809
 21
177.5679901876527
 31
0.0
  0
LINE
  5
19F
330
1F
100
AcDbEntity
  8
1
  6
Continuous
 62
     7
370
     9
100
AcDbLine
 10
123.2727958403594
 20
179.8663674464308
 30
0.0
 11
123.6991561309515
 21
179.521107690721
 31
0.0
  0
LINE
  5
1A0
330
1F
100
AcDbEntity
  8
1
  6
Continuous
 62
     7
370
     9
100
AcDbLine
 10
120.92280247467
 20
179.3474775049319
 30
0.0
 11
121.3930643270616
 21
179.0649156771987
 31
0.0
  0
LINE
  5
1A1
330
1F
100
AcDbEntity
  8
1
  6
Continuous
 62
     7
370
     9
100
AcDbLine
 10
120.0361861018371
 20
179.0594017240088
 30
0.0
 11
119.8218233159014
 21
178.5543946476175
 31
0.0
  0
ARC
  5
1A2
330
1F
100
AcDbEntity
  8
1
  6
Continuous
 62
     7
370
     9
100
AcDbCircle
 10
125.8080350961857
 20
162.8036870615758
 30
0.0
 40
17.24999999999999
100
AcDbArc
 50
106.4513969026449
 51
109.5482124488693
  0
LINE
  5
1A3
330
1F
100
AcDbEntity
  8
1
  6
Continuous
 62
     7
370
     9
100
AcDbLine
 10
122.3547155573769
 20
179.704488349174
 30
0.0
 11
122.0721555345102
 21
179.2342295005844
 31
0.0
  0
ARC
  5
1A4
330
1F
100
AcDbEntity
  8
1
  6
Continuous
 62
     7
370
     9
100
AcDbCircle
 10
125.8080350961857
 20
162.8036870615758
 30
0.0
 40
17.24999999999999
100
AcDbArc
 50
98.45139690264328
 51
101.5482124488683
  0
LINE
  5
1A5
330
1F
100
AcDbEntity
  8
1
  6
Continuous
 62
     7
370
     9
100
AcDbLine
 10
141.2521240574173
 20
155.1197677388888
 30
0.0
 11
141.0555163482962
 21
155.6319483319548
 31
0.0
  0
ARC
  5
1A6
330
1F
100
AcDbEntity
  8
1
  6
Continuous
 62
     7
370
     9
100
AcDbCircle
 10
125.8080350961857
 20
162.8036870615758
 30
0.0
 40
17.24999999999999
100
AcDbArc
 50
330.4365828295702
 51
333.548212448866
  0
ARC
  5
1A7
330
1F
100
AcDbEntity
  8
1
  6
Continuous
 62
     7
370
     9
100
AcDbCircle
 10
125.8080350961857
 20
162.8036870615758
 30
0.0
 40
17.24999999999999
100
AcDbArc
 50
290.4513969026433
 51
309.5482124488667
  0
LINE
  5
1A8
330
1F
100
AcDbEntity
  8
1
  6
Continuous
 62
     7
370
     9
100
AcDbLine
 10
128.0740022208881
 20
145.7031638827439
 30
0.0
 11
128.3886775407651
 21
146.1525668135973
 31
0.0
  0
LINE
  5
1A9
330
1F
100
AcDbEntity
  8
1
  6
Continuous
 62
     7
370
     9
100
AcDbLine
 10
125.6720171457591
 20
145.554223327385
 30
0.0
 11
126.0461748665218
 21
145.9554583597451
 31
0.0
  0
LINE
  5
1AA
330
1F
100
AcDbEntity
  8
1
  6
Continuous
 62
     7
370
     9
100
AcDbLine
 10
124.7403425628601
 20
145.5867613007356
 30
0.0
 11
124.3950828071503
 21
146.0131215913278
 31
0.0
  0
ARC
  5
1AB
330
1F
100
AcDbEntity
  8
1
  6
Continuous
 62
     7
370
     9
100
AcDbCircle
 10
125.8080350961857
 20
162.8036870615758
 30
0.0
 40
17.24999999999999
100
AcDbArc
 50
266.4513969026425
 51
269.548212448867
  0
LINE
  5
1AC
330
1F
100
AcDbEntity
  8
1
  6
Continuous
 62
     7
370
     9
100
AcDbLine
 10
127.146866220335
 20
145.6057211579868
 30
0.0
 11
126.745628625066
 21
145.9798812687008
 31
0.0
  0
ARC
  5
1AD
330
1F
100
AcDbEntity
  8
1
  6
Continuous
 62
     7
370
     9
100
AcDbCircle
 10
125.8080350961857
 20
162.8036870615758
 30
0.0
 40
17.24999999999999
100
AcDbArc
 50
274.4513969026427
 51
277.5482124488677
  0
ARC
  5
1AE
330
1F
100
AcDbEntity
  8
1
  6
Continuous
 62
     7
370
     9
100
AcDbCircle
 10
125.8080350961857
 20
162.8036870615758
 30
0.0
 40
17.24999999999999
100
AcDbArc
 50
282.4513969026432
 51
285.5482124488673
  0
LINE
  5
1AF
330
1F
100
AcDbEntity
  8
1
  6
Continuous
 62
     7
370
     9
100
AcDbLine
 10
129.5273310528761
 20
145.959419859155
 30
0.0
 11
129.0779252514389
 21
146.2740971890366
 31
0.0
  0
LINE
  5
1B0
330
1F
100
AcDbEntity
  8
1
  6
Continuous
 62
     7
370
     9
100
AcDbLine
 10
130.4318828234342
 20
146.1849466702219
 30
0.0
 11
130.680950945262
 21
146.6737703827077
 31
0.0
  0
LINE
  5
1B1
330
1F
100
AcDbEntity
  8
1
  6
Continuous
 62
     7
370
     9
100
AcDbLine
 10
131.8354040202566
 20
146.6409730613485
 30
0.0
 11
131.3465771853848
 21
146.8900427741115
 31
0.0
  0
LINE
  5
1B2
330
1F
100
AcDbEntity
  8
1
  6
Continuous
 62
     7
370
     9
100
AcDbLine
 10
136.7915808631721
 20
149.5024005679875
 30
0.0
 11
136.8202933986392
 21
150.0502683818864
 31
0.0
  0
LINE
  5
1B3
330
1F
100
AcDbEntity
  8
1
  6
Continuous
 62
     7
370
     9
100
AcDbLine
 10
140.8144598653515
 20
154.2966478793829
 30
0.0
 11
140.2798978595382
 21
154.1732345160563
 31
0.0
  0
LINE
  5
1B4
330
1F
100
AcDbEntity
  8
1
  6
Continuous
 62
     7
370
     9
100
AcDbLine
 10
140.0324283656323
 20
153.0451453612948
 30
0.0
 11
139.9090157906097
 21
153.5797039525882
 31
0.0
  0
LINE
  5
1B5
330
1F
100
AcDbEntity
  8
1
  6
Continuous
 62
     7
370
     9
100
AcDbLine
 10
139.4844673480886
 20
152.2909471304679
 30
0.0
 11
138.9379318424952
 21
152.2431314695141
 31
0.0
  0
ARC
  5
1B6
330
1F
100
AcDbEntity
  8
1
  6
Continuous
 62
     7
370
     9
100
AcDbCircle
 10
125.8080350961857
 20
162.8036870615758
 30
0.0
 40
17.24999999999999
100
AcDbArc
 50
322.451396902646
 51
325.5482124488707
  0
LINE
  5
1B7
330
1F
100
AcDbEntity
  8
1
  6
Continuous
 62
     7
370
     9
100
AcDbLine
 10
138.5358710388649
 20
151.16046189772
 30
0.0
 11
138.488055683334
 21
151.7069939123128
 31
0.0
  0
LINE
  5
1B8
330
1F
100
AcDbEntity
  8
1
  6
Continuous
 62
     7
370
     9
100
AcDbLine
 10
137.8882786337535
 20
150.4898649062476
 30
0.0
 11
137.3404073203215
 21
150.5185776251175
 31
0.0
  0
ARC
  5
1B9
330
1F
100
AcDbEntity
  8
1
  6
Continuous
 62
     7
370
     9
100
AcDbCircle
 10
125.8080350961857
 20
162.8036870615758
 30
0.0
 40
17.24999999999999
100
AcDbArc
 50
314.451396902646
 51
317.5482124488641
  0
LINE
  5
1BA
330
1F
100
AcDbEntity
  8
1
  6
Continuous
 62
     7
370
     9
100
AcDbLine
 10
142.1712181249628
 20
157.3439488657702
 30
0.0
 11
141.9052420271632
 21
157.8237824479616
 31
0.0
  0
LINE
  5
1BB
330
1F
100
AcDbEntity
  8
1
  6
Continuous
 62
     7
370
     9
100
AcDbLine
 10
141.8523693940378
 20
156.4679284693654
 30
0.0
 11
141.3401855293925
 21
156.2713195044027
 31
0.0
  0
ARC
  5
1BC
330
1F
100
AcDbEntity
  8
1
  6
Continuous
 62
     7
370
     9
100
AcDbCircle
 10
125.8080350961857
 20
162.8036870615758
 30
0.0
 40
17.24999999999999
100
AcDbArc
 50
338.4513969026443
 51
341.5482124488671
  0
LINE
  5
1BD
330
1F
100
AcDbEntity
  8
1
  6
Continuous
 62
     7
370
     9
100
AcDbLine
 10
141.2521764468067
 20
170.4875010847051
 30
0.0
 11
141.055567481844
 21
169.9753172200598
 31
0.0
  0
ARC
  5
1BE
330
1F
100
AcDbEntity
  8
1
  6
Continuous
 62
     7
370
     9
100
AcDbCircle
 10
125.8080350961857
 20
162.8036870615758
 30
0.0
 40
17.24999999999999
100
AcDbArc
 50
26.45139690264372
 51
29.54821244886498
  0
ARC
  5
1BF
330
1F
100
AcDbEntity
  8
1
  6
Continuous
 62
     7
370
     9
100
AcDbCircle
 10
125.8080350961857
 20
162.8036870615758
 30
0.0
 40
17.24999999999999
100
AcDbArc
 50
50.4513969026413
 51
69.54821244886715
  0
LINE
  5
1C0
330
1F
100
AcDbEntity
  8
1
  6
Continuous
 62
     7
370
     9
100
AcDbLine
 10
128.0741188139527
 20
179.9041947904145
 30
0.0
 11
128.3887961438341
 21
179.4547889889773
 31
0.0
  0
LINE
  5
1C1
330
1F
100
AcDbEntity
  8
1
  6
Continuous
 62
     7
370
     9
100
AcDbLine
 10
125.6721347543715
 20
180.0531517227499
 30
0.0
 11
126.0462948650854
 21
179.6519141274809
 31
0.0
  0
LINE
  5
1C2
330
1F
100
AcDbEntity
  8
1
  6
Continuous
 62
     7
370
     9
100
AcDbLine
 10
124.7404599496469
 20
180.0206201016527
 30
0.0
 11
124.395202399287
 21
179.5942625344409
 31
0.0
  0
ARC
  5
1C3
330
1F
100
AcDbEntity
  8
1
  6
Continuous
 62
     7
370
     9
100
AcDbCircle
 10
125.8080350961857
 20
162.8036870615758
 30
0.0
 40
17.24999999999999
100
AcDbArc
 50
90.45139690264298
 51
93.54821244886737
  0
LINE
  5
1C4
330
1F
100
AcDbEntity
  8
1
  6
Continuous
 62
     7
370
     9
100
AcDbLine
 10
127.1469834777955
 20
180.0016438364774
 30
0.0
 11
126.7457484454355
 21
179.6274861157147
 31
0.0
  0
ARC
  5
1C5
330
1F
100
AcDbEntity
  8
1
  6
Continuous
 62
     7
370
     9
100
AcDbCircle
 10
125.8080350961857
 20
162.8036870615758
 30
0.0
 40
17.24999999999999
100
AcDbArc
 50
82.45139690264392
 51
85.54821244886797
  0
ARC
  5
1C6
330
1F
100
AcDbEntity
  8
1
  6
Continuous
 62
     7
370
     9
100
AcDbCircle
 10
125.8080350961857
 20
162.8036870615758
 30
0.0
 40
17.24999999999999
100
AcDbArc
 50
74.4513969026428
 51
77.54821244886716
  0
LINE
  5
1C7
330
1F
100
AcDbEntity
  8
1
  6
Continuous
 62
     7
370
     9
100
AcDbLine
 10
129.5274458987273
 20
179.6479289050645
 30
0.0
 11
129.078042967874
 21
179.3332535851874
 31
0.0
  0
LINE
  5
1C8
330
1F
100
AcDbEntity
  8
1
  6
Continuous
 62
     7
370
     9
100
AcDbLine
 10
130.4319961315996
 20
179.4223959266764
 30
0.0
 11
130.6810658443626
 21
178.9335690918046
 31
0.0
  0
LINE
  5
1C9
330
1F
100
AcDbEntity
  8
1
  6
Continuous
 62
     7
370
     9
100
AcDbLine
 10
131.8355142191548
 20
178.9663599662093
 30
0.0
 11
131.3466905066689
 21
178.7172918443814
 31
0.0
  0
LINE
  5
1CA
330
1F
100
AcDbEntity
  8
1
  6
Continuous
 62
     7
370
     9
100
AcDbLine
 10
136.7916715524495
 20
176.1048986679157
 30
0.0
 11
136.8203842713193
 21
175.5570273544838
 31
0.0
  0
LINE
  5
1CB
330
1F
100
AcDbEntity
  8
1
  6
Continuous
 62
     7
370
     9
100
AcDbLine
 10
138.5359504232699
 20
174.4468254454728
 30
0.0
 11
138.488134762316
 21
173.9002899398794
 31
0.0
  0
LINE
  5
1CC
330
1F
100
AcDbEntity
  8
1
  6
Continuous
 62
     7
370
     9
100
AcDbLine
 10
140.0324949000376
 20
172.5621317782609
 30
0.0
 11
139.9090815367111
 21
172.0275697724476
 31
0.0
  0
LINE
  5
1CD
330
1F
100
AcDbEntity
  8
1
  6
Continuous
 62
     7
370
     9
100
AcDbLine
 10
139.4845390247075
 20
173.3163337451245
 30
0.0
 11
138.9380070101148
 21
173.3641491006553
 31
0.0
  0
ARC
  5
1CE
330
1F
100
AcDbEntity
  8
1
  6
Continuous
 62
     7
370
     9
100
AcDbCircle
 10
125.8080350961857
 20
162.8036870615758
 30
0.0
 40
17.24999999999999
100
AcDbArc
 50
34.4513969026446
 51
37.54821244886848
  0
LINE
  5
1CF
330
1F
100
AcDbEntity
  8
1
  6
Continuous
 62
     7
370
     9
100
AcDbLine
 10
137.8883625903725
 20
175.1174268522809
 30
0.0
 11
137.3404947764735
 21
175.0887143168138
 31
0.0
  0
ARC
  5
1D0
330
1F
100
AcDbEntity
  8
1
  6
Continuous
 62
     7
370
     9
100
AcDbCircle
 10
125.8080350961857
 20
162.8036870615758
 30
0.0
 40
17.24999999999999
100
AcDbArc
 50
42.45139690264642
 51
45.54821244887056
  0
LINE
  5
1D1
330
1F
100
AcDbEntity
  8
1
  6
Continuous
 62
     7
370
     9
100
AcDbLine
 10
140.8145178668665
 20
171.3106239282311
 30
0.0
 11
140.2799592755731
 21
171.4340365032537
 31
0.0
  0
LINE
  5
1D2
330
1F
100
AcDbEntity
  8
1
  6
Continuous
 62
     7
370
     9
100
AcDbLine
 10
142.7718427831197
 20
165.9328608759744
 30
0.0
 11
142.44167310988
 21
165.4947109208456
 31
0.0
  0
LINE
  5
1D3
330
1F
100
AcDbEntity
  8
1
  6
Continuous
 62
     7
370
     9
100
AcDbLine
 10
141.8524125915154
 20
169.1393362617256
 30
0.0
 11
141.3402319984494
 21
169.3359439708467
 31
0.0
  0
LINE
  5
1D4
330
1F
100
AcDbEntity
  8
1
  6
Continuous
 62
     7
370
     9
100
AcDbLine
 10
142.1712553496363
 20
168.2633136913979
 30
0.0
 11
141.905277552901
 21
167.7834770442454
 31
0.0
  0
LINE
  5
1D5
330
1F
100
AcDbEntity
  8
1
  6
Continuous
 62
     7
370
     9
100
AcDbLine
 10
142.5780217584265
 20
166.8447323902333
 30
0.0
 11
142.0981881762352
 21
167.1107084880329
 31
0.0
  0
ARC
  5
1D6
330
1F
100
AcDbEntity
  8
1
  6
Continuous
 62
     7
370
     9
100
AcDbCircle
 10
125.8080350961857
 20
162.8036870615758
 30
0.0
 40
17.24999999999999
100
AcDbArc
 50
10.45139690264068
 51
13.54821244886693
  0
ARC
  5
1D7
330
1F
100
AcDbEntity
  8
1
  6
Continuous
 62
     7
370
     9
100
AcDbCircle
 10
125.8080350961857
 20
162.8036870615758
 30
0.0
 40
17.24999999999999
100
AcDbArc
 50
18.45139690264257
 51
21.54821244886979
  0
ARC
  5
1D8
330
1F
100
AcDbEntity
  8
1
  6
Continuous
 62
     7
370
     9
100
AcDbCircle
 10
125.8080350961857
 20
162.8036870615758
 30
0.0
 40
17.24999999999999
100
AcDbArc
 50
354.4513969026448
 51
5.548212448869186
  0
ARC
  5
1D9
330
1F
100
AcDbEntity
  8
1
  6
Continuous
 62
     7
370
     9
100
AcDbCircle
 10
125.8080350961857
 20
162.8036870615758
 30
0.0
 40
17.24999999999999
100
AcDbArc
 50
346.4513969026419
 51
349.5482124488664
  0
LINE
  5
1DA
330
1F
100
AcDbEntity
  8
1
  6
Continuous
 62
     7
370
     9
100
AcDbLine
 10
142.5779942057761
 20
158.7625273935268
 30
0.0
 11
142.0981575586237
 21
158.4965495967915
 31
0.0
  0
LINE
  5
1DB
330
1F
100
AcDbEntity
  8
1
  6
Continuous
 62
     7
370
     9
100
AcDbLine
 10
142.977210838992
 20
161.135782893876
 30
0.0
 11
142.5390608838631
 21
160.8056132206362
 31
0.0
  0
LINE
  5
1DC
330
1F
100
AcDbEntity
  8
1
  6
Continuous
 62
     7
370
     9
100
AcDbLine
 10
142.7718214476981
 20
159.674397586273
 30
0.0
 11
142.4416538834202
 21
160.1125447427149
 31
0.0
  0
LINE
  5
1DD
330
1F
100
AcDbEntity
  8
1
  6
Continuous
 62
     7
370
     9
100
AcDbLine
 10
142.9772222105343
 20
164.4714741680396
 30
0.0
 11
142.5390750540923
 21
164.8016417323174
 31
0.0
  0
LINE
  5
1DE
330
1F
100
AcDbEntity
  8
1
  6
Continuous
 62
     7
370
     9
100
AcDbLine
 10
232.7010264045724
 20
162.8036866395262
 30
0.0
 11
232.7010264045724
 21
150.1036866395263
 31
0.0
  0
LINE
  5
1DF
330
1F
100
AcDbEntity
  8
1
  6
Continuous
 62
     7
370
     9
100
AcDbLine
 10
233.2010264045724
 20
162.8036866395262
 30
0.0
 11
233.2010264045724
 21
150.6036866395263
 31
0.0
  0
LINE
  5
1E0
330
1F
100
AcDbEntity
  8
1
  6
Continuous
 62
     7
370
     9
100
AcDbLine
 10
225.2960264045724
 20
157.6026696537418
 30
0.0
 11
225.2960264045724
 21
158.4987996236022
 31
0.0
  0
LINE
  5
1E1
330
1F
100
AcDbEntity
  8
1
  6
Continuous
 62
     7
370
     9
100
AcDbLine
 10
225.9010264045723
 20
146.6015770719538
 30
0.0
 11
225.9010264045724
 21
162.8036863333746
 31
0.0
  0
LINE
  5
1E2
330
1F
100
AcDbEntity
  8
1
  6
Continuous
 62
     7
370
     9
100
AcDbLine
 10
226.1010264045723
 20
162.8036866395262
 30
0.0
 11
226.1010264045723
 21
146.8036866395262
 31
0.0
  0
LINE
  5
1E3
330
1F
100
AcDbEntity
  8
1
  6
Continuous
 62
     7
370
     9
100
AcDbLine
 10
230.4010264045723
 20
150.1036866395263
 30
0.0
 11
230.4010264045723
 21
162.8036866395262
 31
0.0
  0
LINE
  5
1E4
330
1F
100
AcDbEntity
  8
1
  6
Continuous
 62
     7
370
     9
100
AcDbLine
 10
229.2010264045724
 20
162.8036866395262
 30
0.0
 11
229.2010264045724
 21
147.1036866395263
 31
0.0
  0
LINE
  5
1E5
330
1F
100
AcDbEntity
  8
1
  6
Continuous
 62
     7
370
     9
100
AcDbLine
 10
211.7010264045724
 20
157.6026696537418
 30
0.0
 11
211.7010264045724
 21
158.4987996236023
 31
0.0
  0
LINE
  5
1E6
330
1F
100
AcDbEntity
  8
1
  6
Continuous
 62
     7
370
     9
100
AcDbLine
 10
211.3010264045724
 20
146.0130257291922
 30
0.0
 11
211.3010264045724
 21
162.8036863333746
 31
0.0
  0
LINE
  5
1E7
330
1F
100
AcDbEntity
  8
1
  6
Continuous
 62
     7
370
     9
100
AcDbLine
 10
226.1010264045723
 20
146.8036866395262
 30
0.0
 11
228.9010264045723
 21
146.8036866395262
 31
0.0
  0
ARC
  5
1E8
330
1F
100
AcDbEntity
  8
1
  6
Continuous
 62
     7
370
     9
100
AcDbCircle
 10
209.1010264045725
 20
157.5723895976416
 30
0.0
 40
0.0999999999999943
100
AcDbArc
 50
269.9999999999671
 51
0.0
  0
ARC
  5
1E9
330
1F
100
AcDbEntity
  8
1
  6
Continuous
 62
     7
370
     9
100
AcDbCircle
 10
209.1010264045725
 20
157.7223895976416
 30
0.0
 40
0.0999999999999943
100
AcDbArc
 50
0.0
 51
89.99999999999991
  0
LINE
  5
1EA
330
1F
100
AcDbEntity
  8
1
  6
Continuous
 62
     7
370
     9
100
AcDbLine
 10
208.2260264045724
 20
157.8223895976416
 30
0.0
 11
209.1010264045725
 21
157.8223895976416
 31
0.0
  0
ARC
  5
1EB
330
1F
100
AcDbEntity
  8
1
  6
Continuous
 62
     7
370
     9
100
AcDbCircle
 10
208.2260264045724
 20
157.7223895976416
 30
0.0
 40
0.0999999999999943
100
AcDbArc
 50
89.99999999999991
 51
179.9999999999998
  0
LINE
  5
1EC
330
1F
100
AcDbEntity
  8
1
  6
Continuous
 62
     7
370
     9
100
AcDbLine
 10
208.4760264045724
 20
157.4723895976416
 30
0.0
 11
209.1010264045724
 21
157.4723895976416
 31
0.0
  0
LINE
  5
1ED
330
1F
100
AcDbEntity
  8
1
  6
Continuous
 62
     7
370
     9
100
AcDbLine
 10
208.4760264045724
 20
157.4723895976416
 30
0.0
 11
208.4760264045724
 21
156.8473895976416
 31
0.0
  0
ARC
  5
1EE
330
1F
100
AcDbEntity
  8
1
  6
Continuous
 62
     7
370
     9
100
AcDbCircle
 10
208.3760264045724
 20
156.8473895976416
 30
0.0
 40
0.0999999999999943
100
AcDbArc
 50
269.9999999999671
 51
0.0
  0
LINE
  5
1EF
330
1F
100
AcDbEntity
  8
1
  6
Continuous
 62
     7
370
     9
100
AcDbLine
 10
208.3760264045724
 20
156.7473895976415
 30
0.0
 11
208.2260264045725
 21
156.7473895976415
 31
0.0
  0
LINE
  5
1F0
330
1F
100
AcDbEntity
  8
1
  6
Continuous
 62
     7
370
     9
100
AcDbLine
 10
208.1260264045724
 20
157.7223895976416
 30
0.0
 11
208.1260264045724
 21
156.8473895976416
 31
0.0
  0
ARC
  5
1F1
330
1F
100
AcDbEntity
  8
1
  6
Continuous
 62
     7
370
     9
100
AcDbCircle
 10
208.2260264045724
 20
156.8473895976416
 30
0.0
 40
0.0999999999999943
100
AcDbArc
 50
179.9999999999998
 51
269.9999999999998
  0
LINE
  5
1F2
330
1F
100
AcDbEntity
  8
1
  6
Continuous
 62
     7
370
     9
100
AcDbLine
 10
209.2010264045724
 20
157.5723895976416
 30
0.0
 11
209.2010264045724
 21
157.7223895976416
 31
0.0
  0
LINE
  5
1F3
330
1F
100
AcDbEntity
  8
1
  6
Continuous
 62
     7
370
     9
100
AcDbLine
 10
225.2960264045724
 20
157.6026696537418
 30
0.0
 11
211.7010264045724
 21
157.6026696537418
 31
0.0
  0
LINE
  5
1F4
330
1F
100
AcDbEntity
  8
1
  6
Continuous
 62
     7
370
     9
100
AcDbLine
 10
211.3010264045724
 20
157.370864728768
 30
0.0
 11
225.5260264045724
 21
157.3708647287679
 31
0.0
  0
LINE
  5
1F5
330
1F
100
AcDbEntity
  8
1
  6
Continuous
 62
     7
370
     9
100
AcDbLine
 10
211.3010264045724
 20
156.7130290528201
 30
0.0
 11
225.5260264045724
 21
156.71302905282
 31
0.0
  0
LINE
  5
1F6
330
1F
100
AcDbEntity
  8
1
  6
Continuous
 62
     7
370
     9
100
AcDbLine
 10
225.2960264045724
 20
156.2159185356439
 30
0.0
 11
211.7010264045724
 21
156.215918535644
 31
0.0
  0
LINE
  5
1F7
330
1F
100
AcDbEntity
  8
1
  6
Continuous
 62
     7
370
     9
100
AcDbLine
 10
211.7010264045724
 20
155.3642712587542
 30
0.0
 11
225.2960264045724
 21
155.3642712587541
 31
0.0
  0
LINE
  5
1F8
330
1F
100
AcDbEntity
  8
1
  6
Continuous
 62
     7
370
     9
100
AcDbLine
 10
225.5260264045724
 20
155.2039062030687
 30
0.0
 11
211.3010264045724
 21
155.2039062030688
 31
0.0
  0
LINE
  5
1F9
330
1F
100
AcDbEntity
  8
1
  6
Continuous
 62
     7
370
     9
100
AcDbLine
 10
211.3010264045724
 20
154.5857947474204
 30
0.0
 11
225.5260264045724
 21
154.5857947474204
 31
0.0
  0
LINE
  5
1FA
330
1F
100
AcDbEntity
  8
1
  6
Continuous
 62
     7
370
     9
100
AcDbLine
 10
225.2960264045724
 20
154.0612608543935
 30
0.0
 11
211.7010264045724
 21
154.0612608543937
 31
0.0
  0
LINE
  5
1FB
330
1F
100
AcDbEntity
  8
1
  6
Continuous
 62
     7
370
     9
100
AcDbLine
 10
211.7010264045724
 20
153.2706726159849
 30
0.0
 11
225.2960264045723
 21
153.2706726159848
 31
0.0
  0
LINE
  5
1FC
330
1F
100
AcDbEntity
  8
1
  6
Continuous
 62
     7
370
     9
100
AcDbLine
 10
225.5260264045723
 20
153.1848687529841
 30
0.0
 11
211.3010264045724
 21
153.1848687529842
 31
0.0
  0
LINE
  5
1FD
330
1F
100
AcDbEntity
  8
1
  6
Continuous
 62
     7
370
     9
100
AcDbLine
 10
211.7010264045724
 20
152.07676454073
 30
0.0
 11
225.2960264045723
 21
152.07676454073
 31
0.0
  0
LINE
  5
1FE
330
1F
100
AcDbEntity
  8
1
  6
Continuous
 62
     7
370
     9
100
AcDbLine
 10
211.7010264045724
 20
151.3626232415821
 30
0.0
 11
225.5260264045723
 21
151.3626232415821
 31
0.0
  0
LINE
  5
1FF
330
1F
100
AcDbEntity
  8
1
  6
Continuous
 62
     7
370
     9
100
AcDbLine
 10
225.5260264045723
 20
151.1273739959267
 30
0.0
 11
211.3010264045724
 21
151.1273739959267
 31
0.0
  0
LINE
  5
200
330
1F
100
AcDbEntity
  8
1
  6
Continuous
 62
     7
370
     9
100
AcDbLine
 10
225.2960264045723
 20
150.3010555580676
 30
0.0
 11
211.7010264045724
 21
150.3010555580676
 31
0.0
  0
LINE
  5
201
330
1F
100
AcDbEntity
  8
1
  6
Continuous
 62
     7
370
     9
100
AcDbLine
 10
225.2960264045723
 20
149.6772611462447
 30
0.0
 11
211.7010264045724
 21
149.6772611462447
 31
0.0
  0
LINE
  5
202
330
1F
100
AcDbEntity
  8
1
  6
Continuous
 62
     7
370
     9
100
AcDbLine
 10
225.5260264045723
 20
149.3131083883022
 30
0.0
 11
211.3010264045724
 21
149.3131083883023
 31
0.0
  0
LINE
  5
203
330
1F
100
AcDbEntity
  8
1
  6
Continuous
 62
     7
370
     9
100
AcDbLine
 10
211.7010264045724
 20
148.7686960619149
 30
0.0
 11
225.2960264045723
 21
148.7686960619148
 31
0.0
  0
LINE
  5
204
330
1F
100
AcDbEntity
  8
1
  6
Continuous
 62
     7
370
     9
100
AcDbLine
 10
225.2960264045723
 20
148.2473899860874
 30
0.0
 11
211.7010264045724
 21
148.2473899860875
 31
0.0
  0
LINE
  5
205
330
1F
100
AcDbEntity
  8
1
  6
Continuous
 62
     7
370
     9
100
AcDbLine
 10
225.5260264045723
 20
148.0393227443201
 30
0.0
 11
211.291000775512
 21
148.0393227443203
 31
0.0
  0
LINE
  5
206
330
1F
100
AcDbEntity
  8
1
  6
Continuous
 62
     7
370
     9
100
AcDbLine
 10
225.2960264045723
 20
147.5095116868312
 30
0.0
 11
211.7010264045724
 21
147.5095116868312
 31
0.0
  0
LINE
  5
207
330
1F
100
AcDbEntity
  8
1
  6
Continuous
 62
     7
370
     9
100
AcDbLine
 10
225.5260264045723
 20
147.0529086433843
 30
0.0
 11
211.3010264045724
 21
147.0529086433845
 31
0.0
  0
LINE
  5
208
330
1F
100
AcDbEntity
  8
1
  6
Continuous
 62
     7
370
     9
100
AcDbLine
 10
225.2960264045723
 20
147.1008405767885
 30
0.0
 11
211.7010264045724
 21
147.1008405767886
 31
0.0
  0
LINE
  5
209
330
1F
100
AcDbEntity
  8
1
  6
Continuous
 62
     7
370
     9
100
AcDbLine
 10
225.2960264045723
 20
146.5480110243768
 30
0.0
 11
211.7010264045724
 21
146.5480110243768
 31
0.0
  0
LINE
  5
20A
330
1F
100
AcDbEntity
  8
1
  6
Continuous
 62
     7
370
     9
100
AcDbLine
 10
225.2960264045723
 20
146.2599291984191
 30
0.0
 11
211.7010264045724
 21
146.2599291984192
 31
0.0
  0
LINE
  5
20B
330
1F
100
AcDbEntity
  8
1
  6
Continuous
 62
     7
370
     9
100
AcDbLine
 10
225.2960264045723
 20
145.7410232344369
 30
0.0
 11
211.7010264045724
 21
145.7410232344369
 31
0.0
  0
LINE
  5
20C
330
1F
100
AcDbEntity
  8
1
  6
Continuous
 62
     7
370
     9
100
AcDbLine
 10
225.2960264045723
 20
145.9029085912553
 30
0.0
 11
211.7010264045724
 21
145.9029085912553
 31
0.0
  0
LINE
  5
20D
330
1F
100
AcDbEntity
  8
1
  6
Continuous
 62
     7
370
     9
100
AcDbLine
 10
225.5260264045723
 20
152.8536517949848
 30
0.0
 11
211.3010264045724
 21
152.853651794985
 31
0.0
  0
LINE
  5
20E
330
1F
100
AcDbEntity
  8
1
  6
Continuous
 62
     7
370
     9
100
AcDbLine
 10
211.7010264045724
 20
145.5536863333746
 30
0.0
 11
225.2960264045723
 21
145.5536863333746
 31
0.0
  0
LINE
  5
20F
330
1F
100
AcDbEntity
  8
1
  6
Continuous
 62
     7
370
     9
100
AcDbLine
 10
211.7010264045724
 20
153.2706726159849
 30
0.0
 11
211.7010264045724
 21
154.0612608543937
 31
0.0
  0
LINE
  5
210
330
1F
100
AcDbEntity
  8
1
  6
Continuous
 62
     7
370
     9
100
AcDbLine
 10
211.7010264045724
 20
153.2706726159849
 30
0.0
 11
211.3010264045724
 21
153.1848687529842
 31
0.0
  0
LINE
  5
211
330
1F
100
AcDbEntity
  8
1
  6
Continuous
 62
     7
370
     9
100
AcDbLine
 10
211.3010264045724
 20
152.6185123540282
 30
0.0
 11
211.7010264045724
 21
152.07676454073
 31
0.0
  0
LINE
  5
212
330
1F
100
AcDbEntity
  8
1
  6
Continuous
 62
     7
370
     9
100
AcDbLine
 10
211.7010264045724
 20
155.3642712587542
 30
0.0
 11
211.7010264045724
 21
156.215918535644
 31
0.0
  0
LINE
  5
213
330
1F
100
AcDbEntity
  8
1
  6
Continuous
 62
     7
370
     9
100
AcDbLine
 10
211.7010264045724
 20
155.3642712587542
 30
0.0
 11
211.3010264045724
 21
155.2039062030688
 31
0.0
  0
LINE
  5
214
330
1F
100
AcDbEntity
  8
1
  6
Continuous
 62
     7
370
     9
100
AcDbLine
 10
211.3010264045724
 20
154.5857947474204
 30
0.0
 11
211.7010264045724
 21
154.0612608543937
 31
0.0
  0
LINE
  5
215
330
1F
100
AcDbEntity
  8
1
  6
Continuous
 62
     7
370
     9
100
AcDbLine
 10
211.7010264045724
 20
157.6026696537418
 30
0.0
 11
211.3010264045724
 21
157.370864728768
 31
0.0
  0
LINE
  5
216
330
1F
100
AcDbEntity
  8
1
  6
Continuous
 62
     7
370
     9
100
AcDbLine
 10
211.3010264045724
 20
156.7130290528201
 30
0.0
 11
211.7010264045724
 21
156.215918535644
 31
0.0
  0
LINE
  5
217
330
1F
100
AcDbEntity
  8
1
  6
Continuous
 62
     7
370
     9
100
AcDbLine
 10
211.7010264045724
 20
147.1008405767886
 30
0.0
 11
211.7010264045724
 21
147.5095116868312
 31
0.0
  0
LINE
  5
218
330
1F
100
AcDbEntity
  8
1
  6
Continuous
 62
     7
370
     9
100
AcDbLine
 10
211.7010264045724
 20
147.1008405767886
 30
0.0
 11
211.3010264045724
 21
147.3151554990812
 31
0.0
  0
LINE
  5
219
330
1F
100
AcDbEntity
  8
1
  6
Continuous
 62
     7
370
     9
100
AcDbLine
 10
211.3010264045724
 20
147.0529086433845
 30
0.0
 11
211.7010264045724
 21
146.5480110243768
 31
0.0
  0
LINE
  5
21A
330
1F
100
AcDbEntity
  8
1
  6
Continuous
 62
     7
370
     9
100
AcDbLine
 10
211.3010264045724
 20
146.5424261303346
 30
0.0
 11
211.7010264045724
 21
146.2599291984192
 31
0.0
  0
LINE
  5
21B
330
1F
100
AcDbEntity
  8
1
  6
Continuous
 62
     7
370
     9
100
AcDbLine
 10
211.7010264045724
 20
146.2599291984192
 30
0.0
 11
211.7010264045724
 21
146.5480110243768
 31
0.0
  0
LINE
  5
21C
330
1F
100
AcDbEntity
  8
1
  6
Continuous
 62
     7
370
     9
100
AcDbLine
 10
211.3010264045724
 20
146.3730655139403
 30
0.0
 11
211.7010264045724
 21
145.9029085912553
 31
0.0
  0
LINE
  5
21D
330
1F
100
AcDbEntity
  8
1
  6
Continuous
 62
     7
370
     9
100
AcDbLine
 10
211.7010264045724
 20
145.7410232344369
 30
0.0
 11
211.7010264045724
 21
145.9029085912553
 31
0.0
  0
LINE
  5
21E
330
1F
100
AcDbEntity
  8
1
  6
Continuous
 62
     7
370
     9
100
AcDbLine
 10
211.7010264045724
 20
145.7410232344369
 30
0.0
 11
211.3010264045724
 21
146.0130257291922
 31
0.0
  0
LINE
  5
21F
330
1F
100
AcDbEntity
  8
1
  6
Continuous
 62
     7
370
     9
100
AcDbLine
 10
211.7010264045724
 20
145.5536863333746
 30
0.0
 11
211.3010264045724
 21
146.0130257291922
 31
0.0
  0
LINE
  5
220
330
1F
100
AcDbEntity
  8
1
  6
Continuous
 62
     7
370
     9
100
AcDbLine
 10
211.5408316516538
 20
146.3730655139403
 30
0.0
 11
211.3010264045724
 21
146.3730655139403
 31
0.0
  0
LINE
  5
221
330
1F
100
AcDbEntity
  8
1
  6
Continuous
 62
     7
370
     9
100
AcDbLine
 10
211.3010264045724
 20
149.3131083883023
 30
0.0
 11
211.7010264045724
 21
148.7686960619149
 31
0.0
  0
LINE
  5
222
330
1F
100
AcDbEntity
  8
1
  6
Continuous
 62
     7
370
     9
100
AcDbLine
 10
211.7010264045724
 20
148.2473899860875
 30
0.0
 11
211.3010264045724
 21
148.3893515025745
 31
0.0
  0
LINE
  5
223
330
1F
100
AcDbEntity
  8
1
  6
Continuous
 62
     7
370
     9
100
AcDbLine
 10
211.3010264045724
 20
148.0393227443203
 30
0.0
 11
211.7010264045724
 21
147.5095116868312
 31
0.0
  0
LINE
  5
224
330
1F
100
AcDbEntity
  8
1
  6
Continuous
 62
     7
370
     9
100
AcDbLine
 10
211.7010264045724
 20
148.2473899860875
 30
0.0
 11
211.7010264045724
 21
148.7686960619149
 31
0.0
  0
LINE
  5
225
330
1F
100
AcDbEntity
  8
1
  6
Continuous
 62
     7
370
     9
100
AcDbLine
 10
211.7010264045724
 20
151.3626232415821
 30
0.0
 11
211.3010264045724
 21
151.3626232415821
 31
0.0
  0
LINE
  5
226
330
1F
100
AcDbEntity
  8
1
  6
Continuous
 62
     7
370
     9
100
AcDbLine
 10
211.3010264045724
 20
150.8494727866802
 30
0.0
 11
211.7010264045724
 21
150.3010555580676
 31
0.0
  0
LINE
  5
227
330
1F
100
AcDbEntity
  8
1
  6
Continuous
 62
     7
370
     9
100
AcDbLine
 10
211.7010264045724
 20
149.6772611462447
 30
0.0
 11
211.3010264045724
 21
149.7441061374864
 31
0.0
  0
LINE
  5
228
330
1F
100
AcDbEntity
  8
1
  6
Continuous
 62
     7
370
     9
100
AcDbLine
 10
211.7010264045724
 20
149.6772611462447
 30
0.0
 11
211.7010264045724
 21
150.3010555580676
 31
0.0
  0
LINE
  5
229
330
1F
100
AcDbEntity
  8
1
  6
Continuous
 62
     7
370
     9
100
AcDbLine
 10
211.7010264045724
 20
151.3626232415821
 30
0.0
 11
211.7010264045724
 21
152.07676454073
 31
0.0
  0
LINE
  5
22A
330
1F
100
AcDbEntity
  8
1
  6
Continuous
 62
     7
370
     9
100
AcDbLine
 10
225.2960264045723
 20
153.2706726159848
 30
0.0
 11
225.2960264045724
 21
154.0612608543935
 31
0.0
  0
LINE
  5
22B
330
1F
100
AcDbEntity
  8
1
  6
Continuous
 62
     7
370
     9
100
AcDbLine
 10
225.2960264045723
 20
153.2706726159848
 30
0.0
 11
225.5260264045723
 21
153.1848687529841
 31
0.0
  0
LINE
  5
22C
330
1F
100
AcDbEntity
  8
1
  6
Continuous
 62
     7
370
     9
100
AcDbLine
 10
225.5260264045723
 20
152.8536517949848
 30
0.0
 11
225.2960264045723
 21
152.07676454073
 31
0.0
  0
LINE
  5
22D
330
1F
100
AcDbEntity
  8
1
  6
Continuous
 62
     7
370
     9
100
AcDbLine
 10
225.5260264045723
 20
152.8536517949848
 30
0.0
 11
225.5260264045723
 21
153.1848687529841
 31
0.0
  0
LINE
  5
22E
330
1F
100
AcDbEntity
  8
1
  6
Continuous
 62
     7
370
     9
100
AcDbLine
 10
225.2960264045724
 20
155.3642712587541
 30
0.0
 11
225.2960264045724
 21
156.2159185356439
 31
0.0
  0
LINE
  5
22F
330
1F
100
AcDbEntity
  8
1
  6
Continuous
 62
     7
370
     9
100
AcDbLine
 10
225.2960264045724
 20
155.3642712587541
 30
0.0
 11
225.5260264045724
 21
155.2039062030687
 31
0.0
  0
LINE
  5
230
330
1F
100
AcDbEntity
  8
1
  6
Continuous
 62
     7
370
     9
100
AcDbLine
 10
225.5260264045724
 20
154.5857947474204
 30
0.0
 11
225.2960264045724
 21
154.0612608543935
 31
0.0
  0
LINE
  5
231
330
1F
100
AcDbEntity
  8
1
  6
Continuous
 62
     7
370
     9
100
AcDbLine
 10
225.5260264045724
 20
154.5857947474204
 30
0.0
 11
225.5260264045724
 21
155.2039062030687
 31
0.0
  0
LINE
  5
232
330
1F
100
AcDbEntity
  8
1
  6
Continuous
 62
     7
370
     9
100
AcDbLine
 10
225.2960264045724
 20
157.6026696537418
 30
0.0
 11
225.5260264045724
 21
157.3708647287679
 31
0.0
  0
LINE
  5
233
330
1F
100
AcDbEntity
  8
1
  6
Continuous
 62
     7
370
     9
100
AcDbLine
 10
225.5260264045724
 20
156.71302905282
 30
0.0
 11
225.2960264045724
 21
156.2159185356439
 31
0.0
  0
LINE
  5
234
330
1F
100
AcDbEntity
  8
1
  6
Continuous
 62
     7
370
     9
100
AcDbLine
 10
225.5260264045724
 20
156.71302905282
 30
0.0
 11
225.5260264045724
 21
157.3708647287679
 31
0.0
  0
LINE
  5
235
330
1F
100
AcDbEntity
  8
1
  6
Continuous
 62
     7
370
     9
100
AcDbLine
 10
225.5260264045723
 20
149.3131083883022
 30
0.0
 11
225.5260264045723
 21
149.7441061374864
 31
0.0
  0
LINE
  5
236
330
1F
100
AcDbEntity
  8
1
  6
Continuous
 62
     7
370
     9
100
AcDbLine
 10
225.2960264045723
 20
147.1008405767885
 30
0.0
 11
225.2960264045723
 21
147.5095116868312
 31
0.0
  0
LINE
  5
237
330
1F
100
AcDbEntity
  8
1
  6
Continuous
 62
     7
370
     9
100
AcDbLine
 10
225.2960264045723
 20
147.1008405767885
 30
0.0
 11
225.5260264045723
 21
147.3151554990811
 31
0.0
  0
LINE
  5
238
330
1F
100
AcDbEntity
  8
1
  6
Continuous
 62
     7
370
     9
100
AcDbLine
 10
225.5260264045723
 20
147.0529086433843
 30
0.0
 11
225.2960264045723
 21
146.5480110243768
 31
0.0
  0
LINE
  5
239
330
1F
100
AcDbEntity
  8
1
  6
Continuous
 62
     7
370
     9
100
AcDbLine
 10
225.2960264045723
 20
146.2599291984191
 30
0.0
 11
225.5260264045723
 21
146.5424261303346
 31
0.0
  0
LINE
  5
23A
330
1F
100
AcDbEntity
  8
1
  6
Continuous
 62
     7
370
     9
100
AcDbLine
 10
225.2960264045723
 20
145.5536863333746
 30
0.0
 11
225.5260264045723
 21
146.0130257291922
 31
0.0
  0
LINE
  5
23B
330
1F
100
AcDbEntity
  8
1
  6
Continuous
 62
     7
370
     9
100
AcDbLine
 10
225.2960264045723
 20
145.7410232344369
 30
0.0
 11
225.5260264045723
 21
146.0130257291922
 31
0.0
  0
LINE
  5
23C
330
1F
100
AcDbEntity
  8
1
  6
Continuous
 62
     7
370
     9
100
AcDbLine
 10
225.2960264045723
 20
145.9029085912553
 30
0.0
 11
225.5260264045723
 21
146.3730655139402
 31
0.0
  0
LINE
  5
23D
330
1F
100
AcDbEntity
  8
1
  6
Continuous
 62
     7
370
     9
100
AcDbLine
 10
225.2960264045723
 20
145.5536863333746
 30
0.0
 11
225.9010264045723
 21
146.6015770719538
 31
0.0
  0
LINE
  5
23E
330
1F
100
AcDbEntity
  8
1
  6
Continuous
 62
     7
370
     9
100
AcDbLine
 10
225.2960264045723
 20
145.7410232344369
 30
0.0
 11
225.2960264045723
 21
145.9029085912553
 31
0.0
  0
LINE
  5
23F
330
1F
100
AcDbEntity
  8
1
  6
Continuous
 62
     7
370
     9
100
AcDbLine
 10
225.2960264045723
 20
146.2599291984191
 30
0.0
 11
225.2960264045723
 21
146.5480110243768
 31
0.0
  0
LINE
  5
240
330
1F
100
AcDbEntity
  8
1
  6
Continuous
 62
     7
370
     9
100
AcDbLine
 10
225.5260264045723
 20
146.3730655139402
 30
0.0
 11
225.5260264045723
 21
146.5424261303346
 31
0.0
  0
LINE
  5
241
330
1F
100
AcDbEntity
  8
1
  6
Continuous
 62
     7
370
     9
100
AcDbLine
 10
225.5260264045723
 20
147.0529086433843
 30
0.0
 11
225.5260264045723
 21
147.3151554990811
 31
0.0
  0
LINE
  5
242
330
1F
100
AcDbEntity
  8
1
  6
Continuous
 62
     7
370
     9
100
AcDbLine
 10
225.5260264045723
 20
149.3131083883022
 30
0.0
 11
225.2960264045723
 21
148.7686960619148
 31
0.0
  0
LINE
  5
243
330
1F
100
AcDbEntity
  8
1
  6
Continuous
 62
     7
370
     9
100
AcDbLine
 10
225.5260264045723
 20
148.3893515025744
 30
0.0
 11
225.2960264045723
 21
148.2473899860874
 31
0.0
  0
LINE
  5
244
330
1F
100
AcDbEntity
  8
1
  6
Continuous
 62
     7
370
     9
100
AcDbLine
 10
225.5260264045723
 20
148.0393227443201
 30
0.0
 11
225.2960264045723
 21
147.5095116868312
 31
0.0
  0
LINE
  5
245
330
1F
100
AcDbEntity
  8
1
  6
Continuous
 62
     7
370
     9
100
AcDbLine
 10
225.2960264045723
 20
148.2473899860874
 30
0.0
 11
225.2960264045723
 21
148.7686960619148
 31
0.0
  0
LINE
  5
246
330
1F
100
AcDbEntity
  8
1
  6
Continuous
 62
     7
370
     9
100
AcDbLine
 10
225.5260264045723
 20
148.0393227443201
 30
0.0
 11
225.5260264045723
 21
148.3893515025744
 31
0.0
  0
LINE
  5
247
330
1F
100
AcDbEntity
  8
1
  6
Continuous
 62
     7
370
     9
100
AcDbLine
 10
226.1010264045723
 20
147.5536866395262
 30
0.0
 11
225.9010264045723
 21
147.5536866395262
 31
0.0
  0
LINE
  5
248
330
1F
100
AcDbEntity
  8
1
  6
Continuous
 62
     7
370
     9
100
AcDbLine
 10
225.5260264045723
 20
151.1273739959267
 30
0.0
 11
225.2960264045723
 21
150.3010555580676
 31
0.0
  0
LINE
  5
249
330
1F
100
AcDbEntity
  8
1
  6
Continuous
 62
     7
370
     9
100
AcDbLine
 10
225.2960264045723
 20
149.6772611462447
 30
0.0
 11
225.5260264045723
 21
149.7441061374864
 31
0.0
  0
LINE
  5
24A
330
1F
100
AcDbEntity
  8
1
  6
Continuous
 62
     7
370
     9
100
AcDbLine
 10
225.2960264045723
 20
149.6772611462447
 30
0.0
 11
225.2960264045723
 21
150.3010555580676
 31
0.0
  0
LINE
  5
24B
330
1F
100
AcDbEntity
  8
1
  6
Continuous
 62
     7
370
     9
100
AcDbLine
 10
225.5260264045723
 20
151.1273739959267
 30
0.0
 11
225.5260264045723
 21
151.3626232415821
 31
0.0
  0
LINE
  5
24C
330
1F
100
AcDbEntity
  8
1
  6
Continuous
 62
     7
370
     9
100
AcDbLine
 10
225.2960264045723
 20
151.3626232415821
 30
0.0
 11
225.2960264045723
 21
152.07676454073
 31
0.0
  0
LINE
  5
24D
330
1F
100
AcDbEntity
  8
1
  6
Continuous
 62
     7
370
     9
100
AcDbLine
 10
230.4010264045723
 20
150.6036866395263
 30
0.0
 11
233.2010264045724
 21
150.6036866395263
 31
0.0
  0
LINE
  5
24E
330
1F
100
AcDbEntity
  8
1
  6
Continuous
 62
     7
370
     9
100
AcDbLine
 10
230.4010264045723
 20
150.1036866395263
 30
0.0
 11
232.7010264045724
 21
150.1036866395263
 31
0.0
  0
LINE
  5
24F
330
1F
100
AcDbEntity
  8
1
  6
Continuous
 62
     7
370
     9
100
AcDbLine
 10
228.9010264045723
 20
146.8036866395262
 30
0.0
 11
229.2010264045724
 21
147.1036866395263
 31
0.0
  0
LINE
  5
250
330
1F
100
AcDbEntity
  8
1
  6
Continuous
 62
     7
370
     9
100
AcDbLine
 10
229.2010264045724
 20
150.6036866395263
 30
0.0
 11
230.4010264045723
 21
150.6036866395263
 31
0.0
  0
LINE
  5
251
330
1F
100
AcDbEntity
  8
1
  6
Continuous
 62
     7
370
     9
100
AcDbLine
 10
232.7010264045724
 20
150.1036866395263
 30
0.0
 11
233.2010264045724
 21
150.6036866395263
 31
0.0
  0
LINE
  5
252
330
1F
100
AcDbEntity
  8
1
  6
Continuous
 62
     7
370
     9
100
AcDbLine
 10
226.1010264045723
 20
178.8036866395262
 30
0.0
 11
228.9010264045723
 21
178.8036866395262
 31
0.0
  0
CIRCLE
  5
253
330
1F
100
AcDbEntity
  8
1
  6
Continuous
 62
     7
370
     9
100
AcDbCircle
 10
194.5010264045725
 20
162.8036866395262
 30
0.0
 40
0.75
  0
CIRCLE
  5
254
330
1F
100
AcDbEntity
  8
1
  6
Continuous
 62
     7
370
     9
100
AcDbCircle
 10
208.3010264045724
 20
166.8714970566587
 30
0.0
 40
0.25
  0
CIRCLE
  5
255
330
1F
100
AcDbEntity
  8
1
  6
Continuous
 62
     7
370
     9
100
AcDbCircle
 10
208.3010264045724
 20
163.0076866395264
 30
0.0
 40
0.25
  0
CIRCLE
  5
256
330
1F
100
AcDbEntity
  8
1
  6
Continuous
 62
     7
370
     9
100
AcDbCircle
 10
208.3010264045724
 20
160.0836866395264
 30
0.0
 40
0.25
  0
LINE
  5
257
330
1F
100
AcDbEntity
  8
1
  6
Continuous
 62
     7
370
     9
100
AcDbLine
 10
211.7010264045724
 20
159.9422999223296
 30
0.0
 11
225.2960264045724
 21
159.9422999223296
 31
0.0
  0
LINE
  5
258
330
1F
100
AcDbEntity
  8
1
  6
Continuous
 62
     7
370
     9
100
AcDbLine
 10
225.5260264045724
 20
159.6435669472579
 30
0.0
 11
211.3010264045724
 21
159.6435669472579
 31
0.0
  0
LINE
  5
259
330
1F
100
AcDbEntity
  8
1
  6
Continuous
 62
     7
370
     9
100
AcDbLine
 10
225.5260264045724
 20
158.9588110741658
 30
0.0
 11
211.3010264045724
 21
158.9588110741658
 31
0.0
  0
LINE
  5
25A
330
1F
100
AcDbEntity
  8
1
  6
Continuous
 62
     7
370
     9
100
AcDbLine
 10
211.7010264045724
 20
158.4987996236023
 30
0.0
 11
225.2960264045724
 21
158.4987996236022
 31
0.0
  0
LINE
  5
25B
330
1F
100
AcDbEntity
  8
1
  6
Continuous
 62
     7
370
     9
100
AcDbLine
 10
211.7010264045725
 20
165.6650730505713
 30
0.0
 11
225.2960264045724
 21
165.6650730505712
 31
0.0
  0
LINE
  5
25C
330
1F
100
AcDbEntity
  8
1
  6
Continuous
 62
     7
370
     9
100
AcDbLine
 10
225.5260264045725
 20
165.963806025643
 30
0.0
 11
211.3010264045725
 21
165.963806025643
 31
0.0
  0
LINE
  5
25D
330
1F
100
AcDbEntity
  8
1
  6
Continuous
 62
     7
370
     9
100
AcDbLine
 10
225.5260264045725
 20
166.6485618987351
 30
0.0
 11
211.3010264045725
 21
166.6485618987351
 31
0.0
  0
LINE
  5
25E
330
1F
100
AcDbEntity
  8
1
  6
Continuous
 62
     7
370
     9
100
AcDbLine
 10
211.7010264045725
 20
167.1085733492986
 30
0.0
 11
225.2960264045724
 21
167.1085733492985
 31
0.0
  0
LINE
  5
25F
330
1F
100
AcDbEntity
  8
1
  6
Continuous
 62
     7
370
     9
100
AcDbLine
 10
225.2960264045724
 20
168.0047033191591
 30
0.0
 11
211.7010264045725
 21
168.0047033191591
 31
0.0
  0
LINE
  5
260
330
1F
100
AcDbEntity
  8
1
  6
Continuous
 62
     7
370
     9
100
AcDbLine
 10
211.3010264045725
 20
168.2365082441329
 30
0.0
 11
225.5260264045725
 21
168.2365082441328
 31
0.0
  0
LINE
  5
261
330
1F
100
AcDbEntity
  8
1
  6
Continuous
 62
     7
370
     9
100
AcDbLine
 10
211.3010264045725
 20
168.8943439200808
 30
0.0
 11
225.5260264045725
 21
168.8943439200808
 31
0.0
  0
LINE
  5
262
330
1F
100
AcDbEntity
  8
1
  6
Continuous
 62
     7
370
     9
100
AcDbLine
 10
225.2960264045724
 20
169.3914544372569
 30
0.0
 11
211.7010264045725
 21
169.391454437257
 31
0.0
  0
LINE
  5
263
330
1F
100
AcDbEntity
  8
1
  6
Continuous
 62
     7
370
     9
100
AcDbLine
 10
211.7010264045725
 20
170.2431017141467
 30
0.0
 11
225.2960264045724
 21
170.2431017141467
 31
0.0
  0
LINE
  5
264
330
1F
100
AcDbEntity
  8
1
  6
Continuous
 62
     7
370
     9
100
AcDbLine
 10
225.5260264045725
 20
170.4034667698321
 30
0.0
 11
211.3010264045725
 21
170.4034667698322
 31
0.0
  0
LINE
  5
265
330
1F
100
AcDbEntity
  8
1
  6
Continuous
 62
     7
370
     9
100
AcDbLine
 10
211.3010264045725
 20
171.0215782254805
 30
0.0
 11
225.5260264045725
 21
171.0215782254804
 31
0.0
  0
LINE
  5
266
330
1F
100
AcDbEntity
  8
1
  6
Continuous
 62
     7
370
     9
100
AcDbLine
 10
225.2960264045725
 20
171.5461121185072
 30
0.0
 11
211.7010264045725
 21
171.5461121185073
 31
0.0
  0
LINE
  5
267
330
1F
100
AcDbEntity
  8
1
  6
Continuous
 62
     7
370
     9
100
AcDbLine
 10
211.7010264045725
 20
172.3367003569161
 30
0.0
 11
225.2960264045725
 21
172.336700356916
 31
0.0
  0
LINE
  5
268
330
1F
100
AcDbEntity
  8
1
  6
Continuous
 62
     7
370
     9
100
AcDbLine
 10
225.5260264045725
 20
172.4225042199167
 30
0.0
 11
211.3010264045726
 21
172.4225042199167
 31
0.0
  0
LINE
  5
269
330
1F
100
AcDbEntity
  8
1
  6
Continuous
 62
     7
370
     9
100
AcDbLine
 10
211.7010264045725
 20
173.5306084321708
 30
0.0
 11
225.2960264045725
 21
173.5306084321707
 31
0.0
  0
LINE
  5
26A
330
1F
100
AcDbEntity
  8
1
  6
Continuous
 62
     7
370
     9
100
AcDbLine
 10
211.7010264045725
 20
174.2447497313188
 30
0.0
 11
225.5260264045725
 21
174.2447497313187
 31
0.0
  0
LINE
  5
26B
330
1F
100
AcDbEntity
  8
1
  6
Continuous
 62
     7
370
     9
100
AcDbLine
 10
225.5260264045725
 20
174.4799989769742
 30
0.0
 11
211.3010264045726
 21
174.4799989769742
 31
0.0
  0
LINE
  5
26C
330
1F
100
AcDbEntity
  8
1
  6
Continuous
 62
     7
370
     9
100
AcDbLine
 10
225.2960264045725
 20
175.3063174148331
 30
0.0
 11
211.7010264045725
 21
175.3063174148332
 31
0.0
  0
LINE
  5
26D
330
1F
100
AcDbEntity
  8
1
  6
Continuous
 62
     7
370
     9
100
AcDbLine
 10
225.2960264045725
 20
175.9301118266561
 30
0.0
 11
211.7010264045725
 21
175.9301118266562
 31
0.0
  0
LINE
  5
26E
330
1F
100
AcDbEntity
  8
1
  6
Continuous
 62
     7
370
     9
100
AcDbLine
 10
225.5260264045725
 20
176.2942645845986
 30
0.0
 11
211.3010264045726
 21
176.2942645845986
 31
0.0
  0
LINE
  5
26F
330
1F
100
AcDbEntity
  8
1
  6
Continuous
 62
     7
370
     9
100
AcDbLine
 10
211.7010264045725
 20
176.8386769109861
 30
0.0
 11
225.2960264045725
 21
176.838676910986
 31
0.0
  0
LINE
  5
270
330
1F
100
AcDbEntity
  8
1
  6
Continuous
 62
     7
370
     9
100
AcDbLine
 10
225.2960264045725
 20
177.3599829868133
 30
0.0
 11
211.7010264045725
 21
177.3599829868135
 31
0.0
  0
LINE
  5
271
330
1F
100
AcDbEntity
  8
1
  6
Continuous
 62
     7
370
     9
100
AcDbLine
 10
225.5260264045725
 20
177.5680502285806
 30
0.0
 11
211.2910007755122
 21
177.5680502285807
 31
0.0
  0
LINE
  5
272
330
1F
100
AcDbEntity
  8
1
  6
Continuous
 62
     7
370
     9
100
AcDbLine
 10
225.2960264045725
 20
178.0978612860696
 30
0.0
 11
211.7010264045725
 21
178.0978612860696
 31
0.0
  0
LINE
  5
273
330
1F
100
AcDbEntity
  8
1
  6
Continuous
 62
     7
370
     9
100
AcDbLine
 10
225.5260264045725
 20
178.5544643295164
 30
0.0
 11
211.3010264045725
 21
178.5544643295164
 31
0.0
  0
LINE
  5
274
330
1F
100
AcDbEntity
  8
1
  6
Continuous
 62
     7
370
     9
100
AcDbLine
 10
225.2960264045725
 20
178.5065323961123
 30
0.0
 11
211.7010264045725
 21
178.5065323961124
 31
0.0
  0
LINE
  5
275
330
1F
100
AcDbEntity
  8
1
  6
Continuous
 62
     7
370
     9
100
AcDbLine
 10
225.2960264045725
 20
179.0593619485241
 30
0.0
 11
211.7010264045725
 21
179.0593619485241
 31
0.0
  0
LINE
  5
276
330
1F
100
AcDbEntity
  8
1
  6
Continuous
 62
     7
370
     9
100
AcDbLine
 10
225.2960264045725
 20
179.3474437744816
 30
0.0
 11
211.7010264045725
 21
179.3474437744817
 31
0.0
  0
LINE
  5
277
330
1F
100
AcDbEntity
  8
1
  6
Continuous
 62
     7
370
     9
100
AcDbLine
 10
225.2960264045725
 20
179.8663497384638
 30
0.0
 11
211.7010264045725
 21
179.866349738464
 31
0.0
  0
LINE
  5
278
330
1F
100
AcDbEntity
  8
1
  6
Continuous
 62
     7
370
     9
100
AcDbLine
 10
225.2960264045725
 20
179.7044643816454
 30
0.0
 11
211.7010264045725
 21
179.7044643816456
 31
0.0
  0
LINE
  5
279
330
1F
100
AcDbEntity
  8
1
  6
Continuous
 62
     7
370
     9
100
AcDbLine
 10
225.5260264045725
 20
172.7537211779159
 30
0.0
 11
211.3010264045726
 21
172.753721177916
 31
0.0
  0
LINE
  5
27A
330
1F
100
AcDbEntity
  8
1
  6
Continuous
 62
     7
370
     9
100
AcDbLine
 10
211.7010264045725
 20
180.0536866395262
 30
0.0
 11
225.2960264045725
 21
180.0536866395261
 31
0.0
  0
LINE
  5
27B
330
1F
100
AcDbEntity
  8
1
  6
Continuous
 62
     7
370
     9
100
AcDbLine
 10
211.7010264045725
 20
177.3599829868135
 30
0.0
 11
211.3010264045725
 21
177.2180214703265
 31
0.0
  0
LINE
  5
27C
330
1F
100
AcDbEntity
  8
1
  6
Continuous
 62
     7
370
     9
100
AcDbLine
 10
211.7010264045725
 20
177.3599829868135
 30
0.0
 11
211.7010264045725
 21
176.8386769109861
 31
0.0
  0
LINE
  5
27D
330
1F
100
AcDbEntity
  8
1
  6
Continuous
 62
     7
370
     9
100
AcDbLine
 10
211.3010264045725
 20
179.5943472437087
 30
0.0
 11
211.3010264045724
 21
162.8036866395262
 31
0.0
  0
LINE
  5
27E
330
1F
100
AcDbEntity
  8
1
  6
Continuous
 62
     7
370
     9
100
AcDbLine
 10
211.7010264045725
 20
174.2447497313188
 30
0.0
 11
211.7010264045725
 21
173.5306084321708
 31
0.0
  0
LINE
  5
27F
330
1F
100
AcDbEntity
  8
1
  6
Continuous
 62
     7
370
     9
100
AcDbLine
 10
211.7010264045725
 20
172.3367003569161
 30
0.0
 11
211.7010264045725
 21
171.5461121185073
 31
0.0
  0
LINE
  5
280
330
1F
100
AcDbEntity
  8
1
  6
Continuous
 62
     7
370
     9
100
AcDbLine
 10
211.7010264045725
 20
172.3367003569161
 30
0.0
 11
211.3010264045725
 21
172.4225042199167
 31
0.0
  0
LINE
  5
281
330
1F
100
AcDbEntity
  8
1
  6
Continuous
 62
     7
370
     9
100
AcDbLine
 10
211.3010264045725
 20
172.9888606188728
 30
0.0
 11
211.7010264045725
 21
173.5306084321708
 31
0.0
  0
LINE
  5
282
330
1F
100
AcDbEntity
  8
1
  6
Continuous
 62
     7
370
     9
100
AcDbLine
 10
211.7010264045725
 20
174.2447497313188
 30
0.0
 11
211.3010264045725
 21
174.2447497313188
 31
0.0
  0
LINE
  5
283
330
1F
100
AcDbEntity
  8
1
  6
Continuous
 62
     7
370
     9
100
AcDbLine
 10
211.3010264045725
 20
174.7579001862206
 30
0.0
 11
211.7010264045725
 21
175.3063174148332
 31
0.0
  0
LINE
  5
284
330
1F
100
AcDbEntity
  8
1
  6
Continuous
 62
     7
370
     9
100
AcDbLine
 10
211.7010264045725
 20
175.9301118266562
 30
0.0
 11
211.3010264045725
 21
175.8632668354144
 31
0.0
  0
LINE
  5
285
330
1F
100
AcDbEntity
  8
1
  6
Continuous
 62
     7
370
     9
100
AcDbLine
 10
211.7010264045725
 20
175.9301118266562
 30
0.0
 11
211.7010264045725
 21
175.3063174148332
 31
0.0
  0
LINE
  5
286
330
1F
100
AcDbEntity
  8
1
  6
Continuous
 62
     7
370
     9
100
AcDbLine
 10
211.3010264045725
 20
176.2942645845986
 30
0.0
 11
211.7010264045725
 21
176.8386769109861
 31
0.0
  0
LINE
  5
287
330
1F
100
AcDbEntity
  8
1
  6
Continuous
 62
     7
370
     9
100
AcDbLine
 10
211.7010264045725
 20
165.6650730505713
 30
0.0
 11
211.3010264045724
 21
165.963806025643
 31
0.0
  0
LINE
  5
288
330
1F
100
AcDbEntity
  8
1
  6
Continuous
 62
     7
370
     9
100
AcDbLine
 10
211.7010264045725
 20
170.2431017141467
 30
0.0
 11
211.7010264045725
 21
169.391454437257
 31
0.0
  0
LINE
  5
289
330
1F
100
AcDbEntity
  8
1
  6
Continuous
 62
     7
370
     9
100
AcDbLine
 10
211.7010264045725
 20
168.0047033191591
 30
0.0
 11
211.7010264045725
 21
167.1085733492986
 31
0.0
  0
LINE
  5
28A
330
1F
100
AcDbEntity
  8
1
  6
Continuous
 62
     7
370
     9
100
AcDbLine
 10
211.3010264045724
 20
166.6485618987351
 30
0.0
 11
211.7010264045725
 21
167.1085733492986
 31
0.0
  0
LINE
  5
28B
330
1F
100
AcDbEntity
  8
1
  6
Continuous
 62
     7
370
     9
100
AcDbLine
 10
211.7010264045725
 20
168.0047033191591
 30
0.0
 11
211.3010264045724
 21
168.2365082441329
 31
0.0
  0
LINE
  5
28C
330
1F
100
AcDbEntity
  8
1
  6
Continuous
 62
     7
370
     9
100
AcDbLine
 10
211.3010264045724
 20
168.8943439200808
 30
0.0
 11
211.7010264045725
 21
169.391454437257
 31
0.0
  0
LINE
  5
28D
330
1F
100
AcDbEntity
  8
1
  6
Continuous
 62
     7
370
     9
100
AcDbLine
 10
211.7010264045725
 20
170.2431017141467
 30
0.0
 11
211.3010264045724
 21
170.4034667698322
 31
0.0
  0
LINE
  5
28E
330
1F
100
AcDbEntity
  8
1
  6
Continuous
 62
     7
370
     9
100
AcDbLine
 10
211.3010264045724
 20
171.0215782254805
 30
0.0
 11
211.7010264045725
 21
171.5461121185073
 31
0.0
  0
CIRCLE
  5
28F
330
1F
100
AcDbEntity
  8
1
  6
Continuous
 62
     7
370
     9
100
AcDbCircle
 10
212.9010264045724
 20
162.8036866395262
 30
0.0
 40
0.75
  0
LINE
  5
290
330
1F
100
AcDbEntity
  8
1
  6
Continuous
 62
     7
370
     9
100
AcDbLine
 10
211.7010264045724
 20
159.9422999223296
 30
0.0
 11
211.7010264045725
 21
162.8036863333746
 31
0.0
  0
LINE
  5
291
330
1F
100
AcDbEntity
  8
1
  6
Continuous
 62
     7
370
     9
100
AcDbLine
 10
211.7010264045724
 20
159.9422999223296
 30
0.0
 11
211.3010264045724
 21
159.6435669472579
 31
0.0
  0
LINE
  5
292
330
1F
100
AcDbEntity
  8
1
  6
Continuous
 62
     7
370
     9
100
AcDbLine
 10
211.3010264045724
 20
158.9588110741658
 30
0.0
 11
211.7010264045724
 21
158.4987996236023
 31
0.0
  0
LINE
  5
293
330
1F
100
AcDbEntity
  8
1
  6
Continuous
 62
     7
370
     9
100
AcDbLine
 10
211.7010264045725
 20
165.6650730505713
 30
0.0
 11
211.7010264045725
 21
162.8036866395262
 31
0.0
  0
LINE
  5
294
330
1F
100
AcDbEntity
  8
1
  6
Continuous
 62
     7
370
     9
100
AcDbLine
 10
211.7010264045725
 20
178.5065323961124
 30
0.0
 11
211.7010264045725
 21
178.0978612860696
 31
0.0
  0
LINE
  5
295
330
1F
100
AcDbEntity
  8
1
  6
Continuous
 62
     7
370
     9
100
AcDbLine
 10
211.7010264045725
 20
178.5065323961124
 30
0.0
 11
211.3010264045725
 21
178.2922174738198
 31
0.0
  0
LINE
  5
296
330
1F
100
AcDbEntity
  8
1
  6
Continuous
 62
     7
370
     9
100
AcDbLine
 10
211.3010264045725
 20
178.5544643295164
 30
0.0
 11
211.7010264045725
 21
179.0593619485241
 31
0.0
  0
LINE
  5
297
330
1F
100
AcDbEntity
  8
1
  6
Continuous
 62
     7
370
     9
100
AcDbLine
 10
211.3010264045725
 20
179.0649468425663
 30
0.0
 11
211.7010264045725
 21
179.3474437744817
 31
0.0
  0
LINE
  5
298
330
1F
100
AcDbEntity
  8
1
  6
Continuous
 62
     7
370
     9
100
AcDbLine
 10
211.7010264045725
 20
179.3474437744817
 30
0.0
 11
211.7010264045725
 21
179.0593619485241
 31
0.0
  0
LINE
  5
299
330
1F
100
AcDbEntity
  8
1
  6
Continuous
 62
     7
370
     9
100
AcDbLine
 10
211.3010264045725
 20
179.2343074589606
 30
0.0
 11
211.7010264045725
 21
179.7044643816456
 31
0.0
  0
LINE
  5
29A
330
1F
100
AcDbEntity
  8
1
  6
Continuous
 62
     7
370
     9
100
AcDbLine
 10
211.7010264045725
 20
179.866349738464
 30
0.0
 11
211.7010264045725
 21
179.7044643816456
 31
0.0
  0
LINE
  5
29B
330
1F
100
AcDbEntity
  8
1
  6
Continuous
 62
     7
370
     9
100
AcDbLine
 10
211.7010264045725
 20
179.866349738464
 30
0.0
 11
211.3010264045725
 21
179.5943472437087
 31
0.0
  0
LINE
  5
29C
330
1F
100
AcDbEntity
  8
1
  6
Continuous
 62
     7
370
     9
100
AcDbLine
 10
211.7010264045725
 20
180.0536866395262
 30
0.0
 11
211.3010264045725
 21
179.5943472437087
 31
0.0
  0
LINE
  5
29D
330
1F
100
AcDbEntity
  8
1
  6
Continuous
 62
     7
370
     9
100
AcDbLine
 10
211.540831651654
 20
179.2343074589606
 30
0.0
 11
211.3010264045725
 21
179.2343074589606
 31
0.0
  0
LINE
  5
29E
330
1F
100
AcDbEntity
  8
1
  6
Continuous
 62
     7
370
     9
100
AcDbLine
 10
211.3010264045725
 20
177.5680502285807
 30
0.0
 11
211.7010264045725
 21
178.0978612860696
 31
0.0
  0
LINE
  5
29F
330
1F
100
AcDbEntity
  8
1
  6
Continuous
 62
     7
370
     9
100
AcDbLine
 10
225.5260264045725
 20
177.2180214703264
 30
0.0
 11
225.2960264045725
 21
177.3599829868133
 31
0.0
  0
LINE
  5
2A0
330
1F
100
AcDbEntity
  8
1
  6
Continuous
 62
     7
370
     9
100
AcDbLine
 10
225.2960264045725
 20
177.3599829868133
 30
0.0
 11
225.2960264045725
 21
176.838676910986
 31
0.0
  0
LINE
  5
2A1
330
1F
100
AcDbEntity
  8
1
  6
Continuous
 62
     7
370
     9
100
AcDbLine
 10
225.5260264045725
 20
177.5680502285806
 30
0.0
 11
225.5260264045725
 21
177.2180214703264
 31
0.0
  0
LINE
  5
2A2
330
1F
100
AcDbEntity
  8
1
  6
Continuous
 62
     7
370
     9
100
AcDbLine
 10
225.9010264045725
 20
179.005795900947
 30
0.0
 11
225.9010264045724
 21
162.8036866395261
 31
0.0
  0
LINE
  5
2A3
330
1F
100
AcDbEntity
  8
1
  6
Continuous
 62
     7
370
     9
100
AcDbLine
 10
226.1010264045723
 20
162.8036866395262
 30
0.0
 11
226.1010264045723
 21
178.8036866395262
 31
0.0
  0
LINE
  5
2A4
330
1F
100
AcDbEntity
  8
1
  6
Continuous
 62
     7
370
     9
100
AcDbLine
 10
225.2960264045725
 20
174.2447497313187
 30
0.0
 11
225.2960264045725
 21
173.5306084321707
 31
0.0
  0
LINE
  5
2A5
330
1F
100
AcDbEntity
  8
1
  6
Continuous
 62
     7
370
     9
100
AcDbLine
 10
225.2960264045725
 20
172.336700356916
 30
0.0
 11
225.2960264045725
 21
171.5461121185072
 31
0.0
  0
LINE
  5
2A6
330
1F
100
AcDbEntity
  8
1
  6
Continuous
 62
     7
370
     9
100
AcDbLine
 10
225.2960264045725
 20
172.336700356916
 30
0.0
 11
225.5260264045725
 21
172.4225042199167
 31
0.0
  0
LINE
  5
2A7
330
1F
100
AcDbEntity
  8
1
  6
Continuous
 62
     7
370
     9
100
AcDbLine
 10
225.5260264045725
 20
172.7537211779159
 30
0.0
 11
225.2960264045725
 21
173.5306084321707
 31
0.0
  0
LINE
  5
2A8
330
1F
100
AcDbEntity
  8
1
  6
Continuous
 62
     7
370
     9
100
AcDbLine
 10
225.5260264045725
 20
172.7537211779159
 30
0.0
 11
225.5260264045725
 21
172.4225042199167
 31
0.0
  0
LINE
  5
2A9
330
1F
100
AcDbEntity
  8
1
  6
Continuous
 62
     7
370
     9
100
AcDbLine
 10
225.5260264045725
 20
176.2942645845986
 30
0.0
 11
225.5260264045725
 21
175.8632668354144
 31
0.0
  0
LINE
  5
2AA
330
1F
100
AcDbEntity
  8
1
  6
Continuous
 62
     7
370
     9
100
AcDbLine
 10
225.5260264045725
 20
174.4799989769742
 30
0.0
 11
225.2960264045725
 21
175.3063174148331
 31
0.0
  0
LINE
  5
2AB
330
1F
100
AcDbEntity
  8
1
  6
Continuous
 62
     7
370
     9
100
AcDbLine
 10
225.2960264045725
 20
175.9301118266561
 30
0.0
 11
225.5260264045725
 21
175.8632668354144
 31
0.0
  0
LINE
  5
2AC
330
1F
100
AcDbEntity
  8
1
  6
Continuous
 62
     7
370
     9
100
AcDbLine
 10
225.2960264045725
 20
175.9301118266561
 30
0.0
 11
225.2960264045725
 21
175.3063174148331
 31
0.0
  0
LINE
  5
2AD
330
1F
100
AcDbEntity
  8
1
  6
Continuous
 62
     7
370
     9
100
AcDbLine
 10
225.5260264045725
 20
174.4799989769742
 30
0.0
 11
225.5260264045725
 21
174.2447497313187
 31
0.0
  0
LINE
  5
2AE
330
1F
100
AcDbEntity
  8
1
  6
Continuous
 62
     7
370
     9
100
AcDbLine
 10
225.5260264045725
 20
176.2942645845986
 30
0.0
 11
225.2960264045725
 21
176.838676910986
 31
0.0
  0
LINE
  5
2AF
330
1F
100
AcDbEntity
  8
1
  6
Continuous
 62
     7
370
     9
100
AcDbLine
 10
225.5260264045725
 20
165.963806025643
 30
0.0
 11
225.2960264045724
 21
165.6650730505712
 31
0.0
  0
LINE
  5
2B0
330
1F
100
AcDbEntity
  8
1
  6
Continuous
 62
     7
370
     9
100
AcDbLine
 10
225.2960264045724
 20
170.2431017141467
 30
0.0
 11
225.2960264045724
 21
169.3914544372569
 31
0.0
  0
LINE
  5
2B1
330
1F
100
AcDbEntity
  8
1
  6
Continuous
 62
     7
370
     9
100
AcDbLine
 10
225.2960264045724
 20
168.0047033191591
 30
0.0
 11
225.2960264045724
 21
167.1085733492985
 31
0.0
  0
LINE
  5
2B2
330
1F
100
AcDbEntity
  8
1
  6
Continuous
 62
     7
370
     9
100
AcDbLine
 10
225.5260264045725
 20
166.6485618987351
 30
0.0
 11
225.2960264045724
 21
167.1085733492985
 31
0.0
  0
LINE
  5
2B3
330
1F
100
AcDbEntity
  8
1
  6
Continuous
 62
     7
370
     9
100
AcDbLine
 10
225.5260264045725
 20
166.6485618987351
 30
0.0
 11
225.5260264045725
 21
165.963806025643
 31
0.0
  0
LINE
  5
2B4
330
1F
100
AcDbEntity
  8
1
  6
Continuous
 62
     7
370
     9
100
AcDbLine
 10
225.2960264045724
 20
168.0047033191591
 30
0.0
 11
225.5260264045725
 21
168.2365082441328
 31
0.0
  0
LINE
  5
2B5
330
1F
100
AcDbEntity
  8
1
  6
Continuous
 62
     7
370
     9
100
AcDbLine
 10
225.5260264045725
 20
168.8943439200808
 30
0.0
 11
225.2960264045724
 21
169.3914544372569
 31
0.0
  0
LINE
  5
2B6
330
1F
100
AcDbEntity
  8
1
  6
Continuous
 62
     7
370
     9
100
AcDbLine
 10
225.5260264045725
 20
168.8943439200808
 30
0.0
 11
225.5260264045725
 21
168.2365082441328
 31
0.0
  0
LINE
  5
2B7
330
1F
100
AcDbEntity
  8
1
  6
Continuous
 62
     7
370
     9
100
AcDbLine
 10
225.2960264045724
 20
170.2431017141467
 30
0.0
 11
225.5260264045725
 21
170.4034667698321
 31
0.0
  0
LINE
  5
2B8
330
1F
100
AcDbEntity
  8
1
  6
Continuous
 62
     7
370
     9
100
AcDbLine
 10
225.5260264045725
 20
171.0215782254804
 30
0.0
 11
225.5260264045725
 21
170.4034667698321
 31
0.0
  0
LINE
  5
2B9
330
1F
100
AcDbEntity
  8
1
  6
Continuous
 62
     7
370
     9
100
AcDbLine
 10
225.5260264045725
 20
171.0215782254804
 30
0.0
 11
225.2960264045725
 21
171.5461121185072
 31
0.0
  0
LINE
  5
2BA
330
1F
100
AcDbEntity
  8
1
  6
Continuous
 62
     7
370
     9
100
AcDbLine
 10
225.2960264045724
 20
159.9422999223296
 30
0.0
 11
225.2960264045724
 21
162.8036863333746
 31
0.0
  0
LINE
  5
2BB
330
1F
100
AcDbEntity
  8
1
  6
Continuous
 62
     7
370
     9
100
AcDbLine
 10
225.5260264045724
 20
159.6435669472579
 30
0.0
 11
225.2960264045724
 21
159.9422999223296
 31
0.0
  0
LINE
  5
2BC
330
1F
100
AcDbEntity
  8
1
  6
Continuous
 62
     7
370
     9
100
AcDbLine
 10
225.5260264045724
 20
158.9588110741658
 30
0.0
 11
225.2960264045724
 21
158.4987996236022
 31
0.0
  0
LINE
  5
2BD
330
1F
100
AcDbEntity
  8
1
  6
Continuous
 62
     7
370
     9
100
AcDbLine
 10
225.5260264045724
 20
158.9588110741658
 30
0.0
 11
225.5260264045724
 21
159.6435669472579
 31
0.0
  0
LINE
  5
2BE
330
1F
100
AcDbEntity
  8
1
  6
Continuous
 62
     7
370
     9
100
AcDbLine
 10
225.2960264045724
 20
165.6650730505712
 30
0.0
 11
225.2960264045724
 21
162.8036866395262
 31
0.0
  0
LINE
  5
2BF
330
1F
100
AcDbEntity
  8
1
  6
Continuous
 62
     7
370
     9
100
AcDbLine
 10
225.2960264045725
 20
178.5065323961123
 30
0.0
 11
225.2960264045725
 21
178.0978612860696
 31
0.0
  0
LINE
  5
2C0
330
1F
100
AcDbEntity
  8
1
  6
Continuous
 62
     7
370
     9
100
AcDbLine
 10
226.1010264045723
 20
178.0536866395262
 30
0.0
 11
225.9010264045723
 21
178.0536866395262
 31
0.0
  0
LINE
  5
2C1
330
1F
100
AcDbEntity
  8
1
  6
Continuous
 62
     7
370
     9
100
AcDbLine
 10
225.2960264045725
 20
178.5065323961123
 30
0.0
 11
225.5260264045725
 21
178.2922174738197
 31
0.0
  0
LINE
  5
2C2
330
1F
100
AcDbEntity
  8
1
  6
Continuous
 62
     7
370
     9
100
AcDbLine
 10
225.5260264045725
 20
178.5544643295164
 30
0.0
 11
225.2960264045725
 21
179.0593619485241
 31
0.0
  0
LINE
  5
2C3
330
1F
100
AcDbEntity
  8
1
  6
Continuous
 62
     7
370
     9
100
AcDbLine
 10
225.2960264045725
 20
179.3474437744816
 30
0.0
 11
225.5260264045725
 21
179.0649468425663
 31
0.0
  0
LINE
  5
2C4
330
1F
100
AcDbEntity
  8
1
  6
Continuous
 62
     7
370
     9
100
AcDbLine
 10
225.2960264045725
 20
180.0536866395261
 30
0.0
 11
225.5260264045725
 21
179.5943472437086
 31
0.0
  0
LINE
  5
2C5
330
1F
100
AcDbEntity
  8
1
  6
Continuous
 62
     7
370
     9
100
AcDbLine
 10
225.2960264045725
 20
179.8663497384638
 30
0.0
 11
225.5260264045725
 21
179.5943472437086
 31
0.0
  0
LINE
  5
2C6
330
1F
100
AcDbEntity
  8
1
  6
Continuous
 62
     7
370
     9
100
AcDbLine
 10
225.2960264045725
 20
179.7044643816454
 30
0.0
 11
225.5260264045725
 21
179.2343074589606
 31
0.0
  0
LINE
  5
2C7
330
1F
100
AcDbEntity
  8
1
  6
Continuous
 62
     7
370
     9
100
AcDbLine
 10
225.2960264045725
 20
180.0536866395261
 30
0.0
 11
225.9010264045725
 21
179.005795900947
 31
0.0
  0
LINE
  5
2C8
330
1F
100
AcDbEntity
  8
1
  6
Continuous
 62
     7
370
     9
100
AcDbLine
 10
225.2960264045725
 20
179.8663497384638
 30
0.0
 11
225.2960264045725
 21
179.7044643816454
 31
0.0
  0
LINE
  5
2C9
330
1F
100
AcDbEntity
  8
1
  6
Continuous
 62
     7
370
     9
100
AcDbLine
 10
225.2960264045725
 20
179.3474437744816
 30
0.0
 11
225.2960264045725
 21
179.0593619485241
 31
0.0
  0
LINE
  5
2CA
330
1F
100
AcDbEntity
  8
1
  6
Continuous
 62
     7
370
     9
100
AcDbLine
 10
225.5260264045725
 20
179.2343074589606
 30
0.0
 11
225.5260264045725
 21
179.0649468425663
 31
0.0
  0
LINE
  5
2CB
330
1F
100
AcDbEntity
  8
1
  6
Continuous
 62
     7
370
     9
100
AcDbLine
 10
225.5260264045725
 20
178.5544643295164
 30
0.0
 11
225.5260264045725
 21
178.2922174738197
 31
0.0
  0
LINE
  5
2CC
330
1F
100
AcDbEntity
  8
1
  6
Continuous
 62
     7
370
     9
100
AcDbLine
 10
225.5260264045725
 20
177.5680502285806
 30
0.0
 11
225.2960264045725
 21
178.0978612860696
 31
0.0
  0
LINE
  5
2CD
330
1F
100
AcDbEntity
  8
1
  6
Continuous
 62
     7
370
     9
100
AcDbLine
 10
229.2010264045724
 20
162.8036866395262
 30
0.0
 11
229.2010264045724
 21
178.5036866395263
 31
0.0
  0
LINE
  5
2CE
330
1F
100
AcDbEntity
  8
1
  6
Continuous
 62
     7
370
     9
100
AcDbLine
 10
230.4010264045723
 20
175.0036866395263
 30
0.0
 11
233.2010264045724
 21
175.0036866395263
 31
0.0
  0
LINE
  5
2CF
330
1F
100
AcDbEntity
  8
1
  6
Continuous
 62
     7
370
     9
100
AcDbLine
 10
230.4010264045723
 20
175.5036866395263
 30
0.0
 11
232.7010264045724
 21
175.5036866395263
 31
0.0
  0
LINE
  5
2D0
330
1F
100
AcDbEntity
  8
1
  6
Continuous
 62
     7
370
     9
100
AcDbLine
 10
229.2010264045724
 20
175.0036866395263
 30
0.0
 11
230.4010264045723
 21
175.0036866395263
 31
0.0
  0
LINE
  5
2D1
330
1F
100
AcDbEntity
  8
1
  6
Continuous
 62
     7
370
     9
100
AcDbLine
 10
230.4010264045723
 20
175.5036866395263
 30
0.0
 11
230.4010264045723
 21
162.8036866395262
 31
0.0
  0
LINE
  5
2D2
330
1F
100
AcDbEntity
  8
1
  6
Continuous
 62
     7
370
     9
100
AcDbLine
 10
232.7010264045724
 20
175.5036866395263
 30
0.0
 11
233.2010264045724
 21
175.0036866395263
 31
0.0
  0
LINE
  5
2D3
330
1F
100
AcDbEntity
  8
1
  6
Continuous
 62
     7
370
     9
100
AcDbLine
 10
232.7010264045724
 20
162.8036866395262
 30
0.0
 11
232.7010264045724
 21
175.5036866395263
 31
0.0
  0
LINE
  5
2D4
330
1F
100
AcDbEntity
  8
1
  6
Continuous
 62
     7
370
     9
100
AcDbLine
 10
233.2010264045724
 20
162.8036866395262
 30
0.0
 11
233.2010264045724
 21
175.0036866395263
 31
0.0
  0
LINE
  5
2D5
330
1F
100
AcDbEntity
  8
1
  6
Continuous
 62
     7
370
     9
100
AcDbLine
 10
228.9010264045723
 20
178.8036866395262
 30
0.0
 11
229.2010264045724
 21
178.5036866395263
 31
0.0
  0
LINE
  5
2D6
330
1F
100
AcDbEntity
  8
1
  6
Continuous
 62
     7
370
     9
100
AcDbLine
 10
233.9331788410025
 20
154.8036866395294
 30
0.0
 11
233.9331788410025
 21
162.8036866395263
 31
0.0
  0
LINE
  5
2D7
330
1F
100
AcDbEntity
  8
1
  6
Continuous
 62
     7
370
     9
100
AcDbLine
 10
236.6558285718152
 20
154.0536866395294
 30
0.0
 11
236.6558285718152
 21
162.8036866395263
 31
0.0
  0
LINE
  5
2D8
330
1F
100
AcDbEntity
  8
1
  6
Continuous
 62
     7
370
     9
100
AcDbLine
 10
237.2331788410025
 20
162.8036866395263
 30
0.0
 11
237.2331788410025
 21
155.0536866395256
 31
0.0
  0
LINE
  5
2D9
330
1F
100
AcDbEntity
  8
1
  6
Continuous
 62
     7
370
     9
100
AcDbLine
 10
234.1331788410026
 20
154.0536866395294
 30
0.0
 11
236.6558285718149
 21
154.0536866395294
 31
0.0
  0
LINE
  5
2DA
330
1F
100
AcDbEntity
  8
1
  6
Continuous
 62
     7
370
     9
100
AcDbLine
 10
233.9331788410025
 20
154.8036866395294
 30
0.0
 11
233.9331788410025
 21
154.2536866395295
 31
0.0
  0
LINE
  5
2DB
330
1F
100
AcDbEntity
  8
1
  6
Continuous
 62
     7
370
     9
100
AcDbLine
 10
233.2010264045724
 20
154.8036866395294
 30
0.0
 11
233.9331788410025
 21
154.8036866395294
 31
0.0
  0
LINE
  5
2DC
330
1F
100
AcDbEntity
  8
1
  6
Continuous
 62
     7
370
     9
100
AcDbLine
 10
237.2331788410025
 20
155.0536866395256
 30
0.0
 11
236.6558285718149
 21
154.0536866395291
 31
0.0
  0
LINE
  5
2DD
330
1F
100
AcDbEntity
  8
1
  6
Continuous
 62
     7
370
     9
100
AcDbLine
 10
234.1331788410026
 20
171.5536866395233
 30
0.0
 11
236.6558285718149
 21
171.5536866395233
 31
0.0
  0
LINE
  5
2DE
330
1F
100
AcDbEntity
  8
1
  6
Continuous
 62
     7
370
     9
100
AcDbLine
 10
233.9331788410025
 20
170.8036866395233
 30
0.0
 11
233.9331788410025
 21
171.3536866395233
 31
0.0
  0
LINE
  5
2DF
330
1F
100
AcDbEntity
  8
1
  6
Continuous
 62
     7
370
     9
100
AcDbLine
 10
233.2010264045724
 20
170.8036866395233
 30
0.0
 11
233.9331788410025
 21
170.8036866395233
 31
0.0
  0
LINE
  5
2E0
330
1F
100
AcDbEntity
  8
1
  6
Continuous
 62
     7
370
     9
100
AcDbLine
 10
233.9331788410025
 20
170.8036866395233
 30
0.0
 11
233.9331788410025
 21
162.8036866395263
 31
0.0
  0
LINE
  5
2E1
330
1F
100
AcDbEntity
  8
1
  6
Continuous
 62
     7
370
     9
100
AcDbLine
 10
237.2331788410025
 20
170.5536866395271
 30
0.0
 11
236.6558285718149
 21
171.5536866395237
 31
0.0
  0
LINE
  5
2E2
330
1F
100
AcDbEntity
  8
1
  6
Continuous
 62
     7
370
     9
100
AcDbLine
 10
237.2331788410025
 20
162.8036866395263
 30
0.0
 11
237.2331788410025
 21
170.5536866395271
 31
0.0
  0
LINE
  5
2E3
330
1F
100
AcDbEntity
  8
1
  6
Continuous
 62
     7
370
     9
100
AcDbLine
 10
236.6558285718152
 20
171.5536866395233
 30
0.0
 11
236.6558285718152
 21
162.8036866395263
 31
0.0
  0
LINE
  5
2E4
330
1F
100
AcDbEntity
  8
1
  6
Continuous
 62
     7
370
     9
100
AcDbLine
 10
210.3010264045723
 20
162.8036866395262
 30
0.0
 11
210.3010264045723
 21
145.3036866395262
 31
0.0
  0
LINE
  5
2E5
330
1F
100
AcDbEntity
  8
1
  6
Continuous
 62
     7
370
     9
100
AcDbLine
 10
197.4010264045724
 20
162.8036866395262
 30
0.0
 11
197.4010264045724
 21
145.3036866395262
 31
0.0
  0
LINE
  5
2E6
330
1F
100
AcDbEntity
  8
1
  6
Continuous
 62
     7
370
     9
100
AcDbLine
 10
211.1010264045725
 20
162.8036866395262
 30
0.0
 11
211.1010264045725
 21
145.6036866395263
 31
0.0
  0
LINE
  5
2E7
330
1F
100
AcDbEntity
  8
1
  6
Continuous
 62
     7
370
     9
100
AcDbLine
 10
196.6010264045725
 20
162.8036866395262
 30
0.0
 11
196.6010264045725
 21
145.6036866395263
 31
0.0
  0
LINE
  5
2E8
330
1F
100
AcDbEntity
  8
1
  6
Continuous
 62
     7
370
     9
100
AcDbLine
 10
210.3010264045723
 20
145.3036866395262
 30
0.0
 11
210.8010264045724
 21
145.3036866395262
 31
0.0
  0
LINE
  5
2E9
330
1F
100
AcDbEntity
  8
1
  6
Continuous
 62
     7
370
     9
100
AcDbLine
 10
197.4010264045724
 20
145.3036866395262
 30
0.0
 11
196.9010264045724
 21
145.3036866395262
 31
0.0
  0
LINE
  5
2EA
330
1F
100
AcDbEntity
  8
1
  6
Continuous
 62
     7
370
     9
100
AcDbLine
 10
196.9010264045724
 20
145.3036866395262
 30
0.0
 11
196.6010264045725
 21
145.6036866395263
 31
0.0
  0
LINE
  5
2EB
330
1F
100
AcDbEntity
  8
1
  6
Continuous
 62
     7
370
     9
100
AcDbLine
 10
210.8010264045724
 20
145.3036866395262
 30
0.0
 11
211.1010264045725
 21
145.6036866395263
 31
0.0
  0
LINE
  5
2EC
330
1F
100
AcDbEntity
  8
1
  6
Continuous
 62
     7
370
     9
100
AcDbLine
 10
211.3010264045724
 20
146.8036866395262
 30
0.0
 11
211.1010264045725
 21
146.8036866395262
 31
0.0
  0
LINE
  5
2ED
330
1F
100
AcDbEntity
  8
1
  6
Continuous
 62
     7
370
     9
100
AcDbLine
 10
210.3010264045723
 20
180.3036866395262
 30
0.0
 11
210.8010264045724
 21
180.3036866395262
 31
0.0
  0
LINE
  5
2EE
330
1F
100
AcDbEntity
  8
1
  6
Continuous
 62
     7
370
     9
100
AcDbLine
 10
197.4010264045724
 20
162.8036866395262
 30
0.0
 11
197.4010264045724
 21
180.3036866395262
 31
0.0
  0
LINE
  5
2EF
330
1F
100
AcDbEntity
  8
1
  6
Continuous
 62
     7
370
     9
100
AcDbLine
 10
196.6010264045725
 20
162.8036866395262
 30
0.0
 11
196.6010264045725
 21
180.0036866395263
 31
0.0
  0
LINE
  5
2F0
330
1F
100
AcDbEntity
  8
1
  6
Continuous
 62
     7
370
     9
100
AcDbLine
 10
197.4010264045724
 20
180.3036866395262
 30
0.0
 11
196.9010264045724
 21
180.3036866395262
 31
0.0
  0
LINE
  5
2F1
330
1F
100
AcDbEntity
  8
1
  6
Continuous
 62
     7
370
     9
100
AcDbLine
 10
196.9010264045724
 20
180.3036866395262
 30
0.0
 11
196.6010264045725
 21
180.0036866395263
 31
0.0
  0
LINE
  5
2F2
330
1F
100
AcDbEntity
  8
1
  6
Continuous
 62
     7
370
     9
100
AcDbLine
 10
210.3010264045723
 20
162.8036866395262
 30
0.0
 11
210.3010264045723
 21
180.3036866395262
 31
0.0
  0
LINE
  5
2F3
330
1F
100
AcDbEntity
  8
1
  6
Continuous
 62
     7
370
     9
100
AcDbLine
 10
211.1010264045725
 20
162.8036866395262
 30
0.0
 11
211.1010264045725
 21
180.0036866395263
 31
0.0
  0
LINE
  5
2F4
330
1F
100
AcDbEntity
  8
1
  6
Continuous
 62
     7
370
     9
100
AcDbLine
 10
210.8010264045724
 20
180.3036866395262
 30
0.0
 11
211.1010264045725
 21
180.0036866395263
 31
0.0
  0
LINE
  5
2F5
330
1F
100
AcDbEntity
  8
1
  6
Continuous
 62
     7
370
     9
100
AcDbLine
 10
211.3010264045724
 20
178.8036866395262
 30
0.0
 11
211.1010264045725
 21
178.8036866395262
 31
0.0
  0
LINE
  5
2F6
330
1F
100
AcDbEntity
  8
1
  6
Continuous
 62
     7
370
     9
100
AcDbLine
 10
195.7010264045725
 20
178.9663595441596
 30
0.0
 11
182.5227142410595
 21
178.9663595441596
 31
0.0
  0
LINE
  5
2F7
330
1F
100
AcDbEntity
  8
1
  6
Continuous
 62
     7
370
     9
100
AcDbLine
 10
195.7010264045725
 20
179.4223955046269
 30
0.0
 11
182.5227142410595
 21
179.4223955046269
 31
0.0
  0
LINE
  5
2F8
330
1F
100
AcDbEntity
  8
1
  6
Continuous
 62
     7
370
     9
100
AcDbLine
 10
195.7010264045725
 20
179.6479284830149
 30
0.0
 11
182.5227142410595
 21
179.6479284830149
 31
0.0
  0
LINE
  5
2F9
330
1F
100
AcDbEntity
  8
1
  6
Continuous
 62
     7
370
     9
100
AcDbLine
 10
195.7010264045725
 20
179.9041943683649
 30
0.0
 11
182.5227142410595
 21
179.9041943683649
 31
0.0
  0
LINE
  5
2FA
330
1F
100
AcDbEntity
  8
1
  6
Continuous
 62
     7
370
     9
100
AcDbLine
 10
195.7010264045725
 20
180.0016434144279
 30
0.0
 11
182.5227142410595
 21
180.0016434144279
 31
0.0
  0
LINE
  5
2FB
330
1F
100
AcDbEntity
  8
1
  6
Continuous
 62
     7
370
     9
100
AcDbLine
 10
195.7010264045725
 20
180.0536866395262
 30
0.0
 11
182.5227142410595
 21
180.0536866395262
 31
0.0
  0
LINE
  5
2FC
330
1F
100
AcDbEntity
  8
1
  6
Continuous
 62
     7
370
     9
100
AcDbLine
 10
196.1010264045725
 20
165.4948082633629
 30
0.0
 11
182.122714547211
 21
165.4948082633629
 31
0.0
  0
LINE
  5
2FD
330
1F
100
AcDbEntity
  8
1
  6
Continuous
 62
     7
370
     9
100
AcDbLine
 10
182.5227142410595
 20
165.9328604539249
 30
0.0
 11
195.7010264045725
 21
165.9328604539249
 31
0.0
  0
LINE
  5
2FE
330
1F
100
AcDbEntity
  8
1
  6
Continuous
 62
     7
370
     9
100
AcDbLine
 10
182.522714547211
 20
166.8447319681837
 30
0.0
 11
195.7010264045725
 21
166.8447319681837
 31
0.0
  0
LINE
  5
2FF
330
1F
100
AcDbEntity
  8
1
  6
Continuous
 62
     7
370
     9
100
AcDbLine
 10
196.1010264045725
 20
167.1106486779466
 30
0.0
 11
182.122714547211
 21
167.1106486779466
 31
0.0
  0
LINE
  5
300
330
1F
100
AcDbEntity
  8
1
  6
Continuous
 62
     7
370
     9
100
AcDbLine
 10
182.122714547211
 20
167.7835836883302
 30
0.0
 11
196.1010264045725
 21
167.7835836883302
 31
0.0
  0
LINE
  5
301
330
1F
100
AcDbEntity
  8
1
  6
Continuous
 62
     7
370
     9
100
AcDbLine
 10
195.7010264045725
 20
168.2633132693483
 30
0.0
 11
182.5227145472111
 21
168.2633132693483
 31
0.0
  0
LINE
  5
302
330
1F
100
AcDbEntity
  8
1
  6
Continuous
 62
     7
370
     9
100
AcDbLine
 10
182.5227142410595
 20
169.139335839676
 30
0.0
 11
195.7010264045725
 21
169.139335839676
 31
0.0
  0
LINE
  5
303
330
1F
100
AcDbEntity
  8
1
  6
Continuous
 62
     7
370
     9
100
AcDbLine
 10
196.1010264045725
 20
169.3358996495672
 30
0.0
 11
182.122714547211
 21
169.3358996495672
 31
0.0
  0
LINE
  5
304
330
1F
100
AcDbEntity
  8
1
  6
Continuous
 62
     7
370
     9
100
AcDbLine
 10
182.122714547211
 20
169.9754310817916
 30
0.0
 11
196.1010264045725
 21
169.9754310817916
 31
0.0
  0
LINE
  5
305
330
1F
100
AcDbEntity
  8
1
  6
Continuous
 62
     7
370
     9
100
AcDbLine
 10
195.7010264045725
 20
170.4875006626555
 30
0.0
 11
182.5227142410595
 21
170.4875006626555
 31
0.0
  0
LINE
  5
306
330
1F
100
AcDbEntity
  8
1
  6
Continuous
 62
     7
370
     9
100
AcDbLine
 10
182.5227142410595
 20
171.3106235061816
 30
0.0
 11
195.7010264045725
 21
171.3106235061816
 31
0.0
  0
LINE
  5
307
330
1F
100
AcDbEntity
  8
1
  6
Continuous
 62
     7
370
     9
100
AcDbLine
 10
196.1010264045725
 20
171.4340085252297
 30
0.0
 11
182.122714547211
 21
171.4340085252297
 31
0.0
  0
LINE
  5
308
330
1F
100
AcDbEntity
  8
1
  6
Continuous
 62
     7
370
     9
100
AcDbLine
 10
182.122714547211
 20
172.0276886274226
 30
0.0
 11
196.1010264045725
 21
172.0276886274226
 31
0.0
  0
LINE
  5
309
330
1F
100
AcDbEntity
  8
1
  6
Continuous
 62
     7
370
     9
100
AcDbLine
 10
195.7010264045725
 20
172.5621313562113
 30
0.0
 11
182.5227142410595
 21
172.5621313562113
 31
0.0
  0
LINE
  5
30A
330
1F
100
AcDbEntity
  8
1
  6
Continuous
 62
     7
370
     9
100
AcDbLine
 10
195.7010264045725
 20
173.316333323075
 30
0.0
 11
182.5227142410595
 21
173.316333323075
 31
0.0
  0
LINE
  5
30B
330
1F
100
AcDbEntity
  8
1
  6
Continuous
 62
     7
370
     9
100
AcDbLine
 10
182.122714547211
 20
173.3641380022324
 30
0.0
 11
196.1010264045725
 21
173.3641380022324
 31
0.0
  0
LINE
  5
30C
330
1F
100
AcDbEntity
  8
1
  6
Continuous
 62
     7
370
     9
100
AcDbLine
 10
196.1010264045725
 20
173.9004114665059
 30
0.0
 11
182.122714547211
 21
173.9004114665059
 31
0.0
  0
LINE
  5
30D
330
1F
100
AcDbEntity
  8
1
  6
Continuous
 62
     7
370
     9
100
AcDbLine
 10
182.5227142410595
 20
174.4468250234232
 30
0.0
 11
195.7010264045725
 21
174.4468250234232
 31
0.0
  0
LINE
  5
30E
330
1F
100
AcDbEntity
  8
1
  6
Continuous
 62
     7
370
     9
100
AcDbLine
 10
182.522714547211
 20
175.1174264302313
 30
0.0
 11
195.7010264045725
 21
175.1174264302313
 31
0.0
  0
LINE
  5
30F
330
1F
100
AcDbEntity
  8
1
  6
Continuous
 62
     7
370
     9
100
AcDbLine
 10
182.122714547211
 20
175.5571491791696
 30
0.0
 11
196.1010264045725
 21
175.5571491791696
 31
0.0
  0
LINE
  5
310
330
1F
100
AcDbEntity
  8
1
  6
Continuous
 62
     7
370
     9
100
AcDbLine
 10
182.5227142410595
 20
176.1048982458662
 30
0.0
 11
195.7010264045725
 21
176.1048982458662
 31
0.0
  0
LINE
  5
311
330
1F
100
AcDbEntity
  8
1
  6
Continuous
 62
     7
370
     9
100
AcDbLine
 10
195.7010264045725
 20
157.3440600097044
 30
0.0
 11
182.5227145472111
 21
157.3440600097044
 31
0.0
  0
LINE
  5
312
330
1F
100
AcDbEntity
  8
1
  6
Continuous
 62
     7
370
     9
100
AcDbLine
 10
182.5227142410595
 20
156.4680374393767
 30
0.0
 11
195.7010264045725
 21
156.4680374393767
 31
0.0
  0
LINE
  5
313
330
1F
100
AcDbEntity
  8
1
  6
Continuous
 62
     7
370
     9
100
AcDbLine
 10
196.1010264045725
 20
156.2714736294855
 30
0.0
 11
182.122714547211
 21
156.2714736294855
 31
0.0
  0
LINE
  5
314
330
1F
100
AcDbEntity
  8
1
  6
Continuous
 62
     7
370
     9
100
AcDbLine
 10
182.122714547211
 20
155.6319421972611
 30
0.0
 11
196.1010264045725
 21
155.6319421972611
 31
0.0
  0
LINE
  5
315
330
1F
100
AcDbEntity
  8
1
  6
Continuous
 62
     7
370
     9
100
AcDbLine
 10
195.7010264045725
 20
155.1198726163972
 30
0.0
 11
182.5227142410595
 21
155.1198726163972
 31
0.0
  0
LINE
  5
316
330
1F
100
AcDbEntity
  8
1
  6
Continuous
 62
     7
370
     9
100
AcDbLine
 10
182.5227142410595
 20
154.2967497728712
 30
0.0
 11
195.7010264045725
 21
154.2967497728712
 31
0.0
  0
LINE
  5
317
330
1F
100
AcDbEntity
  8
1
  6
Continuous
 62
     7
370
     9
100
AcDbLine
 10
196.1010264045725
 20
154.1733647538231
 30
0.0
 11
182.122714547211
 21
154.1733647538231
 31
0.0
  0
LINE
  5
318
330
1F
100
AcDbEntity
  8
1
  6
Continuous
 62
     7
370
     9
100
AcDbLine
 10
182.122714547211
 20
153.5796846516302
 30
0.0
 11
196.1010264045725
 21
153.5796846516302
 31
0.0
  0
LINE
  5
319
330
1F
100
AcDbEntity
  8
1
  6
Continuous
 62
     7
370
     9
100
AcDbLine
 10
195.7010264045725
 20
153.0452419228414
 30
0.0
 11
182.5227142410595
 21
153.0452419228414
 31
0.0
  0
LINE
  5
31A
330
1F
100
AcDbEntity
  8
1
  6
Continuous
 62
     7
370
     9
100
AcDbLine
 10
195.7010264045725
 20
152.2910399559779
 30
0.0
 11
182.5227142410595
 21
152.2910399559779
 31
0.0
  0
LINE
  5
31B
330
1F
100
AcDbEntity
  8
1
  6
Continuous
 62
     7
370
     9
100
AcDbLine
 10
182.122714547211
 20
152.2432352768203
 30
0.0
 11
196.1010264045725
 21
152.2432352768203
 31
0.0
  0
LINE
  5
31C
330
1F
100
AcDbEntity
  8
1
  6
Continuous
 62
     7
370
     9
100
AcDbLine
 10
195.7010264045725
 20
161.1358995330627
 30
0.0
 11
182.5227142410595
 21
161.1358995330627
 31
0.0
  0
LINE
  5
31D
330
1F
100
AcDbEntity
  8
1
  6
Continuous
 62
     7
370
     9
100
AcDbLine
 10
182.122714547211
 20
160.8058056897079
 30
0.0
 11
196.1010264045725
 21
160.8058056897081
 31
0.0
  0
LINE
  5
31E
330
1F
100
AcDbEntity
  8
1
  6
Continuous
 62
     7
370
     9
100
AcDbLine
 10
196.1010264045725
 20
160.1125650156899
 30
0.0
 11
182.122714547211
 21
160.1125650156899
 31
0.0
  0
LINE
  5
31F
330
1F
100
AcDbEntity
  8
1
  6
Continuous
 62
     7
370
     9
100
AcDbLine
 10
182.5227142410595
 20
159.6745128251278
 30
0.0
 11
195.7010264045725
 21
159.6745128251278
 31
0.0
  0
LINE
  5
320
330
1F
100
AcDbEntity
  8
1
  6
Continuous
 62
     7
370
     9
100
AcDbLine
 10
182.522714547211
 20
158.762641310869
 30
0.0
 11
195.7010264045725
 21
158.762641310869
 31
0.0
  0
LINE
  5
321
330
1F
100
AcDbEntity
  8
1
  6
Continuous
 62
     7
370
     9
100
AcDbLine
 10
196.1010264045725
 20
158.4967246011062
 30
0.0
 11
182.122714547211
 21
158.4967246011062
 31
0.0
  0
LINE
  5
322
330
1F
100
AcDbEntity
  8
1
  6
Continuous
 62
     7
370
     9
100
AcDbLine
 10
182.122714547211
 20
157.8237895907225
 30
0.0
 11
196.1010264045725
 21
157.8237895907225
 31
0.0
  0
LINE
  5
323
330
1F
100
AcDbEntity
  8
1
  6
Continuous
 62
     7
370
     9
100
AcDbLine
 10
195.7010264045725
 20
164.4714737459901
 30
0.0
 11
182.5227142410595
 21
164.4714737459901
 31
0.0
  0
LINE
  5
324
330
1F
100
AcDbEntity
  8
1
  6
Continuous
 62
     7
370
     9
100
AcDbLine
 10
182.122714547211
 20
164.8015675893448
 30
0.0
 11
196.1010264045725
 21
164.8015675893448
 31
0.0
  0
LINE
  5
325
330
1F
100
AcDbEntity
  8
1
  6
Continuous
 62
     7
370
     9
100
AcDbLine
 10
196.1010264045725
 20
151.7069618125468
 30
0.0
 11
182.122714547211
 21
151.7069618125468
 31
0.0
  0
LINE
  5
326
330
1F
100
AcDbEntity
  8
1
  6
Continuous
 62
     7
370
     9
100
AcDbLine
 10
182.5227142410595
 20
151.1605482556295
 30
0.0
 11
195.7010264045725
 21
151.1605482556295
 31
0.0
  0
LINE
  5
327
330
1F
100
AcDbEntity
  8
1
  6
Continuous
 62
     7
370
     9
100
AcDbLine
 10
182.522714547211
 20
150.4899468488214
 30
0.0
 11
195.7010264045725
 21
150.4899468488214
 31
0.0
  0
LINE
  5
328
330
1F
100
AcDbEntity
  8
1
  6
Continuous
 62
     7
370
     9
100
AcDbLine
 10
182.122714547211
 20
150.0502240998832
 30
0.0
 11
196.1010264045725
 21
150.0502240998832
 31
0.0
  0
LINE
  5
329
330
1F
100
AcDbEntity
  8
1
  6
Continuous
 62
     7
370
     9
100
AcDbLine
 10
182.5227142410595
 20
149.5024750331865
 30
0.0
 11
195.7010264045725
 21
149.5024750331865
 31
0.0
  0
LINE
  5
32A
330
1F
100
AcDbEntity
  8
1
  6
Continuous
 62
     7
370
     9
100
AcDbLine
 10
195.7010264045725
 20
146.6410137348931
 30
0.0
 11
182.5227142410595
 21
146.6410137348931
 31
0.0
  0
LINE
  5
32B
330
1F
100
AcDbEntity
  8
1
  6
Continuous
 62
     7
370
     9
100
AcDbLine
 10
195.7010264045725
 20
146.1849777744258
 30
0.0
 11
182.5227142410595
 21
146.1849777744258
 31
0.0
  0
LINE
  5
32C
330
1F
100
AcDbEntity
  8
1
  6
Continuous
 62
     7
370
     9
100
AcDbLine
 10
195.7010264045725
 20
145.9594447960378
 30
0.0
 11
182.5227142410595
 21
145.9594447960378
 31
0.0
  0
LINE
  5
32D
330
1F
100
AcDbEntity
  8
1
  6
Continuous
 62
     7
370
     9
100
AcDbLine
 10
195.7010264045725
 20
145.7031789106878
 30
0.0
 11
182.5227142410595
 21
145.7031789106878
 31
0.0
  0
LINE
  5
32E
330
1F
100
AcDbEntity
  8
1
  6
Continuous
 62
     7
370
     9
100
AcDbLine
 10
195.7010264045725
 20
145.6057298646248
 30
0.0
 11
182.5227142410595
 21
145.6057298646248
 31
0.0
  0
LINE
  5
32F
330
1F
100
AcDbEntity
  8
1
  6
Continuous
 62
     7
370
     9
100
AcDbLine
 10
195.7010264045725
 20
145.5536866395265
 30
0.0
 11
182.5227142410595
 21
145.5536866395265
 31
0.0
  0
LINE
  5
330
330
1F
100
AcDbEntity
  8
1
  6
Continuous
 62
     7
370
     9
100
AcDbLine
 10
182.122714547211
 20
158.496724601106
 30
0.0
 11
182.122714547211
 21
157.8237895907222
 31
0.0
  0
LINE
  5
331
330
1F
100
AcDbEntity
  8
1
  6
Continuous
 62
     7
370
     9
100
AcDbLine
 10
181.8010264045724
 20
146.8036866395262
 30
0.0
 11
181.8010264045724
 21
162.8036866395262
 31
0.0
  0
LINE
  5
332
330
1F
100
AcDbEntity
  8
1
  6
Continuous
 62
     7
370
     9
100
AcDbLine
 10
182.122714547211
 20
157.8237895907222
 30
0.0
 11
182.522714547211
 21
157.3440600097042
 31
0.0
  0
LINE
  5
333
330
1F
100
AcDbEntity
  8
1
  6
Continuous
 62
     7
370
     9
100
AcDbLine
 10
182.122714547211
 20
153.57968465163
 30
0.0
 11
182.522714547211
 21
153.0452419228412
 31
0.0
  0
LINE
  5
334
330
1F
100
AcDbEntity
  8
1
  6
Continuous
 62
     7
370
     9
100
AcDbLine
 10
182.522714547211
 20
152.2910399559776
 30
0.0
 11
182.522714547211
 21
153.0452419228412
 31
0.0
  0
LINE
  5
335
330
1F
100
AcDbEntity
  8
1
  6
Continuous
 62
     7
370
     9
100
AcDbLine
 10
182.122714547211
 20
152.24323527682
 30
0.0
 11
182.522714547211
 21
152.2910399559776
 31
0.0
  0
LINE
  5
336
330
1F
100
AcDbEntity
  8
1
  6
Continuous
 62
     7
370
     9
100
AcDbLine
 10
182.122714547211
 20
155.6319421972609
 30
0.0
 11
182.522714547211
 21
155.119872616397
 31
0.0
  0
LINE
  5
337
330
1F
100
AcDbEntity
  8
1
  6
Continuous
 62
     7
370
     9
100
AcDbLine
 10
182.122714547211
 20
154.1733647538229
 30
0.0
 11
182.122714547211
 21
153.57968465163
 31
0.0
  0
LINE
  5
338
330
1F
100
AcDbEntity
  8
1
  6
Continuous
 62
     7
370
     9
100
AcDbLine
 10
182.522714547211
 20
154.296749772871
 30
0.0
 11
182.522714547211
 21
155.119872616397
 31
0.0
  0
LINE
  5
339
330
1F
100
AcDbEntity
  8
1
  6
Continuous
 62
     7
370
     9
100
AcDbLine
 10
182.522714547211
 20
154.296749772871
 30
0.0
 11
182.122714547211
 21
154.1733647538229
 31
0.0
  0
LINE
  5
33A
330
1F
100
AcDbEntity
  8
1
  6
Continuous
 62
     7
370
     9
100
AcDbLine
 10
182.122714547211
 20
156.2714736294852
 30
0.0
 11
182.122714547211
 21
155.6319421972609
 31
0.0
  0
LINE
  5
33B
330
1F
100
AcDbEntity
  8
1
  6
Continuous
 62
     7
370
     9
100
AcDbLine
 10
182.522714547211
 20
156.4680374393765
 30
0.0
 11
182.522714547211
 21
157.3440600097042
 31
0.0
  0
LINE
  5
33C
330
1F
100
AcDbEntity
  8
1
  6
Continuous
 62
     7
370
     9
100
AcDbLine
 10
182.522714547211
 20
156.4680374393765
 30
0.0
 11
182.122714547211
 21
156.2714736294852
 31
0.0
  0
LINE
  5
33D
330
1F
100
AcDbEntity
  8
1
  6
Continuous
 62
     7
370
     9
100
AcDbLine
 10
182.522714547211
 20
146.6410137348929
 30
0.0
 11
182.522714547211
 21
149.5024750331863
 31
0.0
  0
LINE
  5
33E
330
1F
100
AcDbEntity
  8
1
  6
Continuous
 62
     7
370
     9
100
AcDbLine
 10
181.8010264045724
 20
146.8036866395262
 30
0.0
 11
182.5227142410595
 21
145.5536866395262
 31
0.0
  0
LINE
  5
33F
330
1F
100
AcDbEntity
  8
1
  6
Continuous
 62
     7
370
     9
100
AcDbLine
 10
182.122714547211
 20
146.8900262439536
 30
0.0
 11
182.122714547211
 21
146.6736955371792
 31
0.0
  0
LINE
  5
340
330
1F
100
AcDbEntity
  8
1
  6
Continuous
 62
     7
370
     9
100
AcDbLine
 10
182.122714547211
 20
146.2740498541519
 30
0.0
 11
182.122714547211
 21
146.2465064322836
 31
0.0
  0
LINE
  5
341
330
1F
100
AcDbEntity
  8
1
  6
Continuous
 62
     7
370
     9
100
AcDbLine
 10
182.522714547211
 20
145.6057298646246
 30
0.0
 11
182.522714547211
 21
145.7031789106875
 31
0.0
  0
LINE
  5
342
330
1F
100
AcDbEntity
  8
1
  6
Continuous
 62
     7
370
     9
100
AcDbLine
 10
182.122714547211
 20
146.2465064322838
 30
0.0
 11
182.522714547211
 21
145.6057298646246
 31
0.0
  0
LINE
  5
343
330
1F
100
AcDbEntity
  8
1
  6
Continuous
 62
     7
370
     9
100
AcDbLine
 10
182.522714547211
 20
145.7031789106875
 30
0.0
 11
182.122714547211
 21
146.2465064322838
 31
0.0
  0
LINE
  5
344
330
1F
100
AcDbEntity
  8
1
  6
Continuous
 62
     7
370
     9
100
AcDbLine
 10
182.522714547211
 20
145.9594447960375
 30
0.0
 11
182.522714547211
 21
146.1849777744256
 31
0.0
  0
LINE
  5
345
330
1F
100
AcDbEntity
  8
1
  6
Continuous
 62
     7
370
     9
100
AcDbLine
 10
182.122714547211
 20
146.8900262439536
 30
0.0
 11
182.522714547211
 21
146.6410137348929
 31
0.0
  0
LINE
  5
346
330
1F
100
AcDbEntity
  8
1
  6
Continuous
 62
     7
370
     9
100
AcDbLine
 10
182.122714547211
 20
146.6736955371792
 30
0.0
 11
182.522714547211
 21
146.1849777744256
 31
0.0
  0
LINE
  5
347
330
1F
100
AcDbEntity
  8
1
  6
Continuous
 62
     7
370
     9
100
AcDbLine
 10
182.122714547211
 20
146.2740498541519
 30
0.0
 11
182.522714547211
 21
145.9594447960375
 31
0.0
  0
LINE
  5
348
330
1F
100
AcDbEntity
  8
1
  6
Continuous
 62
     7
370
     9
100
AcDbLine
 10
182.122714547211
 20
146.6736955371792
 30
0.0
 11
182.4702162973688
 21
146.6736955371792
 31
0.0
  0
LINE
  5
349
330
1F
100
AcDbEntity
  8
1
  6
Continuous
 62
     7
370
     9
100
AcDbLine
 10
182.522714547211
 20
151.1605482556293
 30
0.0
 11
182.122714547211
 21
151.7069618125466
 31
0.0
  0
LINE
  5
34A
330
1F
100
AcDbEntity
  8
1
  6
Continuous
 62
     7
370
     9
100
AcDbLine
 10
182.122714547211
 20
150.5186529732569
 30
0.0
 11
182.122714547211
 21
150.050224099883
 31
0.0
  0
LINE
  5
34B
330
1F
100
AcDbEntity
  8
1
  6
Continuous
 62
     7
370
     9
100
AcDbLine
 10
182.522714547211
 20
150.4899468488211
 30
0.0
 11
182.122714547211
 21
150.5186529732569
 31
0.0
  0
LINE
  5
34C
330
1F
100
AcDbEntity
  8
1
  6
Continuous
 62
     7
370
     9
100
AcDbLine
 10
182.522714547211
 20
150.4899468488211
 30
0.0
 11
182.522714547211
 21
151.1605482556293
 31
0.0
  0
LINE
  5
34D
330
1F
100
AcDbEntity
  8
1
  6
Continuous
 62
     7
370
     9
100
AcDbLine
 10
182.522714547211
 20
149.5024750331863
 30
0.0
 11
182.122714547211
 21
150.050224099883
 31
0.0
  0
LINE
  5
34E
330
1F
100
AcDbEntity
  8
1
  6
Continuous
 62
     7
370
     9
100
AcDbLine
 10
182.122714547211
 20
152.24323527682
 30
0.0
 11
182.122714547211
 21
151.7069618125466
 31
0.0
  0
LINE
  5
34F
330
1F
100
AcDbEntity
  8
1
  6
Continuous
 62
     7
370
     9
100
AcDbLine
 10
182.522714547211
 20
178.9663595441596
 30
0.0
 11
182.522714547211
 21
176.1048982458662
 31
0.0
  0
LINE
  5
350
330
1F
100
AcDbEntity
  8
1
  6
Continuous
 62
     7
370
     9
100
AcDbLine
 10
181.8010264045724
 20
178.8036866395262
 30
0.0
 11
181.8010264045724
 21
162.8036866395262
 31
0.0
  0
LINE
  5
351
330
1F
100
AcDbEntity
  8
1
  6
Continuous
 62
     7
370
     9
100
AcDbLine
 10
182.522714547211
 20
174.4468250234232
 30
0.0
 11
182.122714547211
 21
173.9004114665059
 31
0.0
  0
LINE
  5
352
330
1F
100
AcDbEntity
  8
1
  6
Continuous
 62
     7
370
     9
100
AcDbLine
 10
182.122714547211
 20
171.4340085252297
 30
0.0
 11
182.122714547211
 21
172.0276886274226
 31
0.0
  0
LINE
  5
353
330
1F
100
AcDbEntity
  8
1
  6
Continuous
 62
     7
370
     9
100
AcDbLine
 10
182.122714547211
 20
173.3641380022324
 30
0.0
 11
182.122714547211
 21
173.9004114665059
 31
0.0
  0
LINE
  5
354
330
1F
100
AcDbEntity
  8
1
  6
Continuous
 62
     7
370
     9
100
AcDbLine
 10
182.522714547211
 20
173.316333323075
 30
0.0
 11
182.522714547211
 21
172.5621313562113
 31
0.0
  0
LINE
  5
355
330
1F
100
AcDbEntity
  8
1
  6
Continuous
 62
     7
370
     9
100
AcDbLine
 10
182.122714547211
 20
172.0276886274226
 30
0.0
 11
182.522714547211
 21
172.5621313562113
 31
0.0
  0
LINE
  5
356
330
1F
100
AcDbEntity
  8
1
  6
Continuous
 62
     7
370
     9
100
AcDbLine
 10
182.122714547211
 20
173.3641380022324
 30
0.0
 11
182.522714547211
 21
173.316333323075
 31
0.0
  0
LINE
  5
357
330
1F
100
AcDbEntity
  8
1
  6
Continuous
 62
     7
370
     9
100
AcDbLine
 10
182.522714547211
 20
176.1048982458662
 30
0.0
 11
182.122714547211
 21
175.5571491791696
 31
0.0
  0
LINE
  5
358
330
1F
100
AcDbEntity
  8
1
  6
Continuous
 62
     7
370
     9
100
AcDbLine
 10
182.122714547211
 20
175.0887203057957
 30
0.0
 11
182.122714547211
 21
175.5571491791696
 31
0.0
  0
LINE
  5
359
330
1F
100
AcDbEntity
  8
1
  6
Continuous
 62
     7
370
     9
100
AcDbLine
 10
182.522714547211
 20
175.1174264302313
 30
0.0
 11
182.122714547211
 21
175.0887203057957
 31
0.0
  0
LINE
  5
35A
330
1F
100
AcDbEntity
  8
1
  6
Continuous
 62
     7
370
     9
100
AcDbLine
 10
182.522714547211
 20
175.1174264302313
 30
0.0
 11
182.522714547211
 21
174.4468250234232
 31
0.0
  0
LINE
  5
35B
330
1F
100
AcDbEntity
  8
1
  6
Continuous
 62
     7
370
     9
100
AcDbLine
 10
182.122714547211
 20
165.4948082633629
 30
0.0
 11
182.522714547211
 21
165.9328604539249
 31
0.0
  0
LINE
  5
35C
330
1F
100
AcDbEntity
  8
1
  6
Continuous
 62
     7
370
     9
100
AcDbLine
 10
182.122714547211
 20
169.3358996495672
 30
0.0
 11
182.122714547211
 21
169.9754310817916
 31
0.0
  0
LINE
  5
35D
330
1F
100
AcDbEntity
  8
1
  6
Continuous
 62
     7
370
     9
100
AcDbLine
 10
182.122714547211
 20
167.7835836883302
 30
0.0
 11
182.522714547211
 21
168.2633132693483
 31
0.0
  0
LINE
  5
35E
330
1F
100
AcDbEntity
  8
1
  6
Continuous
 62
     7
370
     9
100
AcDbLine
 10
182.122714547211
 20
167.1106486779466
 30
0.0
 11
182.122714547211
 21
167.7835836883302
 31
0.0
  0
LINE
  5
35F
330
1F
100
AcDbEntity
  8
1
  6
Continuous
 62
     7
370
     9
100
AcDbLine
 10
182.522714547211
 20
166.8447319681837
 30
0.0
 11
182.522714547211
 21
165.9328604539249
 31
0.0
  0
LINE
  5
360
330
1F
100
AcDbEntity
  8
1
  6
Continuous
 62
     7
370
     9
100
AcDbLine
 10
182.522714547211
 20
166.8447319681837
 30
0.0
 11
182.122714547211
 21
167.1106486779466
 31
0.0
  0
LINE
  5
361
330
1F
100
AcDbEntity
  8
1
  6
Continuous
 62
     7
370
     9
100
AcDbLine
 10
182.522714547211
 20
169.139335839676
 30
0.0
 11
182.522714547211
 21
168.2633132693483
 31
0.0
  0
LINE
  5
362
330
1F
100
AcDbEntity
  8
1
  6
Continuous
 62
     7
370
     9
100
AcDbLine
 10
182.522714547211
 20
169.139335839676
 30
0.0
 11
182.122714547211
 21
169.3358996495672
 31
0.0
  0
LINE
  5
363
330
1F
100
AcDbEntity
  8
1
  6
Continuous
 62
     7
370
     9
100
AcDbLine
 10
182.522714547211
 20
171.3106235061816
 30
0.0
 11
182.522714547211
 21
170.4875006626555
 31
0.0
  0
LINE
  5
364
330
1F
100
AcDbEntity
  8
1
  6
Continuous
 62
     7
370
     9
100
AcDbLine
 10
182.122714547211
 20
169.9754310817916
 30
0.0
 11
182.522714547211
 21
170.4875006626555
 31
0.0
  0
LINE
  5
365
330
1F
100
AcDbEntity
  8
1
  6
Continuous
 62
     7
370
     9
100
AcDbLine
 10
182.522714547211
 20
171.3106235061816
 30
0.0
 11
182.122714547211
 21
171.4340085252297
 31
0.0
  0
LINE
  5
366
330
1F
100
AcDbEntity
  8
1
  6
Continuous
 62
     7
370
     9
100
AcDbLine
 10
182.522714547211
 20
161.1358995330624
 30
0.0
 11
182.5227145472111
 21
162.8036866395262
 31
0.0
  0
LINE
  5
367
330
1F
100
AcDbEntity
  8
1
  6
Continuous
 62
     7
370
     9
100
AcDbLine
 10
182.522714547211
 20
158.7626413108688
 30
0.0
 11
182.522714547211
 21
159.6745128251276
 31
0.0
  0
LINE
  5
368
330
1F
100
AcDbEntity
  8
1
  6
Continuous
 62
     7
370
     9
100
AcDbLine
 10
182.522714547211
 20
158.7626413108688
 30
0.0
 11
182.122714547211
 21
158.496724601106
 31
0.0
  0
LINE
  5
369
330
1F
100
AcDbEntity
  8
1
  6
Continuous
 62
     7
370
     9
100
AcDbLine
 10
182.122714547211
 20
160.8058056897077
 30
0.0
 11
182.122714547211
 21
160.1125650156895
 31
0.0
  0
LINE
  5
36A
330
1F
100
AcDbEntity
  8
1
  6
Continuous
 62
     7
370
     9
100
AcDbLine
 10
182.122714547211
 20
160.1125650156895
 30
0.0
 11
182.522714547211
 21
159.6745128251276
 31
0.0
  0
LINE
  5
36B
330
1F
100
AcDbEntity
  8
1
  6
Continuous
 62
     7
370
     9
100
AcDbLine
 10
182.522714547211
 20
161.1358995330624
 30
0.0
 11
182.122714547211
 21
160.8058056897077
 31
0.0
  0
LINE
  5
36C
330
1F
100
AcDbEntity
  8
1
  6
Continuous
 62
     7
370
     9
100
AcDbLine
 10
182.522714547211
 20
164.4714737459901
 30
0.0
 11
182.5227145472111
 21
162.8036866395262
 31
0.0
  0
LINE
  5
36D
330
1F
100
AcDbEntity
  8
1
  6
Continuous
 62
     7
370
     9
100
AcDbLine
 10
182.522714547211
 20
164.4714737459901
 30
0.0
 11
182.122714547211
 21
164.8015675893448
 31
0.0
  0
LINE
  5
36E
330
1F
100
AcDbEntity
  8
1
  6
Continuous
 62
     7
370
     9
100
AcDbLine
 10
182.122714547211
 20
164.8015675893448
 30
0.0
 11
182.122714547211
 21
165.4948082633629
 31
0.0
  0
LINE
  5
36F
330
1F
100
AcDbEntity
  8
1
  6
Continuous
 62
     7
370
     9
100
AcDbLine
 10
181.8010264045724
 20
178.8036866395262
 30
0.0
 11
182.5227142410595
 21
180.0536866395262
 31
0.0
  0
LINE
  5
370
330
1F
100
AcDbEntity
  8
1
  6
Continuous
 62
     7
370
     9
100
AcDbLine
 10
182.122714547211
 20
178.717347035099
 30
0.0
 11
182.122714547211
 21
178.9336777418734
 31
0.0
  0
LINE
  5
371
330
1F
100
AcDbEntity
  8
1
  6
Continuous
 62
     7
370
     9
100
AcDbLine
 10
182.122714547211
 20
179.3333234249007
 30
0.0
 11
182.122714547211
 21
179.3608668467688
 31
0.0
  0
LINE
  5
372
330
1F
100
AcDbEntity
  8
1
  6
Continuous
 62
     7
370
     9
100
AcDbLine
 10
182.522714547211
 20
180.0016434144279
 30
0.0
 11
182.522714547211
 21
179.9041943683649
 31
0.0
  0
LINE
  5
373
330
1F
100
AcDbEntity
  8
1
  6
Continuous
 62
     7
370
     9
100
AcDbLine
 10
182.122714547211
 20
179.3608668467688
 30
0.0
 11
182.522714547211
 21
180.0016434144279
 31
0.0
  0
LINE
  5
374
330
1F
100
AcDbEntity
  8
1
  6
Continuous
 62
     7
370
     9
100
AcDbLine
 10
182.522714547211
 20
179.9041943683649
 30
0.0
 11
182.122714547211
 21
179.3608668467688
 31
0.0
  0
LINE
  5
375
330
1F
100
AcDbEntity
  8
1
  6
Continuous
 62
     7
370
     9
100
AcDbLine
 10
182.522714547211
 20
179.6479284830149
 30
0.0
 11
182.522714547211
 21
179.4223955046269
 31
0.0
  0
LINE
  5
376
330
1F
100
AcDbEntity
  8
1
  6
Continuous
 62
     7
370
     9
100
AcDbLine
 10
182.122714547211
 20
178.717347035099
 30
0.0
 11
182.522714547211
 21
178.9663595441596
 31
0.0
  0
LINE
  5
377
330
1F
100
AcDbEntity
  8
1
  6
Continuous
 62
     7
370
     9
100
AcDbLine
 10
182.122714547211
 20
178.9336777418734
 30
0.0
 11
182.522714547211
 21
179.4223955046269
 31
0.0
  0
LINE
  5
378
330
1F
100
AcDbEntity
  8
1
  6
Continuous
 62
     7
370
     9
100
AcDbLine
 10
182.122714547211
 20
179.3333234249007
 30
0.0
 11
182.522714547211
 21
179.6479284830149
 31
0.0
  0
LINE
  5
379
330
1F
100
AcDbEntity
  8
1
  6
Continuous
 62
     7
370
     9
100
AcDbLine
 10
182.122714547211
 20
178.9336777418734
 30
0.0
 11
182.4702162973688
 21
178.9336777418734
 31
0.0
  0
LINE
  5
37A
330
1F
100
AcDbEntity
  8
1
  6
Continuous
 62
     7
370
     9
100
AcDbLine
 10
196.1010264045725
 20
145.9798040421943
 30
0.0
 11
196.1010264045725
 21
162.8036866395262
 31
0.0
  0
LINE
  5
37B
330
1F
100
AcDbEntity
  8
1
  6
Continuous
 62
     7
370
     9
100
AcDbLine
 10
196.1010264045725
 20
162.8036866395262
 30
0.0
 11
196.1010264045725
 21
145.8536866395263
 31
0.0
  0
LINE
  5
37C
330
1F
100
AcDbEntity
  8
1
  6
Continuous
 62
     7
370
     9
100
AcDbLine
 10
196.1010264045725
 20
157.8237895907222
 30
0.0
 11
195.7010264045724
 21
157.3440600097042
 31
0.0
  0
LINE
  5
37D
330
1F
100
AcDbEntity
  8
1
  6
Continuous
 62
     7
370
     9
100
AcDbLine
 10
196.1010264045725
 20
153.57968465163
 30
0.0
 11
195.7010264045724
 21
153.0452419228412
 31
0.0
  0
LINE
  5
37E
330
1F
100
AcDbEntity
  8
1
  6
Continuous
 62
     7
370
     9
100
AcDbLine
 10
195.7010264045724
 20
152.2910399559776
 30
0.0
 11
195.7010264045724
 21
153.0452419228412
 31
0.0
  0
LINE
  5
37F
330
1F
100
AcDbEntity
  8
1
  6
Continuous
 62
     7
370
     9
100
AcDbLine
 10
196.1010264045725
 20
152.24323527682
 30
0.0
 11
195.7010264045724
 21
152.2910399559776
 31
0.0
  0
LINE
  5
380
330
1F
100
AcDbEntity
  8
1
  6
Continuous
 62
     7
370
     9
100
AcDbLine
 10
196.1010264045725
 20
155.6319421972609
 30
0.0
 11
195.7010264045724
 21
155.119872616397
 31
0.0
  0
LINE
  5
381
330
1F
100
AcDbEntity
  8
1
  6
Continuous
 62
     7
370
     9
100
AcDbLine
 10
195.7010264045724
 20
154.296749772871
 30
0.0
 11
195.7010264045724
 21
155.119872616397
 31
0.0
  0
LINE
  5
382
330
1F
100
AcDbEntity
  8
1
  6
Continuous
 62
     7
370
     9
100
AcDbLine
 10
195.7010264045724
 20
154.296749772871
 30
0.0
 11
196.1010264045725
 21
154.1733647538229
 31
0.0
  0
LINE
  5
383
330
1F
100
AcDbEntity
  8
1
  6
Continuous
 62
     7
370
     9
100
AcDbLine
 10
195.7010264045724
 20
156.4680374393765
 30
0.0
 11
195.7010264045724
 21
157.3440600097042
 31
0.0
  0
LINE
  5
384
330
1F
100
AcDbEntity
  8
1
  6
Continuous
 62
     7
370
     9
100
AcDbLine
 10
195.7010264045724
 20
156.4680374393765
 30
0.0
 11
196.1010264045725
 21
156.2714736294852
 31
0.0
  0
LINE
  5
385
330
1F
100
AcDbEntity
  8
1
  6
Continuous
 62
     7
370
     9
100
AcDbLine
 10
195.7010264045724
 20
146.6410137348929
 30
0.0
 11
195.7010264045724
 21
149.5024750331863
 31
0.0
  0
LINE
  5
386
330
1F
100
AcDbEntity
  8
1
  6
Continuous
 62
     7
370
     9
100
AcDbLine
 10
195.7010264045724
 20
145.9594447960375
 30
0.0
 11
195.7010264045724
 21
146.1849777744256
 31
0.0
  0
LINE
  5
387
330
1F
100
AcDbEntity
  8
1
  6
Continuous
 62
     7
370
     9
100
AcDbLine
 10
195.7010264045724
 20
145.6057298646246
 30
0.0
 11
195.7010264045724
 21
145.7031789106875
 31
0.0
  0
LINE
  5
388
330
1F
100
AcDbEntity
  8
1
  6
Continuous
 62
     7
370
     9
100
AcDbLine
 10
196.1010264045725
 20
146.8900262439536
 30
0.0
 11
195.7010264045724
 21
146.6410137348929
 31
0.0
  0
LINE
  5
389
330
1F
100
AcDbEntity
  8
1
  6
Continuous
 62
     7
370
     9
100
AcDbLine
 10
196.1010264045725
 20
146.6736955371792
 30
0.0
 11
195.7010264045724
 21
146.1849777744256
 31
0.0
  0
LINE
  5
38A
330
1F
100
AcDbEntity
  8
1
  6
Continuous
 62
     7
370
     9
100
AcDbLine
 10
196.1010264045725
 20
146.2740498541519
 30
0.0
 11
195.7010264045724
 21
145.9594447960375
 31
0.0
  0
LINE
  5
38B
330
1F
100
AcDbEntity
  8
1
  6
Continuous
 62
     7
370
     9
100
AcDbLine
 10
196.1010264045725
 20
146.1524844360367
 30
0.0
 11
195.7010264045724
 21
145.7031789106875
 31
0.0
  0
LINE
  5
38C
330
1F
100
AcDbEntity
  8
1
  6
Continuous
 62
     7
370
     9
100
AcDbLine
 10
196.1010264045725
 20
145.9798040421943
 30
0.0
 11
195.7010264045724
 21
145.6057298646246
 31
0.0
  0
LINE
  5
38D
330
1F
100
AcDbEntity
  8
1
  6
Continuous
 62
     7
370
     9
100
AcDbLine
 10
195.7010264045724
 20
145.5536866395262
 30
0.0
 11
196.1010264045725
 21
145.9798040421943
 31
0.0
  0
LINE
  5
38E
330
1F
100
AcDbEntity
  8
1
  6
Continuous
 62
     7
370
     9
100
AcDbLine
 10
196.1010264045725
 20
146.1524844360367
 30
0.0
 11
195.9464638316197
 21
146.1524844360367
 31
0.0
  0
LINE
  5
38F
330
1F
100
AcDbEntity
  8
1
  6
Continuous
 62
     7
370
     9
100
AcDbLine
 10
196.1010264045725
 20
146.6736955371792
 30
0.0
 11
195.7535246544147
 21
146.6736955371792
 31
0.0
  0
LINE
  5
390
330
1F
100
AcDbEntity
  8
1
  6
Continuous
 62
     7
370
     9
100
AcDbLine
 10
195.8010264045724
 20
145.5536866395262
 30
0.0
 11
196.1010264045725
 21
145.8536866395263
 31
0.0
  0
LINE
  5
391
330
1F
100
AcDbEntity
  8
1
  6
Continuous
 62
     7
370
     9
100
AcDbLine
 10
195.7010264045724
 20
151.1605482556293
 30
0.0
 11
196.1010264045725
 21
151.7069618125466
 31
0.0
  0
LINE
  5
392
330
1F
100
AcDbEntity
  8
1
  6
Continuous
 62
     7
370
     9
100
AcDbLine
 10
195.7010264045724
 20
150.4899468488211
 30
0.0
 11
196.1010264045725
 21
150.5186529732569
 31
0.0
  0
LINE
  5
393
330
1F
100
AcDbEntity
  8
1
  6
Continuous
 62
     7
370
     9
100
AcDbLine
 10
195.7010264045724
 20
150.4899468488211
 30
0.0
 11
195.7010264045724
 21
151.1605482556293
 31
0.0
  0
LINE
  5
394
330
1F
100
AcDbEntity
  8
1
  6
Continuous
 62
     7
370
     9
100
AcDbLine
 10
195.7010264045724
 20
149.5024750331863
 30
0.0
 11
196.1010264045725
 21
150.050224099883
 31
0.0
  0
LINE
  5
395
330
1F
100
AcDbEntity
  8
1
  6
Continuous
 62
     7
370
     9
100
AcDbLine
 10
196.1010264045725
 20
147.0036866395263
 30
0.0
 11
196.6010264045725
 21
147.0036866395263
 31
0.0
  0
LINE
  5
396
330
1F
100
AcDbEntity
  8
1
  6
Continuous
 62
     7
370
     9
100
AcDbLine
 10
195.7010264045725
 20
178.9663595441596
 30
0.0
 11
195.7010264045725
 21
176.1048982458662
 31
0.0
  0
LINE
  5
397
330
1F
100
AcDbEntity
  8
1
  6
Continuous
 62
     7
370
     9
100
AcDbLine
 10
196.1010264045725
 20
179.6275692368583
 30
0.0
 11
196.1010264045725
 21
162.8036866395262
 31
0.0
  0
LINE
  5
398
330
1F
100
AcDbEntity
  8
1
  6
Continuous
 62
     7
370
     9
100
AcDbLine
 10
196.1010264045725
 20
162.8036866395262
 30
0.0
 11
196.1010264045725
 21
179.7536866395263
 31
0.0
  0
LINE
  5
399
330
1F
100
AcDbEntity
  8
1
  6
Continuous
 62
     7
370
     9
100
AcDbLine
 10
195.7010264045725
 20
174.4468250234232
 30
0.0
 11
196.1010264045725
 21
173.9004114665059
 31
0.0
  0
LINE
  5
39A
330
1F
100
AcDbEntity
  8
1
  6
Continuous
 62
     7
370
     9
100
AcDbLine
 10
195.7010264045725
 20
173.316333323075
 30
0.0
 11
195.7010264045725
 21
172.5621313562113
 31
0.0
  0
LINE
  5
39B
330
1F
100
AcDbEntity
  8
1
  6
Continuous
 62
     7
370
     9
100
AcDbLine
 10
196.1010264045725
 20
172.0276886274226
 30
0.0
 11
195.7010264045725
 21
172.5621313562113
 31
0.0
  0
LINE
  5
39C
330
1F
100
AcDbEntity
  8
1
  6
Continuous
 62
     7
370
     9
100
AcDbLine
 10
196.1010264045725
 20
173.3641380022324
 30
0.0
 11
195.7010264045725
 21
173.316333323075
 31
0.0
  0
LINE
  5
39D
330
1F
100
AcDbEntity
  8
1
  6
Continuous
 62
     7
370
     9
100
AcDbLine
 10
195.7010264045725
 20
176.1048982458662
 30
0.0
 11
196.1010264045725
 21
175.5571491791696
 31
0.0
  0
LINE
  5
39E
330
1F
100
AcDbEntity
  8
1
  6
Continuous
 62
     7
370
     9
100
AcDbLine
 10
195.7010264045725
 20
175.1174264302313
 30
0.0
 11
196.1010264045725
 21
175.0887203057957
 31
0.0
  0
LINE
  5
39F
330
1F
100
AcDbEntity
  8
1
  6
Continuous
 62
     7
370
     9
100
AcDbLine
 10
195.7010264045725
 20
175.1174264302313
 30
0.0
 11
195.7010264045725
 21
174.4468250234232
 31
0.0
  0
LINE
  5
3A0
330
1F
100
AcDbEntity
  8
1
  6
Continuous
 62
     7
370
     9
100
AcDbLine
 10
196.1010264045725
 20
165.4948082633629
 30
0.0
 11
195.7010264045725
 21
165.9328604539249
 31
0.0
  0
LINE
  5
3A1
330
1F
100
AcDbEntity
  8
1
  6
Continuous
 62
     7
370
     9
100
AcDbLine
 10
196.1010264045725
 20
167.7835836883302
 30
0.0
 11
195.7010264045725
 21
168.2633132693483
 31
0.0
  0
LINE
  5
3A2
330
1F
100
AcDbEntity
  8
1
  6
Continuous
 62
     7
370
     9
100
AcDbLine
 10
195.7010264045725
 20
166.8447319681837
 30
0.0
 11
195.7010264045725
 21
165.9328604539249
 31
0.0
  0
LINE
  5
3A3
330
1F
100
AcDbEntity
  8
1
  6
Continuous
 62
     7
370
     9
100
AcDbLine
 10
195.7010264045725
 20
166.8447319681837
 30
0.0
 11
196.1010264045725
 21
167.1106486779466
 31
0.0
  0
LINE
  5
3A4
330
1F
100
AcDbEntity
  8
1
  6
Continuous
 62
     7
370
     9
100
AcDbLine
 10
195.7010264045725
 20
169.139335839676
 30
0.0
 11
195.7010264045725
 21
168.2633132693483
 31
0.0
  0
LINE
  5
3A5
330
1F
100
AcDbEntity
  8
1
  6
Continuous
 62
     7
370
     9
100
AcDbLine
 10
195.7010264045725
 20
169.139335839676
 30
0.0
 11
196.1010264045725
 21
169.3358996495672
 31
0.0
  0
LINE
  5
3A6
330
1F
100
AcDbEntity
  8
1
  6
Continuous
 62
     7
370
     9
100
AcDbLine
 10
195.7010264045725
 20
171.3106235061816
 30
0.0
 11
195.7010264045725
 21
170.4875006626555
 31
0.0
  0
LINE
  5
3A7
330
1F
100
AcDbEntity
  8
1
  6
Continuous
 62
     7
370
     9
100
AcDbLine
 10
196.1010264045725
 20
169.9754310817916
 30
0.0
 11
195.7010264045725
 21
170.4875006626555
 31
0.0
  0
LINE
  5
3A8
330
1F
100
AcDbEntity
  8
1
  6
Continuous
 62
     7
370
     9
100
AcDbLine
 10
195.7010264045725
 20
171.3106235061816
 30
0.0
 11
196.1010264045725
 21
171.4340085252297
 31
0.0
  0
LINE
  5
3A9
330
1F
100
AcDbEntity
  8
1
  6
Continuous
 62
     7
370
     9
100
AcDbLine
 10
195.7010264045724
 20
161.1358995330625
 30
0.0
 11
195.7010264045724
 21
162.8036866395262
 31
0.0
  0
LINE
  5
3AA
330
1F
100
AcDbEntity
  8
1
  6
Continuous
 62
     7
370
     9
100
AcDbLine
 10
195.7010264045724
 20
158.7626413108688
 30
0.0
 11
195.7010264045724
 21
159.6745128251276
 31
0.0
  0
LINE
  5
3AB
330
1F
100
AcDbEntity
  8
1
  6
Continuous
 62
     7
370
     9
100
AcDbLine
 10
195.7010264045724
 20
158.7626413108688
 30
0.0
 11
196.1010264045725
 21
158.496724601106
 31
0.0
  0
LINE
  5
3AC
330
1F
100
AcDbEntity
  8
1
  6
Continuous
 62
     7
370
     9
100
AcDbLine
 10
196.1010264045725
 20
160.1125650156897
 30
0.0
 11
195.7010264045724
 21
159.6745128251276
 31
0.0
  0
LINE
  5
3AD
330
1F
100
AcDbEntity
  8
1
  6
Continuous
 62
     7
370
     9
100
AcDbLine
 10
195.7010264045724
 20
161.1358995330625
 30
0.0
 11
196.1010264045725
 21
160.8058056897078
 31
0.0
  0
LINE
  5
3AE
330
1F
100
AcDbEntity
  8
1
  6
Continuous
 62
     7
370
     9
100
AcDbLine
 10
195.7010264045725
 20
164.4714737459901
 30
0.0
 11
195.7010264045724
 21
162.8036866395262
 31
0.0
  0
LINE
  5
3AF
330
1F
100
AcDbEntity
  8
1
  6
Continuous
 62
     7
370
     9
100
AcDbLine
 10
195.7010264045725
 20
164.4714737459901
 30
0.0
 11
196.1010264045725
 21
164.8015675893448
 31
0.0
  0
LINE
  5
3B0
330
1F
100
AcDbEntity
  8
1
  6
Continuous
 62
     7
370
     9
100
AcDbLine
 10
195.7010264045725
 20
179.6479284830149
 30
0.0
 11
195.7010264045725
 21
179.4223955046269
 31
0.0
  0
LINE
  5
3B1
330
1F
100
AcDbEntity
  8
1
  6
Continuous
 62
     7
370
     9
100
AcDbLine
 10
195.7010264045725
 20
180.0016434144279
 30
0.0
 11
195.7010264045725
 21
179.9041943683649
 31
0.0
  0
LINE
  5
3B2
330
1F
100
AcDbEntity
  8
1
  6
Continuous
 62
     7
370
     9
100
AcDbLine
 10
196.1010264045725
 20
178.717347035099
 30
0.0
 11
195.7010264045725
 21
178.9663595441596
 31
0.0
  0
LINE
  5
3B3
330
1F
100
AcDbEntity
  8
1
  6
Continuous
 62
     7
370
     9
100
AcDbLine
 10
196.1010264045725
 20
178.9336777418734
 30
0.0
 11
195.7010264045725
 21
179.4223955046269
 31
0.0
  0
LINE
  5
3B4
330
1F
100
AcDbEntity
  8
1
  6
Continuous
 62
     7
370
     9
100
AcDbLine
 10
196.1010264045725
 20
179.3333234249007
 30
0.0
 11
195.7010264045725
 21
179.6479284830149
 31
0.0
  0
LINE
  5
3B5
330
1F
100
AcDbEntity
  8
1
  6
Continuous
 62
     7
370
     9
100
AcDbLine
 10
196.1010264045725
 20
179.4548888430159
 30
0.0
 11
195.7010264045725
 21
179.9041943683649
 31
0.0
  0
LINE
  5
3B6
330
1F
100
AcDbEntity
  8
1
  6
Continuous
 62
     7
370
     9
100
AcDbLine
 10
196.1010264045725
 20
179.6275692368583
 30
0.0
 11
195.7010264045725
 21
180.0016434144279
 31
0.0
  0
LINE
  5
3B7
330
1F
100
AcDbEntity
  8
1
  6
Continuous
 62
     7
370
     9
100
AcDbLine
 10
195.7010264045725
 20
180.0536866395262
 30
0.0
 11
196.1010264045725
 21
179.6275692368583
 31
0.0
  0
LINE
  5
3B8
330
1F
100
AcDbEntity
  8
1
  6
Continuous
 62
     7
370
     9
100
AcDbLine
 10
196.1010264045725
 20
179.4548888430159
 30
0.0
 11
195.9464638316197
 21
179.4548888430159
 31
0.0
  0
LINE
  5
3B9
330
1F
100
AcDbEntity
  8
1
  6
Continuous
 62
     7
370
     9
100
AcDbLine
 10
196.1010264045725
 20
178.9336777418734
 30
0.0
 11
195.7535246544147
 21
178.9336777418734
 31
0.0
  0
LINE
  5
3BA
330
1F
100
AcDbEntity
  8
1
  6
Continuous
 62
     7
370
     9
100
AcDbLine
 10
195.8010264045724
 20
180.0536866395262
 30
0.0
 11
196.1010264045725
 21
179.7536866395263
 31
0.0
  0
LINE
  5
3BB
330
1F
100
AcDbEntity
  8
1
  6
Continuous
 62
     7
370
     9
100
AcDbLine
 10
196.1010264045725
 20
178.6036866395263
 30
0.0
 11
196.6010264045725
 21
178.6036866395263
 31
0.0
  0
MTEXT
  5
3BC
330
1F
100
AcDbEntity
  8
1
  6
Continuous
 62
     7
370
     9
100
AcDbMText
 10
209.5929710726604
 20
159.5519995927538
 30
0.0
 40
2.199999999999989
 41
1.758811999999991
 46
2.199999999999989
 71
     1
 72
     1
  1
{\fＭＳ ゴシック;\T0.750000;4}
 11
-1.608122649676637E-16
 21
-1.0
 31
0.0
 73
     1
 44
1.0
1001
ACAD
1000
ACAD_MTEXT_DEFINED_HEIGHT_BEGIN
1070
    46
1040
2.199999999999989
1000
ACAD_MTEXT_DEFINED_HEIGHT_END
  0
MTEXT
  5
3BD
330
1F
100
AcDbEntity
  8
1
  6
Continuous
 62
     7
370
     9
100
AcDbMText
 10
209.5371463200939
 20
154.905182084065
 30
0.0
 40
2.199999999999989
 41
0.362383999999998
 46
2.199999999999989
 71
     1
 72
     1
  1
{\fＭＳ ゴシック;\T0.750000;.}
 11
-1.608122649676637E-16
 21
-1.0
 31
0.0
 73
     1
 44
1.0
1001
ACAD
1000
ACAD_MTEXT_DEFINED_HEIGHT_BEGIN
1070
    46
1040
2.199999999999989
1000
ACAD_MTEXT_DEFINED_HEIGHT_END
  0
MTEXT
  5
3BE
330
1F
100
AcDbEntity
  8
1
  6
Continuous
 62
     7
370
     9
100
AcDbMText
 10
209.5371463200938
 20
154.4796281256453
 30
0.0
 40
2.199999999999989
 41
1.649471999999991
 46
2.199999999999989
 71
     1
 72
     1
  1
{\fＭＳ ゴシック;\T0.750000;8}
 11
-1.608122649676637E-16
 21
-1.0
 31
0.0
 73
     1
 44
1.0
1001
ACAD
1000
ACAD_MTEXT_DEFINED_HEIGHT_BEGIN
1070
    46
1040
2.199999999999989
1000
ACAD_MTEXT_DEFINED_HEIGHT_END
  0
MTEXT
  5
3BF
330
1F
100
AcDbEntity
  8
1
  6
Continuous
 62
     7
370
     9
100
AcDbMText
 10
209.5209666574936
 20
156.1984433647526
 30
0.0
 40
2.199999999999989
 41
1.615107999999992
 46
2.199999999999989
 71
     1
 72
     1
  1
{\fＭＳ ゴシック;\T0.750000;2}
 11
-1.608122649676637E-16
 21
-1.0
 31
0.0
 73
     1
 44
1.0
1001
ACAD
1000
ACAD_MTEXT_DEFINED_HEIGHT_BEGIN
1070
    46
1040
2.199999999999989
1000
ACAD_MTEXT_DEFINED_HEIGHT_END
  0
MTEXT
  5
3C0
330
1F
100
AcDbEntity
  8
1
  6
Continuous
 62
     7
370
     9
100
AcDbMText
 10
209.5729015104794
 20
172.7453958729403
 30
0.0
 40
2.199999999999989
 41
1.743191999999991
 46
2.199999999999989
 71
     1
 72
     1
  1
{\fＭＳ ゴシック;\T0.750000;C}
 11
-1.608122649676637E-16
 21
-1.0
 31
0.0
 73
     1
 44
1.0
1001
ACAD
1000
ACAD_MTEXT_DEFINED_HEIGHT_BEGIN
1070
    46
1040
2.199999999999989
1000
ACAD_MTEXT_DEFINED_HEIGHT_END
  0
MTEXT
  5
3C1
330
1F
100
AcDbEntity
  8
1
  6
Continuous
 62
     7
370
     9
100
AcDbMText
 10
209.5929710726604
 20
162.300997680615
 30
0.0
 40
2.199999999999989
 41
1.649471999999991
 46
2.199999999999989
 71
     1
 72
     1
  1
{\fＭＳ ゴシック;\T0.750000;8}
 11
-1.608122649676637E-16
 21
-1.0
 31
0.0
 73
     1
 44
1.0
1001
ACAD
1000
ACAD_MTEXT_DEFINED_HEIGHT_BEGIN
1070
    46
1040
2.199999999999989
1000
ACAD_MTEXT_DEFINED_HEIGHT_END
  0
MTEXT
  5
3C2
330
1F
100
AcDbEntity
  8
1
  6
Continuous
 62
     7
370
     9
100
AcDbMText
 10
209.5729015104794
 20
166.3985106527314
 30
0.0
 40
2.199999999999989
 41
3.147034114223983
 46
2.199999999999989
 71
     1
 72
     1
  1
{\fＭＳ ゴシック;\T0.855848;16}
 11
-1.608122649676637E-16
 21
-1.0
 31
0.0
 73
     1
 44
1.0
1001
ACAD
1000
ACAD_MTEXT_DEFINED_HEIGHT_BEGIN
1070
    46
1040
2.199999999999989
1000
ACAD_MTEXT_DEFINED_HEIGHT_END
  0
ELLIPSE
  5
3C3
330
1F
100
AcDbEntity
  8
1
  6
Continuous
 62
     7
370
     9
100
AcDbEllipse
 10
204.3010264045724
 20
143.7078266634414
 30
0.0
 11
-1.700000000000031
 21
5.492851553070896E-15
 31
0.0
210
0.0
220
0.0
230
1.0
 40
0.4999998956693926
 41
0.0
 42
6.283185307179586
  0
ELLIPSE
  5
3C4
330
1F
100
AcDbEntity
  8
1
  6
Continuous
 62
     7
370
     9
100
AcDbEllipse
 10
204.3010264045724
 20
147.1719281012171
 30
0.0
 11
-2.0
 21
6.462178297730347E-15
 31
0.0
210
0.0
220
0.0
230
1.0
 40
0.5
 41
3.14159265358979
 42
6.283185307179586
  0
LINE
  5
3C5
330
1F
100
AcDbEntity
  8
1
  6
Continuous
 62
     7
370
     9
100
AcDbLine
 10
138.4401276983349
 20
144.9887456848183
 30
0.0
 11
136.5809076780372
 21
148.1876987817117
 31
0.0
  0
LINE
  5
3C6
330
1F
100
AcDbEntity
  8
1
  6
Continuous
 62
     7
370
     9
100
AcDbLine
 10
138.3817662803782
 20
144.9548262388648
 30
0.0
 11
136.5225462600804
 21
148.1537793357582
 31
0.0
  0
LINE
  5
3C7
330
1F
100
AcDbEntity
  8
1
  6
Continuous
 62
     7
370
     9
100
AcDbLine
 10
138.2913959072728
 20
144.9023033034449
 30
0.0
 11
136.432175886975
 21
148.1012564003383
 31
0.0
  0
LINE
  5
3C8
330
1F
100
AcDbEntity
  8
1
  6
Continuous
 62
     7
370
     9
100
AcDbLine
 10
138.1707755355365
 20
144.8321991777528
 30
0.0
 11
136.3115555152388
 21
148.0311522746462
 31
0.0
  0
LINE
  5
3C9
330
1F
100
AcDbEntity
  8
1
  6
Continuous
 62
     7
370
     9
100
AcDbLine
 10
138.0222529035015
 20
144.7458783588526
 30
0.0
 11
136.1630328832038
 21
147.9448314557461
 31
0.0
  0
LINE
  5
3CA
330
1F
100
AcDbEntity
  8
1
  6
Continuous
 62
     7
370
     9
100
AcDbLine
 10
137.8487188352584
 20
144.6450209832961
 30
0.0
 11
135.9894988149607
 21
147.8439740801895
 31
0.0
  0
LINE
  5
3CB
330
1F
100
AcDbEntity
  8
1
  6
Continuous
 62
     7
370
     9
100
AcDbLine
 10
136.6071775621185
 20
148.2029667437404
 30
0.0
 11
138.4663975824162
 21
145.004013646847
 31
0.0
  0
LINE
  5
3CC
330
1F
100
AcDbEntity
  8
1
  6
Continuous
 62
     7
370
     9
100
AcDbLine
 10
138.3577705762058
 20
144.5938915022098
 30
0.0
 11
135.4181920547361
 21
142.8854190511254
 31
0.0
  0
LINE
  5
3CD
330
1F
100
AcDbEntity
  8
1
  6
Continuous
 62
     7
370
     9
100
AcDbLine
 10
138.4663975824162
 20
145.004013646847
 30
0.0
 11
135.008069910099
 21
142.9940460573359
 31
0.0
  0
LINE
  5
3CE
330
1F
100
AcDbEntity
  8
1
  6
Continuous
 62
     7
370
     9
100
AcDbLine
 10
137.2138558938308
 20
144.2760409279168
 30
0.0
 11
135.354635873533
 21
147.4749940248102
 31
0.0
  0
LINE
  5
3CF
330
1F
100
AcDbEntity
  8
1
  6
Continuous
 62
     7
370
     9
100
AcDbLine
 10
136.9778868394038
 20
144.1388965632222
 30
0.0
 11
135.1186668191061
 21
147.3378496601156
 31
0.0
  0
LINE
  5
3D0
330
1F
100
AcDbEntity
  8
1
  6
Continuous
 62
     7
370
     9
100
AcDbLine
 10
137.6535509740535
 20
144.5315901251747
 30
0.0
 11
135.7943309537557
 21
147.730543222068
 31
0.0
  0
LINE
  5
3D1
330
1F
100
AcDbEntity
  8
1
  6
Continuous
 62
     7
370
     9
100
AcDbLine
 10
137.4405480403049
 20
144.4077935871159
 30
0.0
 11
135.5813280200071
 21
147.6067466840094
 31
0.0
  0
LINE
  5
3D2
330
1F
100
AcDbEntity
  8
1
  6
Continuous
 62
     7
370
     9
100
AcDbLine
 10
135.6129083563273
 20
147.625101061756
 30
0.0
 11
135.325693501496
 21
148.1192797169478
 31
0.0
  0
LINE
  5
3D3
330
1F
100
AcDbEntity
  8
1
  6
Continuous
 62
     7
370
     9
100
AcDbLine
 10
134.096913502969
 20
146.7469281012171
 30
0.0
 11
133.8111229694995
 21
147.2419318255083
 31
0.0
  0
LINE
  5
3D4
330
1F
100
AcDbEntity
  8
1
  6
Continuous
 62
     7
370
     9
100
AcDbLine
 10
135.4181920547361
 20
142.8854190511254
 30
0.0
 11
135.008069910099
 21
142.9940460573359
 31
0.0
  0
LINE
  5
3D5
330
1F
100
AcDbEntity
  8
1
  6
Continuous
 62
     7
370
     9
100
AcDbLine
 10
135.0343397941803
 20
143.0093140193646
 30
0.0
 11
133.1751197738825
 21
146.208267116258
 31
0.0
  0
LINE
  5
3D6
330
1F
100
AcDbEntity
  8
1
  6
Continuous
 62
     7
370
     9
100
AcDbLine
 10
135.0927012121371
 20
143.0432334653182
 30
0.0
 11
133.2334811918393
 21
146.2421865622115
 31
0.0
  0
LINE
  5
3D7
330
1F
100
AcDbEntity
  8
1
  6
Continuous
 62
     7
370
     9
100
AcDbLine
 10
135.1830715852424
 20
143.095756400738
 30
0.0
 11
133.3238515649447
 21
146.2947094976315
 31
0.0
  0
LINE
  5
3D8
330
1F
100
AcDbEntity
  8
1
  6
Continuous
 62
     7
370
     9
100
AcDbLine
 10
135.3036919569787
 20
143.1658605264301
 30
0.0
 11
133.4444719366809
 21
146.3648136233236
 31
0.0
  0
LINE
  5
3D9
330
1F
100
AcDbEntity
  8
1
  6
Continuous
 62
     7
370
     9
100
AcDbLine
 10
135.4522145890137
 20
143.2521813453303
 30
0.0
 11
133.5929945687159
 21
146.4511344422237
 31
0.0
  0
LINE
  5
3DA
330
1F
100
AcDbEntity
  8
1
  6
Continuous
 62
     7
370
     9
100
AcDbLine
 10
135.6257486572568
 20
143.3530387208868
 30
0.0
 11
133.7665286369591
 21
146.5519918177802
 31
0.0
  0
LINE
  5
3DB
330
1F
100
AcDbEntity
  8
1
  6
Continuous
 62
     7
370
     9
100
AcDbLine
 10
135.8209165184618
 20
143.4664695790083
 30
0.0
 11
133.961696498164
 21
146.6654226759017
 31
0.0
  0
LINE
  5
3DC
330
1F
100
AcDbEntity
  8
1
  6
Continuous
 62
     7
370
     9
100
AcDbLine
 10
133.1488498898013
 20
146.1929991542293
 30
0.0
 11
135.008069910099
 21
142.9940460573359
 31
0.0
  0
LINE
  5
3DD
330
1F
100
AcDbEntity
  8
1
  6
Continuous
 62
     7
370
     9
100
AcDbLine
 10
136.2606115986845
 20
143.7220187762661
 30
0.0
 11
134.4013915783867
 21
146.9209718731595
 31
0.0
  0
LINE
  5
3DE
330
1F
100
AcDbEntity
  8
1
  6
Continuous
 62
     7
370
     9
100
AcDbLine
 10
136.4965806531114
 20
143.8591631409607
 30
0.0
 11
134.6373606328137
 21
147.0581162378541
 31
0.0
  0
LINE
  5
3DF
330
1F
100
AcDbEntity
  8
1
  6
Continuous
 62
     7
370
     9
100
AcDbLine
 10
136.6071775621185
 20
148.2029667437404
 30
0.0
 11
133.1488498898013
 21
146.1929991542293
 31
0.0
  0
LINE
  5
3E0
330
1F
100
AcDbEntity
  8
1
  6
Continuous
 62
     7
370
     9
100
AcDbLine
 10
136.0339194522104
 20
143.590266117067
 30
0.0
 11
134.1746994319126
 21
146.7892192139604
 31
0.0
  0
LINE
  5
3E1
330
1F
100
AcDbEntity
  8
1
  6
Continuous
 62
     7
370
     9
100
AcDbLine
 10
134.8780137259599
 20
147.1979829489848
 30
0.0
 11
136.7372337462576
 21
143.9990298520915
 31
0.0
  0
LINE
  5
3E2
330
1F
100
AcDbEntity
  8
1
  6
Continuous
 62
     7
370
     9
100
AcDbLine
 10
136.5650859037546
 20
148.171928101217
 30
0.0
 11
133.1009842886169
 21
146.171928101217
 31
0.0
  0
LINE
  5
3E3
330
1F
100
AcDbEntity
  8
1
  6
Continuous
 62
     7
370
     9
100
AcDbLine
 10
138.3577705762058
 20
144.5938915022098
 30
0.0
 11
138.4663975824162
 21
145.004013646847
 31
0.0
  0
LINE
  5
3E4
330
1F
100
AcDbEntity
  8
1
  6
Continuous
 62
     7
370
     9
100
AcDbLine
 10
143.6080350961895
 20
160.8036873054104
 30
0.0
 11
147.3080350961895
 21
160.8036873054105
 31
0.0
  0
LINE
  5
3E5
330
1F
100
AcDbEntity
  8
1
  6
Continuous
 62
     7
370
     9
100
AcDbLine
 10
147.3080350961895
 20
160.9015742728201
 30
0.0
 11
143.6080350961895
 21
160.9015742728201
 31
0.0
  0
LINE
  5
3E6
330
1F
100
AcDbEntity
  8
1
  6
Continuous
 62
     7
370
     9
100
AcDbLine
 10
147.3080350961895
 20
161.0060992128121
 30
0.0
 11
143.6080350961895
 21
161.0060992128121
 31
0.0
  0
LINE
  5
3E7
330
1F
100
AcDbEntity
  8
1
  6
Continuous
 62
     7
370
     9
100
AcDbLine
 10
147.3080350961895
 20
160.834071799386
 30
0.0
 11
143.6080350961895
 21
160.834071799386
 31
0.0
  0
LINE
  5
3E8
330
1F
100
AcDbEntity
  8
1
  6
Continuous
 62
     7
370
     9
100
AcDbLine
 10
143.6080350961895
 20
164.8036873054104
 30
0.0
 11
147.3080350961895
 21
164.8036873054105
 31
0.0
  0
LINE
  5
3E9
330
1F
100
AcDbEntity
  8
1
  6
Continuous
 62
     7
370
     9
100
AcDbLine
 10
147.3080350961895
 20
161.1456121603003
 30
0.0
 11
143.6080350961895
 21
161.1456121603003
 31
0.0
  0
LINE
  5
3EA
330
1F
100
AcDbEntity
  8
1
  6
Continuous
 62
     7
370
     9
100
AcDbLine
 10
147.3080350961895
 20
161.3173976544556
 30
0.0
 11
143.6080350961895
 21
161.3173976544556
 31
0.0
  0
LINE
  5
3EB
330
1F
100
AcDbEntity
  8
1
  6
Continuous
 62
     7
370
     9
100
AcDbLine
 10
147.3080350961895
 20
161.5181120860373
 30
0.0
 11
143.6080350961895
 21
161.5181120860373
 31
0.0
  0
LINE
  5
3EC
330
1F
100
AcDbEntity
  8
1
  6
Continuous
 62
     7
370
     9
100
AcDbLine
 10
147.3080350961895
 20
161.743848776944
 30
0.0
 11
143.6080350961895
 21
161.743848776944
 31
0.0
  0
LINE
  5
3ED
330
1F
100
AcDbEntity
  8
1
  6
Continuous
 62
     7
370
     9
100
AcDbLine
 10
147.3080350961895
 20
161.9902140192589
 30
0.0
 11
143.6080350961895
 21
161.9902140192589
 31
0.0
  0
LINE
  5
3EE
330
1F
100
AcDbEntity
  8
1
  6
Continuous
 62
     7
370
     9
100
AcDbLine
 10
147.3080350961895
 20
162.2524125937765
 30
0.0
 11
143.6080350961895
 21
162.2524125937765
 31
0.0
  0
LINE
  5
3EF
330
1F
100
AcDbEntity
  8
1
  6
Continuous
 62
     7
370
     9
100
AcDbLine
 10
147.3080350961895
 20
162.5253411034903
 30
0.0
 11
143.6080350961895
 21
162.5253411034903
 31
0.0
  0
LINE
  5
3F0
330
1F
100
AcDbEntity
  8
1
  6
Continuous
 62
     7
370
     9
100
AcDbLine
 10
147.3080350961895
 20
164.4617624505206
 30
0.0
 11
143.6080350961895
 21
164.4617624505206
 31
0.0
  0
LINE
  5
3F1
330
1F
100
AcDbEntity
  8
1
  6
Continuous
 62
     7
370
     9
100
AcDbLine
 10
147.3080350961895
 20
164.2899769563653
 30
0.0
 11
143.6080350961895
 21
164.2899769563653
 31
0.0
  0
LINE
  5
3F2
330
1F
100
AcDbEntity
  8
1
  6
Continuous
 62
     7
370
     9
100
AcDbLine
 10
147.3080350961895
 20
164.0892625247836
 30
0.0
 11
143.6080350961895
 21
164.0892625247836
 31
0.0
  0
LINE
  5
3F3
330
1F
100
AcDbEntity
  8
1
  6
Continuous
 62
     7
370
     9
100
AcDbLine
 10
147.3080350961895
 20
163.8635258338768
 30
0.0
 11
143.6080350961895
 21
163.8635258338768
 31
0.0
  0
LINE
  5
3F4
330
1F
100
AcDbEntity
  8
1
  6
Continuous
 62
     7
370
     9
100
AcDbLine
 10
147.3080350961895
 20
163.617160591562
 30
0.0
 11
143.6080350961895
 21
163.617160591562
 31
0.0
  0
LINE
  5
3F5
330
1F
100
AcDbEntity
  8
1
  6
Continuous
 62
     7
370
     9
100
AcDbLine
 10
147.3080350961895
 20
163.3549620170444
 30
0.0
 11
143.6080350961895
 21
163.3549620170444
 31
0.0
  0
LINE
  5
3F6
330
1F
100
AcDbEntity
  8
1
  6
Continuous
 62
     7
370
     9
100
AcDbLine
 10
147.3080350961895
 20
163.0820335073306
 30
0.0
 11
143.6080350961895
 21
163.0820335073306
 31
0.0
  0
LINE
  5
3F7
330
1F
100
AcDbEntity
  8
1
  6
Continuous
 62
     7
370
     9
100
AcDbLine
 10
143.6080350961895
 20
162.8036873054104
 30
0.0
 11
147.3080350961895
 21
162.8036873054105
 31
0.0
  0
LINE
  5
3F8
330
1F
100
AcDbEntity
  8
1
  6
Continuous
 62
     7
370
     9
100
AcDbLine
 10
147.3080350961895
 20
164.7733028114349
 30
0.0
 11
143.6080350961895
 21
164.7733028114349
 31
0.0
  0
LINE
  5
3F9
330
1F
100
AcDbEntity
  8
1
  6
Continuous
 62
     7
370
     9
100
AcDbLine
 10
147.3080350961895
 20
164.7058003380008
 30
0.0
 11
143.6080350961895
 21
164.7058003380008
 31
0.0
  0
LINE
  5
3FA
330
1F
100
AcDbEntity
  8
1
  6
Continuous
 62
     7
370
     9
100
AcDbLine
 10
147.3080350961895
 20
164.6012753980088
 30
0.0
 11
143.6080350961895
 21
164.6012753980088
 31
0.0
  0
LINE
  5
3FB
330
1F
100
AcDbEntity
  8
1
  6
Continuous
 62
     7
370
     9
100
AcDbLine
 10
143.6080350961895
 20
164.8036873054104
 30
0.0
 11
143.6080350961895
 21
160.8036873054104
 31
0.0
  0
LINE
  5
3FC
330
1F
100
AcDbEntity
  8
1
  6
Continuous
 62
     7
370
     9
100
AcDbLine
 10
143.6080350961895
 20
161.9536873054105
 30
0.0
 11
143.0364540292507
 21
161.9536873054105
 31
0.0
  0
LINE
  5
3FD
330
1F
100
AcDbEntity
  8
1
  6
Continuous
 62
     7
370
     9
100
AcDbLine
 10
143.6080350961895
 20
163.6536873054104
 30
0.0
 11
143.0364540292507
 21
163.6536873054104
 31
0.0
  0
LINE
  5
3FE
330
1F
100
AcDbEntity
  8
1
  6
Continuous
 62
     7
370
     9
100
AcDbLine
 10
147.3080350961895
 20
164.8036873054105
 30
0.0
 11
147.3080350961895
 21
160.8036873054105
 31
0.0
  0
LINE
  5
3FF
330
1F
100
AcDbEntity
  8
1
  6
Continuous
 62
     7
370
     9
100
AcDbLine
 10
147.6080350961895
 20
161.1036873054105
 30
0.0
 11
147.3080350961895
 21
160.8036873054105
 31
0.0
  0
LINE
  5
400
330
1F
100
AcDbEntity
  8
1
  6
Continuous
 62
     7
370
     9
100
AcDbLine
 10
147.6080350961895
 20
164.5036873054104
 30
0.0
 11
147.6080350961895
 21
161.1036873054105
 31
0.0
  0
LINE
  5
401
330
1F
100
AcDbEntity
  8
1
  6
Continuous
 62
     7
370
     9
100
AcDbLine
 10
147.6080350961895
 20
164.5036873054104
 30
0.0
 11
147.3080350961895
 21
164.8036873054105
 31
0.0
  0
LINE
  5
402
330
1F
100
AcDbEntity
  8
1
  6
Continuous
 62
     7
370
     9
100
AcDbLine
 10
205.1144996907242
 20
148.0854735588599
 30
0.0
 11
205.1144996907242
 21
144.8811795648575
 31
0.0
  0
LINE
  5
403
330
1F
100
AcDbEntity
  8
1
  6
Continuous
 62
     7
370
     9
100
AcDbLine
 10
205.360864933039
 20
148.0199761973738
 30
0.0
 11
205.360864933039
 21
144.8156822033713
 31
0.0
  0
LINE
  5
404
330
1F
100
AcDbEntity
  8
1
  6
Continuous
 62
     7
370
     9
100
AcDbLine
 10
205.5866016239457
 20
147.9379725443363
 30
0.0
 11
205.5866016239457
 21
144.7336785503339
 31
0.0
  0
LINE
  5
405
330
1F
100
AcDbEntity
  8
1
  6
Continuous
 62
     7
370
     9
100
AcDbLine
 10
205.7873160555274
 20
147.8410587075763
 30
0.0
 11
205.7873160555274
 21
144.6367647135738
 31
0.0
  0
LINE
  5
406
330
1F
100
AcDbEntity
  8
1
  6
Continuous
 62
     7
370
     9
100
AcDbLine
 10
205.9591015496827
 20
147.7311210046882
 30
0.0
 11
205.9591015496827
 21
144.5268270106856
 31
0.0
  0
LINE
  5
407
330
1F
100
AcDbEntity
  8
1
  6
Continuous
 62
     7
370
     9
100
AcDbLine
 10
202.3010264045724
 20
147.1719281012171
 30
0.0
 11
202.3010264045724
 21
143.9676341072148
 31
0.0
  0
LINE
  5
408
330
1F
100
AcDbEntity
  8
1
  6
Continuous
 62
     7
370
     9
100
AcDbLine
 10
204.0226802026525
 20
148.1621961699588
 30
0.0
 11
204.0226802026525
 21
144.9579021759563
 31
0.0
  0
LINE
  5
409
330
1F
100
AcDbEntity
  8
1
  6
Continuous
 62
     7
370
     9
100
AcDbLine
 10
203.7497516929386
 20
148.1331897971557
 30
0.0
 11
203.7497516929386
 21
144.9288958031532
 31
0.0
  0
LINE
  5
40A
330
1F
100
AcDbEntity
  8
1
  6
Continuous
 62
     7
370
     9
100
AcDbLine
 10
203.487553118421
 20
148.0854735588599
 30
0.0
 11
203.487553118421
 21
144.8811795648575
 31
0.0
  0
LINE
  5
40B
330
1F
100
AcDbEntity
  8
1
  6
Continuous
 62
     7
370
     9
100
AcDbLine
 10
203.2411878761062
 20
148.0199761973738
 30
0.0
 11
203.2411878761062
 21
144.8156822033713
 31
0.0
  0
LINE
  5
40C
330
1F
100
AcDbEntity
  8
1
  6
Continuous
 62
     7
370
     9
100
AcDbLine
 10
203.0154511851995
 20
147.9379725443363
 30
0.0
 11
203.0154511851995
 21
144.7336785503339
 31
0.0
  0
LINE
  5
40D
330
1F
100
AcDbEntity
  8
1
  6
Continuous
 62
     7
370
     9
100
AcDbLine
 10
202.8147367536178
 20
147.8410587075763
 30
0.0
 11
202.8147367536178
 21
144.6367647135738
 31
0.0
  0
LINE
  5
40E
330
1F
100
AcDbEntity
  8
1
  6
Continuous
 62
     7
370
     9
100
AcDbLine
 10
202.6429512594625
 20
147.7311210046882
 30
0.0
 11
202.6429512594625
 21
144.5268270106856
 31
0.0
  0
LINE
  5
40F
330
1F
100
AcDbEntity
  8
1
  6
Continuous
 62
     7
370
     9
100
AcDbLine
 10
202.5034383119743
 20
147.6102992480064
 30
0.0
 11
202.5034383119743
 21
144.4060052540039
 31
0.0
  0
LINE
  5
410
330
1F
100
AcDbEntity
  8
1
  6
Continuous
 62
     7
370
     9
100
AcDbLine
 10
202.3989133719823
 20
147.4809450955922
 30
0.0
 11
202.3989133719823
 21
144.2766511015897
 31
0.0
  0
LINE
  5
411
330
1F
100
AcDbEntity
  8
1
  6
Continuous
 62
     7
370
     9
100
AcDbLine
 10
202.3314108985481
 20
147.3455762788842
 30
0.0
 11
202.3314108985481
 21
144.1412822848819
 31
0.0
  0
LINE
  5
412
330
1F
100
AcDbEntity
  8
1
  6
Continuous
 62
     7
370
     9
100
AcDbLine
 10
204.3010264045726
 20
144.9676341072148
 30
0.0
 11
204.3010264045726
 21
148.1719281012174
 31
0.0
  0
LINE
  5
413
330
1F
100
AcDbEntity
  8
1
  6
Continuous
 62
     7
370
     9
100
AcDbLine
 10
204.5793726064927
 20
148.1621961699588
 30
0.0
 11
204.5793726064927
 21
144.9579021759563
 31
0.0
  0
LINE
  5
414
330
1F
100
AcDbEntity
  8
1
  6
Continuous
 62
     7
370
     9
100
AcDbLine
 10
204.8523011162066
 20
148.1331897971557
 30
0.0
 11
204.8523011162066
 21
144.9288958031532
 31
0.0
  0
CIRCLE
  5
415
330
1F
100
AcDbEntity
  8
1
  6
Continuous
 62
     7
370
     9
100
AcDbCircle
 10
221.9010264045723
 20
162.8036866395263
 30
0.0
 40
2.000000000000028
  0
CIRCLE
  5
416
330
1F
100
AcDbEntity
  8
1
  6
Continuous
 62
     7
370
     9
100
AcDbCircle
 10
221.9010264045723
 20
162.8036866395263
 30
0.0
 40
1.700000000000045
  0
LINE
  5
417
330
1F
100
AcDbEntity
  8
1
  6
Continuous
 62
     7
370
     9
100
AcDbLine
 10
199.80318283297
 20
144.5536866395262
 30
0.0
 11
202.30318283297
 21
144.5536866395262
 31
0.0
  0
LINE
  5
418
330
1F
100
AcDbEntity
  8
1
  6
Continuous
 62
     7
370
     9
100
AcDbLine
 10
199.30318283297
 20
145.3036866395262
 30
0.0
 11
199.30318283297
 21
145.0536866395262
 31
0.0
  0
ARC
  5
419
330
1F
100
AcDbEntity
  8
1
  6
Continuous
 62
     7
370
     9
100
AcDbCircle
 10
199.80318283297
 20
145.0536866395262
 30
0.0
 40
0.5
100
AcDbArc
 50
179.9999999999998
 51
269.9999999999998
  0
LINE
  5
41A
330
1F
100
AcDbEntity
  8
1
  6
Continuous
 62
     7
370
     9
100
AcDbLine
 10
197.4010264045724
 20
145.3036866395262
 30
0.0
 11
202.3010264045724
 21
145.3036866395262
 31
0.0
  0
LINE
  5
41B
330
1F
100
AcDbEntity
  8
1
  6
Continuous
 62
     7
370
     9
100
AcDbLine
 10
206.3010264045724
 20
145.3036866395262
 30
0.0
 11
210.3010264045723
 21
145.3036866395262
 31
0.0
  0
LINE
  5
41C
330
1F
100
AcDbEntity
  8
1
  6
Continuous
 62
     7
370
     9
100
AcDbLine
 10
206.270641910597
 20
147.3455762788842
 30
0.0
 11
206.270641910597
 21
144.1412822848819
 31
0.0
  0
LINE
  5
41D
330
1F
100
AcDbEntity
  8
1
  6
Continuous
 62
     7
370
     9
100
AcDbLine
 10
206.2031394371629
 20
147.4809450955922
 30
0.0
 11
206.2031394371629
 21
144.2766511015897
 31
0.0
  0
LINE
  5
41E
330
1F
100
AcDbEntity
  8
1
  6
Continuous
 62
     7
370
     9
100
AcDbLine
 10
206.0986144971709
 20
147.6102992480064
 30
0.0
 11
206.0986144971709
 21
144.4060052540039
 31
0.0
  0
LINE
  5
41F
330
1F
100
AcDbEntity
  8
1
  6
Continuous
 62
     7
370
     9
100
AcDbLine
 10
206.3010264045724
 20
147.1719281012171
 30
0.0
 11
206.3010264045724
 21
143.9676341072148
 31
0.0
  0
LINE
  5
420
330
1F
100
AcDbEntity
  8
25
  6
DASHDOT
 62
     7
370
     9
100
AcDbLine
 10
204.2930802353061
 20
178.2069650052461
 30
0.0
 11
204.2930802353061
 21
176.1323866719162
 31
0.0
  0
LINE
  5
421
330
1F
100
AcDbEntity
  8
25
  6
DASHDOT
 62
     7
370
     9
100
AcDbLine
 10
205.9955340819394
 20
177.179708342348
 30
0.0
 11
202.5358839980473
 21
177.179708342348
 31
0.0
  0
ELLIPSE
  5
422
330
1F
100
AcDbEntity
  8
1
  6
Continuous
 62
     7
370
     9
100
AcDbEllipse
 10
204.3010264045724
 20
177.179708342348
 30
0.0
 11
1.25
 21
0.0
 31
0.0
210
0.0
220
0.0
230
1.0
 40
0.467039104197238
 41
0.0
 42
6.283185307179586
  0
LINE
  5
423
330
1F
100
AcDbEntity
  8
1
  6
Continuous
 62
     7
370
     9
100
AcDbLine
 10
197.4010264045724
 20
180.3036866395262
 30
0.0
 11
210.3010264045723
 21
180.3036866395262
 31
0.0
  0
DIMENSION
  5
42E
330
1F
100
AcDbEntity
  8
25
  6
Continuous
 62
     7
370
     9
100
AcDbDimension
280
     0
  2
Dim1
 10
252.8446083235457
 20
154.0536866395291
 30
0.0
 11
251.1924142139604
 21
162.7589150197936
 31
0.0
 70
   160
  1
φ<>
 71
     5
 42
-1.0
 73
     0
 74
     0
 75
     0
 53
89.99999999999991
  3
Standard
100
AcDbAlignedDimension
 13
236.6558285718149
 23
171.5536866395233
 33
0.0
 14
236.6558285718149
 24
154.0536866395294
 34
0.0
 50
-89.99999999999991
100
AcDbRotatedDimension
1001
ACAD
1000
DSTYLE
1002
{
1070
   279
1070
     2
1070
   340
1005
424
1070
   140
1040
2.0
1070
    40
1040
1.0
1070
   147
1040
0.0
1070
    76
1070
     0
1070
    75
1070
     0
1070
   344
1005
51
1070
   343
1005
51
1070
   173
1070
     1
1070
   289
1070
     2
1070
   288
1070
     1
1070
    77
1070
     1
1070
   172
1070
     1
1070
   174
1070
     0
1070
    74
1070
     0
1070
    73
1070
     0
1070
   284
1070
     8
1070
    78
1070
     8
1070
    42
1040
2.0
1070
    44
1040
1.0
1070
    43
1040
10.0
1070
   271
1070
     2
1070
    41
1040
1.0
1002
}
  0
DIMENSION
  5
438
330
1F
100
AcDbEntity
  8
25
  6
Continuous
 62
     7
370
     9
100
AcDbDimension
280
     0
  2
Dim2
 10
258.9753086419752
 20
146.8036866395259
 30
0.0
 11
256.8764962681311
 21
162.7589150197936
 31
0.0
 70
   160
  1
φ<>
 71
     5
 42
-1.0
 73
     0
 74
     0
 75
     0
 53
89.99999999999991
  3
Standard
100
AcDbAlignedDimension
 13
228.8750264045723
 23
178.8036866395263
 33
0.0
 14
228.8750264045723
 24
146.8036866395263
 34
0.0
 50
-89.99999999999991
100
AcDbRotatedDimension
1001
ACAD
1000
DSTYLE
1002
{
1070
   279
1070
     2
1070
   340
1005
424
1070
   140
1040
2.0
1070
    40
1040
1.0
1070
   147
1040
0.0
1070
    76
1070
     0
1070
    75
1070
     0
1070
   344
1005
51
1070
   343
1005
51
1070
   173
1070
     1
1070
   289
1070
     2
1070
   288
1070
     1
1070
    77
1070
     1
1070
   172
1070
     1
1070
   174
1070
     0
1070
    74
1070
     0
1070
    73
1070
     0
1070
   284
1070
     8
1070
    78
1070
     8
1070
    42
1040
2.0
1070
    44
1040
1.0
1070
    43
1040
10.0
1070
   271
1070
     2
1070
    41
1040
1.0
1002
}
  0
DIMENSION
  5
442
330
1F
100
AcDbEntity
  8
25
  6
Continuous
 62
     7
370
     9
100
AcDbDimension
280
     0
  2
Dim3
 10
158.0326110033092
 20
145.3036866395267
 30
0.0
 11
156.5326110033092
 21
162.6401524041997
 31
0.0
 70
   160
  1
φ<>
 71
     5
 42
-1.0
 73
     0
 74
     0
 75
     0
 53
89.99999999999991
  3
Standard
100
AcDbAlignedDimension
 13
196.9010264045724
 23
180.3036866395262
 33
0.0
 14
196.9010264045724
 24
145.3036866395262
 34
0.0
 50
-89.99999999999991
100
AcDbRotatedDimension
1001
ACAD
1000
DSTYLE
1002
{
1070
   279
1070
     2
1070
   340
1005
424
1070
   140
1040
2.0
1070
    40
1040
1.0
1070
   147
1040
0.0
1070
    76
1070
     0
1070
    75
1070
     0
1070
   344
1005
51
1070
   343
1005
51
1070
   173
1070
     1
1070
   289
1070
     2
1070
   288
1070
     1
1070
    77
1070
     1
1070
   172
1070
     1
1070
   174
1070
     0
1070
    74
1070
     0
1070
    73
1070
     0
1070
   284
1070
     8
1070
    78
1070
     8
1070
    42
1040
2.0
1070
    44
1040
1.0
1070
    43
1040
10.0
1070
   271
1070
     2
1070
    41
1040
1.0
1002
}
  0
DIMENSION
  5
44C
330
1F
100
AcDbEntity
  8
25
  6
Continuous
 62
     7
370
     9
100
AcDbDimension
280
     0
  2
Dim4
 10
162.5326110033093
 20
146.8036866395264
 30
0.0
 11
161.0326110033093
 21
162.6401524041997
 31
0.0
 70
   160
  1
φ<>
 71
     5
 42
-1.0
 73
     0
 74
     0
 75
     0
 53
89.99999999999991
  3
Standard
100
AcDbAlignedDimension
 13
171.6511264045723
 23
178.8036866395263
 33
0.0
 14
171.6511264045723
 24
146.8036866395263
 34
0.0
 50
-89.99999999999991
100
AcDbRotatedDimension
1001
ACAD
1000
DSTYLE
1002
{
1070
   279
1070
     2
1070
   340
1005
424
1070
   140
1040
2.0
1070
    40
1040
1.0
1070
   147
1040
0.0
1070
    76
1070
     0
1070
    75
1070
     0
1070
   344
1005
51
1070
   343
1005
51
1070
   173
1070
     1
1070
   289
1070
     2
1070
   288
1070
     1
1070
    77
1070
     1
1070
   172
1070
     1
1070
   174
1070
     0
1070
    74
1070
     0
1070
    73
1070
     0
1070
   284
1070
     8
1070
    78
1070
     8
1070
    42
1040
2.0
1070
    44
1040
1.0
1070
    43
1040
10.0
1070
   271
1070
     2
1070
    41
1040
1.0
1002
}
  0
DIMENSION
  5
456
330
1F
100
AcDbEntity
  8
25
  6
Continuous
 62
     7
370
     9
100
AcDbDimension
280
     0
  2
Dim5
 10
229.2010264045732
 20
136.766487114223
 30
0.0
 11
231.1947764045723
 21
138.266487114223
 31
0.0
 70
   160
  1
<>
 71
     5
 42
-1.0
 73
     0
 74
     0
 75
     0
  3
Standard
100
AcDbAlignedDimension
 13
233.1885264045723
 23
150.5911866395263
 33
0.0
 14
229.2010264045724
 24
147.1036866395263
 34
0.0
 50
179.9999999999998
100
AcDbRotatedDimension
1001
ACAD
1000
DSTYLE
1002
{
1070
   279
1070
     2
1070
   340
1005
424
1070
   140
1040
2.0
1070
    40
1040
1.0
1070
   147
1040
0.0
1070
    76
1070
     0
1070
    75
1070
     0
1070
   344
1005
51
1070
   343
1005
51
1070
   173
1070
     1
1070
   289
1070
     2
1070
   288
1070
     1
1070
    77
1070
     1
1070
   172
1070
     1
1070
   174
1070
     0
1070
    74
1070
     0
1070
    73
1070
     0
1070
   284
1070
     8
1070
    78
1070
     8
1070
    42
1040
2.0
1070
    44
1040
1.0
1070
    43
1040
10.0
1070
   271
1070
     2
1070
    41
1040
1.0
1002
}
  0
DIMENSION
  5
460
330
1F
100
AcDbEntity
  8
25
  6
Continuous
 62
     7
370
     9
100
AcDbDimension
280
     0
  2
Dim6
 10
225.9010264045731
 20
136.7664871142231
 30
0.0
 11
218.6010264045723
 21
138.266487114223
 31
0.0
 70
   160
  1
<>
 71
     5
 42
-1.0
 73
     0
 74
     0
 75
     0
  3
Standard
100
AcDbAlignedDimension
 13
211.3010264045724
 23
146.0130257291922
 33
0.0
 14
225.9010264045723
 24
146.6015770719538
 34
0.0
 50
0.0000000000004461
100
AcDbRotatedDimension
1001
ACAD
1000
DSTYLE
1002
{
1070
   279
1070
     2
1070
   340
1005
424
1070
   140
1040
2.0
1070
    40
1040
1.0
1070
   147
1040
0.0
1070
    76
1070
     0
1070
    75
1070
     0
1070
   344
1005
51
1070
   343
1005
51
1070
   173
1070
     1
1070
   289
1070
     2
1070
   288
1070
     1
1070
    77
1070
     1
1070
   172
1070
     1
1070
   174
1070
     0
1070
    74
1070
     0
1070
    73
1070
     0
1070
   284
1070
     8
1070
    78
1070
     8
1070
    42
1040
2.0
1070
    44
1040
1.0
1070
    43
1040
10.0
1070
   271
1070
     2
1070
    41
1040
1.0
1002
}
  0
DIMENSION
  5
46A
330
1F
100
AcDbEntity
  8
25
  6
Continuous
 62
     7
370
     9
100
AcDbDimension
280
     0
  2
Dim7
 10
211.3010264045732
 20
136.766487114223
 30
0.0
 11
203.7010264045724
 21
138.266487114223
 31
0.0
 70
   160
  1
<>
 71
     5
 42
-1.0
 73
     0
 74
     0
 75
     0
  3
Standard
100
AcDbAlignedDimension
 13
196.1010264045725
 23
145.8536866395263
 33
0.0
 14
211.3010264045724
 24
146.0130257291922
 34
0.0
 50
-0.0000000000004285
100
AcDbRotatedDimension
1001
ACAD
1000
DSTYLE
1002
{
1070
   279
1070
     2
1070
   340
1005
424
1070
   140
1040
2.0
1070
    40
1040
1.0
1070
   147
1040
0.0
1070
    76
1070
     0
1070
    75
1070
     0
1070
   344
1005
51
1070
   343
1005
51
1070
   173
1070
     1
1070
   289
1070
     2
1070
   288
1070
     1
1070
    77
1070
     1
1070
   172
1070
     1
1070
   174
1070
     0
1070
    74
1070
     0
1070
    73
1070
     0
1070
   284
1070
     8
1070
    78
1070
     8
1070
    42
1040
2.0
1070
    44
1040
1.0
1070
    43
1040
10.0
1070
   271
1070
     2
1070
    41
1040
1.0
1002
}
  0
DIMENSION
  5
474
330
1F
100
AcDbEntity
  8
25
  6
Continuous
 62
     7
370
     9
100
AcDbDimension
280
     0
  2
Dim8
 10
229.2010264045732
 20
130.9769452979052
 30
0.0
 11
237.9510264045724
 21
132.4769452979051
 31
0.0
 70
   160
  1
<>
 71
     5
 42
-1.0
 73
     0
 74
     0
 75
     0
  3
Standard
100
AcDbAlignedDimension
 13
246.7010264045724
 23
162.8036866395263
 33
0.0
 14
229.2010264045724
 24
147.1036866395263
 34
0.0
 50
179.9999999999996
100
AcDbRotatedDimension
1001
ACAD
1000
DSTYLE
1002
{
1070
   279
1070
     2
1070
   340
1005
424
1070
   140
1040
2.0
1070
    40
1040
1.0
1070
   147
1040
0.0
1070
    76
1070
     0
1070
    75
1070
     0
1070
   344
1005
51
1070
   343
1005
51
1070
   173
1070
     1
1070
   289
1070
     2
1070
   288
1070
     1
1070
    77
1070
     1
1070
   172
1070
     1
1070
   174
1070
     0
1070
    74
1070
     0
1070
    73
1070
     0
1070
   284
1070
     8
1070
    78
1070
     8
1070
    42
1040
2.0
1070
    44
1040
1.0
1070
    43
1040
10.0
1070
   271
1070
     2
1070
    41
1040
1.0
1002
}
  0
DIMENSION
  5
47E
330
1F
100
AcDbEntity
  8
25
  6
Continuous
 62
     7
370
     9
100
AcDbDimension
280
     0
  2
Dim9
 10
196.1010264045732
 20
136.7664871142231
 30
0.0
 11
188.9510264045724
 21
138.2664871142231
 31
0.0
 70
   160
  1
<>
 71
     5
 42
-1.0
 73
     0
 74
     0
 75
     0
  3
Standard
100
AcDbAlignedDimension
 13
181.8010264045724
 23
146.8036866395262
 33
0.0
 14
196.1010264045725
 24
145.8536866395263
 34
0.0
 50
0.0000000000002278
100
AcDbRotatedDimension
1001
ACAD
1000
DSTYLE
1002
{
1070
   279
1070
     2
1070
   340
1005
424
1070
   140
1040
2.0
1070
    40
1040
1.0
1070
   147
1040
0.0
1070
    76
1070
     0
1070
    75
1070
     0
1070
   344
1005
51
1070
   343
1005
51
1070
   173
1070
     1
1070
   289
1070
     2
1070
   288
1070
     1
1070
    77
1070
     1
1070
   172
1070
     1
1070
   174
1070
     0
1070
    74
1070
     0
1070
    73
1070
     0
1070
   284
1070
     8
1070
    78
1070
     8
1070
    42
1040
2.0
1070
    44
1040
1.0
1070
    43
1040
10.0
1070
   271
1070
     2
1070
    41
1040
1.0
1002
}
  0
MTEXT
  5
47F
330
1F
100
AcDbEntity
  8
25
  6
Continuous
 62
     7
370
     9
100
AcDbMText
 10
199.4163732807587
 20
128.7649235631915
 30
0.0
 40
2.0
 41
11.26637814756
 46
2.0
 71
     1
 72
     1
  1
{\fＭＳ ゴシック;\T0.776247;53.5(∞)}
 73
     1
 44
1.0
1001
ACAD
1000
ACAD_MTEXT_DEFINED_HEIGHT_BEGIN
1070
    46
1040
2.0
1000
ACAD_MTEXT_DEFINED_HEIGHT_END
  0
MTEXT
  5
480
330
1F
100
AcDbEntity
  8
25
  6
Continuous
 62
     7
370
     9
100
AcDbMText
 10
206.1482018096195
 20
133.2931567141947
 30
0.0
 40
2.0
 41
8.491400120800002
 46
2.0
 71
     1
 72
     1
  1
{\fＭＳ ゴシック;\T0.905752;(1.2m)}
 73
     1
 44
1.0
1001
ACAD
1000
ACAD_MTEXT_DEFINED_HEIGHT_BEGIN
1070
    46
1040
2.0
1000
ACAD_MTEXT_DEFINED_HEIGHT_END
  0
MTEXT
  5
481
330
1F
100
AcDbEntity
  8
25
  6
Continuous
 62
     7
370
     9
100
AcDbMText
 10
234.9912654038671
 20
130.5315288479883
 30
0.0
 40
2.0
 41
11.33803464054
 46
2.0
 71
     1
 72
     1
  1
{\fＭＳ ゴシック;\T0.867209;(IN AIR)}
 73
     1
 44
1.0
1001
ACAD
1000
ACAD_MTEXT_DEFINED_HEIGHT_BEGIN
1070
    46
1040
2.0
1000
ACAD_MTEXT_DEFINED_HEIGHT_END
  0
MTEXT
  5
482
330
1F
100
AcDbEntity
  8
25
  6
Continuous
 62
     7
370
     9
100
AcDbMText
 10
230.76631922811
 20
192.4414413611436
 30
0.0
 40
1.5
 41
16.9372275
 46
1.5
 71
     7
 72
     1
  1
{\fＭＳ ゴシック;\T0.750000;アイリスリング}
 73
     1
 44
1.0
1001
ACAD
1000
ACAD_MTEXT_DEFINED_HEIGHT_BEGIN
1070
    46
1040
1.5
1000
ACAD_MTEXT_DEFINED_HEIGHT_END
  0
MTEXT
  5
483
330
1F
100
AcDbEntity
  8
25
  6
Continuous
 62
     7
370
     9
100
AcDbMText
 10
242.4136880441028
 20
186.7075539256264
 30
0.0
 40
1.5
 41
7.4245522677
 46
1.5
 71
     7
 72
     1
  1
{\fＭＳ ゴシック;\T0.772570;1-32UNF}
 73
     1
 44
1.0
1001
ACAD
1000
ACAD_MTEXT_DEFINED_HEIGHT_BEGIN
1070
    46
1040
1.5
1000
ACAD_MTEXT_DEFINED_HEIGHT_END
  0
MTEXT
  5
484
330
1F
100
AcDbEntity
  8
25
  6
Continuous
 62
     7
370
     9
100
AcDbMText
 10
192.3985046264908
 20
194.6872698198654
 30
0.0
 40
1.5
 41
21.79416
 46
1.5
 71
     9
 72
     1
  1
{\fＭＳ ゴシック;\T0.750000;インデックスリング}
 73
     1
 44
1.0
1001
ACAD
1000
ACAD_MTEXT_DEFINED_HEIGHT_BEGIN
1070
    46
1040
1.5
1000
ACAD_MTEXT_DEFINED_HEIGHT_END
  0
MTEXT
  5
485
330
1F
100
AcDbEntity
  8
25
  6
Continuous
 62
     7
370
     9
100
AcDbMText
 10
181.7299081545714
 20
191.0037899330397
 30
0.0
 40
1.5
 41
19.17718875
 46
1.5
 71
     9
 72
     1
  1
{\fＭＳ ゴシック;\T0.750000;フォーカスリング}
 73
     1
 44
1.0
1001
ACAD
1000
ACAD_MTEXT_DEFINED_HEIGHT_BEGIN
1070
    46
1040
1.5
1000
ACAD_MTEXT_DEFINED_HEIGHT_END
  0
MTEXT
  5
486
330
1F
100
AcDbEntity
  8
25
  6
Continuous
 62
     7
370
     9
100
AcDbMText
 10
166.99529549598
 20
186.4416280827505
 30
0.0
 40
1.5
 41
11.69384870595
 46
1.5
 71
     9
 72
     1
  1
{\fＭＳ ゴシック;\T0.764137;M30.5 P=0.5}
 73
     1
 44
1.0
1001
ACAD
1000
ACAD_MTEXT_DEFINED_HEIGHT_BEGIN
1070
    46
1040
1.5
1000
ACAD_MTEXT_DEFINED_HEIGHT_END
  0
INSERT
  5
487
330
1F
100
AcDbEntity
  8
25
  6
Continuous
 62
     7
370
     9
100
AcDbBlockReference
  2
MARK_OPEN
 10
202.4526981781278
 20
180.3036866395262
 30
0.0
 50
304.2487058540963
  0
POLYLINE
  5
488
330
1F
100
AcDbEntity
  8
25
  6
Continuous
 62
     7
370
     9
100
AcDb2dPolyline
 66
     1
 10
0.0
 20
0.0
 30
0.0
  0
VERTEX
  5
489
330
488
100
AcDbEntity
  8
25
  6
Continuous
 62
     7
370
     9
100
AcDbVertex
100
AcDb2dVertex
 10
202.4526981781278
 20
180.3036866395262
 30
0.0
  0
VERTEX
  5
48A
330
488
100
AcDbEntity
  8
25
  6
Continuous
 62
     7
370
     9
100
AcDbVertex
100
AcDb2dVertex
 10
193.0322595023911
 20
194.1401257721701
 30
0.0
  0
VERTEX
  5
48B
330
488
100
AcDbEntity
  8
25
  6
Continuous
 62
     7
370
     9
100
AcDbVertex
100
AcDb2dVertex
 10
180.571508160503
 20
194.1401257721701
 30
0.0
  0
SEQEND
  5
48C
330
488
100
AcDbEntity
  8
25
  6
Continuous
 62
     7
370
     9
  0
INSERT
  5
48D
330
1F
100
AcDbEntity
  8
25
  6
Continuous
 62
     7
370
     9
100
AcDbBlockReference
  2
MARK_OPEN
 10
172.9471427354557
 20
177.8036866395262
 30
0.0
 50
304.9999999999999
  0
POLYLINE
  5
48E
330
1F
100
AcDbEntity
  8
25
  6
Continuous
 62
     7
370
     9
100
AcDb2dPolyline
 66
     1
 10
0.0
 20
0.0
 30
0.0
  0
VERTEX
  5
48F
330
48E
100
AcDbEntity
  8
25
  6
Continuous
 62
     7
370
     9
100
AcDbVertex
100
AcDb2dVertex
 10
172.9471427354557
 20
177.8036866395262
 30
0.0
  0
VERTEX
  5
490
330
48E
100
AcDbEntity
  8
25
  6
Continuous
 62
     7
370
     9
100
AcDbVertex
100
AcDb2dVertex
 10
167.251635350348
 20
185.9377141589528
 30
0.0
  0
VERTEX
  5
491
330
48E
100
AcDbEntity
  8
25
  6
Continuous
 62
     7
370
     9
100
AcDbVertex
100
AcDb2dVertex
 10
157.8836917636638
 20
185.9377141589528
 30
0.0
  0
SEQEND
  5
492
330
48E
100
AcDbEntity
  8
25
  6
Continuous
 62
     7
370
     9
  0
INSERT
  5
493
330
1F
100
AcDbEntity
  8
25
  6
Continuous
 62
     7
370
     9
100
AcDbBlockReference
  2
MARK_OPEN
 10
189.9056120203231
 20
180.0536866395262
 30
0.0
 50
304.3548504758978
  0
POLYLINE
  5
494
330
1F
100
AcDbEntity
  8
25
  6
Continuous
 62
     7
370
     9
100
AcDb2dPolyline
 66
     1
 10
0.0
 20
0.0
 30
0.0
  0
VERTEX
  5
495
330
494
100
AcDbEntity
  8
25
  6
Continuous
 62
     7
370
     9
100
AcDbVertex
100
AcDb2dVertex
 10
189.9056120203231
 20
180.0536866395262
 30
0.0
  0
VERTEX
  5
496
330
494
100
AcDbEntity
  8
25
  6
Continuous
 62
     7
370
     9
100
AcDbVertex
100
AcDb2dVertex
 10
182.7189770087025
 20
190.5672651065552
 30
0.0
  0
VERTEX
  5
497
330
494
100
AcDbEntity
  8
25
  6
Continuous
 62
     7
370
     9
100
AcDbVertex
100
AcDb2dVertex
 10
170.2582256668144
 20
190.5672651065552
 30
0.0
  0
SEQEND
  5
498
330
494
100
AcDbEntity
  8
25
  6
Continuous
 62
     7
370
     9
  0
INSERT
  5
499
330
1F
100
AcDbEntity
  8
25
  6
Continuous
 62
     7
370
     9
100
AcDbBlockReference
  2
MARK_OPEN
 10
218.4985264045725
 20
180.0536866395262
 30
0.0
 50
224.9999999999997
  0
POLYLINE
  5
49A
330
1F
100
AcDbEntity
  8
25
  6
Continuous
 62
     7
370
     9
100
AcDb2dPolyline
 66
     1
 10
0.0
 20
0.0
 30
0.0
  0
VERTEX
  5
49B
330
49A
100
AcDbEntity
  8
25
  6
Continuous
 62
     7
370
     9
100
AcDbVertex
100
AcDb2dVertex
 10
218.4985264045725
 20
180.0536866395262
 30
0.0
  0
VERTEX
  5
49C
330
49A
100
AcDbEntity
  8
25
  6
Continuous
 62
     7
370
     9
100
AcDbVertex
100
AcDb2dVertex
 10
230.4353487126485
 20
191.9905089476022
 30
0.0
  0
VERTEX
  5
49D
330
49A
100
AcDbEntity
  8
25
  6
Continuous
 62
     7
370
     9
100
AcDbVertex
100
AcDb2dVertex
 10
240.3451385308434
 20
191.9905089476022
 30
0.0
  0
SEQEND
  5
49E
330
49A
100
AcDbEntity
  8
25
  6
Continuous
 62
     7
370
     9
  0
INSERT
  5
49F
330
1F
100
AcDbEntity
  8
25
  6
Continuous
 62
     7
370
     9
100
AcDbBlockReference
  2
MARK_OPEN
 10
231.5510264045724
 20
175.5036866395263
 30
0.0
 50
225.0
  0
POLYLINE
  5
4A0
330
1F
100
AcDbEntity
  8
25
  6
Continuous
 62
     7
370
     9
100
AcDb2dPolyline
 66
     1
 10
0.0
 20
0.0
 30
0.0
  0
VERTEX
  5
4A1
330
4A0
100
AcDbEntity
  8
25
  6
Continuous
 62
     7
370
     9
100
AcDbVertex
100
AcDb2dVertex
 10
231.5510264045724
 20
175.5036866395263
 30
0.0
  0
VERTEX
  5
4A2
330
4A0
100
AcDbEntity
  8
25
  6
Continuous
 62
     7
370
     9
100
AcDbVertex
100
AcDb2dVertex
 10
242.0441207199251
 20
185.9967809548791
 30
0.0
  0
VERTEX
  5
4A3
330
4A0
100
AcDbEntity
  8
25
  6
Continuous
 62
     7
370
     9
100
AcDbVertex
100
AcDb2dVertex
 10
249.8890036531998
 20
185.9967809548791
 30
0.0
  0
SEQEND
  5
4A4
330
4A0
100
AcDbEntity
  8
25
  6
Continuous
 62
     7
370
     9
  0
INSERT
  5
4A5
330
1F
100
AcDbEntity
  8
25
  6
Continuous
 62
     7
370
     9
100
AcDbBlockReference
  2
MARK_OPEN
 10
125.8080350961857
 20
144.5536866395262
 30
0.0
 50
129.9999999999999
  0
POLYLINE
  5
4A6
330
1F
100
AcDbEntity
  8
25
  6
Continuous
 62
     7
370
     9
100
AcDb2dPolyline
 66
     1
 10
0.0
 20
0.0
 30
0.0
  0
VERTEX
  5
4A7
330
4A6
100
AcDbEntity
  8
25
  6
Continuous
 62
     7
370
     9
100
AcDbVertex
100
AcDb2dVertex
 10
125.8080350961857
 20
144.5536866395262
 30
0.0
  0
VERTEX
  5
4A8
330
4A6
100
AcDbEntity
  8
25
  6
Continuous
 62
     7
370
     9
100
AcDbVertex
100
AcDb2dVertex
 10
133.062652215014
 20
135.9079706252672
 30
0.0
  0
VERTEX
  5
4A9
330
4A6
100
AcDbEntity
  8
25
  6
Continuous
 62
     7
370
     9
100
AcDbVertex
100
AcDb2dVertex
 10
147.068397197455
 20
135.9079706252672
 30
0.0
  0
SEQEND
  5
4AA
330
4A6
100
AcDbEntity
  8
25
  6
Continuous
 62
     7
370
     9
  0
HATCH
  5
4AB
330
1F
100
AcDbEntity
  8
1
  6
Continuous
 62
     7
370
     9
100
AcDbHatch
 10
0.0
 20
0.0
 30
0.0
210
0.0
220
0.0
230
1.0
  2
SOLID
 70
     1
 71
     0
 91
        1
 92
        0
 93
        1
 72
     2
 10
208.3010264045724
 20
166.8714970566587
 40
0.25
 50
0.0
 51
360.0
 73
     1
 97
        0
 75
     0
 76
     1
 98
        0
  0
HATCH
  5
4AC
330
1F
100
AcDbEntity
  8
1
  6
Continuous
 62
     7
370
     9
100
AcDbHatch
 10
0.0
 20
0.0
 30
0.0
210
0.0
220
0.0
230
1.0
  2
SOLID
 70
     1
 71
     0
 91
        1
 92
        0
 93
        1
 72
     2
 10
208.3010264045724
 20
163.0076866395264
 40
0.25
 50
0.0
 51
360.0
 73
     1
 97
        0
 75
     0
 76
     1
 98
        0
  0
HATCH
  5
4AD
330
1F
100
AcDbEntity
  8
1
  6
Continuous
 62
     7
370
     9
100
AcDbHatch
 10
0.0
 20
0.0
 30
0.0
210
0.0
220
0.0
230
1.0
  2
SOLID
 70
     1
 71
     0
 91
        1
 92
        0
 93
        1
 72
     2
 10
208.3010264045724
 20
160.0836866395264
 40
0.25
 50
0.0
 51
360.0
 73
     1
 97
        0
 75
     0
 76
     1
 98
        0
  0
HATCH
  5
4AE
330
1F
100
AcDbEntity
  8
1
  6
Continuous
 62
     7
370
     9
100
AcDbHatch
 10
0.0
 20
0.0
 30
0.0
210
0.0
220
0.0
230
1.0
  2
SOLID
 70
     1
 71
     0
 91
        2
 92
        0
 93
       10
 72
     2
 10
209.1010264045725
 20
157.7223895976416
 40
0.0999999999999943
 50
0.0
 51
89.99999999999991
 73
     1
 72
     1
 10
209.1010264045725
 20
157.8223895976416
 11
208.2260264045724
 21
157.8223895976415
 72
     2
 10
208.2260264045724
 20
157.7223895976416
 40
0.0999999999999943
 50
89.99999999999991
 51
179.9999999999998
 73
     1
 72
     1
 10
208.1260264045724
 20
157.7223895976416
 11
208.1260264045724
 21
156.8473895976416
 72
     2
 10
208.2260264045724
 20
156.8473895976416
 40
0.0999999999999943
 50
179.9999999999998
 51
270.0000000000001
 73
     1
 72
     1
 10
208.2260264045724
 20
156.7473895976415
 11
208.3760264045724
 21
156.7473895976415
 72
     2
 10
208.3760264045724
 20
156.8473895976416
 40
0.0999999999999943
 50
270.0000000000001
 51
360.0
 73
     1
 72
     1
 10
208.4760264045724
 20
156.8473895976416
 11
208.4760264045724
 21
157.4723895976416
 72
     1
 10
208.4760264045724
 20
157.4723895976416
 11
209.2010264045724
 21
157.4723895976416
 72
     1
 10
209.2010264045724
 20
157.4723895976416
 11
209.2010264045724
 21
157.7223895976416
 97
        0
 92
        0
 93
        1
 72
     2
 10
208.2260264045724
 20
157.7223895976416
 40
0.0999999999999943
 50
0.0
 51
360.0
 73
     1
 97
        0
 75
     0
 76
     1
 98
        0
  0
HATCH
  5
4AF
330
1F
100
AcDbEntity
  8
1
  6
Continuous
 62
     7
370
     9
100
AcDbHatch
 10
0.0
 20
0.0
 30
0.0
210
0.0
220
0.0
230
1.0
  2
SOLID
 70
     1
 71
     0
 91
        2
 92
        0
 93
        2
 72
     2
 10
209.1010264045725
 20
157.7223895976416
 40
0.0999999999999943
 50
0.0
 51
89.99999999999991
 73
     1
 72
     1
 10
209.1010264045725
 20
157.8223895976415
 11
209.2010264045724
 21
157.7223895976416
 97
        0
 92
        0
 93
       11
 72
     1
 10
209.2010264045724
 20
157.7223895976416
 11
209.2010264045724
 21
157.5723895976416
 72
     2
 10
209.1010264045725
 20
157.5723895976416
 40
0.0999999999999943
 50
0.0
 51
89.99999999999991
 73
     0
 72
     1
 10
209.1010264045725
 20
157.4723895976416
 11
208.4760264045724
 21
157.4723895976416
 72
     1
 10
208.4760264045724
 20
157.4723895976416
 11
208.4760264045724
 21
156.8473895976416
 72
     2
 10
208.3760264045724
 20
156.8473895976416
 40
0.0999999999999943
 50
0.0
 51
89.99999999999991
 73
     0
 72
     1
 10
208.3760264045724
 20
156.7473895976415
 11
208.2260264045724
 21
156.7473895976415
 72
     2
 10
208.2260264045724
 20
156.8473895976416
 40
0.0999999999999943
 50
89.9999999999999
 51
180.0000000000002
 73
     0
 72
     1
 10
208.1260264045724
 20
156.8473895976416
 11
208.1260264045724
 21
157.7223895976416
 72
     2
 10
208.2260264045724
 20
157.7223895976416
 40
0.0999999999999943
 50
180.0000000000002
 51
270.0000000000001
 73
     0
 72
     1
 10
208.2260264045724
 20
157.8223895976416
 11
209.1010264045725
 21
157.8223895976416
 72
     1
 10
209.1010264045725
 20
157.8223895976416
 11
209.2010264045724
 21
157.7223895976416
 97
        0
 75
     0
 76
     1
 98
        0
  0
HATCH
  5
4B0
330
1F
100
AcDbEntity
  8
1
  6
Continuous
 62
     7
370
     9
100
AcDbHatch
 10
0.0
 20
0.0
 30
0.0
210
0.0
220
0.0
230
1.0
  2
SOLID
 70
     1
 71
     0
 91
        1
 92
        0
 93
        1
 72
     2
 10
194.5010264045725
 20
162.8036866395262
 40
0.75
 50
0.0
 51
360.0
 73
     1
 97
        0
 75
     0
 76
     1
 98
        0
  0
HATCH
  5
4B1
330
1F
100
AcDbEntity
  8
1
  6
Continuous
 62
     7
370
     9
100
AcDbHatch
 10
0.0
 20
0.0
 30
0.0
210
0.0
220
0.0
230
1.0
  2
SOLID
 70
     1
 71
     0
 91
        1
 92
        0
 93
        1
 72
     2
 10
212.9010264045724
 20
162.8036866395262
 40
0.75
 50
0.0
 51
360.0
 73
     1
 97
        0
 75
     0
 76
     1
 98
        0
  0
MTEXT
  5
4B2
330
1F
100
AcDbEntity
  8
1
  6
Continuous
 62
     7
370
     9
100
AcDbMText
 10
200.6400891894955
 20
174.9846071577447
 30
0.0
 40
2.199999999999989
 41
0.8403559999999956
 46
2.199999999999989
 71
     1
 72
     1
  1
{\fＭＳ ゴシック;\T0.750000;1}
 11
-1.608122649676637E-16
 21
-1.0
 31
0.0
 73
     1
 44
1.0
1001
ACAD
1000
ACAD_MTEXT_DEFINED_HEIGHT_BEGIN
1070
    46
1040
2.199999999999989
1000
ACAD_MTEXT_DEFINED_HEIGHT_END
  0
MTEXT
  5
4B3
330
1F
100
AcDbEntity
  8
1
  6
Continuous
 62
     7
370
     9
100
AcDbMText
 10
200.6562688520958
 20
174.124007749257
 30
0.0
 40
2.199999999999989
 41
0.362383999999998
 46
2.199999999999989
 71
     1
 72
     1
  1
{\fＭＳ ゴシック;\T0.750000;.}
 11
-1.608122649676637E-16
 21
-1.0
 31
0.0
 73
     1
 44
1.0
1001
ACAD
1000
ACAD_MTEXT_DEFINED_HEIGHT_BEGIN
1070
    46
1040
2.199999999999989
1000
ACAD_MTEXT_DEFINED_HEIGHT_END
  0
MTEXT
  5
4B4
330
1F
100
AcDbEntity
  8
1
  6
Continuous
 62
     7
370
     9
100
AcDbMText
 10
200.6562688520957
 20
173.5243198276218
 30
0.0
 40
2.199999999999989
 41
1.615107999999992
 46
2.199999999999989
 71
     1
 72
     1
  1
{\fＭＳ ゴシック;\T0.750000;2}
 11
-1.608122649676637E-16
 21
-1.0
 31
0.0
 73
     1
 44
1.0
1001
ACAD
1000
ACAD_MTEXT_DEFINED_HEIGHT_BEGIN
1070
    46
1040
2.199999999999989
1000
ACAD_MTEXT_DEFINED_HEIGHT_END
  0
MTEXT
  5
4B5
330
1F
100
AcDbEntity
  8
1
  6
Continuous
 62
     7
370
     9
100
AcDbMText
 10
200.3180636746384
 20
163.9185805468245
 30
0.0
 40
2.199999999999989
 41
3.373919999999982
 46
2.199999999999989
 71
     1
 72
     1
  1
{\fＭＳ ゴシック;\T0.750000;∞}
 11
6.123233995736766E-17
 21
-1.0
 31
0.0
 73
     1
 44
1.0
1001
ACAD
1000
ACAD_MTEXT_DEFINED_HEIGHT_BEGIN
1070
    46
1040
2.199999999999989
1000
ACAD_MTEXT_DEFINED_HEIGHT_END
  0
LINE
  5
4B6
330
1F
100
AcDbEntity
  8
1
  6
Continuous
 62
     7
370
     9
100
AcDbLine
 10
185.7443416636554
 20
194.1401257721701
 30
0.0
 11
185.1866737295617
 21
194.1401257721701
 31
0.0
  0
LINE
  5
4B7
330
1F
100
AcDbEntity
  8
1
  6
Continuous
 62
     7
370
     9
100
AcDbLine
 10
180.571508160503
 20
194.1401257721701
 30
0.0
 11
178.6103229808414
 21
194.1401257721701
 31
0.0
  0
LINE
  5
4B8
330
1F
100
AcDbEntity
  8
1
  6
Continuous
 62
     7
370
     9
100
AcDbLine
 10
170.6459987072656
 20
190.5672651065552
 30
0.0
 11
168.7953673407916
 21
190.5672651065552
 31
0.0
  0
DIMENSION
  5
4C0
330
1F
100
AcDbEntity
  8
25
  6
Continuous
 62
     7
370
     9
100
AcDbDimension
280
     0
  2
Dim10
 10
118.8346496897447
 20
152.4898902495817
 30
0.0
 11
137.2185591401377
 21
182.3581517585689
 31
0.0
 70
   163
  1
<>
 71
     5
 42
-1.0
 73
     0
 74
     0
 75
     0
  3
Standard
100
AcDbDiametricDimension
 15
132.7814205026266
 25
173.117483029471
 35
0.0
 40
0.0
1001
ACAD
1000
DSTYLE
1002
{
1070
   340
1005
424
1070
   140
1040
2.0
1070
    40
1040
1.0
1070
   147
1040
0.0
1070
    76
1070
     1
1070
    75
1070
     1
1070
   344
1005
51
1070
   343
1005
51
1070
   173
1070
     1
1070
   289
1070
     2
1070
   288
1070
     1
1070
    77
1070
     1
1070
   172
1070
     1
1070
   174
1070
     0
1070
    74
1070
     0
1070
    73
1070
     0
1070
   284
1070
     8
1070
    78
1070
     8
1070
    42
1040
0.0
1070
    44
1040
0.0
1070
    43
1040
10.0
1070
   271
1070
     2
1070
    41
1040
2.0
1002
}
  0
INSERT
  5
4CA
330
1F
100
AcDbEntity
  8
0
100
AcDbBlockReference
  2
*G26
 10
0.0
 20
0.0
 30
0.0
  0
MTEXT
  5
4CB
330
1F
100
AcDbEntity
  8
25
  6
Continuous
 62
     7
370
     9
100
AcDbMText
 10
133.3077642771257
 20
137.5847706072726
 30
0.0
 40
1.5
 41
21.50448
 46
1.5
 71
     1
 72
     1
  1
{\fＭＳ ゴシック;\T0.750000;フォーカス制限ネジ}
 73
     1
 44
1.0
1001
ACAD
1000
ACAD_MTEXT_DEFINED_HEIGHT_BEGIN
1070
    46
1040
1.5
1000
ACAD_MTEXT_DEFINED_HEIGHT_END
  0
DIMENSION
  5
4D5
330
1F
100
AcDbEntity
  8
25
  6
Continuous
 62
     7
370
     9
100
AcDbDimension
280
     0
  2
Dim11
 10
171.4511264045731
 20
130.9644452979051
 30
0.0
 11
200.3260764045723
 21
132.464445297905
 31
0.0
 70
   160
  1
<>
 71
     5
 42
-1.0
 73
     0
 74
     0
 75
     0
  3
Standard
100
AcDbAlignedDimension
 13
229.2010264045724
 23
147.1036866395263
 33
0.0
 14
171.4511264045723
 24
136.1414871142231
 34
0.0
 50
179.9999999999999
100
AcDbRotatedDimension
1001
ACAD
1000
DSTYLE
1002
{
1070
   279
1070
     2
1070
   340
1005
424
1070
   140
1040
2.0
1070
    40
1040
1.0
1070
   147
1040
0.0
1070
    76
1070
     0
1070
    75
1070
     0
1070
   344
1005
51
1070
   343
1005
51
1070
   173
1070
     1
1070
   289
1070
     2
1070
   288
1070
     1
1070
    77
1070
     1
1070
   172
1070
     1
1070
   174
1070
     0
1070
    74
1070
     0
1070
    73
1070
     0
1070
   284
1070
     8
1070
    78
1070
     8
1070
    42
1040
2.0
1070
    44
1040
1.0
1070
    43
1040
10.0
1070
   271
1070
     2
1070
    41
1040
1.0
1002
}
  0
DIMENSION
  5
4DF
330
1F
100
AcDbEntity
  8
25
  6
Continuous
 62
     7
370
     9
100
AcDbDimension
280
     0
  2
Dim12
 10
233.1885264045727
 20
136.766487114223
 30
0.0
 11
241.8816872427983
 21
138.3106995884774
 31
0.0
 70
   160
  1
<>
 71
     5
 42
-1.0
 73
     0
 74
     0
 75
     0
  3
Standard
100
AcDbAlignedDimension
 13
237.2331788410025
 23
154.9911866395298
 33
0.0
 14
233.1885264045723
 24
150.5911866395263
 34
0.0
 50
179.9999999999998
100
AcDbRotatedDimension
1001
ACAD
1000
DSTYLE
1002
{
1070
   279
1070
     2
1070
   340
1005
424
1070
   140
1040
2.0
1070
    40
1040
1.0
1070
   147
1040
0.0
1070
    76
1070
     0
1070
    75
1070
     0
1070
   344
1005
51
1070
   343
1005
51
1070
   173
1070
     1
1070
   289
1070
     2
1070
   288
1070
     1
1070
    77
1070
     1
1070
   172
1070
     1
1070
   174
1070
     0
1070
    74
1070
     0
1070
    73
1070
     0
1070
   284
1070
     8
1070
    78
1070
     8
1070
    42
1040
2.0
1070
    44
1040
1.0
1070
    43
1040
10.0
1070
   271
1070
     2
1070
    41
1040
1.0
1002
}
  0
DIMENSION
  5
4E9
330
1F
100
AcDbEntity
  8
25
  6
Continuous
 62
     7
370
     9
100
AcDbDimension
280
     0
  2
Dim13
 10
229.2010264045731
 20
136.7664871142231
 30
0.0
 11
227.6003276939491
 21
134.8100137174212
 31
0.0
 70
   160
  1
<>
 71
     5
 42
-1.0
 73
     0
 74
     0
 75
     0
  3
Standard
100
AcDbAlignedDimension
 13
225.9010264045723
 23
146.6015770719538
 33
0.0
 14
229.2010264045724
 24
147.1036866395263
 34
0.0
 50
0.0000000000009869
100
AcDbRotatedDimension
1001
ACAD
1000
DSTYLE
1002
{
1070
   279
1070
     2
1070
   340
1005
424
1070
   140
1040
2.0
1070
    40
1040
1.0
1070
   147
1040
0.0
1070
    76
1070
     0
1070
    75
1070
     0
1070
   344
1005
51
1070
   343
1005
51
1070
   173
1070
     1
1070
   289
1070
     2
1070
   288
1070
     1
1070
    77
1070
     1
1070
   172
1070
     1
1070
   174
1070
     0
1070
    74
1070
     0
1070
    73
1070
     0
1070
   284
1070
     8
1070
    78
1070
     8
1070
    42
1040
2.0
1070
    44
1040
1.0
1070
    43
1040
10.0
1070
   271
1070
     2
1070
    41
1040
1.0
1002
}
  0
LINE
  5
4EA
330
1F
100
AcDbEntity
  8
21
  6
Continuous
 62
     7
370
     9
100
AcDbLine
 10
171.4511264045726
 20
134.111888243474
 30
0.0
 11
171.4511264045726
 21
144.8655786813587
 31
0.0
  0
LINE
  5
4EB
330
1F
100
AcDbEntity
  8
25
  6
DASHDOT
 62
     7
370
     9
100
AcDbLine
 10
247.2725267553622
 20
162.8036866395263
 30
0.0
 11
169.7010264045724
 21
162.8036866395263
 31
0.0
  0
LINE
  5
4EC
330
1F
100
AcDbEntity
  8
25
  6
Continuous
 62
     7
370
     9
100
AcDbLine
 10
246.7010264045724
 20
162.8036866395263
 30
0.0
 11
246.4010264045723
 21
162.5036866395264
 31
0.0
  0
LINE
  5
4ED
330
1F
100
AcDbEntity
  8
25
  6
Continuous
 62
     7
370
     9
100
AcDbLine
 10
246.7010264045724
 20
162.8036866395263
 30
0.0
 11
247.0010264045723
 21
162.5036866395264
 31
0.0
  0
LINE
  5
4EE
330
1F
100
AcDbEntity
  8
25
  6
Continuous
 62
     7
370
     9
100
AcDbLine
 10
246.7010264045724
 20
162.8036866395263
 30
0.0
 11
247.0010264045723
 21
163.1036866395263
 31
0.0
  0
LINE
  5
4EF
330
1F
100
AcDbEntity
  8
25
  6
Continuous
 62
     7
370
     9
100
AcDbLine
 10
246.7010264045724
 20
162.8036866395263
 30
0.0
 11
246.4010264045723
 21
163.1036866395263
 31
0.0
  0
ELLIPSE
  5
4F0
330
1F
100
AcDbEntity
  8
1
  6
Continuous
 62
     7
370
     9
100
AcDbEllipse
 10
204.3010264045724
 20
143.9676341072148
 30
0.0
 11
-2.0
 21
6.462178297730347E-15
 31
0.0
210
0.0
220
0.0
230
1.0
 40
0.5
 41
-3.141592653589787
 42
0.7259630388493483
  0
ELLIPSE
  5
4F1
330
1F
100
AcDbEntity
  8
1
  6
Continuous
 62
     7
370
     9
100
AcDbEllipse
 10
204.3010264045724
 20
143.9676341072148
 30
0.0
 11
-2.0
 21
6.462178297730347E-15
 31
0.0
210
0.0
220
0.0
230
1.0
 40
0.5
 41
2.418121746765437
 42
3.141592653589799
  0
VIEWPORT
  5
3F
330
1B
100
AcDbEntity
 67
     1
  8
0
100
AcDbViewport
 10
210.0
 20
148.5
 30
0.0
 40
420.0
 41
297.0
 68
     1
 69
     1
 12
210.0
 22
148.5
 13
0.0
 23
0.0
 14
0.5
 24
0.5
 15
0.5
 25
0.5
 16
0.0
 26
0.0
 36
1.0
 17
0.0
 27
0.0
 37
0.0
 42
50.0
 43
0.0
 44
0.0
 45
9.0
 50
0.0
 51
0.0
 72
   100
 90
   557152
  1

281
     0
 71
     1
 74
     0
110
0.0
120
0.0
130
0.0
111
1.0
121
0.0
131
0.0
112
0.0
122
1.0
132
0.0
 79
     0
146
0.0
170
     0
 61
     5
292
     1
282
     1
141
0.0
142
0.0
 63
   256
  0
ENDSEC
  0
SECTION
  2
OBJECTS
  0
DICTIONARY
  5
C
330
0
100
AcDbDictionary
281
     1
  3
ACAD_GROUP
350
D
  3
ACAD_LAYOUT
350
1A
  3
ACAD_MATERIAL
350
3B
  3
ACAD_MLEADERSTYLE
350
4F3
  3
ACAD_MLINESTYLE
350
17
  3
ACAD_PLOTSETTINGS
350
19
  3
ACAD_PLOTSTYLENAME
350
E
  3
ACAD_TABLESTYLE
350
4F2
  3
ACAD_VISUALSTYLE
350
2A
  0
DICTIONARY
  5
D
102
{ACAD_REACTORS
330
C
102
}
330
C
100
AcDbDictionary
281
     1
  0
DICTIONARY
  5
1A
102
{ACAD_REACTORS
330
C
102
}
330
C
100
AcDbDictionary
281
     1
  3
Layout1
350
1E
  3
Layout2
350
26
  3
Model
350
22
  0
DICTIONARY
  5
3B
102
{ACAD_REACTORS
330
C
102
}
330
C
100
AcDbDictionary
281
     1
  3
ByBlock
350
3D
  3
ByLayer
350
3C
  3
Global
350
3E
  0
DICTIONARY
  5
4F3
102
{ACAD_REACTORS
330
C
102
}
330
C
100
AcDbDictionary
281
     1
  0
DICTIONARY
  5
17
102
{ACAD_REACTORS
330
C
102
}
330
C
100
AcDbDictionary
281
     1
  3
Standard
350
18
  0
DICTIONARY
  5
19
102
{ACAD_REACTORS
330
C
102
}
330
C
100
AcDbDictionary
281
     1
  0
ACDBDICTIONARYWDFLT
  5
E
102
{ACAD_REACTORS
330
C
102
}
330
C
100
AcDbDictionary
281
     1
  3
Normal
350
F
100
AcDbDictionaryWithDefault
340
F
  0
DICTIONARY
  5
4F2
102
{ACAD_REACTORS
330
C
102
}
330
C
100
AcDbDictionary
281
     1
  0
DICTIONARY
  5
2A
102
{ACAD_REACTORS
330
C
102
}
330
C
100
AcDbDictionary
281
     1
  3
2dWireframe
350
2F
  3
3D Hidden
350
31
  3
3dWireframe
350
30
  3
Basic
350
32
  3
Brighten
350
36
  3
ColorChange
350
3A
  3
Conceptual
350
34
  3
Dim
350
35
  3
Facepattern
350
39
  3
Flat
350
2B
  3
FlatWithEdges
350
2C
  3
Gouraud
350
2D
  3
GouraudWithEdges
350
2E
  3
Linepattern
350
38
  3
Realistic
350
33
  3
Thicken
350
37
  0
LAYOUT
  5
1E
102
{ACAD_REACTORS
330
1A
102
}
330
1A
100
AcDbPlotSettings
  1

  2
none_device
  4

  6

 40
0.0
 41
0.0
 42
0.0
 43
0.0
 44
0.0
 45
0.0
 46
0.0
 47
0.0
 48
0.0
 49
0.0
140
0.0
141
0.0
142
1.0
143
1.0
 70
   688
 72
     0
 73
     0
 74
     5
  7

 75
    16
 76
     0
 77
     2
 78
   300
147
1.0
148
0.0
149
0.0
100
AcDbLayout
  1
Layout1
 70
     1
 71
     1
 10
0.0
 20
0.0
 11
420.0
 21
297.0
 12
0.0
 22
0.0
 32
0.0
 14
0.0
 24
0.0
 34
0.0
 15
420.0
 25
297.0
 35
0.0
146
0.0
 13
0.0
 23
0.0
 33
0.0
 16
1.0
 26
0.0
 36
0.0
 17
0.0
 27
1.0
 37
0.0
 76
     0
330
1B
331
3F
  0
LAYOUT
  5
26
102
{ACAD_REACTORS
330
1A
102
}
330
1A
100
AcDbPlotSettings
  1

  2
none_device
  4

  6

 40
0.0
 41
0.0
 42
0.0
 43
0.0
 44
0.0
 45
0.0
 46
0.0
 47
0.0
 48
0.0
 49
0.0
140
0.0
141
0.0
142
1.0
143
1.0
 70
   688
 72
     0
 73
     0
 74
     5
  7

 75
    16
 76
     0
 77
     2
 78
   300
147
1.0
148
0.0
149
0.0
100
AcDbLayout
  1
Layout2
 70
     1
 71
     2
 10
0.0
 20
0.0
 11
0.0
 21
0.0
 12
0.0
 22
0.0
 32
0.0
 14
0.0
 24
0.0
 34
0.0
 15
0.0
 25
0.0
 35
0.0
146
0.0
 13
0.0
 23
0.0
 33
0.0
 16
1.0
 26
0.0
 36
0.0
 17
0.0
 27
1.0
 37
0.0
 76
     0
330
23
  0
LAYOUT
  5
22
102
{ACAD_REACTORS
330
1A
102
}
330
1A
100
AcDbPlotSettings
  1

  2
none_device
  4

  6

 40
0.0
 41
0.0
 42
0.0
 43
0.0
 44
0.0
 45
0.0
 46
0.0
 47
0.0
 48
0.0
 49
0.0
140
0.0
141
0.0
142
1.0
143
1.0
 70
  1712
 72
     0
 73
     0
 74
     0
  7

 75
     0
 76
     0
 77
     2
 78
   300
147
1.0
148
0.0
149
0.0
100
AcDbLayout
  1
Model
 70
     1
 71
     0
 10
0.0
 20
0.0
 11
420.0
 21
297.0
 12
0.0
 22
0.0
 32
0.0
 14
105.4129228883565
 24
126.7649235631915
 34
0.0
 15
259.9753086419752
 25
196.1872698198654
 35
0.0
146
0.0
 13
0.0
 23
0.0
 33
0.0
 16
1.0
 26
0.0
 36
0.0
 17
0.0
 27
1.0
 37
0.0
 76
     0
330
1F
331
29
  0
MATERIAL
  5
3D
102
{ACAD_REACTORS
330
3B
102
}
330
3B
100
AcDbMaterial
  1
ByBlock
 72
     1
 94
      127
  0
MATERIAL
  5
3C
102
{ACAD_REACTORS
330
3B
102
}
330
3B
100
AcDbMaterial
  1
ByLayer
 72
     1
 94
      127
  0
MATERIAL
  5
3E
102
{ACAD_REACTORS
330
3B
102
}
330
3B
100
AcDbMaterial
  1
Global
 72
     1
 94
      127
  0
MLINESTYLE
  5
18
102
{ACAD_REACTORS
330
17
102
}
330
17
100
AcDbMlineStyle
  2
Standard
 70
     0
  3

 62
   256
 51
90.0
 52
90.0
 71
     2
 49
0.5
 62
   256
  6
BYLAYER
 49
-0.5
 62
   256
  6
BYLAYER
  0
ACDBPLACEHOLDER
  5
F
102
{ACAD_REACTORS
330
E
102
}
330
E
  0
VISUALSTYLE
  5
2F
102
{ACAD_REACTORS
330
2A
102
}
330
2A
100
AcDbVisualStyle
  2
2dWireframe
 70
     4
177
     2
291
     0
 71
     0
176
     1
 72
     2
176
     1
 73
     0
176
     1
 90
        0
176
     1
 40
-0.6
176
     1
 41
-30.0
176
     1
 62
     5
 63
     7
421
 16777215
176
     1
 74
     1
176
     1
 91
        4
176
     1
 64
     7
176
     1
 65
   257
176
     1
 75
     1
176
     1
175
     1
176
     1
 42
1.0
176
     1
 92
        0
176
     1
 66
   257
176
     1
 43
1.0
176
     1
 76
     1
176
     1
 77
     6
176
     1
 78
     2
176
     1
 67
     7
176
     1
 79
     5
176
     1
170
     0
176
     1
171
     0
176
     1
290
     0
176
     1
 93
        1
176
     1
 44
0.0
176
     1
173
     0
176
     1
  0
VISUALSTYLE
  5
31
102
{ACAD_REACTORS
330
2A
102
}
330
2A
100
AcDbVisualStyle
  2
3D Hidden
 70
     6
177
     2
291
     0
 71
     1
176
     1
 72
     2
176
     1
 73
     2
176
     1
 90
        0
176
     1
 40
-0.6
176
     1
 41
-30.0
176
     1
 62
     5
 63
     7
421
 16777215
176
     1
 74
     2
176
     1
 91
        2
176
     1
 64
     7
176
     1
 65
   257
176
     1
 75
     2
176
     1
175
     1
176
     1
 42
40.0
176
     1
 92
        0
176
     1
 66
   257
176
     1
 43
1.0
176
     1
 76
     1
176
     1
 77
     6
176
     1
 78
     2
176
     1
 67
     7
176
     1
 79
     3
176
     1
170
     0
176
     1
171
     0
176
     1
290
     0
176
     1
 93
        1
176
     1
 44
0.0
176
     1
173
     0
176
     1
  0
VISUALSTYLE
  5
30
102
{ACAD_REACTORS
330
2A
102
}
330
2A
100
AcDbVisualStyle
  2
3dWireframe
 70
     5
177
     2
291
     0
 71
     0
176
     1
 72
     2
176
     1
 73
     0
176
     1
 90
        0
176
     1
 40
-0.6
176
     1
 41
-30.0
176
     1
 62
     5
 63
     7
421
 16777215
176
     1
 74
     1
176
     1
 91
        4
176
     1
 64
     7
176
     1
 65
   257
176
     1
 75
     1
176
     1
175
     1
176
     1
 42
1.0
176
     1
 92
        0
176
     1
 66
   257
176
     1
 43
1.0
176
     1
 76
     1
176
     1
 77
     6
176
     1
 78
     2
176
     1
 67
     7
176
     1
 79
     5
176
     1
170
     0
176
     1
171
     0
176
     1
290
     0
176
     1
 93
        1
176
     1
 44
0.0
176
     1
173
     0
176
     1
  0
VISUALSTYLE
  5
32
102
{ACAD_REACTORS
330
2A
102
}
330
2A
100
AcDbVisualStyle
  2
Basic
 70
     7
177
     2
291
     1
 71
     1
176
     1
 72
     0
176
     1
 73
     1
176
     1
 90
        0
176
     1
 40
-0.6
176
     1
 41
-30.0
176
     1
 62
     5
 63
     7
421
 16777215
176
     1
 74
     0
176
     1
 91
        4
176
     1
 64
     7
176
     1
 65
   257
176
     1
 75
     1
176
     1
175
     1
176
     1
 42
1.0
176
     1
 92
        8
176
     1
 66
     7
176
     1
 43
1.0
176
     1
 76
     1
176
     1
 77
     6
176
     1
 78
     2
176
     1
 67
     7
176
     1
 79
     5
176
     1
170
     0
176
     1
171
     0
176
     1
290
     0
176
     1
 93
        1
176
     1
 44
0.0
176
     1
173
     0
176
     1
  0
VISUALSTYLE
  5
36
102
{ACAD_REACTORS
330
2A
102
}
330
2A
100
AcDbVisualStyle
  2
Brighten
 70
    12
177
     2
291
     1
 71
     2
176
     1
 72
     2
176
     1
 73
     0
176
     1
 90
        0
176
     1
 40
-0.6
176
     1
 41
-30.0
176
     1
 62
     5
 63
     7
421
 16777215
176
     1
 74
     1
176
     1
 91
        4
176
     1
 64
     7
176
     1
 65
   257
176
     1
 75
     1
176
     1
175
     1
176
     1
 42
1.0
176
     1
 92
        8
176
     1
 66
     7
176
     1
 43
1.0
176
     1
 76
     1
176
     1
 77
     6
176
     1
 78
     2
176
     1
 67
     7
176
     1
 79
     5
176
     1
170
     0
176
     1
171
     0
176
     1
290
     0
176
     1
 93
        1
176
     1
 44
50.0
176
     1
173
     0
176
     1
  0
VISUALSTYLE
  5
3A
102
{ACAD_REACTORS
330
2A
102
}
330
2A
100
AcDbVisualStyle
  2
ColorChange
 70
    16
177
     2
291
     1
 71
     2
176
     1
 72
     2
176
     1
 73
     3
176
     1
 90
        0
176
     1
 40
-0.6
176
     1
 41
-30.0
176
     1
 62
     5
 63
     8
421
  8421504
176
     1
 74
     1
176
     1
 91
        4
176
     1
 64
     7
176
     1
 65
   257
176
     1
 75
     1
176
     1
175
     1
176
     1
 42
1.0
176
     1
 92
        8
176
     1
 66
     8
424
  8421504
176
     1
 43
1.0
176
     1
 76
     1
176
     1
 77
     6
176
     1
 78
     2
176
     1
 67
     7
176
     1
 79
     5
176
     1
170
     0
176
     1
171
     0
176
     1
290
     0
176
     1
 93
        1
176
     1
 44
0.0
176
     1
173
     0
176
     1
  0
VISUALSTYLE
  5
34
102
{ACAD_REACTORS
330
2A
102
}
330
2A
100
AcDbVisualStyle
  2
Conceptual
 70
     9
177
     2
291
     0
 71
     3
176
     1
 72
     2
176
     1
 73
     0
176
     1
 90
        0
176
     1
 40
-0.6
176
     1
 41
-30.0
176
     1
 62
     5
 63
     7
421
 16777215
176
     1
 74
     2
176
     1
 91
        2
176
     1
 64
     7
176
     1
 65
   257
176
     1
 75
     1
176
     1
175
     1
176
     1
 42
40.0
176
     1
 92
        8
176
     1
 66
     7
176
     1
 43
1.0
176
     1
 76
     1
176
     1
 77
     6
176
     1
 78
     2
176
     1
 67
     7
176
     1
 79
     3
176
     1
170
     0
176
     1
171
     0
176
     1
290
     0
176
     1
 93
        1
176
     1
 44
0.0
176
     1
173
     0
176
     1
  0
VISUALSTYLE
  5
35
102
{ACAD_REACTORS
330
2A
102
}
330
2A
100
AcDbVisualStyle
  2
Dim
 70
    11
177
     2
291
     1
 71
     2
176
     1
 72
     2
176
     1
 73
     0
176
     1
 90
        0
176
     1
 40
-0.6
176
     1
 41
-30.0
176
     1
 62
     5
 63
     7
421
 16777215
176
     1
 74
     1
176
     1
 91
        4
176
     1
 64
     7
176
     1
 65
   257
176
     1
 75
     1
176
     1
175
     1
176
     1
 42
1.0
176
     1
 92
        8
176
     1
 66
     7
176
     1
 43
1.0
176
     1
 76
     1
176
     1
 77
     6
176
     1
 78
     2
176
     1
 67
     7
176
     1
 79
     5
176
     1
170
     0
176
     1
171
     0
176
     1
290
     0
176
     1
 93
        1
176
     1
 44
-50.0
176
     1
173
     0
176
     1
  0
VISUALSTYLE
  5
39
102
{ACAD_REACTORS
330
2A
102
}
330
2A
100
AcDbVisualStyle
  2
Facepattern
 70
    15
177
     2
291
     1
 71
     2
176
     1
 72
     2
176
     1
 73
     0
176
     1
 90
        0
176
     1
 40
-0.6
176
     1
 41
-30.0
176
     1
 62
     5
 63
     7
421
 16777215
176
     1
 74
     1
176
     1
 91
        4
176
     1
 64
     7
176
     1
 65
   257
176
     1
 75
     1
176
     1
175
     1
176
     1
 42
1.0
176
     1
 92
        8
176
     1
 66
     7
176
     1
 43
1.0
176
     1
 76
     1
176
     1
 77
     6
176
     1
 78
     2
176
     1
 67
     7
176
     1
 79
     5
176
     1
170
     0
176
     1
171
     0
176
     1
290
     0
176
     1
 93
        1
176
     1
 44
0.0
176
     1
173
     0
176
     1
  0
VISUALSTYLE
  5
2B
102
{ACAD_REACTORS
330
2A
102
}
330
2A
100
AcDbVisualStyle
  2
Flat
 70
     0
177
     2
291
     1
 71
     2
176
     1
 72
     1
176
     1
 73
     1
176
     1
 90
        2
176
     1
 40
-0.6
176
     1
 41
30.0
176
     1
 62
     5
 63
     7
421
 16777215
176
     1
 74
     0
176
     1
 91
        4
176
     1
 64
     7
176
     1
 65
   257
176
     1
 75
     1
176
     1
175
     1
176
     1
 42
1.0
176
     1
 92
        8
176
     1
 66
     7
176
     1
 43
1.0
176
     1
 76
     1
176
     1
 77
     6
176
     1
 78
     2
176
     1
 67
     7
176
     1
 79
     5
176
     1
170
     0
176
     1
171
     0
176
     1
290
     0
176
     1
 93
       13
176
     1
 44
0.0
176
     1
173
     0
176
     1
  0
VISUALSTYLE
  5
2C
102
{ACAD_REACTORS
330
2A
102
}
330
2A
100
AcDbVisualStyle
  2
FlatWithEdges
 70
     1
177
     2
291
     1
 71
     2
176
     1
 72
     1
176
     1
 73
     1
176
     1
 90
        2
176
     1
 40
-0.6
176
     1
 41
30.0
176
     1
 62
     5
 63
     7
421
 16777215
176
     1
 74
     1
176
     1
 91
        4
176
     1
 64
     7
176
     1
 65
   257
176
     1
 75
     1
176
     1
175
     1
176
     1
 42
1.0
176
     1
 92
        0
176
     1
 66
   257
176
     1
 43
1.0
176
     1
 76
     1
176
     1
 77
     6
176
     1
 78
     2
176
     1
 67
     7
176
     1
 79
     5
176
     1
170
     0
176
     1
171
     0
176
     1
290
     0
176
     1
 93
       13
176
     1
 44
0.0
176
     1
173
     0
176
     1
  0
VISUALSTYLE
  5
2D
102
{ACAD_REACTORS
330
2A
102
}
330
2A
100
AcDbVisualStyle
  2
Gouraud
 70
     2
177
     2
291
     1
 71
     2
176
     1
 72
     2
176
     1
 73
     1
176
     1
 90
        2
176
     1
 40
-0.6
176
     1
 41
30.0
176
     1
 62
     5
 63
     7
421
 16777215
176
     1
 74
     0
176
     1
 91
        4
176
     1
 64
     7
176
     1
 65
   257
176
     1
 75
     1
176
     1
175
     1
176
     1
 42
1.0
176
     1
 92
        0
176
     1
 66
     7
176
     1
 43
1.0
176
     1
 76
     1
176
     1
 77
     6
176
     1
 78
     2
176
     1
 67
     7
176
     1
 79
     5
176
     1
170
     0
176
     1
171
     0
176
     1
290
     0
176
     1
 93
       13
176
     1
 44
0.0
176
     1
173
     0
176
     1
  0
VISUALSTYLE
  5
2E
102
{ACAD_REACTORS
330
2A
102
}
330
2A
100
AcDbVisualStyle
  2
GouraudWithEdges
 70
     3
177
     2
291
     1
 71
     2
176
     1
 72
     2
176
     1
 73
     1
176
     1
 90
        2
176
     1
 40
-0.6
176
     1
 41
30.0
176
     1
 62
     5
 63
     7
421
 16777215
176
     1
 74
     1
176
     1
 91
        4
176
     1
 64
     7
176
     1
 65
   257
176
     1
 75
     1
176
     1
175
     1
176
     1
 42
1.0
176
     1
 92
        0
176
     1
 66
   257
176
     1
 43
1.0
176
     1
 76
     1
176
     1
 77
     6
176
     1
 78
     2
176
     1
 67
     7
176
     1
 79
     5
176
     1
170
     0
176
     1
171
     0
176
     1
290
     0
176
     1
 93
       13
176
     1
 44
0.0
176
     1
173
     0
176
     1
  0
VISUALSTYLE
  5
38
102
{ACAD_REACTORS
330
2A
102
}
330
2A
100
AcDbVisualStyle
  2
Linepattern
 70
    14
177
     2
291
     1
 71
     2
176
     1
 72
     2
176
     1
 73
     0
176
     1
 90
        0
176
     1
 40
-0.6
176
     1
 41
-30.0
176
     1
 62
     5
 63
     7
421
 16777215
176
     1
 74
     1
176
     1
 91
        4
176
     1
 64
     7
176
     1
 65
   257
176
     1
 75
     7
176
     1
175
     7
176
     1
 42
1.0
176
     1
 92
        8
176
     1
 66
     7
176
     1
 43
1.0
176
     1
 76
     1
176
     1
 77
     6
176
     1
 78
     2
176
     1
 67
     7
176
     1
 79
     5
176
     1
170
     0
176
     1
171
     0
176
     1
290
     0
176
     1
 93
        1
176
     1
 44
0.0
176
     1
173
     0
176
     1
  0
VISUALSTYLE
  5
33
102
{ACAD_REACTORS
330
2A
102
}
330
2A
100
AcDbVisualStyle
  2
Realistic
 70
     8
177
     2
291
     0
 71
     2
176
     1
 72
     2
176
     1
 73
     0
176
     1
 90
        0
176
     1
 40
-0.6
176
     1
 41
-30.0
176
     1
 62
     5
 63
     7
421
 16777215
176
     1
 74
     1
176
     1
 91
        0
176
     1
 64
     7
176
     1
 65
   257
176
     1
 75
     1
176
     1
175
     1
176
     1
 42
1.0
176
     1
 92
        8
176
     1
 66
     8
424
  7895160
176
     1
 43
1.0
176
     1
 76
     1
176
     1
 77
     6
176
     1
 78
     2
176
     1
 67
     7
176
     1
 79
     5
176
     1
170
     0
176
     1
171
     0
176
     1
290
     0
176
     1
 93
       13
176
     1
 44
0.0
176
     1
173
     0
176
     1
  0
VISUALSTYLE
  5
37
102
{ACAD_REACTORS
330
2A
102
}
330
2A
100
AcDbVisualStyle
  2
Thicken
 70
    13
177
     2
291
     1
 71
     2
176
     1
 72
     2
176
     1
 73
     0
176
     1
 90
        0
176
     1
 40
-0.6
176
     1
 41
-30.0
176
     1
 62
     5
 63
     7
421
 16777215
176
     1
 74
     1
176
     1
 91
        4
176
     1
 64
     7
176
     1
 65
   257
176
     1
 75
     1
176
     1
175
     1
176
     1
 42
1.0
176
     1
 92
       12
176
     1
 66
     7
176
     1
 43
1.0
176
     1
 76
     1
176
     1
 77
     6
176
     1
 78
     2
176
     1
 67
     7
176
     1
 79
     5
176
     1
170
     0
176
     1
171
     0
176
     1
290
     0
176
     1
 93
        1
176
     1
 44
0.0
176
     1
173
     0
176
     1
  0
ENDSEC
  0
EOF
