  0
SECTION
  2
HEADER
  9
$ACADVER
  1
AC1024
  9
$ACADMAINTVER
 70
     6
  9
$DWGCODEPAGE
  3
ANSI_932
  9
$INSBASE
 10
0.0
 20
0.0
 30
0.0
  9
$EXTMIN
 10
125.2553952173608
 20
29.01144792023
 30
0.0
  9
$EXTMAX
 10
254.6895150546229
 20
93.27038069365955
 30
0.0
  9
$LIMMIN
 10
0.0
 20
0.0
  9
$LIMMAX
 10
420.0
 20
297.0
  9
$ORTHOMODE
 70
     0
  9
$REGENMODE
 70
     1
  9
$FILLMODE
 70
     1
  9
$QTEXTMODE
 70
     0
  9
$MIRRTEXT
 70
     1
  9
$LTSCALE
 40
0.25
  9
$ATTMODE
 70
     1
  9
$TEXTSIZE
 40
5.0
  9
$TRACEWID
 40
0.05
  9
$TEXTSTYLE
  7
Standard
  9
$CLAYER
  8
0
  9
$CELTYPE
  6
ByLayer
  9
$CECOLOR
 62
   256
  9
$CELTSCALE
 40
1.0
  9
$DISPSILH
 70
     0
  9
$DIMSCALE
 40
1.0
  9
$DIMASZ
 40
4.0
  9
$DIMEXO
 40
2.0
  9
$DIMDLI
 40
10.0
  9
$DIMRND
 40
0.0
  9
$DIMDLE
 40
0.0
  9
$DIMEXE
 40
2.0
  9
$DIMTP
 40
0.0
  9
$DIMTM
 40
0.0
  9
$DIMTXT
 40
3.5
  9
$DIMCEN
 40
0.09
  9
$DIMTSZ
 40
0.0
  9
$DIMTOL
 70
     0
  9
$DIMLIM
 70
     0
  9
$DIMTIH
 70
     0
  9
$DIMTOH
 70
     0
  9
$DIMSE1
 70
     0
  9
$DIMSE2
 70
     0
  9
$DIMTAD
 70
     3
  9
$DIMZIN
 70
     8
  9
$DIMBLK
  1

  9
$DIMASO
 70
     1
  9
$DIMSHO
 70
     1
  9
$DIMPOST
  1

  9
$DIMAPOST
  1

  9
$DIMALT
 70
     0
  9
$DIMALTD
 70
     2
  9
$DIMALTF
 40
25.4
  9
$DIMLFAC
 40
1.0
  9
$DIMTOFL
 70
     1
  9
$DIMTVP
 40
0.7
  9
$DIMTIX
 70
     0
  9
$DIMSOXD
 70
     0
  9
$DIMSAH
 70
     0
  9
$DIMBLK1
  1

  9
$DIMBLK2
  1

  9
$DIMSTYLE
  2
Standard
  9
$DIMCLRD
 70
     0
  9
$DIMCLRE
 70
     0
  9
$DIMCLRT
 70
     0
  9
$DIMTFAC
 40
0.5
  9
$DIMGAP
 40
0.09
  9
$DIMJUST
 70
     0
  9
$DIMSD1
 70
     0
  9
$DIMSD2
 70
     0
  9
$DIMTOLJ
 70
     1
  9
$DIMTZIN
 70
     8
  9
$DIMALTZ
 70
     0
  9
$DIMALTTZ
 70
     0
  9
$DIMUPT
 70
     1
  9
$DIMDEC
 70
     2
  9
$DIMTDEC
 70
     4
  9
$DIMALTU
 70
     2
  9
$DIMALTTD
 70
     2
  9
$DIMTXSTY
  7
Standard
  9
$DIMAUNIT
 70
     0
  9
$DIMADEC
 70
     0
  9
$DIMALTRND
 40
0.0
  9
$DIMAZIN
 70
     0
  9
$DIMDSEP
 70
    46
  9
$DIMATFIT
 70
     2
  9
$DIMFRAC
 70
     0
  9
$DIMLDRBLK
  1

  9
$DIMLUNIT
 70
     2
  9
$DIMLWD
 70
    -2
  9
$DIMLWE
 70
    -2
  9
$DIMTMOVE
 70
     2
  9
$DIMFXL
 40
1.0
  9
$DIMFXLON
 70
     0
  9
$DIMJOGANG
 40
0.7853981633974483
  9
$DIMTFILL
 70
     0
  9
$DIMTFILLCLR
 70
     0
  9
$DIMARCSYM
 70
     0
  9
$DIMLTYPE
  6

  9
$DIMLTEX1
  6

  9
$DIMLTEX2
  6

  9
$DIMTXTDIRECTION
 70
     0
  9
$LUNITS
 70
     2
  9
$LUPREC
 70
     4
  9
$SKETCHINC
 40
0.1
  9
$FILLETRAD
 40
0.5
  9
$AUNITS
 70
     0
  9
$AUPREC
 70
     0
  9
$MENU
  1
.
  9
$ELEVATION
 40
0.0
  9
$PELEVATION
 40
0.0
  9
$THICKNESS
 40
0.0
  9
$LIMCHECK
 70
     0
  9
$CHAMFERA
 40
0.5
  9
$CHAMFERB
 40
0.5
  9
$CHAMFERC
 40
1.0
  9
$CHAMFERD
 40
0.0
  9
$SKPOLY
 70
     0
  9
$TDCREATE
 40
2456776.979907407
  9
$TDUCREATE
 40
2456776.604907407
  9
$TDUPDATE
 40
2456776.604918981
  9
$TDUUPDATE
 40
2456776.229918981
  9
$TDINDWG
 40
0.0000000116
  9
$TDUSRTIMER
 40
0.0000000116
  9
$USRTIMER
 70
     1
  9
$ANGBASE
 50
0.0
  9
$ANGDIR
 70
     0
  9
$PDMODE
 70
     0
  9
$PDSIZE
 40
0.0
  9
$PLINEWID
 40
0.0
  9
$SPLFRAME
 70
     0
  9
$SPLINETYPE
 70
     6
  9
$SPLINESEGS
 70
     8
  9
$HANDSEED
  5
4E7
  9
$SURFTAB1
 70
     6
  9
$SURFTAB2
 70
     6
  9
$SURFTYPE
 70
     6
  9
$SURFU
 70
     6
  9
$SURFV
 70
     6
  9
$UCSBASE
  2

  9
$UCSNAME
  2

  9
$UCSORG
 10
0.0
 20
0.0
 30
0.0
  9
$UCSXDIR
 10
1.0
 20
0.0
 30
0.0
  9
$UCSYDIR
 10
0.0
 20
1.0
 30
0.0
  9
$UCSORTHOREF
  2

  9
$UCSORTHOVIEW
 70
     0
  9
$UCSORGTOP
 10
0.0
 20
0.0
 30
0.0
  9
$UCSORGBOTTOM
 10
0.0
 20
0.0
 30
0.0
  9
$UCSORGLEFT
 10
0.0
 20
0.0
 30
0.0
  9
$UCSORGRIGHT
 10
0.0
 20
0.0
 30
0.0
  9
$UCSORGFRONT
 10
0.0
 20
0.0
 30
0.0
  9
$UCSORGBACK
 10
0.0
 20
0.0
 30
0.0
  9
$PUCSBASE
  2

  9
$PUCSNAME
  2

  9
$PUCSORG
 10
0.0
 20
0.0
 30
0.0
  9
$PUCSXDIR
 10
1.0
 20
0.0
 30
0.0
  9
$PUCSYDIR
 10
0.0
 20
1.0
 30
0.0
  9
$PUCSORTHOREF
  2

  9
$PUCSORTHOVIEW
 70
     0
  9
$PUCSORGTOP
 10
0.0
 20
0.0
 30
0.0
  9
$PUCSORGBOTTOM
 10
0.0
 20
0.0
 30
0.0
  9
$PUCSORGLEFT
 10
0.0
 20
0.0
 30
0.0
  9
$PUCSORGRIGHT
 10
0.0
 20
0.0
 30
0.0
  9
$PUCSORGFRONT
 10
0.0
 20
0.0
 30
0.0
  9
$PUCSORGBACK
 10
0.0
 20
0.0
 30
0.0
  9
$USERI1
 70
     0
  9
$USERI2
 70
     0
  9
$USERI3
 70
     0
  9
$USERI4
 70
     0
  9
$USERI5
 70
     0
  9
$USERR1
 40
0.0
  9
$USERR2
 40
0.0
  9
$USERR3
 40
0.0
  9
$USERR4
 40
0.0
  9
$USERR5
 40
0.0
  9
$WORLDVIEW
 70
     1
  9
$SHADEDGE
 70
     3
  9
$SHADEDIF
 70
    70
  9
$TILEMODE
 70
     1
  9
$MAXACTVP
 70
    64
  9
$PINSBASE
 10
0.0
 20
0.0
 30
0.0
  9
$PLIMCHECK
 70
     0
  9
$PEXTMIN
 10
0.0
 20
0.0
 30
0.0
  9
$PEXTMAX
 10
420.0
 20
297.0
 30
0.0
  9
$PLIMMIN
 10
0.0
 20
0.0
  9
$PLIMMAX
 10
420.0
 20
297.0
  9
$UNITMODE
 70
     0
  9
$VISRETAIN
 70
     1
  9
$PLINEGEN
 70
     0
  9
$PSLTSCALE
 70
     1
  9
$TREEDEPTH
 70
  3020
  9
$CMLSTYLE
  2
Standard
  9
$CMLJUST
 70
     0
  9
$CMLSCALE
 40
1.0
  9
$PROXYGRAPHICS
 70
     1
  9
$MEASUREMENT
 70
     1
  9
$CELWEIGHT
370
    -1
  9
$ENDCAPS
280
     0
  9
$JOINSTYLE
280
     0
  9
$LWDISPLAY
290
     0
  9
$INSUNITS
 70
     4
  9
$HYPERLINKBASE
  1

  9
$STYLESHEET
  1

  9
$XEDIT
290
     1
  9
$CEPSNTYPE
380
     0
  9
$PSTYLEMODE
290
     1
  9
$FINGERPRINTGUID
  2
{CB83A956-7E28-49E4-94C9-548418D67959}
  9
$VERSIONGUID
  2
{FAEB1C32-E019-11D5-929B-00C0DF256EC4}
  9
$EXTNAMES
290
     1
  9
$PSVPSCALE
 40
0.0
  9
$OLESTARTUP
290
     0
  9
$SORTENTS
280
   127
  9
$INDEXCTL
280
     0
  9
$HIDETEXT
280
     1
  9
$XCLIPFRAME
280
     2
  9
$HALOGAP
280
     0
  9
$OBSCOLOR
 70
   257
  9
$OBSLTYPE
280
     0
  9
$INTERSECTIONDISPLAY
280
     0
  9
$INTERSECTIONCOLOR
 70
   257
  9
$DIMASSOC
280
     1
  9
$PROJECTNAME
  1

  9
$CAMERADISPLAY
290
     0
  9
$LENSLENGTH
 40
50.0
  9
$CAMERAHEIGHT
 40
0.0
  9
$STEPSPERSEC
 40
2.0
  9
$STEPSIZE
 40
6.0
  9
$3DDWFPREC
 40
2.0
  9
$PSOLWIDTH
 40
0.25
  9
$PSOLHEIGHT
 40
4.0
  9
$LOFTANG1
 40
1.570796326794897
  9
$LOFTANG2
 40
1.570796326794897
  9
$LOFTMAG1
 40
0.0
  9
$LOFTMAG2
 40
0.0
  9
$LOFTPARAM
 70
     7
  9
$LOFTNORMALS
280
     1
  9
$LATITUDE
 40
37.795
  9
$LONGITUDE
 40
-122.394
  9
$NORTHDIRECTION
 40
0.0
  9
$TIMEZONE
 70
 -8000
  9
$LIGHTGLYPHDISPLAY
280
     1
  9
$TILEMODELIGHTSYNCH
280
     1
  9
$SOLIDHIST
280
     1
  9
$SHOWHIST
280
     1
  9
$DWFFRAME
280
     2
  9
$DGNFRAME
280
     2
  9
$REALWORLDSCALE
290
     1
  9
$INTERFERECOLOR
 62
   256
  9
$CSHADOW
280
     0
  9
$SHADOWPLANELOCATION
 40
0.0
  0
ENDSEC
  0
SECTION
  2
CLASSES
  0
CLASS
  1
ACDBDICTIONARYWDFLT
  2
AcDbDictionaryWithDefault
  3
ObjectDBX Classes
 90
        0
 91
        4
280
     0
281
     0
  0
CLASS
  1
VISUALSTYLE
  2
AcDbVisualStyle
  3
ObjectDBX Classes
 90
     4095
 91
        4
280
     0
281
     0
  0
CLASS
  1
MATERIAL
  2
AcDbMaterial
  3
ObjectDBX Classes
 90
     1153
 91
        4
280
     0
281
     0
  0
ENDSEC
  0
SECTION
  2
TABLES
  0
TABLE
  2
VPORT
  5
8
330
0
100
AcDbSymbolTable
 70
     1
  0
VPORT
  5
29
330
8
100
AcDbSymbolTableRecord
100
AcDbViewportTableRecord
  2
*Active
 70
     0
 10
0.0
 20
0.0
 11
1.0
 21
1.0
 12
10.42990654205607
 22
4.5
 13
0.0
 23
0.0
 14
0.5
 24
0.5
 15
0.5
 25
0.5
 16
0.0
 26
0.0
 36
1.0
 17
0.0
 27
0.0
 37
0.0
 40
9.0
 41
1.972972972850329
 42
50.0
 43
0.0
 44
0.0
 50
0.0
 51
0.0
 71
     0
 72
   100
 73
     1
 74
     3
 75
     0
 76
     0
 77
     0
 78
     0
281
     0
 65
     1
110
0.0
120
0.0
130
0.0
111
1.0
121
0.0
131
0.0
112
0.0
122
1.0
132
0.0
 79
     0
146
0.0
 60
     3
 61
     5
292
     1
282
     1
141
0.0
142
0.0
 63
   250
  0
ENDTAB
  0
TABLE
  2
LTYPE
  5
5
330
0
100
AcDbSymbolTable
 70
     9
  0
LTYPE
  5
14
330
5
100
AcDbSymbolTableRecord
100
AcDbLinetypeTableRecord
  2
ByBlock
 70
     0
  3

 72
    65
 73
     0
 40
0.0
  0
LTYPE
  5
15
330
5
100
AcDbSymbolTableRecord
100
AcDbLinetypeTableRecord
  2
ByLayer
 70
     0
  3

 72
    65
 73
     0
 40
0.0
  0
LTYPE
  5
16
330
5
100
AcDbSymbolTableRecord
100
AcDbLinetypeTableRecord
  2
Continuous
 70
     0
  3
Solid line
 72
    65
 73
     0
 40
0.0
  0
LTYPE
  5
8E
330
5
100
AcDbSymbolTableRecord
100
AcDbLinetypeTableRecord
  2
DOT
 70
     0
  3
DOT
 72
    65
 73
     2
 40
4.0
 49
6.0
 74
     0
 49
-2.0
 74
     0
  0
LTYPE
  5
8F
330
5
100
AcDbSymbolTableRecord
100
AcDbLinetypeTableRecord
  2
HIDDEN
 70
     0
  3
HIDDEN
 72
    65
 73
     2
 40
4.2
 49
8.4
 74
     0
 49
-4.2
 74
     0
  0
LTYPE
  5
90
330
5
100
AcDbSymbolTableRecord
100
AcDbLinetypeTableRecord
  2
DASHDOT
 70
     0
  3
DASHDOT
 72
    65
 73
     4
 40
14.5
 49
30.0
 74
     0
 49
-9.0
 74
     0
 49
2.5
 74
     0
 49
-9.0
 74
     0
  0
LTYPE
  5
91
330
5
100
AcDbSymbolTableRecord
100
AcDbLinetypeTableRecord
  2
PHANTOM
 70
     0
  3
PHANTOM
 72
    65
 73
     6
 40
12.0
 49
30.0
 74
     0
 49
-9.0
 74
     0
 49
2.5
 74
     0
 49
-5.0
 74
     0
 49
2.5
 74
     0
 49
-9.0
 74
     0
  0
LTYPE
  5
92
330
5
100
AcDbSymbolTableRecord
100
AcDbLinetypeTableRecord
  2
ACAD_ISO14W100
 70
     0
  3
ACAD_ISO14W100
 72
    65
 73
     8
 40
1.5
 49
12.0
 74
     0
 49
-3.0
 74
     0
 49
0.5
 74
     0
 49
-3.0
 74
     0
 49
0.5
 74
     0
 49
-3.0
 74
     0
 49
0.5
 74
     0
 49
-3.0
 74
     0
  0
LTYPE
  5
93
330
5
100
AcDbSymbolTableRecord
100
AcDbLinetypeTableRecord
  2
ACAD_ISO06W100
 70
     0
  3
ACAD_ISO06W100
 72
    65
 73
     8
 40
13.5
 49
24.0
 74
     0
 49
-3.0
 74
     0
 49
0.5
 74
     0
 49
-3.0
 74
     0
 49
0.5
 74
     0
 49
-3.0
 74
     0
 49
0.5
 74
     0
 49
-3.0
 74
     0
  0
LTYPE
  5
94
330
5
100
AcDbSymbolTableRecord
100
AcDbLinetypeTableRecord
  2
ACAD_ISO11W100
 70
     0
  3
ACAD_ISO11W100
 72
    65
 73
     6
 40
15.5
 49
12.0
 74
     0
 49
-3.0
 74
     0
 49
12.0
 74
     0
 49
-3.0
 74
     0
 49
0.5
 74
     0
 49
-3.0
 74
     0
  0
LTYPE
  5
95
330
5
100
AcDbSymbolTableRecord
100
AcDbLinetypeTableRecord
  2
ACAD_ISO13W100
 70
     0
  3
ACAD_ISO13W100
 72
    65
 73
     8
 40
13.0
 49
12.0
 74
     0
 49
-3.0
 74
     0
 49
12.0
 74
     0
 49
-3.0
 74
     0
 49
0.5
 74
     0
 49
-3.0
 74
     0
 49
0.5
 74
     0
 49
-3.0
 74
     0
  0
ENDTAB
  0
TABLE
  2
LAYER
  5
2
330
0
100
AcDbSymbolTable
 70
    31
  0
LAYER
  5
10
330
2
100
AcDbSymbolTableRecord
100
AcDbLayerTableRecord
  2
0
 70
     0
 62
     7
  6
Continuous
370
    -3
390
F
347
3E
  0
LAYER
  5
96
330
2
100
AcDbSymbolTableRecord
100
AcDbLayerTableRecord
  2
1
 70
     0
 62
     7
  6
Continuous
370
     9
390
F
347
3E
  0
LAYER
  5
97
330
2
100
AcDbSymbolTableRecord
100
AcDbLayerTableRecord
  2
2
 70
     0
 62
   134
  6
Continuous
370
     9
390
F
347
3E
  0
LAYER
  5
98
330
2
100
AcDbSymbolTableRecord
100
AcDbLayerTableRecord
  2
3
 70
     0
 62
   214
  6
Continuous
370
     9
390
F
347
3E
  0
LAYER
  5
99
330
2
100
AcDbSymbolTableRecord
100
AcDbLayerTableRecord
  2
4
 70
     0
 62
    54
  6
Continuous
370
     9
390
F
347
3E
  0
LAYER
  5
9A
330
2
100
AcDbSymbolTableRecord
100
AcDbLayerTableRecord
  2
5
 70
     0
 62
    94
  6
Continuous
370
     9
390
F
347
3E
  0
LAYER
  5
9B
330
2
100
AcDbSymbolTableRecord
100
AcDbLayerTableRecord
  2
6
 70
     0
 62
    14
  6
Continuous
370
     9
390
F
347
3E
  0
LAYER
  5
9C
330
2
100
AcDbSymbolTableRecord
100
AcDbLayerTableRecord
  2
7
 70
     0
 62
     4
  6
Continuous
370
     9
390
F
347
3E
  0
LAYER
  5
9D
330
2
100
AcDbSymbolTableRecord
100
AcDbLayerTableRecord
  2
8
 70
     0
 62
     6
  6
Continuous
370
     9
390
F
347
3E
  0
LAYER
  5
9E
330
2
100
AcDbSymbolTableRecord
100
AcDbLayerTableRecord
  2
9
 70
     0
 62
     2
  6
Continuous
370
     9
390
F
347
3E
  0
LAYER
  5
9F
330
2
100
AcDbSymbolTableRecord
100
AcDbLayerTableRecord
  2
10
 70
     0
 62
     3
  6
Continuous
370
     9
390
F
347
3E
  0
LAYER
  5
A0
330
2
100
AcDbSymbolTableRecord
100
AcDbLayerTableRecord
  2
11
 70
     0
 62
   251
  6
Continuous
370
     9
390
F
347
3E
  0
LAYER
  5
A1
330
2
100
AcDbSymbolTableRecord
100
AcDbLayerTableRecord
  2
12
 70
     0
 62
   136
  6
Continuous
370
     9
390
F
347
3E
  0
LAYER
  5
A2
330
2
100
AcDbSymbolTableRecord
100
AcDbLayerTableRecord
  2
13
 70
     0
 62
   216
  6
Continuous
370
     9
390
F
347
3E
  0
LAYER
  5
A3
330
2
100
AcDbSymbolTableRecord
100
AcDbLayerTableRecord
  2
14
 70
     0
 62
    56
  6
Continuous
370
     9
390
F
347
3E
  0
LAYER
  5
A4
330
2
100
AcDbSymbolTableRecord
100
AcDbLayerTableRecord
  2
15
 70
     0
 62
    96
  6
Continuous
370
     9
390
F
347
3E
  0
LAYER
  5
A5
330
2
100
AcDbSymbolTableRecord
100
AcDbLayerTableRecord
  2
16
 70
     0
 62
    16
  6
Continuous
370
     9
390
F
347
3E
  0
LAYER
  5
A6
330
2
100
AcDbSymbolTableRecord
100
AcDbLayerTableRecord
  2
17
 70
     0
 62
   132
  6
Continuous
370
     9
390
F
347
3E
  0
LAYER
  5
A7
330
2
100
AcDbSymbolTableRecord
100
AcDbLayerTableRecord
  2
18
 70
     0
 62
   212
  6
Continuous
370
     9
390
F
347
3E
  0
LAYER
  5
A8
330
2
100
AcDbSymbolTableRecord
100
AcDbLayerTableRecord
  2
19
 70
     0
 62
    52
  6
Continuous
370
     9
390
F
347
3E
  0
LAYER
  5
A9
330
2
100
AcDbSymbolTableRecord
100
AcDbLayerTableRecord
  2
20
 70
     0
 62
   250
  6
Continuous
370
     9
390
F
347
3E
  0
LAYER
  5
AA
330
2
100
AcDbSymbolTableRecord
100
AcDbLayerTableRecord
  2
21
 70
     0
 62
     7
  6
Continuous
370
     9
390
F
347
3E
  0
LAYER
  5
AB
330
2
100
AcDbSymbolTableRecord
100
AcDbLayerTableRecord
  2
22
 70
     0
 62
     7
  6
Continuous
370
     9
390
F
347
3E
  0
LAYER
  5
AC
330
2
100
AcDbSymbolTableRecord
100
AcDbLayerTableRecord
  2
23
 70
     0
 62
     5
  6
Continuous
370
     9
390
F
347
3E
  0
LAYER
  5
AD
330
2
100
AcDbSymbolTableRecord
100
AcDbLayerTableRecord
  2
24
 70
     0
 62
   104
  6
Continuous
370
     9
390
F
347
3E
  0
LAYER
  5
AE
330
2
100
AcDbSymbolTableRecord
100
AcDbLayerTableRecord
  2
25
 70
     0
 62
     7
  6
Continuous
370
     9
390
F
347
3E
  0
LAYER
  5
AF
330
2
100
AcDbSymbolTableRecord
100
AcDbLayerTableRecord
  2
26
 70
     0
 62
     1
  6
Continuous
370
     9
390
F
347
3E
  0
LAYER
  5
B0
330
2
100
AcDbSymbolTableRecord
100
AcDbLayerTableRecord
  2
27
 70
     0
 62
    12
  6
Continuous
370
     9
390
F
347
3E
  0
LAYER
  5
B1
330
2
100
AcDbSymbolTableRecord
100
AcDbLayerTableRecord
  2
28
 70
     0
 62
   104
  6
Continuous
370
     9
390
F
347
3E
  0
LAYER
  5
B2
330
2
100
AcDbSymbolTableRecord
100
AcDbLayerTableRecord
  2
29
 70
     0
 62
     1
  6
Continuous
370
     9
390
F
347
3E
  0
LAYER
  5
B3
330
2
100
AcDbSymbolTableRecord
100
AcDbLayerTableRecord
  2
30
 70
     0
 62
   104
  6
Continuous
370
     9
390
F
347
3E
  0
ENDTAB
  0
TABLE
  2
STYLE
  5
3
330
0
100
AcDbSymbolTable
 70
     3
  0
STYLE
  5
11
330
3
100
AcDbSymbolTableRecord
100
AcDbTextStyleTableRecord
  2
Standard
 70
     0
 40
0.0
 41
1.0
 50
0.0
 71
     0
 42
5.0
  3
txt
  4
bigfont
  0
STYLE
  5
41
330
3
100
AcDbSymbolTableRecord
100
AcDbTextStyleTableRecord
  2
T_STANDARD
 70
     4
 40
10.0
 41
1.0
 50
0.0
 71
     0
 42
10.0
  3
txt
  4
bigfont
  0
STYLE
  5
38B
330
3
100
AcDbSymbolTableRecord
100
AcDbTextStyleTableRecord
  2
ＭＳ ゴシック
 70
     0
 40
0.0
 41
1.0
 50
0.0
 71
     0
 42
0.0
  3
MSGOTHIC.TTC
  4

  0
ENDTAB
  0
TABLE
  2
VIEW
  5
6
330
0
100
AcDbSymbolTable
 70
     0
  0
ENDTAB
  0
TABLE
  2
UCS
  5
7
330
0
100
AcDbSymbolTable
 70
     0
  0
ENDTAB
  0
TABLE
  2
APPID
  5
9
330
0
100
AcDbSymbolTable
 70
     2
  0
APPID
  5
12
330
9
100
AcDbSymbolTableRecord
100
AcDbRegAppTableRecord
  2
ACAD
 70
     0
  0
APPID
  5
40
330
9
100
AcDbSymbolTableRecord
100
AcDbRegAppTableRecord
  2
ODA
 70
     0
  0
ENDTAB
  0
TABLE
  2
DIMSTYLE
  5
A
330
0
100
AcDbSymbolTable
 70
     1
100
AcDbDimStyleTable
  0
DIMSTYLE
105
27
102
{ACAD_REACTORS
330
393
330
39E
330
3A8
330
3B2
330
3BC
330
3C6
330
3D0
330
3DA
330
3E4
330
3EE
330
3F8
330
422
330
42C
330
4E3
102
}
330
A
100
AcDbSymbolTableRecord
100
AcDbDimStyleTableRecord
  2
Standard
 70
     0
178
     0
340
11
  0
ENDTAB
  0
TABLE
  2
BLOCK_RECORD
  5
1
330
0
100
AcDbSymbolTable
 70
    31
  0
BLOCK_RECORD
  5
1F
330
1
100
AcDbSymbolTableRecord
100
AcDbBlockTableRecord
  2
*Model_Space
340
22
 70
     0
280
     1
281
     0
  0
BLOCK_RECORD
  5
1B
330
1
100
AcDbSymbolTableRecord
100
AcDbBlockTableRecord
  2
*Paper_Space
340
1E
 70
     0
280
     1
281
     0
  0
BLOCK_RECORD
  5
23
330
1
100
AcDbSymbolTableRecord
100
AcDbBlockTableRecord
  2
*Paper_Space0
340
26
 70
     0
280
     1
281
     0
  0
BLOCK_RECORD
  5
42
330
1
100
AcDbSymbolTableRecord
100
AcDbBlockTableRecord
  2
_ORIGIN
340
0
 70
     0
280
     1
281
     0
  0
BLOCK_RECORD
  5
47
330
1
100
AcDbSymbolTableRecord
100
AcDbBlockTableRecord
  2
_DOTBLANK
340
0
 70
     0
280
     1
281
     0
  0
BLOCK_RECORD
  5
4C
330
1
100
AcDbSymbolTableRecord
100
AcDbBlockTableRecord
  2
_DOT
340
0
 70
     0
280
     1
281
     0
  0
BLOCK_RECORD
  5
51
330
1
100
AcDbSymbolTableRecord
100
AcDbBlockTableRecord
  2
_OPEN
340
0
102
{BLKREFS
331
391
331
392
331
39C
331
39D
331
3A6
331
3A7
331
3B0
331
3B1
331
3BA
331
3BB
331
3C4
331
3C5
331
3CE
331
3CF
331
3D8
331
3D9
331
3E2
331
3E3
331
3EC
331
3ED
331
3F6
331
3F7
331
420
331
421
331
42A
331
42B
331
4E1
331
4E2
102
}
 70
     0
280
     1
281
     0
  0
BLOCK_RECORD
  5
57
330
1
100
AcDbSymbolTableRecord
100
AcDbBlockTableRecord
  2
_CLOSED
340
0
 70
     0
280
     1
281
     0
  0
BLOCK_RECORD
  5
5E
330
1
100
AcDbSymbolTableRecord
100
AcDbBlockTableRecord
  2
_CLOSEDBLANK
340
0
 70
     0
280
     1
281
     0
  0
BLOCK_RECORD
  5
64
330
1
100
AcDbSymbolTableRecord
100
AcDbBlockTableRecord
  2
_ARROWFILLED
340
0
 70
     0
280
     1
281
     0
  0
BLOCK_RECORD
  5
68
330
1
100
AcDbSymbolTableRecord
100
AcDbBlockTableRecord
  2
_BOXBLANK
340
0
 70
     0
280
     1
281
     0
  0
BLOCK_RECORD
  5
70
330
1
100
AcDbSymbolTableRecord
100
AcDbBlockTableRecord
  2
_BOXFILLED
340
0
 70
     0
280
     1
281
     0
  0
BLOCK_RECORD
  5
75
330
1
100
AcDbSymbolTableRecord
100
AcDbBlockTableRecord
  2
_INTEGRAL
340
0
 70
     0
280
     1
281
     0
  0
BLOCK_RECORD
  5
7A
330
1
100
AcDbSymbolTableRecord
100
AcDbBlockTableRecord
  2
_OBLIQUE
340
0
 70
     0
280
     1
281
     0
  0
BLOCK_RECORD
  5
7E
330
1
100
AcDbSymbolTableRecord
100
AcDbBlockTableRecord
  2
_NONE
340
0
 70
     0
280
     1
281
     0
  0
BLOCK_RECORD
  5
81
330
1
100
AcDbSymbolTableRecord
100
AcDbBlockTableRecord
  2
MARK_OPEN
340
0
102
{BLKREFS
331
3FA
331
400
331
406
331
40C
331
412
102
}
 70
     0
280
     1
281
     0
  0
BLOCK_RECORD
  5
86
330
1
100
AcDbSymbolTableRecord
100
AcDbBlockTableRecord
  2
MARK_ORIGIN
340
0
 70
     0
280
     1
281
     0
  0
BLOCK_RECORD
  5
8A
330
1
100
AcDbSymbolTableRecord
100
AcDbBlockTableRecord
  2
MARK_DOT
340
0
 70
     0
280
     1
281
     0
  0
BLOCK_RECORD
  5
38C
330
1
100
AcDbSymbolTableRecord
100
AcDbBlockTableRecord
  2
Dim1
340
0
 70
     0
280
     1
281
     0
  0
BLOCK_RECORD
  5
395
330
1
100
AcDbSymbolTableRecord
100
AcDbBlockTableRecord
  2
Dim2
340
0
 70
     0
280
     1
281
     0
  0
BLOCK_RECORD
  5
39F
330
1
100
AcDbSymbolTableRecord
100
AcDbBlockTableRecord
  2
Dim3
340
0
 70
     0
280
     1
281
     0
  0
BLOCK_RECORD
  5
3A9
330
1
100
AcDbSymbolTableRecord
100
AcDbBlockTableRecord
  2
Dim4
340
0
 70
     0
280
     1
281
     0
  0
BLOCK_RECORD
  5
3B3
330
1
100
AcDbSymbolTableRecord
100
AcDbBlockTableRecord
  2
Dim5
340
0
 70
     0
280
     1
281
     0
  0
BLOCK_RECORD
  5
3BD
330
1
100
AcDbSymbolTableRecord
100
AcDbBlockTableRecord
  2
Dim6
340
0
 70
     0
280
     1
281
     0
  0
BLOCK_RECORD
  5
3C7
330
1
100
AcDbSymbolTableRecord
100
AcDbBlockTableRecord
  2
Dim7
340
0
 70
     0
280
     1
281
     0
  0
BLOCK_RECORD
  5
3D1
330
1
100
AcDbSymbolTableRecord
100
AcDbBlockTableRecord
  2
Dim8
340
0
 70
     0
280
     1
281
     0
  0
BLOCK_RECORD
  5
3DB
330
1
100
AcDbSymbolTableRecord
100
AcDbBlockTableRecord
  2
Dim9
340
0
 70
     0
280
     1
281
     0
  0
BLOCK_RECORD
  5
3E5
330
1
100
AcDbSymbolTableRecord
100
AcDbBlockTableRecord
  2
Dim10
340
0
 70
     0
280
     1
281
     0
  0
BLOCK_RECORD
  5
3EF
330
1
100
AcDbSymbolTableRecord
100
AcDbBlockTableRecord
  2
Dim11
340
0
 70
     0
280
     1
281
     0
  0
BLOCK_RECORD
  5
419
330
1
100
AcDbSymbolTableRecord
100
AcDbBlockTableRecord
  2
Dim12
340
0
 70
     0
280
     1
281
     0
  0
BLOCK_RECORD
  5
423
330
1
100
AcDbSymbolTableRecord
100
AcDbBlockTableRecord
  2
Dim13
340
0
 70
     0
280
     1
281
     0
  0
BLOCK_RECORD
  5
4C9
330
1
100
AcDbSymbolTableRecord
100
AcDbBlockTableRecord
  2
*G29
340
0
102
{BLKREFS
331
4D4
102
}
 70
     0
280
     1
281
     0
  0
BLOCK_RECORD
  5
4DA
330
1
100
AcDbSymbolTableRecord
100
AcDbBlockTableRecord
  2
Dim14
340
0
 70
     0
280
     1
281
     0
  0
ENDTAB
  0
ENDSEC
  0
SECTION
  2
BLOCKS
  0
BLOCK
  5
20
330
1F
100
AcDbEntity
  8
0
100
AcDbBlockBegin
  2
*Model_Space
 70
     0
 10
0.0
 20
0.0
 30
0.0
  3
*Model_Space
  1

  0
ENDBLK
  5
21
330
1F
100
AcDbEntity
  8
0
100
AcDbBlockEnd
  0
BLOCK
  5
1C
330
1B
100
AcDbEntity
 67
     1
  8
0
100
AcDbBlockBegin
  2
*Paper_Space
 70
     0
 10
0.0
 20
0.0
 30
0.0
  3
*Paper_Space
  1

  0
ENDBLK
  5
1D
330
1B
100
AcDbEntity
 67
     1
  8
0
100
AcDbBlockEnd
  0
BLOCK
  5
24
330
23
100
AcDbEntity
  8
0
100
AcDbBlockBegin
  2
*Paper_Space0
 70
     0
 10
0.0
 20
0.0
 30
0.0
  3
*Paper_Space0
  1

  0
ENDBLK
  5
25
330
23
100
AcDbEntity
  8
0
100
AcDbBlockEnd
  0
BLOCK
  5
45
330
42
100
AcDbEntity
  8
0
100
AcDbBlockBegin
  2
_ORIGIN
 70
     0
 10
0.0
 20
0.0
 30
0.0
  3
_ORIGIN
  1

  0
CIRCLE
  5
43
330
42
100
AcDbEntity
  8
0
100
AcDbCircle
 10
0.0
 20
0.0
 30
0.0
 40
0.5
  0
LINE
  5
44
330
42
100
AcDbEntity
  8
0
100
AcDbLine
 10
0.0
 20
0.0
 30
0.0
 11
-1.0
 21
0.0
 31
0.0
  0
ENDBLK
  5
46
330
42
100
AcDbEntity
  8
0
100
AcDbBlockEnd
  0
BLOCK
  5
4A
330
47
100
AcDbEntity
  8
0
100
AcDbBlockBegin
  2
_DOTBLANK
 70
     0
 10
0.0
 20
0.0
 30
0.0
  3
_DOTBLANK
  1

  0
CIRCLE
  5
48
330
47
100
AcDbEntity
  8
0
100
AcDbCircle
 10
0.0
 20
0.0
 30
0.0
 40
0.5
  0
LINE
  5
49
330
47
100
AcDbEntity
  8
0
100
AcDbLine
 10
-0.5
 20
0.0
 30
0.0
 11
-1.0
 21
0.0
 31
0.0
  0
ENDBLK
  5
4B
330
47
100
AcDbEntity
  8
0
100
AcDbBlockEnd
  0
BLOCK
  5
4F
330
4C
100
AcDbEntity
  8
0
100
AcDbBlockBegin
  2
_DOT
 70
     0
 10
0.0
 20
0.0
 30
0.0
  3
_DOT
  1

  0
LWPOLYLINE
  5
4D
330
4C
100
AcDbEntity
  8
0
100
AcDbPolyline
 90
        2
 70
     1
 43
0.5
 10
-0.25
 20
0.0
 42
1.0
 10
0.25
 20
0.0
 42
1.0
  0
LINE
  5
4E
330
4C
100
AcDbEntity
  8
0
100
AcDbLine
 10
-0.5
 20
0.0
 30
0.0
 11
-1.0
 21
0.0
 31
0.0
  0
ENDBLK
  5
50
330
4C
100
AcDbEntity
  8
0
100
AcDbBlockEnd
  0
BLOCK
  5
55
330
51
100
AcDbEntity
  8
0
100
AcDbBlockBegin
  2
_OPEN
 70
     0
 10
0.0
 20
0.0
 30
0.0
  3
_OPEN
  1

  0
LINE
  5
52
330
51
100
AcDbEntity
  8
0
100
AcDbLine
 10
0.0
 20
0.0
 30
0.0
 11
-1.0
 21
0.1666666666666667
 31
0.0
  0
LINE
  5
53
330
51
100
AcDbEntity
  8
0
100
AcDbLine
 10
0.0
 20
0.0
 30
0.0
 11
-1.0
 21
-0.1666666666666667
 31
0.0
  0
LINE
  5
54
330
51
100
AcDbEntity
  8
0
100
AcDbLine
 10
0.0
 20
0.0
 30
0.0
 11
-1.0
 21
0.0
 31
0.0
  0
ENDBLK
  5
56
330
51
100
AcDbEntity
  8
0
100
AcDbBlockEnd
  0
BLOCK
  5
5C
330
57
100
AcDbEntity
  8
0
100
AcDbBlockBegin
  2
_CLOSED
 70
     0
 10
0.0
 20
0.0
 30
0.0
  3
_CLOSED
  1

  0
LINE
  5
58
330
57
100
AcDbEntity
  8
0
100
AcDbLine
 10
0.0
 20
0.0
 30
0.0
 11
-1.0
 21
0.1666666666666667
 31
0.0
  0
LINE
  5
59
330
57
100
AcDbEntity
  8
0
100
AcDbLine
 10
0.0
 20
0.0
 30
0.0
 11
-1.0
 21
-0.1666666666666667
 31
0.0
  0
LINE
  5
5A
330
57
100
AcDbEntity
  8
0
100
AcDbLine
 10
-1.0
 20
0.1666666666666667
 30
0.0
 11
-1.0
 21
-0.1666666666666667
 31
0.0
  0
LINE
  5
5B
330
57
100
AcDbEntity
  8
0
100
AcDbLine
 10
0.0
 20
0.0
 30
0.0
 11
-1.0
 21
0.0
 31
0.0
  0
ENDBLK
  5
5D
330
57
100
AcDbEntity
  8
0
100
AcDbBlockEnd
  0
BLOCK
  5
62
330
5E
100
AcDbEntity
  8
0
100
AcDbBlockBegin
  2
_CLOSEDBLANK
 70
     0
 10
0.0
 20
0.0
 30
0.0
  3
_CLOSEDBLANK
  1

  0
LINE
  5
5F
330
5E
100
AcDbEntity
  8
0
100
AcDbLine
 10
0.0
 20
0.0
 30
0.0
 11
-1.0
 21
0.1666666666666667
 31
0.0
  0
LINE
  5
60
330
5E
100
AcDbEntity
  8
0
100
AcDbLine
 10
0.0
 20
0.0
 30
0.0
 11
-1.0
 21
-0.1666666666666667
 31
0.0
  0
LINE
  5
61
330
5E
100
AcDbEntity
  8
0
100
AcDbLine
 10
-1.0
 20
0.1666666666666667
 30
0.0
 11
-1.0
 21
-0.1666666666666667
 31
0.0
  0
ENDBLK
  5
63
330
5E
100
AcDbEntity
  8
0
100
AcDbBlockEnd
  0
BLOCK
  5
66
330
64
100
AcDbEntity
  8
0
100
AcDbBlockBegin
  2
_ARROWFILLED
 70
     0
 10
0.0
 20
0.0
 30
0.0
  3
_ARROWFILLED
  1

  0
SOLID
  5
65
330
64
100
AcDbEntity
  8
0
100
AcDbTrace
 10
0.0
 20
0.0
 30
0.0
 11
-1.0
 21
-0.1666666666666667
 31
0.0
 12
-1.0
 22
0.1666666666666667
 32
0.0
 13
0.0
 23
0.0
 33
0.0
  0
ENDBLK
  5
67
330
64
100
AcDbEntity
  8
0
100
AcDbBlockEnd
  0
BLOCK
  5
6E
330
68
100
AcDbEntity
  8
0
100
AcDbBlockBegin
  2
_BOXBLANK
 70
     0
 10
0.0
 20
0.0
 30
0.0
  3
_BOXBLANK
  1

  0
LINE
  5
69
330
68
100
AcDbEntity
  8
0
100
AcDbLine
 10
-0.5
 20
-0.5
 30
0.0
 11
0.5
 21
-0.5
 31
0.0
  0
LINE
  5
6A
330
68
100
AcDbEntity
  8
0
100
AcDbLine
 10
0.5
 20
-0.5
 30
0.0
 11
0.5
 21
0.5
 31
0.0
  0
LINE
  5
6B
330
68
100
AcDbEntity
  8
0
100
AcDbLine
 10
0.5
 20
0.5
 30
0.0
 11
-0.5
 21
0.5
 31
0.0
  0
LINE
  5
6C
330
68
100
AcDbEntity
  8
0
100
AcDbLine
 10
-0.5
 20
0.5
 30
0.0
 11
-0.5
 21
-0.5
 31
0.0
  0
LINE
  5
6D
330
68
100
AcDbEntity
  8
0
100
AcDbLine
 10
-0.5
 20
0.0
 30
0.0
 11
-1.0
 21
0.0
 31
0.0
  0
ENDBLK
  5
6F
330
68
100
AcDbEntity
  8
0
100
AcDbBlockEnd
  0
BLOCK
  5
73
330
70
100
AcDbEntity
  8
0
100
AcDbBlockBegin
  2
_BOXFILLED
 70
     0
 10
0.0
 20
0.0
 30
0.0
  3
_BOXFILLED
  1

  0
SOLID
  5
71
330
70
100
AcDbEntity
  8
0
100
AcDbTrace
 10
-0.5
 20
0.5
 30
0.0
 11
0.5
 21
0.5
 31
0.0
 12
-0.5
 22
-0.5
 32
0.0
 13
0.5
 23
-0.5
 33
0.0
  0
LINE
  5
72
330
70
100
AcDbEntity
  8
0
100
AcDbLine
 10
-0.5
 20
0.0
 30
0.0
 11
-1.0
 21
0.0
 31
0.0
  0
ENDBLK
  5
74
330
70
100
AcDbEntity
  8
0
100
AcDbBlockEnd
  0
BLOCK
  5
78
330
75
100
AcDbEntity
  8
0
100
AcDbBlockBegin
  2
_INTEGRAL
 70
     0
 10
0.0
 20
0.0
 30
0.0
  3
_INTEGRAL
  1

  0
ARC
  5
76
330
75
100
AcDbEntity
  8
0
100
AcDbCircle
 10
0.444888
 20
-0.0913346
 30
0.0
 40
0.4541666
100
AcDbArc
 50
101.9999999999999
 51
167.9999999999998
  0
ARC
  5
77
330
75
100
AcDbEntity
  8
0
100
AcDbCircle
 10
-0.444888
 20
0.0913346
 30
0.0
 40
0.4541666
100
AcDbArc
 50
281.9999999999997
 51
347.9999999999997
  0
ENDBLK
  5
79
330
75
100
AcDbEntity
  8
0
100
AcDbBlockEnd
  0
BLOCK
  5
7C
330
7A
100
AcDbEntity
  8
0
100
AcDbBlockBegin
  2
_OBLIQUE
 70
     0
 10
0.0
 20
0.0
 30
0.0
  3
_OBLIQUE
  1

  0
LINE
  5
7B
330
7A
100
AcDbEntity
  8
0
100
AcDbLine
 10
-0.5
 20
-0.5
 30
0.0
 11
0.5
 21
0.5
 31
0.0
  0
ENDBLK
  5
7D
330
7A
100
AcDbEntity
  8
0
100
AcDbBlockEnd
  0
BLOCK
  5
7F
330
7E
100
AcDbEntity
  8
0
100
AcDbBlockBegin
  2
_NONE
 70
     0
 10
0.0
 20
0.0
 30
0.0
  3
_NONE
  1

  0
ENDBLK
  5
80
330
7E
100
AcDbEntity
  8
0
100
AcDbBlockEnd
  0
BLOCK
  5
84
330
81
100
AcDbEntity
  8
0
100
AcDbBlockBegin
  2
MARK_OPEN
 70
     0
 10
0.0
 20
0.0
 30
0.0
  3
MARK_OPEN
  1

  0
LINE
  5
82
330
81
100
AcDbEntity
  8
0
100
AcDbLine
 10
0.0
 20
0.0
 30
0.0
 11
-1.0
 21
0.1666666666666667
 31
0.0
  0
LINE
  5
83
330
81
100
AcDbEntity
  8
0
100
AcDbLine
 10
0.0
 20
0.0
 30
0.0
 11
-1.0
 21
-0.1666666666666667
 31
0.0
  0
ENDBLK
  5
85
330
81
100
AcDbEntity
  8
0
100
AcDbBlockEnd
  0
BLOCK
  5
88
330
86
100
AcDbEntity
  8
0
100
AcDbBlockBegin
  2
MARK_ORIGIN
 70
     0
 10
0.0
 20
0.0
 30
0.0
  3
MARK_ORIGIN
  1

  0
CIRCLE
  5
87
330
86
100
AcDbEntity
  8
0
100
AcDbCircle
 10
0.0
 20
0.0
 30
0.0
 40
0.5
  0
ENDBLK
  5
89
330
86
100
AcDbEntity
  8
0
100
AcDbBlockEnd
  0
BLOCK
  5
8C
330
8A
100
AcDbEntity
  8
0
100
AcDbBlockBegin
  2
MARK_DOT
 70
     0
 10
0.0
 20
0.0
 30
0.0
  3
MARK_DOT
  1

  0
LWPOLYLINE
  5
8B
330
8A
100
AcDbEntity
  8
0
100
AcDbPolyline
 90
        2
 70
     1
 43
0.5
 10
-0.25
 20
0.0
 42
1.0
 10
0.25
 20
0.0
 42
1.0
  0
ENDBLK
  5
8D
330
8A
100
AcDbEntity
  8
0
100
AcDbBlockEnd
  0
BLOCK
  5
38D
330
38C
100
AcDbEntity
  8
0
100
AcDbBlockBegin
  2
Dim1
 70
     0
 10
0.0
 20
0.0
 30
0.0
  3
Dim1
  1

  0
LINE
  5
38F
330
38C
100
AcDbEntity
  8
25
  6
Continuous
 62
     7
370
     9
100
AcDbLine
 10
142.2036885775632
 20
52.30607591782588
 30
0.0
 11
156.8893073442248
 21
82.53120542027965
 31
0.0
  0
MTEXT
  5
390
330
38C
100
AcDbEntity
  8
25
  6
Continuous
 62
     7
370
     9
100
AcDbMText
 10
154.2671841374445
 20
77.13449624815777
 30
0.0
 40
2.0
 41
34.51
 46
2.0
 71
     7
 72
     1
  1
φ21.5
  7
ＭＳ ゴシック
 11
0.4370205344633998
 21
0.8994515286869684
 31
0.0
 73
     1
 44
1.0
1001
ACAD
1000
ACAD_MTEXT_DEFINED_HEIGHT_BEGIN
1070
    46
1040
2.0
1000
ACAD_MTEXT_DEFINED_HEIGHT_END
  0
INSERT
  5
391
330
38C
100
AcDbEntity
  8
25
  6
Continuous
 62
     7
370
     9
100
AcDbBlockReference
  2
_OPEN
 10
142.2036885775632
 20
52.30607591782588
 30
0.0
 50
244.0860665223314
  0
INSERT
  5
392
330
38C
100
AcDbEntity
  8
25
  6
Continuous
 62
     7
370
     9
100
AcDbBlockReference
  2
_OPEN
 10
151.5996300685262
 20
71.64428378459553
 30
0.0
 50
64.08606652233138
  0
ENDBLK
  5
38E
330
38C
100
AcDbEntity
  8
0
100
AcDbBlockEnd
  0
BLOCK
  5
396
330
395
100
AcDbEntity
  8
0
100
AcDbBlockBegin
  2
Dim2
 70
     0
 10
0.0
 20
0.0
 30
0.0
  3
Dim2
  1

  0
LINE
  5
398
330
395
100
AcDbEntity
  8
25
  6
Continuous
 62
     7
370
     9
100
AcDbLine
 10
197.095785633271
 20
43.52517985121068
 30
0.0
 11
197.0957856332716
 21
36.16892236318981
 31
0.0
  0
LINE
  5
399
330
395
100
AcDbEntity
  8
25
  6
Continuous
 62
     7
370
     9
100
AcDbLine
 10
196.6957856332709
 20
44.17517985121071
 30
0.0
 11
196.6957856332717
 21
36.16892236318984
 31
0.0
  0
LINE
  5
39A
330
395
100
AcDbEntity
  8
25
  6
Continuous
 62
     7
370
     9
100
AcDbLine
 10
205.0957856332716
 20
37.16892236318924
 30
0.0
 11
188.6957856332716
 21
37.1689223631904
 31
0.0
  0
MTEXT
  5
39B
330
395
100
AcDbEntity
  8
25
  6
Continuous
 62
     7
370
     9
100
AcDbMText
 10
194.9742872368771
 20
37.66892236318996
 30
0.0
 40
2.0
 41
31.89
 46
2.0
 71
     9
 72
     1
  1
(0.4)
  7
ＭＳ ゴシック
 73
     1
 44
1.0
1001
ACAD
1000
ACAD_MTEXT_DEFINED_HEIGHT_BEGIN
1070
    46
1040
2.0
1000
ACAD_MTEXT_DEFINED_HEIGHT_END
  0
INSERT
  5
39C
330
395
100
AcDbEntity
  8
25
  6
Continuous
 62
     7
370
     9
100
AcDbBlockReference
  2
_OPEN
 10
197.0957856332716
 20
37.16892236318981
 30
0.0
 50
179.9999999999955
  0
INSERT
  5
39D
330
395
100
AcDbEntity
  8
25
  6
Continuous
 62
     7
370
     9
100
AcDbBlockReference
  2
_OPEN
 10
196.6957856332716
 20
37.16892236318984
 30
0.0
 50
359.9999999999956
  0
ENDBLK
  5
397
330
395
100
AcDbEntity
  8
0
100
AcDbBlockEnd
  0
BLOCK
  5
3A0
330
39F
100
AcDbEntity
  8
0
100
AcDbBlockBegin
  2
Dim3
 70
     0
 10
0.0
 20
0.0
 30
0.0
  3
Dim3
  1

  0
LINE
  5
3A2
330
39F
100
AcDbEntity
  8
25
  6
Continuous
 62
     7
370
     9
100
AcDbLine
 10
231.3244110564793
 20
52.9751798512106
 30
0.0
 11
249.941313615774
 21
52.97517985121055
 31
0.0
  0
LINE
  5
3A3
330
39F
100
AcDbEntity
  8
25
  6
Continuous
 62
     7
370
     9
100
AcDbLine
 10
231.3244110564793
 20
70.97517985121065
 30
0.0
 11
249.941313615774
 21
70.9751798512106
 31
0.0
  0
LINE
  5
3A4
330
39F
100
AcDbEntity
  8
25
  6
Continuous
 62
     7
370
     9
100
AcDbLine
 10
248.941313615774
 20
52.97517985121055
 30
0.0
 11
248.941313615774
 21
70.9751798512106
 31
0.0
  0
MTEXT
  5
3A5
330
39F
100
AcDbEntity
  8
25
  6
Continuous
 62
     7
370
     9
100
AcDbMText
 10
248.441313615774
 20
61.87463362643217
 30
0.0
 40
2.0
 41
21.18
 46
2.0
 71
     8
 72
     1
  1
φ18
  7
ＭＳ ゴシック
 11
1.615544574432587E-15
 21
1.0
 31
0.0
 73
     1
 44
1.0
1001
ACAD
1000
ACAD_MTEXT_DEFINED_HEIGHT_BEGIN
1070
    46
1040
2.0
1000
ACAD_MTEXT_DEFINED_HEIGHT_END
  0
INSERT
  5
3A6
330
39F
100
AcDbEntity
  8
25
  6
Continuous
 62
     7
370
     9
100
AcDbBlockReference
  2
_OPEN
 10
248.941313615774
 20
52.97517985121055
 30
0.0
 50
269.9999999999998
  0
INSERT
  5
3A7
330
39F
100
AcDbEntity
  8
25
  6
Continuous
 62
     7
370
     9
100
AcDbBlockReference
  2
_OPEN
 10
248.941313615774
 20
70.9751798512106
 30
0.0
 50
89.99999999999991
  0
ENDBLK
  5
3A1
330
39F
100
AcDbEntity
  8
0
100
AcDbBlockEnd
  0
BLOCK
  5
3AA
330
3A9
100
AcDbEntity
  8
0
100
AcDbBlockBegin
  2
Dim4
 70
     0
 10
0.0
 20
0.0
 30
0.0
  3
Dim4
  1

  0
LINE
  5
3AC
330
3A9
100
AcDbEntity
  8
25
  6
Continuous
 62
     7
370
     9
100
AcDbLine
 10
226.5957856332708
 20
45.97517985121065
 30
0.0
 11
254.6895150546229
 21
45.97517985121045
 31
0.0
  0
LINE
  5
3AD
330
3A9
100
AcDbEntity
  8
25
  6
Continuous
 62
     7
370
     9
100
AcDbLine
 10
226.5957856332708
 20
77.97517985121065
 30
0.0
 11
254.6895150546229
 21
77.97517985121047
 31
0.0
  0
LINE
  5
3AE
330
3A9
100
AcDbEntity
  8
25
  6
Continuous
 62
     7
370
     9
100
AcDbLine
 10
253.6895150546229
 20
45.97517985121046
 30
0.0
 11
253.6895150546229
 21
77.97517985121047
 31
0.0
  0
MTEXT
  5
3AF
330
3A9
100
AcDbEntity
  8
25
  6
Continuous
 62
     7
370
     9
100
AcDbMText
 10
253.1895150546229
 20
61.87463362643217
 30
0.0
 40
2.0
 41
24.51
 46
2.0
 71
     8
 72
     1
  1
φ32
  7
ＭＳ ゴシック
 11
1.615544574432587E-15
 21
1.0
 31
0.0
 73
     1
 44
1.0
1001
ACAD
1000
ACAD_MTEXT_DEFINED_HEIGHT_BEGIN
1070
    46
1040
2.0
1000
ACAD_MTEXT_DEFINED_HEIGHT_END
  0
INSERT
  5
3B0
330
3A9
100
AcDbEntity
  8
25
  6
Continuous
 62
     7
370
     9
100
AcDbBlockReference
  2
_OPEN
 10
253.6895150546229
 20
45.97517985121046
 30
0.0
 50
269.9999999999998
  0
INSERT
  5
3B1
330
3A9
100
AcDbEntity
  8
25
  6
Continuous
 62
     7
370
     9
100
AcDbBlockReference
  2
_OPEN
 10
253.6895150546229
 20
77.97517985121047
 30
0.0
 50
89.99999999999991
  0
ENDBLK
  5
3AB
330
3A9
100
AcDbEntity
  8
0
100
AcDbBlockEnd
  0
BLOCK
  5
3B4
330
3B3
100
AcDbEntity
  8
0
100
AcDbBlockBegin
  2
Dim5
 70
     0
 10
0.0
 20
0.0
 30
0.0
  3
Dim5
  1

  0
LINE
  5
3B6
330
3B3
100
AcDbEntity
  8
25
  6
Continuous
 62
     7
370
     9
100
AcDbLine
 10
221.5957856332709
 20
43.52517985121062
 30
0.0
 11
221.5957856332716
 21
36.16892236318978
 31
0.0
  0
LINE
  5
3B7
330
3B3
100
AcDbEntity
  8
25
  6
Continuous
 62
     7
370
     9
100
AcDbLine
 10
215.395785633271
 20
43.52517985121068
 30
0.0
 11
215.3957856332717
 21
36.16892236318978
 31
0.0
  0
LINE
  5
3B8
330
3B3
100
AcDbEntity
  8
25
  6
Continuous
 62
     7
370
     9
100
AcDbLine
 10
221.5957856332715
 20
37.16892236318978
 30
0.0
 11
215.3957856332716
 21
37.16892236318978
 31
0.0
  0
MTEXT
  5
3B9
330
3B3
100
AcDbEntity
  8
25
  6
Continuous
 62
     7
370
     9
100
AcDbMText
 10
218.4957856332708
 20
37.66892236318978
 30
0.0
 40
2.0
 41
20.21
 46
2.0
 71
     8
 72
     1
  1
6.2
  7
ＭＳ ゴシック
 73
     1
 44
1.0
1001
ACAD
1000
ACAD_MTEXT_DEFINED_HEIGHT_BEGIN
1070
    46
1040
2.0
1000
ACAD_MTEXT_DEFINED_HEIGHT_END
  0
INSERT
  5
3BA
330
3B3
100
AcDbEntity
  8
25
  6
Continuous
 62
     7
370
     9
100
AcDbBlockReference
  2
_OPEN
 10
221.5957856332715
 20
37.16892236318978
 30
0.0
 50
359.9999999999997
  0
INSERT
  5
3BB
330
3B3
100
AcDbEntity
  8
25
  6
Continuous
 62
     7
370
     9
100
AcDbBlockReference
  2
_OPEN
 10
215.3957856332716
 20
37.16892236318978
 30
0.0
 50
179.9999999999998
  0
ENDBLK
  5
3B5
330
3B3
100
AcDbEntity
  8
0
100
AcDbBlockEnd
  0
BLOCK
  5
3BE
330
3BD
100
AcDbEntity
  8
0
100
AcDbBlockBegin
  2
Dim6
 70
     0
 10
0.0
 20
0.0
 30
0.0
  3
Dim6
  1

  0
LINE
  5
3C0
330
3BD
100
AcDbEntity
  8
25
  6
Continuous
 62
     7
370
     9
100
AcDbLine
 10
242.4217856332709
 20
59.97517985121067
 30
0.0
 11
242.4217856332716
 21
29.97450500566572
 31
0.0
  0
LINE
  5
3C1
330
3BD
100
AcDbEntity
  8
25
  6
Continuous
 62
     7
370
     9
100
AcDbLine
 10
224.8957856332711
 20
34.54392236318984
 30
0.0
 11
224.8957856332717
 21
29.97450500566572
 31
0.0
  0
LINE
  5
3C2
330
3BD
100
AcDbEntity
  8
25
  6
Continuous
 62
     7
370
     9
100
AcDbLine
 10
242.4217856332716
 20
30.97450500566572
 30
0.0
 11
224.8957856332716
 21
30.97450500566572
 31
0.0
  0
MTEXT
  5
3C3
330
3BD
100
AcDbEntity
  8
25
  6
Continuous
 62
     7
370
     9
100
AcDbMText
 10
233.6587856332708
 20
31.47450500566572
 30
0.0
 40
2.0
 41
46.85000000000001
 46
2.0
 71
     8
 72
     1
  1
17.526
  7
ＭＳ ゴシック
 73
     1
 44
1.0
1001
ACAD
1000
ACAD_MTEXT_DEFINED_HEIGHT_BEGIN
1070
    46
1040
2.0
1000
ACAD_MTEXT_DEFINED_HEIGHT_END
  0
INSERT
  5
3C4
330
3BD
100
AcDbEntity
  8
25
  6
Continuous
 62
     7
370
     9
100
AcDbBlockReference
  2
_OPEN
 10
242.4217856332716
 20
30.97450500566572
 30
0.0
 50
359.9999999999997
  0
INSERT
  5
3C5
330
3BD
100
AcDbEntity
  8
25
  6
Continuous
 62
     7
370
     9
100
AcDbBlockReference
  2
_OPEN
 10
224.8957856332716
 20
30.97450500566572
 30
0.0
 50
179.9999999999998
  0
ENDBLK
  5
3BF
330
3BD
100
AcDbEntity
  8
0
100
AcDbBlockEnd
  0
BLOCK
  5
3C8
330
3C7
100
AcDbEntity
  8
0
100
AcDbBlockBegin
  2
Dim7
 70
     0
 10
0.0
 20
0.0
 30
0.0
  3
Dim7
  1

  0
LINE
  5
3CA
330
3C7
100
AcDbEntity
  8
25
  6
Continuous
 62
     7
370
     9
100
AcDbLine
 10
228.8957856332709
 20
47.77517985121068
 30
0.0
 11
228.8957856332717
 21
36.16892236318984
 31
0.0
  0
LINE
  5
3CB
330
3C7
100
AcDbEntity
  8
25
  6
Continuous
 62
     7
370
     9
100
AcDbLine
 10
224.895785633271
 20
44.27517985121068
 30
0.0
 11
224.8957856332717
 21
36.16892236318978
 31
0.0
  0
LINE
  5
3CC
330
3C7
100
AcDbEntity
  8
25
  6
Continuous
 62
     7
370
     9
100
AcDbLine
 10
228.8957856332716
 20
37.16892236318984
 30
0.0
 11
224.8957856332716
 21
37.16892236318978
 31
0.0
  0
MTEXT
  5
3CD
330
3C7
100
AcDbEntity
  8
25
  6
Continuous
 62
     7
370
     9
100
AcDbMText
 10
226.8957856332708
 20
37.66892236318981
 30
0.0
 40
2.0
 41
6.89
 46
2.0
 71
     8
 72
     1
  1
4
  7
ＭＳ ゴシック
 73
     1
 44
1.0
1001
ACAD
1000
ACAD_MTEXT_DEFINED_HEIGHT_BEGIN
1070
    46
1040
2.0
1000
ACAD_MTEXT_DEFINED_HEIGHT_END
  0
INSERT
  5
3CE
330
3C7
100
AcDbEntity
  8
25
  6
Continuous
 62
     7
370
     9
100
AcDbBlockReference
  2
_OPEN
 10
228.8957856332716
 20
37.16892236318984
 30
0.0
 50
0.0000000000006361
  0
INSERT
  5
3CF
330
3C7
100
AcDbEntity
  8
25
  6
Continuous
 62
     7
370
     9
100
AcDbBlockReference
  2
_OPEN
 10
224.8957856332716
 20
37.16892236318978
 30
0.0
 50
180.0000000000006
  0
ENDBLK
  5
3C9
330
3C7
100
AcDbEntity
  8
0
100
AcDbBlockEnd
  0
BLOCK
  5
3D2
330
3D1
100
AcDbEntity
  8
0
100
AcDbBlockBegin
  2
Dim8
 70
     0
 10
0.0
 20
0.0
 30
0.0
  3
Dim8
  1

  0
LINE
  5
3D4
330
3D1
100
AcDbEntity
  8
25
  6
Continuous
 62
     7
370
     9
100
AcDbLine
 10
224.895785633271
 20
44.27517985121068
 30
0.0
 11
224.8957856332717
 21
36.16892236318978
 31
0.0
  0
LINE
  5
3D5
330
3D1
100
AcDbEntity
  8
25
  6
Continuous
 62
     7
370
     9
100
AcDbLine
 10
221.5957856332709
 20
43.52517985121062
 30
0.0
 11
221.5957856332716
 21
36.16892236318978
 31
0.0
  0
LINE
  5
3D6
330
3D1
100
AcDbEntity
  8
25
  6
Continuous
 62
     7
370
     9
100
AcDbLine
 10
224.8957856332716
 20
37.16892236318978
 30
0.0
 11
221.5957856332715
 21
37.16892236318978
 31
0.0
  0
MTEXT
  5
3D7
330
3D1
100
AcDbEntity
  8
25
  6
Continuous
 62
     7
370
     9
100
AcDbMText
 10
223.2457856332708
 20
37.66892236318978
 30
0.0
 40
2.0
 41
20.18
 46
2.0
 71
     8
 72
     1
  1
3.3
  7
ＭＳ ゴシック
 73
     1
 44
1.0
1001
ACAD
1000
ACAD_MTEXT_DEFINED_HEIGHT_BEGIN
1070
    46
1040
2.0
1000
ACAD_MTEXT_DEFINED_HEIGHT_END
  0
INSERT
  5
3D8
330
3D1
100
AcDbEntity
  8
25
  6
Continuous
 62
     7
370
     9
100
AcDbBlockReference
  2
_OPEN
 10
224.8957856332716
 20
37.16892236318978
 30
0.0
 50
359.9999999999997
  0
INSERT
  5
3D9
330
3D1
100
AcDbEntity
  8
25
  6
Continuous
 62
     7
370
     9
100
AcDbBlockReference
  2
_OPEN
 10
221.5957856332715
 20
37.16892236318978
 30
0.0
 50
179.9999999999998
  0
ENDBLK
  5
3D3
330
3D1
100
AcDbEntity
  8
0
100
AcDbBlockEnd
  0
BLOCK
  5
3DC
330
3DB
100
AcDbEntity
  8
0
100
AcDbBlockBegin
  2
Dim9
 70
     0
 10
0.0
 20
0.0
 30
0.0
  3
Dim9
  1

  0
LINE
  5
3DE
330
3DB
100
AcDbEntity
  8
25
  6
Continuous
 62
     7
370
     9
100
AcDbLine
 10
203.395785633271
 20
43.52517985121068
 30
0.0
 11
203.3957856332717
 21
36.16892236318978
 31
0.0
  0
LINE
  5
3DF
330
3DB
100
AcDbEntity
  8
25
  6
Continuous
 62
     7
370
     9
100
AcDbLine
 10
197.095785633271
 20
43.52517985121068
 30
0.0
 11
197.0957856332717
 21
36.16892236318984
 31
0.0
  0
LINE
  5
3E0
330
3DB
100
AcDbEntity
  8
25
  6
Continuous
 62
     7
370
     9
100
AcDbLine
 10
203.3957856332716
 20
37.16892236318978
 30
0.0
 11
197.0957856332716
 21
37.16892236318984
 31
0.0
  0
MTEXT
  5
3E1
330
3DB
100
AcDbEntity
  8
25
  6
Continuous
 62
     7
370
     9
100
AcDbMText
 10
200.2457856332708
 20
37.66892236318981
 30
0.0
 40
2.0
 41
20.21
 46
2.0
 71
     8
 72
     1
  1
6.3
  7
ＭＳ ゴシック
 73
     1
 44
1.0
1001
ACAD
1000
ACAD_MTEXT_DEFINED_HEIGHT_BEGIN
1070
    46
1040
2.0
1000
ACAD_MTEXT_DEFINED_HEIGHT_END
  0
INSERT
  5
3E2
330
3DB
100
AcDbEntity
  8
25
  6
Continuous
 62
     7
370
     9
100
AcDbBlockReference
  2
_OPEN
 10
203.3957856332716
 20
37.16892236318978
 30
0.0
 50
359.9999999999993
  0
INSERT
  5
3E3
330
3DB
100
AcDbEntity
  8
25
  6
Continuous
 62
     7
370
     9
100
AcDbBlockReference
  2
_OPEN
 10
197.0957856332716
 20
37.16892236318984
 30
0.0
 50
179.9999999999993
  0
ENDBLK
  5
3DD
330
3DB
100
AcDbEntity
  8
0
100
AcDbBlockEnd
  0
BLOCK
  5
3E6
330
3E5
100
AcDbEntity
  8
0
100
AcDbBlockBegin
  2
Dim10
 70
     0
 10
0.0
 20
0.0
 30
0.0
  3
Dim10
  1

  0
LINE
  5
3E8
330
3E5
100
AcDbEntity
  8
25
  6
Continuous
 62
     7
370
     9
100
AcDbLine
 10
224.8957856332711
 20
34.54392236318984
 30
0.0
 11
224.8957856332717
 21
29.97450500566572
 31
0.0
  0
LINE
  5
3E9
330
3E5
100
AcDbEntity
  8
25
  6
Continuous
 62
     7
370
     9
100
AcDbLine
 10
196.695785633271
 20
34.54392236318984
 30
0.0
 11
196.6957856332717
 21
29.97450500566566
 31
0.0
  0
LINE
  5
3EA
330
3E5
100
AcDbEntity
  8
25
  6
Continuous
 62
     7
370
     9
100
AcDbLine
 10
224.8957856332716
 20
30.97450500566572
 30
0.0
 11
196.6957856332716
 21
30.97450500566566
 31
0.0
  0
MTEXT
  5
3EB
330
3E5
100
AcDbEntity
  8
25
  6
Continuous
 62
     7
370
     9
100
AcDbMText
 10
210.7957856332708
 20
31.47450500566569
 30
0.0
 40
2.0
 41
30.21
 46
2.0
 71
     8
 72
     1
  1
28.2
  7
ＭＳ ゴシック
 73
     1
 44
1.0
1001
ACAD
1000
ACAD_MTEXT_DEFINED_HEIGHT_BEGIN
1070
    46
1040
2.0
1000
ACAD_MTEXT_DEFINED_HEIGHT_END
  0
INSERT
  5
3EC
330
3E5
100
AcDbEntity
  8
25
  6
Continuous
 62
     7
370
     9
100
AcDbBlockReference
  2
_OPEN
 10
224.8957856332716
 20
30.97450500566572
 30
0.0
 50
359.9999999999999
  0
INSERT
  5
3ED
330
3E5
100
AcDbEntity
  8
25
  6
Continuous
 62
     7
370
     9
100
AcDbBlockReference
  2
_OPEN
 10
196.6957856332716
 20
30.97450500566566
 30
0.0
 50
179.9999999999999
  0
ENDBLK
  5
3E7
330
3E5
100
AcDbEntity
  8
0
100
AcDbBlockEnd
  0
BLOCK
  5
3F0
330
3EF
100
AcDbEntity
  8
0
100
AcDbBlockBegin
  2
Dim11
 70
     0
 10
0.0
 20
0.0
 30
0.0
  3
Dim11
  1

  0
LINE
  5
3F2
330
3EF
100
AcDbEntity
  8
25
  6
Continuous
 62
     7
370
     9
100
AcDbLine
 10
215.395785633271
 20
43.52517985121068
 30
0.0
 11
215.3957856332717
 21
36.16892236318978
 31
0.0
  0
LINE
  5
3F3
330
3EF
100
AcDbEntity
  8
25
  6
Continuous
 62
     7
370
     9
100
AcDbLine
 10
203.395785633271
 20
43.52517985121068
 30
0.0
 11
203.3957856332717
 21
36.16892236318978
 31
0.0
  0
LINE
  5
3F4
330
3EF
100
AcDbEntity
  8
25
  6
Continuous
 62
     7
370
     9
100
AcDbLine
 10
215.3957856332716
 20
37.16892236318978
 30
0.0
 11
203.3957856332716
 21
37.16892236318978
 31
0.0
  0
MTEXT
  5
3F5
330
3EF
100
AcDbEntity
  8
25
  6
Continuous
 62
     7
370
     9
100
AcDbMText
 10
209.3957856332708
 20
37.66892236318978
 30
0.0
 40
2.0
 41
13.52
 46
2.0
 71
     8
 72
     1
  1
12
  7
ＭＳ ゴシック
 73
     1
 44
1.0
1001
ACAD
1000
ACAD_MTEXT_DEFINED_HEIGHT_BEGIN
1070
    46
1040
2.0
1000
ACAD_MTEXT_DEFINED_HEIGHT_END
  0
INSERT
  5
3F6
330
3EF
100
AcDbEntity
  8
25
  6
Continuous
 62
     7
370
     9
100
AcDbBlockReference
  2
_OPEN
 10
215.3957856332716
 20
37.16892236318978
 30
0.0
 50
359.9999999999997
  0
INSERT
  5
3F7
330
3EF
100
AcDbEntity
  8
25
  6
Continuous
 62
     7
370
     9
100
AcDbBlockReference
  2
_OPEN
 10
203.3957856332716
 20
37.16892236318978
 30
0.0
 50
179.9999999999998
  0
ENDBLK
  5
3F1
330
3EF
100
AcDbEntity
  8
0
100
AcDbBlockEnd
  0
BLOCK
  5
41A
330
419
100
AcDbEntity
  8
0
100
AcDbBlockBegin
  2
Dim12
 70
     0
 10
0.0
 20
0.0
 30
0.0
  3
Dim12
  1

  0
LINE
  5
41C
330
419
100
AcDbEntity
  8
25
  6
Continuous
 62
     7
370
     9
100
AcDbLine
 10
194.8957856332708
 20
45.97517985121068
 30
0.0
 11
183.959305793625
 21
45.97517985121072
 31
0.0
  0
LINE
  5
41D
330
419
100
AcDbEntity
  8
25
  6
Continuous
 62
     7
370
     9
100
AcDbLine
 10
194.8957856332708
 20
77.97517985121068
 30
0.0
 11
183.959305793625
 21
77.97517985121071
 31
0.0
  0
LINE
  5
41E
330
419
100
AcDbEntity
  8
25
  6
Continuous
 62
     7
370
     9
100
AcDbLine
 10
184.959305793625
 20
45.97517985121071
 30
0.0
 11
184.959305793625
 21
77.97517985121071
 31
0.0
  0
MTEXT
  5
41F
330
419
100
AcDbEntity
  8
25
  6
Continuous
 62
     7
370
     9
100
AcDbMText
 10
184.459305793625
 20
62.08566480149213
 30
0.0
 40
2.0
 41
24.51
 46
2.0
 71
     8
 72
     1
  1
φ32
  7
ＭＳ ゴシック
 11
1.615544574432587E-15
 21
1.0
 31
0.0
 73
     1
 44
1.0
1001
ACAD
1000
ACAD_MTEXT_DEFINED_HEIGHT_BEGIN
1070
    46
1040
2.0
1000
ACAD_MTEXT_DEFINED_HEIGHT_END
  0
INSERT
  5
420
330
419
100
AcDbEntity
  8
25
  6
Continuous
 62
     7
370
     9
100
AcDbBlockReference
  2
_OPEN
 10
184.959305793625
 20
45.97517985121071
 30
0.0
 50
269.9999999999998
  0
INSERT
  5
421
330
419
100
AcDbEntity
  8
25
  6
Continuous
 62
     7
370
     9
100
AcDbBlockReference
  2
_OPEN
 10
184.959305793625
 20
77.97517985121071
 30
0.0
 50
89.99999999999991
  0
ENDBLK
  5
41B
330
419
100
AcDbEntity
  8
0
100
AcDbBlockEnd
  0
BLOCK
  5
424
330
423
100
AcDbEntity
  8
0
100
AcDbBlockBegin
  2
Dim13
 70
     0
 10
0.0
 20
0.0
 30
0.0
  3
Dim13
  1

  0
LINE
  5
426
330
423
100
AcDbEntity
  8
25
  6
Continuous
 62
     7
370
     9
100
AcDbLine
 10
195.3957856332708
 20
45.22517985121068
 30
0.0
 11
179.4616973088196
 21
45.22517985121073
 31
0.0
  0
LINE
  5
427
330
423
100
AcDbEntity
  8
25
  6
Continuous
 62
     7
370
     9
100
AcDbLine
 10
195.3957856332708
 20
78.72517985121067
 30
0.0
 11
179.4616973088196
 21
78.72517985121073
 31
0.0
  0
LINE
  5
428
330
423
100
AcDbEntity
  8
25
  6
Continuous
 62
     7
370
     9
100
AcDbLine
 10
180.4616973088196
 20
45.22517985121073
 30
0.0
 11
180.4616973088196
 21
78.72517985121073
 31
0.0
  0
MTEXT
  5
429
330
423
100
AcDbEntity
  8
25
  6
Continuous
 62
     7
370
     9
100
AcDbMText
 10
179.9616973088196
 20
61.98014921396214
 30
0.0
 40
2.0
 41
37.84
 46
2.0
 71
     8
 72
     1
  1
φ33.5
  7
ＭＳ ゴシック
 11
1.615544574432587E-15
 21
1.0
 31
0.0
 73
     1
 44
1.0
1001
ACAD
1000
ACAD_MTEXT_DEFINED_HEIGHT_BEGIN
1070
    46
1040
2.0
1000
ACAD_MTEXT_DEFINED_HEIGHT_END
  0
INSERT
  5
42A
330
423
100
AcDbEntity
  8
25
  6
Continuous
 62
     7
370
     9
100
AcDbBlockReference
  2
_OPEN
 10
180.4616973088196
 20
45.22517985121073
 30
0.0
 50
269.9999999999998
  0
INSERT
  5
42B
330
423
100
AcDbEntity
  8
25
  6
Continuous
 62
     7
370
     9
100
AcDbBlockReference
  2
_OPEN
 10
180.4616973088196
 20
78.72517985121073
 30
0.0
 50
89.99999999999991
  0
ENDBLK
  5
425
330
423
100
AcDbEntity
  8
0
100
AcDbBlockEnd
  0
BLOCK
  5
4CA
330
4C9
100
AcDbEntity
  8
0
100
AcDbBlockBegin
  2
*G29
 70
     1
 10
0.0
 20
0.0
 30
0.0
  3
*G29
  1

  0
LINE
  5
4CC
330
4C9
100
AcDbEntity
  8
1
  6
Continuous
 62
     7
370
     9
100
AcDbLine
 10
202.9135202932713
 20
78.72159416765156
 30
0.0
 11
202.9171059768304
 21
78.72517985121067
 31
0.0
  0
LINE
  5
4CD
330
4C9
100
AcDbEntity
  8
1
  6
Continuous
 62
     7
370
     9
100
AcDbLine
 10
202.1922235297983
 20
78.7074041853651
 30
0.0
 11
202.2099991956439
 21
78.72517985121067
 31
0.0
  0
LINE
  5
4CE
330
4C9
100
AcDbEntity
  8
1
  6
Continuous
 62
     7
370
     9
100
AcDbLine
 10
201.4709267663253
 20
78.69321420307865
 30
0.0
 11
201.5028924144573
 21
78.72517985121067
 31
0.0
  0
LINE
  5
4CF
330
4C9
100
AcDbEntity
  8
1
  6
Continuous
 62
     7
370
     9
100
AcDbLine
 10
198.9957856332708
 20
76.92517985121069
 30
0.0
 11
200.7957856332708
 21
78.72517985121067
 31
0.0
  0
LINE
  5
4D0
330
4C9
100
AcDbEntity
  8
1
  6
Continuous
 62
     7
370
     9
100
AcDbLine
 10
198.2886788520842
 20
76.92517985121069
 30
0.0
 11
200.0886788520842
 21
78.72517985121067
 31
0.0
  0
LINE
  5
4D1
330
4C9
100
AcDbEntity
  8
1
  6
Continuous
 62
     7
370
     9
100
AcDbLine
 10
197.5815720708977
 20
76.92517985121069
 30
0.0
 11
199.3815720708977
 21
78.72517985121067
 31
0.0
  0
LINE
  5
4D2
330
4C9
100
AcDbEntity
  8
1
  6
Continuous
 62
     7
370
     9
100
AcDbLine
 10
196.9351254614909
 20
76.9858400229905
 30
0.0
 11
198.6744652897111
 21
78.72517985121067
 31
0.0
  0
LINE
  5
4D3
330
4C9
100
AcDbEntity
  8
1
  6
Continuous
 62
     7
370
     9
100
AcDbLine
 10
196.6957856332708
 20
77.45360697595687
 30
0.0
 11
197.9673585085246
 21
78.72517985121067
 31
0.0
  0
ENDBLK
  5
4CB
330
4C9
100
AcDbEntity
  8
0
100
AcDbBlockEnd
  0
BLOCK
  5
4DB
330
4DA
100
AcDbEntity
  8
0
100
AcDbBlockBegin
  2
Dim14
 70
     0
 10
0.0
 20
0.0
 30
0.0
  3
Dim14
  1

  0
LINE
  5
4DD
330
4DA
100
AcDbEntity
  8
25
  6
Continuous
 62
     7
370
     9
100
AcDbLine
 10
229.5244110564795
 20
51.17517985121071
 30
0.0
 11
229.5244110564801
 21
36.16892236318984
 31
0.0
  0
LINE
  5
4DE
330
4DA
100
AcDbEntity
  8
25
  6
Continuous
 62
     7
370
     9
100
AcDbLine
 10
228.8957856332709
 20
47.77517985121068
 30
0.0
 11
228.8957856332714
 21
36.16892236318984
 31
0.0
  0
LINE
  5
4DF
330
4DA
100
AcDbEntity
  8
25
  6
Continuous
 62
     7
370
     9
100
AcDbLine
 10
237.5244110564801
 20
37.16892236318984
 30
0.0
 11
220.8957856332714
 21
37.16892236318984
 31
0.0
  0
MTEXT
  5
4E0
330
4DA
100
AcDbEntity
  8
25
  6
Continuous
 62
     7
370
     9
100
AcDbMText
 10
231.8781094527363
 20
37.66892236318984
 30
0.0
 40
2.0
 41
31.89
 46
2.0
 71
     7
 72
     1
  1
(0.6)
  7
ＭＳ ゴシック
 73
     1
 44
1.0
1001
ACAD
1000
ACAD_MTEXT_DEFINED_HEIGHT_BEGIN
1070
    46
1040
2.0
1000
ACAD_MTEXT_DEFINED_HEIGHT_END
  0
INSERT
  5
4E1
330
4DA
100
AcDbEntity
  8
25
  6
Continuous
 62
     7
370
     9
100
AcDbBlockReference
  2
_OPEN
 10
229.5244110564801
 20
37.16892236318984
 30
0.0
 50
179.9999999999995
  0
INSERT
  5
4E2
330
4DA
100
AcDbEntity
  8
25
  6
Continuous
 62
     7
370
     9
100
AcDbBlockReference
  2
_OPEN
 10
228.8957856332714
 20
37.16892236318984
 30
0.0
 50
359.9999999999997
  0
ENDBLK
  5
4DC
330
4DA
100
AcDbEntity
  8
0
100
AcDbBlockEnd
  0
ENDSEC
  0
SECTION
  2
ENTITIES
  0
LINE
  5
B4
330
1F
100
AcDbEntity
  8
1
  6
Continuous
 62
     7
370
     9
100
AcDbLine
 10
141.5936288471635
 20
64.53131457205222
 30
0.0
 11
143.9132257091562
 21
66.97477953867809
 31
0.0
  0
LINE
  5
B5
330
1F
100
AcDbEntity
  8
1
  6
Continuous
 62
     7
370
     9
100
AcDbLine
 10
142.7733733358366
 20
64.66234546757948
 30
0.0
 11
143.7916071007453
 21
65.68057923248818
 31
0.0
  0
LINE
  5
B6
330
1F
100
AcDbEntity
  8
1
  6
Continuous
 62
     7
370
     9
100
AcDbLine
 10
141.7398996568094
 20
57.77581914660675
 30
0.0
 11
142.758133421718
 21
58.79405291151539
 31
0.0
  0
LINE
  5
B7
330
1F
100
AcDbEntity
  8
1
  6
Continuous
 62
     7
370
     9
100
AcDbLine
 10
141.5936288471635
 20
56.61131457205221
 30
0.0
 11
143.9132257091562
 21
59.05477953867808
 31
0.0
  0
LINE
  5
B8
330
1F
100
AcDbEntity
  8
1
  6
Continuous
 62
     7
370
     9
100
AcDbLine
 10
142.7733733358366
 20
56.74234546757953
 30
0.0
 11
143.7916071007453
 21
57.76057923248817
 31
0.0
  0
LINE
  5
B9
330
1F
100
AcDbEntity
  8
1
  6
Continuous
 62
     7
370
     9
100
AcDbLine
 10
141.7398996568094
 20
65.69581914660677
 30
0.0
 11
142.758133421718
 21
66.71405291151541
 31
0.0
  0
LINE
  5
BA
330
1F
100
AcDbEntity
  8
1
  6
Continuous
 62
     7
370
     9
100
AcDbLine
 10
149.5136288471635
 20
64.53131457205222
 30
0.0
 11
151.8332257091562
 21
66.97477953867809
 31
0.0
  0
LINE
  5
BB
330
1F
100
AcDbEntity
  8
1
  6
Continuous
 62
     7
370
     9
100
AcDbLine
 10
150.6933733358366
 20
64.66234546757948
 30
0.0
 11
151.7116071007453
 21
65.68057923248818
 31
0.0
  0
LINE
  5
BC
330
1F
100
AcDbEntity
  8
1
  6
Continuous
 62
     7
370
     9
100
AcDbLine
 10
150.6933733358366
 20
56.74234546757953
 30
0.0
 11
151.7116071007453
 21
57.76057923248817
 31
0.0
  0
LINE
  5
BD
330
1F
100
AcDbEntity
  8
1
  6
Continuous
 62
     7
370
     9
100
AcDbLine
 10
149.6598996568094
 20
57.77581914660675
 30
0.0
 11
150.678133421718
 21
58.79405291151539
 31
0.0
  0
LINE
  5
BE
330
1F
100
AcDbEntity
  8
1
  6
Continuous
 62
     7
370
     9
100
AcDbLine
 10
149.5136288471635
 20
56.61131457205221
 30
0.0
 11
151.8332257091562
 21
59.05477953867808
 31
0.0
  0
LINE
  5
BF
330
1F
100
AcDbEntity
  8
1
  6
Continuous
 62
     7
370
     9
100
AcDbLine
 10
149.6598996568094
 20
65.69581914660677
 30
0.0
 11
150.678133421718
 21
66.71405291151541
 31
0.0
  0
ELLIPSE
  5
C0
330
1F
100
AcDbEntity
  8
1
  6
Continuous
 62
     7
370
     9
100
AcDbEllipse
 10
209.5957856332706
 20
76.3512015540324
 30
0.0
 11
1.25
 21
0.0
 31
0.0
210
0.0
220
0.0
230
1.0
 40
0.467039104197238
 41
0.0
 42
6.283185307179586
  0
ELLIPSE
  5
C1
330
1F
100
AcDbEntity
  8
1
  6
Continuous
 62
     7
370
     9
100
AcDbEllipse
 10
201.9957856332708
 20
76.48110567075167
 30
0.0
 11
-0.8499999999999943
 21
2.746425776535379E-15
 31
0.0
210
0.0
220
0.0
230
1.0
 40
0.5219879437762297
 41
0.0
 42
6.283185307179586
  0
POLYLINE
  5
C2
330
1F
100
AcDbEntity
  8
1
  6
Continuous
 62
     7
370
     9
100
AcDb2dPolyline
 66
     1
 10
0.0
 20
0.0
 30
0.0
 70
     2
  0
VERTEX
  5
C3
330
C2
100
AcDbEntity
  8
1
  6
Continuous
 62
     7
370
     9
100
AcDbVertex
100
AcDb2dVertex
 10
196.6957856332708
 20
75.10882402631893
 30
0.0
  0
VERTEX
  5
C4
330
C2
100
AcDbEntity
  8
1
  6
Continuous
 62
     7
370
     9
100
AcDbVertex
100
AcDb2dVertex
 10
196.7696101065198
 20
75.09210974947047
 30
0.0
  0
VERTEX
  5
C5
330
C2
100
AcDbEntity
  8
1
  6
Continuous
 62
     7
370
     9
100
AcDbVertex
100
AcDb2dVertex
 10
196.8469012453891
 20
75.07524213655617
 30
0.0
  0
VERTEX
  5
C6
330
C2
100
AcDbEntity
  8
1
  6
Continuous
 62
     7
370
     9
100
AcDbVertex
100
AcDb2dVertex
 10
196.9276590498787
 20
75.05822118757602
 30
0.0
  0
VERTEX
  5
C7
330
C2
100
AcDbEntity
  8
1
  6
Continuous
 62
     7
370
     9
100
AcDbVertex
100
AcDb2dVertex
 10
197.0118835199887
 20
75.04104690253006
 30
0.0
  0
VERTEX
  5
C8
330
C2
100
AcDbEntity
  8
1
  6
Continuous
 62
     7
370
     9
100
AcDbVertex
100
AcDb2dVertex
 10
197.099574655719
 20
75.02371928141821
 30
0.0
  0
VERTEX
  5
C9
330
C2
100
AcDbEntity
  8
1
  6
Continuous
 62
     7
370
     9
100
AcDbVertex
100
AcDb2dVertex
 10
197.1907324570695
 20
75.00623832424056
 30
0.0
  0
VERTEX
  5
CA
330
C2
100
AcDbEntity
  8
1
  6
Continuous
 62
     7
370
     9
100
AcDbVertex
100
AcDb2dVertex
 10
197.2853569240405
 20
74.98860403099707
 30
0.0
  0
VERTEX
  5
CB
330
C2
100
AcDbEntity
  8
1
  6
Continuous
 62
     7
370
     9
100
AcDbVertex
100
AcDb2dVertex
 10
197.3834480566317
 20
74.97081640168774
 30
0.0
  0
VERTEX
  5
CC
330
C2
100
AcDbEntity
  8
1
  6
Continuous
 62
     7
370
     9
100
AcDbVertex
100
AcDb2dVertex
 10
197.4850058548432
 20
74.95287543631257
 30
0.0
  0
VERTEX
  5
CD
330
C2
100
AcDbEntity
  8
1
  6
Continuous
 62
     7
370
     9
100
AcDbVertex
100
AcDb2dVertex
 10
197.590030318675
 20
74.93478113487154
 30
0.0
  0
VERTEX
  5
CE
330
C2
100
AcDbEntity
  8
1
  6
Continuous
 62
     7
370
     9
100
AcDbVertex
100
AcDb2dVertex
 10
197.6985214481272
 20
74.91653349736471
 30
0.0
  0
VERTEX
  5
CF
330
C2
100
AcDbEntity
  8
1
  6
Continuous
 62
     7
370
     9
100
AcDbVertex
100
AcDb2dVertex
 10
197.8104792431996
 20
74.89813252379203
 30
0.0
  0
VERTEX
  5
D0
330
C2
100
AcDbEntity
  8
1
  6
Continuous
 62
     7
370
     9
100
AcDbVertex
100
AcDb2dVertex
 10
197.9259037038924
 20
74.8795782141535
 30
0.0
  0
VERTEX
  5
D1
330
C2
100
AcDbEntity
  8
1
  6
Continuous
 62
     7
370
     9
100
AcDbVertex
100
AcDb2dVertex
 10
198.0447948302054
 20
74.86087056844914
 30
0.0
  0
VERTEX
  5
D2
330
C2
100
AcDbEntity
  8
1
  6
Continuous
 62
     7
370
     9
100
AcDbVertex
100
AcDb2dVertex
 10
198.1671526221389
 20
74.84200958667894
 30
0.0
  0
VERTEX
  5
D3
330
C2
100
AcDbEntity
  8
1
  6
Continuous
 62
     7
370
     9
100
AcDbVertex
100
AcDb2dVertex
 10
198.2929770796925
 20
74.8229952688429
 30
0.0
  0
VERTEX
  5
D4
330
C2
100
AcDbEntity
  8
1
  6
Continuous
 62
     7
370
     9
100
AcDbVertex
100
AcDb2dVertex
 10
198.4222682028665
 20
74.80382761494103
 30
0.0
  0
VERTEX
  5
D5
330
C2
100
AcDbEntity
  8
1
  6
Continuous
 62
     7
370
     9
100
AcDbVertex
100
AcDb2dVertex
 10
198.5550259916609
 20
74.7845066249733
 30
0.0
  0
VERTEX
  5
D6
330
C2
100
AcDbEntity
  8
1
  6
Continuous
 62
     7
370
     9
100
AcDbVertex
100
AcDb2dVertex
 10
198.6912504460755
 20
74.76503229893974
 30
0.0
  0
VERTEX
  5
D7
330
C2
100
AcDbEntity
  8
1
  6
Continuous
 62
     7
370
     9
100
AcDbVertex
100
AcDb2dVertex
 10
198.8309415661105
 20
74.74540463684036
 30
0.0
  0
SEQEND
  5
D8
330
C2
100
AcDbEntity
  8
1
  6
Continuous
 62
     7
370
     9
  0
ELLIPSE
  5
D9
330
1F
100
AcDbEntity
  8
1
  6
Continuous
 62
     7
370
     9
100
AcDbEllipse
 10
209.5957856332706
 20
46.99294036573986
 30
0.0
 11
2.0
 21
0.0
 31
0.0
210
0.0
220
0.0
230
1.0
 40
0.500000000000032
 41
0.0
 42
3.14159265358979
  0
ELLIPSE
  5
DA
330
1F
100
AcDbEntity
  8
1
  6
Continuous
 62
     7
370
     9
100
AcDbEllipse
 10
201.9957856332708
 20
47.46925403166972
 30
0.0
 11
-0.8499999999999943
 21
2.746425776535379E-15
 31
0.0
210
0.0
220
0.0
230
1.0
 40
0.5219879437762297
 41
0.0
 42
6.283185307179586
  0
CIRCLE
  5
DB
330
1F
100
AcDbEntity
  8
1
  6
Continuous
 62
     7
370
     9
100
AcDbCircle
 10
146.9016593230447
 20
61.97517985121067
 30
0.0
 40
16.45
  0
CIRCLE
  5
DC
330
1F
100
AcDbEntity
  8
1
  6
Continuous
 62
     7
370
     9
100
AcDbCircle
 10
146.9016593230447
 20
61.97517985121067
 30
0.0
 40
15.0
  0
CIRCLE
  5
DD
330
1F
100
AcDbEntity
  8
1
  6
Continuous
 62
     7
370
     9
100
AcDbCircle
 10
146.9016593230447
 20
61.97517985121067
 30
0.0
 40
16.0
  0
CIRCLE
  5
DE
330
1F
100
AcDbEntity
  8
1
  6
Continuous
 62
     7
370
     9
100
AcDbCircle
 10
146.9016593230447
 20
61.97517985121067
 30
0.0
 40
10.74999999999991
  0
CIRCLE
  5
DF
330
1F
100
AcDbEntity
  8
1
  6
Continuous
 62
     7
370
     9
100
AcDbCircle
 10
146.9016593230447
 20
61.97517985121067
 30
0.0
 40
11.84999999999991
  0
LINE
  5
E0
330
1F
100
AcDbEntity
  8
1
  6
Continuous
 62
     7
370
     9
100
AcDbLine
 10
141.2262207839694
 20
46.21599531046814
 30
0.0
 11
141.0651779778817
 21
46.59538838618869
 31
0.0
  0
LINE
  5
E1
330
1F
100
AcDbEntity
  8
1
  6
Continuous
 62
     7
370
     9
100
AcDbLine
 10
144.5141682308312
 20
45.39620562827997
 30
0.0
 11
144.8344726846951
 21
45.6555830607802
 31
0.0
  0
LINE
  5
E2
330
1F
100
AcDbEntity
  8
1
  6
Continuous
 62
     7
370
     9
100
AcDbLine
 10
142.2300558766784
 20
45.88982560457066
 30
0.0
 11
142.5833415112157
 21
46.10210102963231
 31
0.0
  0
LINE
  5
E3
330
1F
100
AcDbEntity
  8
1
  6
Continuous
 62
     7
370
     9
100
AcDbLine
 10
143.4747083428302
 20
45.57949423031619
 30
0.0
 11
143.2624314834302
 21
45.93278225199333
 31
0.0
  0
ARC
  5
E4
330
1F
100
AcDbEntity
  8
1
  6
Continuous
 62
     7
370
     9
100
AcDbCircle
 10
146.9016593230447
 20
61.97517985121067
 30
0.0
 40
16.75
100
AcDbArc
 50
250.1942615943664
 51
253.8053344278516
  0
ARC
  5
E5
330
1F
100
AcDbEntity
  8
1
  6
Continuous
 62
     7
370
     9
100
AcDbCircle
 10
146.9016593230447
 20
61.97517985121067
 30
0.0
 40
16.75
100
AcDbArc
 50
258.1942615943676
 51
261.8053344278516
  0
LINE
  5
E6
330
1F
100
AcDbEntity
  8
1
  6
Continuous
 62
     7
370
     9
100
AcDbLine
 10
136.0915244373723
 20
74.76984607403847
 30
0.0
 11
136.5006098820101
 21
74.71961669734685
 31
0.0
  0
LINE
  5
E7
330
1F
100
AcDbEntity
  8
1
  6
Continuous
 62
     7
370
     9
100
AcDbLine
 10
136.0914342257459
 20
49.18058984817696
 30
0.0
 11
136.5005169062248
 21
49.23081888547256
 31
0.0
  0
LINE
  5
E8
330
1F
100
AcDbEntity
  8
1
  6
Continuous
 62
     7
370
     9
100
AcDbLine
 10
131.8219987019482
 20
54.68365493850882
 30
0.0
 11
132.2161443165145
 21
54.56315253117356
 31
0.0
  0
LINE
  5
E9
330
1F
100
AcDbEntity
  8
1
  6
Continuous
 62
     7
370
     9
100
AcDbLine
 10
130.3963626464002
 20
64.82784204921956
 30
0.0
 11
130.7420270990054
 21
65.05231916943984
 31
0.0
  0
LINE
  5
EA
330
1F
100
AcDbEntity
  8
1
  6
Continuous
 62
     7
370
     9
100
AcDbLine
 10
130.3963425334242
 20
59.12263402786715
 30
0.0
 11
130.7420046504015
 21
58.89815842442147
 31
0.0
  0
LINE
  5
EB
330
1F
100
AcDbEntity
  8
1
  6
Continuous
 62
     7
370
     9
100
AcDbLine
 10
130.6630382708053
 20
57.86790748116186
 30
0.0
 11
130.8875153910256
 21
58.21357193376707
 31
0.0
  0
LINE
  5
EC
330
1F
100
AcDbEntity
  8
1
  6
Continuous
 62
     7
370
     9
100
AcDbLine
 10
130.9539687896849
 20
56.85329868779178
 30
0.0
 11
131.3275079125224
 21
56.67911453419214
 31
0.0
  0
ARC
  5
ED
330
1F
100
AcDbEntity
  8
1
  6
Continuous
 62
     7
370
     9
100
AcDbCircle
 10
146.9016593230447
 20
61.97517985121067
 30
0.0
 40
16.75
100
AcDbArc
 50
194.1942615943678
 51
197.8053344278502
  0
ARC
  5
EE
330
1F
100
AcDbEntity
  8
1
  6
Continuous
 62
     7
370
     9
100
AcDbCircle
 10
146.9016593230447
 20
61.97517985121067
 30
0.0
 40
16.75
100
AcDbArc
 50
170.194261594366
 51
189.8053344278508
  0
LINE
  5
EF
330
1F
100
AcDbEntity
  8
1
  6
Continuous
 62
     7
370
     9
100
AcDbLine
 10
131.3926932468446
 20
55.64789992637128
 30
0.0
 11
131.5668785774011
 21
56.02144157320089
 31
0.0
  0
ARC
  5
F0
330
1F
100
AcDbEntity
  8
1
  6
Continuous
 62
     7
370
     9
100
AcDbCircle
 10
146.9016593230447
 20
61.97517985121067
 30
0.0
 40
16.75
100
AcDbArc
 50
202.1942615943671
 51
205.8053344278528
  0
LINE
  5
F1
330
1F
100
AcDbEntity
  8
1
  6
Continuous
 62
     7
370
     9
100
AcDbLine
 10
132.4242126063698
 20
53.55104567814345
 30
0.0
 11
132.5447158279361
 21
53.94519395593926
 31
0.0
  0
ARC
  5
F2
330
1F
100
AcDbEntity
  8
1
  6
Continuous
 62
     7
370
     9
100
AcDbCircle
 10
146.9016593230447
 20
61.97517985121067
 30
0.0
 40
16.75
100
AcDbArc
 50
210.1942615943684
 51
213.8053344278502
  0
LINE
  5
F3
330
1F
100
AcDbEntity
  8
1
  6
Continuous
 62
     7
370
     9
100
AcDbLine
 10
132.9835370553414
 20
52.65593242766499
 30
0.0
 11
133.390617565583
 21
52.59145720888336
 31
0.0
  0
LINE
  5
F4
330
1F
100
AcDbEntity
  8
1
  6
Continuous
 62
     7
370
     9
100
AcDbLine
 10
135.307050407829
 20
49.88685721723033
 30
0.0
 11
135.3142435498664
 21
50.29895204855546
 31
0.0
  0
ARC
  5
F5
330
1F
100
AcDbEntity
  8
1
  6
Continuous
 62
     7
370
     9
100
AcDbCircle
 10
146.9016593230447
 20
61.97517985121067
 30
0.0
 40
16.75
100
AcDbArc
 50
226.194261594368
 51
229.8053344278511
  0
LINE
  5
F6
330
1F
100
AcDbEntity
  8
1
  6
Continuous
 62
     7
370
     9
100
AcDbLine
 10
133.7375189983835
 20
51.61815761928375
 30
0.0
 11
133.8019946528221
 21
52.02524088015548
 31
0.0
  0
LINE
  5
F7
330
1F
100
AcDbEntity
  8
1
  6
Continuous
 62
     7
370
     9
100
AcDbLine
 10
134.4159758270461
 20
50.80959846743366
 30
0.0
 11
134.8280678738783
 21
50.80240537399982
 31
0.0
  0
ARC
  5
F8
330
1F
100
AcDbEntity
  8
1
  6
Continuous
 62
     7
370
     9
100
AcDbCircle
 10
146.9016593230447
 20
61.97517985121067
 30
0.0
 40
16.75
100
AcDbArc
 50
218.1942615943668
 51
221.8053344278531
  0
LINE
  5
F9
330
1F
100
AcDbEntity
  8
1
  6
Continuous
 62
     7
370
     9
100
AcDbLine
 10
131.8220501129866
 20
69.26681108653321
 30
0.0
 11
132.2161983907824
 21
69.38731430809952
 31
0.0
  0
LINE
  5
FA
330
1F
100
AcDbEntity
  8
1
  6
Continuous
 62
     7
370
     9
100
AcDbLine
 10
131.3927378592507
 20
68.30256912561691
 30
0.0
 11
131.5669220128504
 21
67.92903000277937
 31
0.0
  0
LINE
  5
FB
330
1F
100
AcDbEntity
  8
1
  6
Continuous
 62
     7
370
     9
100
AcDbLine
 10
130.9540049031458
 20
67.0971734575595
 30
0.0
 11
131.3275465499754
 21
67.271358788116
 31
0.0
  0
LINE
  5
FC
330
1F
100
AcDbEntity
  8
1
  6
Continuous
 62
     7
370
     9
100
AcDbLine
 10
130.6630672305282
 20
66.08256671549077
 30
0.0
 11
130.8875428339739
 21
65.73690459851355
 31
0.0
  0
ARC
  5
FD
330
1F
100
AcDbEntity
  8
1
  6
Continuous
 62
     7
370
     9
100
AcDbCircle
 10
146.9016593230447
 20
61.97517985121067
 30
0.0
 40
16.75
100
AcDbArc
 50
162.1942615943692
 51
165.8053344278526
  0
ARC
  5
FE
330
1F
100
AcDbEntity
  8
1
  6
Continuous
 62
     7
370
     9
100
AcDbCircle
 10
146.9016593230447
 20
61.97517985121067
 30
0.0
 40
16.75
100
AcDbArc
 50
154.1942615943669
 51
157.8053344278535
  0
LINE
  5
FF
330
1F
100
AcDbEntity
  8
1
  6
Continuous
 62
     7
370
     9
100
AcDbLine
 10
135.3071356397657
 20
74.0635842354908
 30
0.0
 11
135.3143287331996
 21
73.65149218865866
 31
0.0
  0
ARC
  5
100
330
1F
100
AcDbEntity
  8
1
  6
Continuous
 62
     7
370
     9
100
AcDbCircle
 10
146.9016593230447
 20
61.97517985121067
 30
0.0
 40
16.75
100
AcDbArc
 50
130.1942615943662
 51
133.80533442785
  0
LINE
  5
101
330
1F
100
AcDbEntity
  8
1
  6
Continuous
 62
     7
370
     9
100
AcDbLine
 10
134.4160545529941
 20
73.14084926804776
 30
0.0
 11
134.8281493843192
 21
73.14804241008511
 31
0.0
  0
LINE
  5
102
330
1F
100
AcDbEntity
  8
1
  6
Continuous
 62
     7
370
     9
100
AcDbLine
 10
133.7375920234061
 20
72.33229489984205
 30
0.0
 11
133.8020672421877
 21
71.92521438960046
 31
0.0
  0
LINE
  5
103
330
1F
100
AcDbEntity
  8
1
  6
Continuous
 62
     7
370
     9
100
AcDbLine
 10
132.9836027633
 20
71.294525407619
 30
0.0
 11
133.3906860241717
 21
71.35900106205764
 31
0.0
  0
LINE
  5
104
330
1F
100
AcDbEntity
  8
1
  6
Continuous
 62
     7
370
     9
100
AcDbLine
 10
132.4242720031293
 20
70.39941610081542
 30
0.0
 11
132.5447744104647
 21
70.00527048624906
 31
0.0
  0
ARC
  5
105
330
1F
100
AcDbEntity
  8
1
  6
Continuous
 62
     7
370
     9
100
AcDbCircle
 10
146.9016593230447
 20
61.97517985121067
 30
0.0
 40
16.75
100
AcDbArc
 50
146.1942615943688
 51
149.8053344278505
  0
ARC
  5
106
330
1F
100
AcDbEntity
  8
1
  6
Continuous
 62
     7
370
     9
100
AcDbCircle
 10
146.9016593230447
 20
61.97517985121067
 30
0.0
 40
16.75
100
AcDbArc
 50
138.1942615943682
 51
141.8053344278507
  0
LINE
  5
107
330
1F
100
AcDbEntity
  8
1
  6
Continuous
 62
     7
370
     9
100
AcDbLine
 10
137.1022576911371
 20
48.3908422649842
 30
0.0
 11
137.0520283144454
 21
48.7999277096219
 31
0.0
  0
LINE
  5
108
330
1F
100
AcDbEntity
  8
1
  6
Continuous
 62
     7
370
     9
100
AcDbLine
 10
140.0368709697391
 20
46.69652870445299
 30
0.0
 11
140.4162614819299
 21
46.85757042238686
 31
0.0
  0
LINE
  5
109
330
1F
100
AcDbEntity
  8
1
  6
Continuous
 62
     7
370
     9
100
AcDbLine
 10
137.9773013595158
 20
47.80061336969885
 30
0.0
 11
138.3754123445906
 21
47.90728688664763
 31
0.0
  0
LINE
  5
10A
330
1F
100
AcDbEntity
  8
1
  6
Continuous
 62
     7
370
     9
100
AcDbLine
 10
139.088199180556
 20
47.15923099189894
 30
0.0
 11
138.9815249428177
 21
47.55734466699715
 31
0.0
  0
ARC
  5
10B
330
1F
100
AcDbEntity
  8
1
  6
Continuous
 62
     7
370
     9
100
AcDbCircle
 10
146.9016593230447
 20
61.97517985121067
 30
0.0
 40
16.75
100
AcDbArc
 50
242.1942615943664
 51
245.8053344278514
  0
ARC
  5
10C
330
1F
100
AcDbEntity
  8
1
  6
Continuous
 62
     7
370
     9
100
AcDbCircle
 10
146.9016593230447
 20
61.97517985121067
 30
0.0
 40
16.75
100
AcDbArc
 50
234.1942615943686
 51
237.8053344278521
  0
LINE
  5
10D
330
1F
100
AcDbEntity
  8
1
  6
Continuous
 62
     7
370
     9
100
AcDbLine
 10
140.0369786957426
 20
77.25387939944267
 30
0.0
 11
140.4163717714631
 21
77.092836593355
 31
0.0
  0
LINE
  5
10E
330
1F
100
AcDbEntity
  8
1
  6
Continuous
 62
     7
370
     9
100
AcDbLine
 10
139.0883036441885
 20
76.79118380084861
 30
0.0
 11
138.9816301272398
 21
76.39307281577373
 31
0.0
  0
LINE
  5
10F
330
1F
100
AcDbEntity
  8
1
  6
Continuous
 62
     7
370
     9
100
AcDbLine
 10
137.977401300954
 20
76.14980925571894
 30
0.0
 11
138.3755149760522
 21
76.0431350179806
 31
0.0
  0
ARC
  5
110
330
1F
100
AcDbEntity
  8
1
  6
Continuous
 62
     7
370
     9
100
AcDbCircle
 10
146.9016593230447
 20
61.97517985121067
 30
0.0
 40
16.75
100
AcDbArc
 50
114.1942615943676
 51
117.8053344278521
  0
LINE
  5
111
330
1F
100
AcDbEntity
  8
1
  6
Continuous
 62
     7
370
     9
100
AcDbLine
 10
137.1023534710451
 20
75.55958653015574
 30
0.0
 11
137.0521244337495
 21
75.1505038496768
 31
0.0
  0
ARC
  5
112
330
1F
100
AcDbEntity
  8
1
  6
Continuous
 62
     7
370
     9
100
AcDbCircle
 10
146.9016593230447
 20
61.97517985121067
 30
0.0
 40
16.75
100
AcDbArc
 50
122.1942615943669
 51
125.8053344278514
  0
LINE
  5
113
330
1F
100
AcDbEntity
  8
1
  6
Continuous
 62
     7
370
     9
100
AcDbLine
 10
144.5142851249664
 20
78.5541709073139
 30
0.0
 11
144.8345917431174
 21
78.29479172220852
 31
0.0
  0
LINE
  5
114
330
1F
100
AcDbEntity
  8
1
  6
Continuous
 62
     7
370
     9
100
AcDbLine
 10
143.4748239446705
 20
78.37088963424611
 30
0.0
 11
143.2625485196089
 21
78.01760399970885
 31
0.0
  0
LINE
  5
115
330
1F
100
AcDbEntity
  8
1
  6
Continuous
 62
     7
370
     9
100
AcDbLine
 10
142.2301692904832
 20
78.06056703572318
 30
0.0
 11
142.5834573121603
 21
77.84829017632325
 31
0.0
  0
LINE
  5
116
330
1F
100
AcDbEntity
  8
1
  6
Continuous
 62
     7
370
     9
100
AcDbLine
 10
141.2263318980605
 20
77.73440440761647
 30
0.0
 11
141.0652901801267
 21
77.35501389542566
 31
0.0
  0
ARC
  5
117
330
1F
100
AcDbEntity
  8
1
  6
Continuous
 62
     7
370
     9
100
AcDbCircle
 10
146.9016593230447
 20
61.97517985121067
 30
0.0
 40
16.75
100
AcDbArc
 50
106.1942615943674
 51
109.8053344278513
  0
ARC
  5
118
330
1F
100
AcDbEntity
  8
1
  6
Continuous
 62
     7
370
     9
100
AcDbCircle
 10
146.9016593230447
 20
61.97517985121067
 30
0.0
 40
16.75
100
AcDbArc
 50
98.19426159436739
 51
101.8053344278512
  0
LINE
  5
119
330
1F
100
AcDbEntity
  8
1
  6
Continuous
 62
     7
370
     9
100
AcDbLine
 10
204.6957856332709
 20
78.57517985121069
 30
0.0
 11
214.5957856332708
 21
78.57517985121069
 31
0.0
  0
LINE
  5
11A
330
1F
100
AcDbEntity
  8
1
  6
Continuous
 62
     7
370
     9
100
AcDbLine
 10
211.5957856332706
 20
45.3751798512107
 30
0.0
 11
214.5957856332708
 21
45.3751798512107
 31
0.0
  0
LINE
  5
11B
330
1F
100
AcDbEntity
  8
1
  6
Continuous
 62
     7
370
     9
100
AcDbLine
 10
209.3174394313505
 20
47.98320843448147
 30
0.0
 11
209.3174394313505
 21
44.77891444047901
 31
0.0
  0
LINE
  5
11C
330
1F
100
AcDbEntity
  8
1
  6
Continuous
 62
     7
370
     9
100
AcDbLine
 10
209.0445109216366
 20
47.9542020616783
 30
0.0
 11
209.0445109216366
 21
44.74990806767585
 31
0.0
  0
LINE
  5
11D
330
1F
100
AcDbEntity
  8
1
  6
Continuous
 62
     7
370
     9
100
AcDbLine
 10
208.782312347119
 20
47.90648582338252
 30
0.0
 11
208.782312347119
 21
44.70219182938013
 31
0.0
  0
LINE
  5
11E
330
1F
100
AcDbEntity
  8
1
  6
Continuous
 62
     7
370
     9
100
AcDbLine
 10
208.5359471048042
 20
47.84098846189636
 30
0.0
 11
208.5359471048042
 21
44.63669446789396
 31
0.0
  0
LINE
  5
11F
330
1F
100
AcDbEntity
  8
1
  6
Continuous
 62
     7
370
     9
100
AcDbLine
 10
209.5957856332706
 20
44.7886463717374
 30
0.0
 11
209.5957856332706
 21
47.99294036573997
 31
0.0
  0
LINE
  5
120
330
1F
100
AcDbEntity
  8
1
  6
Continuous
 62
     7
370
     9
100
AcDbLine
 10
209.8741318351908
 20
47.98320843448147
 30
0.0
 11
209.8741318351908
 21
44.77891444047901
 31
0.0
  0
LINE
  5
121
330
1F
100
AcDbEntity
  8
1
  6
Continuous
 62
     7
370
     9
100
AcDbLine
 10
210.1470603449046
 20
47.9542020616783
 30
0.0
 11
210.1470603449046
 21
44.74990806767585
 31
0.0
  0
LINE
  5
122
330
1F
100
AcDbEntity
  8
1
  6
Continuous
 62
     7
370
     9
100
AcDbLine
 10
210.4092589194222
 20
47.90648582338252
 30
0.0
 11
210.4092589194222
 21
44.70219182938013
 31
0.0
  0
LINE
  5
123
330
1F
100
AcDbEntity
  8
1
  6
Continuous
 62
     7
370
     9
100
AcDbLine
 10
210.655624161737
 20
47.84098846189636
 30
0.0
 11
210.655624161737
 21
44.63669446789396
 31
0.0
  0
LINE
  5
124
330
1F
100
AcDbEntity
  8
1
  6
Continuous
 62
     7
370
     9
100
AcDbLine
 10
210.8813608526437
 20
47.75898480885888
 30
0.0
 11
210.8813608526437
 21
44.55469081485649
 31
0.0
  0
LINE
  5
125
330
1F
100
AcDbEntity
  8
1
  6
Continuous
 62
     7
370
     9
100
AcDbLine
 10
211.0820752842254
 20
47.66207097209895
 30
0.0
 11
211.0820752842254
 21
44.45777697809638
 31
0.0
  0
LINE
  5
126
330
1F
100
AcDbEntity
  8
1
  6
Continuous
 62
     7
370
     9
100
AcDbLine
 10
211.2538607783807
 20
47.5521332692108
 30
0.0
 11
211.2538607783807
 21
44.34783927520829
 31
0.0
  0
LINE
  5
127
330
1F
100
AcDbEntity
  8
1
  6
Continuous
 62
     7
370
     9
100
AcDbLine
 10
211.3933737258689
 20
47.43131151252896
 30
0.0
 11
211.3933737258689
 21
44.22701751852657
 31
0.0
  0
LINE
  5
128
330
1F
100
AcDbEntity
  8
1
  6
Continuous
 62
     7
370
     9
100
AcDbLine
 10
211.5957856332706
 20
46.99294036573986
 30
0.0
 11
211.5957856332706
 21
43.78864637173746
 31
0.0
  0
LINE
  5
129
330
1F
100
AcDbEntity
  8
1
  6
Continuous
 62
     7
370
     9
100
AcDbLine
 10
211.4978986658609
 20
47.30195736011478
 30
0.0
 11
211.4978986658609
 21
44.09766336611239
 31
0.0
  0
LINE
  5
12A
330
1F
100
AcDbEntity
  8
1
  6
Continuous
 62
     7
370
     9
100
AcDbLine
 10
211.565401139295
 20
47.16658854340676
 30
0.0
 11
211.565401139295
 21
43.96229454940453
 31
0.0
  0
LINE
  5
12B
330
1F
100
AcDbEntity
  8
1
  6
Continuous
 62
     7
370
     9
100
AcDbLine
 10
208.3102104138975
 20
47.75898480885888
 30
0.0
 11
208.3102104138975
 21
44.55469081485649
 31
0.0
  0
LINE
  5
12C
330
1F
100
AcDbEntity
  8
1
  6
Continuous
 62
     7
370
     9
100
AcDbLine
 10
208.1094959823158
 20
47.66207097209895
 30
0.0
 11
208.1094959823158
 21
44.45777697809638
 31
0.0
  0
LINE
  5
12D
330
1F
100
AcDbEntity
  8
1
  6
Continuous
 62
     7
370
     9
100
AcDbLine
 10
207.9377104881605
 20
47.5521332692108
 30
0.0
 11
207.9377104881605
 21
44.34783927520829
 31
0.0
  0
LINE
  5
12E
330
1F
100
AcDbEntity
  8
1
  6
Continuous
 62
     7
370
     9
100
AcDbLine
 10
207.7981975406723
 20
47.43131151252896
 30
0.0
 11
207.7981975406723
 21
44.22701751852657
 31
0.0
  0
LINE
  5
12F
330
1F
100
AcDbEntity
  8
1
  6
Continuous
 62
     7
370
     9
100
AcDbLine
 10
203.0957856332708
 20
46.25488330221788
 30
0.0
 11
203.3957856332708
 21
46.44199767492319
 31
0.0
  0
LINE
  5
130
330
1F
100
AcDbEntity
  8
1
  6
Continuous
 62
     7
370
     9
100
AcDbLine
 10
207.5957856332706
 20
46.99294036573986
 30
0.0
 11
207.5957856332706
 21
43.78864637173746
 31
0.0
  0
LINE
  5
131
330
1F
100
AcDbEntity
  8
1
  6
Continuous
 62
     7
370
     9
100
AcDbLine
 10
207.6936726006803
 20
47.30195736011478
 30
0.0
 11
207.6936726006803
 21
44.09766336611239
 31
0.0
  0
LINE
  5
132
330
1F
100
AcDbEntity
  8
1
  6
Continuous
 62
     7
370
     9
100
AcDbLine
 10
207.6261701272462
 20
47.16658854340676
 30
0.0
 11
207.6261701272462
 21
43.96229454940453
 31
0.0
  0
LINE
  5
133
330
1F
100
AcDbEntity
  8
1
  6
Continuous
 62
     7
370
     9
100
AcDbLine
 10
203.0957856332708
 20
46.25488330221788
 30
0.0
 11
203.0957856332708
 21
49.10750473124216
 31
0.0
  0
LINE
  5
134
330
1F
100
AcDbEntity
  8
1
  6
Continuous
 62
     7
370
     9
100
AcDbLine
 10
197.3957856332708
 20
46.25488330221788
 30
0.0
 11
197.0957856332708
 21
46.44199767492319
 31
0.0
  0
LINE
  5
135
330
1F
100
AcDbEntity
  8
1
  6
Continuous
 62
     7
370
     9
100
AcDbLine
 10
197.3957856332708
 20
46.25488330221788
 30
0.0
 11
197.3957856332708
 21
49.10750473124216
 31
0.0
  0
LINE
  5
136
330
1F
100
AcDbEntity
  8
1
  6
Continuous
 62
     7
370
     9
100
AcDbLine
 10
197.0957856332708
 20
45.52517985121068
 30
0.0
 11
197.0957856332708
 21
61.97517985121067
 31
0.0
  0
LINE
  5
137
330
1F
100
AcDbEntity
  8
1
  6
Continuous
 62
     7
370
     9
100
AcDbLine
 10
203.3957856332708
 20
45.52517985121074
 30
0.0
 11
203.3957856332707
 21
61.97517985121067
 31
0.0
  0
LINE
  5
138
330
1F
100
AcDbEntity
  8
1
  6
Continuous
 62
     7
370
     9
100
AcDbLine
 10
204.6957856332708
 20
61.97517985121067
 30
0.0
 11
204.6957856332708
 21
45.3751798512107
 31
0.0
  0
LINE
  5
139
330
1F
100
AcDbEntity
  8
1
  6
Continuous
 62
     7
370
     9
100
AcDbLine
 10
203.8957856332708
 20
61.97517985121067
 30
0.0
 11
203.8957856332708
 21
45.67517985121066
 31
0.0
  0
LINE
  5
13A
330
1F
100
AcDbEntity
  8
1
  6
Continuous
 62
     7
370
     9
100
AcDbLine
 10
196.6957856332708
 20
61.97517985121067
 30
0.0
 11
196.6957856332708
 21
46.17517985121071
 31
0.0
  0
LINE
  5
13B
330
1F
100
AcDbEntity
  8
1
  6
Continuous
 62
     7
370
     9
100
AcDbLine
 10
158.3195064126062
 20
44.31856563597069
 30
0.0
 11
156.4695064126062
 21
47.52285962997314
 31
0.0
  0
LINE
  5
13C
330
1F
100
AcDbEntity
  8
1
  6
Continuous
 62
     7
370
     9
100
AcDbLine
 10
159.1073963869496
 20
44.77345412474972
 30
0.0
 11
157.2573963869496
 21
47.97774811875212
 31
0.0
  0
LINE
  5
13D
330
1F
100
AcDbEntity
  8
1
  6
Continuous
 62
     7
370
     9
100
AcDbLine
 10
159.0489375301374
 20
44.73970288803264
 30
0.0
 11
157.1989375301374
 21
47.94399688203509
 31
0.0
  0
LINE
  5
13E
330
1F
100
AcDbEntity
  8
1
  6
Continuous
 62
     7
370
     9
100
AcDbLine
 10
158.9584162767753
 20
44.68744041803666
 30
0.0
 11
157.1084162767753
 21
47.89173441203911
 31
0.0
  0
LINE
  5
13F
330
1F
100
AcDbEntity
  8
1
  6
Continuous
 62
     7
370
     9
100
AcDbLine
 10
158.8375945200936
 20
44.61768394429254
 30
0.0
 11
156.9875945200936
 21
47.82197793829494
 31
0.0
  0
LINE
  5
140
330
1F
100
AcDbEntity
  8
1
  6
Continuous
 62
     7
370
     9
100
AcDbLine
 10
158.6888239181535
 20
44.53179119721489
 30
0.0
 11
156.8388239181535
 21
47.73608519121734
 31
0.0
  0
LINE
  5
141
330
1F
100
AcDbEntity
  8
1
  6
Continuous
 62
     7
370
     9
100
AcDbLine
 10
158.5150001214976
 20
44.43143398142405
 30
0.0
 11
156.6650001214976
 21
47.63572797542645
 31
0.0
  0
LINE
  5
142
330
1F
100
AcDbEntity
  8
1
  6
Continuous
 62
     7
370
     9
100
AcDbLine
 10
157.2837101306136
 20
47.99294036573991
 30
0.0
 11
159.1337101306136
 21
44.78864637173751
 31
0.0
  0
LINE
  5
143
330
1F
100
AcDbEntity
  8
1
  6
Continuous
 62
     7
370
     9
100
AcDbLine
 10
158.1061478541521
 20
44.19538301481333
 30
0.0
 11
156.256147854152
 21
47.39967700881573
 31
0.0
  0
LINE
  5
144
330
1F
100
AcDbEntity
  8
1
  6
Continuous
 62
     7
370
     9
100
AcDbLine
 10
157.8790772277837
 20
44.06428372755448
 30
0.0
 11
156.0290772277837
 21
47.26857772155694
 31
0.0
  0
LINE
  5
145
330
1F
100
AcDbEntity
  8
1
  6
Continuous
 62
     7
370
     9
100
AcDbLine
 10
157.6427142049545
 20
43.92781947269759
 30
0.0
 11
155.7927142049545
 21
47.13211346669999
 31
0.0
  0
LINE
  5
146
330
1F
100
AcDbEntity
  8
1
  6
Continuous
 62
     7
370
     9
100
AcDbLine
 10
155.5516593230447
 20
46.99294036573991
 30
0.0
 11
157.4016593230447
 21
43.78864637173751
 31
0.0
  0
LINE
  5
147
330
1F
100
AcDbEntity
  8
1
  6
Continuous
 62
     7
370
     9
100
AcDbLine
 10
152.6838297294757
 20
46.25484253323327
 30
0.0
 11
152.3165946144939
 21
46.44195817026446
 31
0.0
  0
LINE
  5
148
330
1F
100
AcDbEntity
  8
1
  6
Continuous
 62
     7
370
     9
100
AcDbLine
 10
156.2883185245919
 20
43.14585876205098
 30
0.0
 11
154.4383185245919
 21
46.35015275605338
 31
0.0
  0
LINE
  5
149
330
1F
100
AcDbEntity
  8
1
  6
Continuous
 62
     7
370
     9
100
AcDbLine
 10
156.4838122334833
 20
43.25872710750428
 30
0.0
 11
154.6338122334833
 21
46.46302110150668
 31
0.0
  0
LINE
  5
14A
330
1F
100
AcDbEntity
  8
1
  6
Continuous
 62
     7
370
     9
100
AcDbLine
 10
156.6971707919374
 20
43.3819097286617
 30
0.0
 11
154.8471707919374
 21
46.5862037226641
 31
0.0
  0
LINE
  5
14B
330
1F
100
AcDbEntity
  8
1
  6
Continuous
 62
     7
370
     9
100
AcDbLine
 10
156.9242414183057
 20
43.51300901592049
 30
0.0
 11
155.0742414183057
 21
46.71730300992294
 31
0.0
  0
LINE
  5
14C
330
1F
100
AcDbEntity
  8
1
  6
Continuous
 62
     7
370
     9
100
AcDbLine
 10
157.160604441135
 20
43.64947327077743
 30
0.0
 11
155.310604441135
 21
46.85376726477983
 31
0.0
  0
LINE
  5
14D
330
1F
100
AcDbEntity
  8
1
  6
Continuous
 62
     7
370
     9
100
AcDbLine
 10
157.2837101306136
 20
47.99294036573991
 30
0.0
 11
153.8196085154758
 21
45.99294036573991
 31
0.0
  0
ARC
  5
14E
330
1F
100
AcDbEntity
  8
1
  6
Continuous
 62
     7
370
     9
100
AcDbCircle
 10
146.9016593230447
 20
61.97517985121067
 30
0.0
 40
16.75
100
AcDbArc
 50
290.1942615943667
 51
309.8053344278511
  0
LINE
  5
14F
330
1F
100
AcDbEntity
  8
1
  6
Continuous
 62
     7
370
     9
100
AcDbLine
 10
149.1764402036727
 20
45.38036524106428
 30
0.0
 11
149.4128424965575
 21
45.71798270443702
 31
0.0
  0
ARC
  5
150
330
1F
100
AcDbEntity
  8
1
  6
Continuous
 62
     7
370
     9
100
AcDbCircle
 10
146.9016593230447
 20
61.97517985121067
 30
0.0
 40
16.75
100
AcDbArc
 50
274.1942615943676
 51
277.8053344278521
  0
LINE
  5
151
330
1F
100
AcDbEntity
  8
1
  6
Continuous
 62
     7
370
     9
100
AcDbLine
 10
146.844750383363
 20
45.22527652693492
 30
0.0
 11
147.1258392947
 21
45.52670748018761
 31
0.0
  0
LINE
  5
152
330
1F
100
AcDbEntity
  8
1
  6
Continuous
 62
     7
370
     9
100
AcDbLine
 10
148.1267260432564
 20
45.27003957849729
 30
0.0
 11
147.8252930532442
 21
45.55113038914322
 31
0.0
  0
LINE
  5
153
330
1F
100
AcDbEntity
  8
1
  6
Continuous
 62
     7
370
     9
100
AcDbLine
 10
145.7898976044218
 20
45.26211652095895
 30
0.0
 11
145.5305184193165
 21
45.58242313910995
 31
0.0
  0
ARC
  5
154
330
1F
100
AcDbEntity
  8
1
  6
Continuous
 62
     7
370
     9
100
AcDbCircle
 10
146.9016593230447
 20
61.97517985121067
 30
0.0
 40
16.75
100
AcDbArc
 50
266.1942615943674
 51
269.8053344278514
  0
LINE
  5
155
330
1F
100
AcDbEntity
  8
1
  6
Continuous
 62
     7
370
     9
100
AcDbLine
 10
151.4638540016659
 20
45.85845314525824
 30
0.0
 11
151.6509683743712
 21
46.22568577886068
 31
0.0
  0
LINE
  5
156
330
1F
100
AcDbEntity
  8
1
  6
Continuous
 62
     7
370
     9
100
AcDbLine
 10
150.4397099518746
 20
45.60310918962864
 30
0.0
 11
150.1020902072313
 21
45.83951307987633
 31
0.0
  0
ARC
  5
157
330
1F
100
AcDbEntity
  8
1
  6
Continuous
 62
     7
370
     9
100
AcDbCircle
 10
146.9016593230447
 20
61.97517985121067
 30
0.0
 40
16.75
100
AcDbArc
 50
282.1942615943676
 51
285.8053344278516
  0
LINE
  5
158
330
1F
100
AcDbEntity
  8
1
  6
Continuous
 62
     7
370
     9
100
AcDbLine
 10
159.0239025094783
 20
44.37883875060214
 30
0.0
 11
156.0794161366112
 21
42.67883875060215
 31
0.0
  0
LINE
  5
159
330
1F
100
AcDbEntity
  8
1
  6
Continuous
 62
     7
370
     9
100
AcDbLine
 10
159.1337101306136
 20
44.78864637173751
 30
0.0
 11
155.6696085154759
 21
42.78864637173751
 31
0.0
  0
LINE
  5
15A
330
1F
100
AcDbEntity
  8
1
  6
Continuous
 62
     7
370
     9
100
AcDbLine
 10
156.0794161366112
 20
42.67883875060215
 30
0.0
 11
155.6696085154759
 21
42.78864637173751
 31
0.0
  0
LINE
  5
15B
330
1F
100
AcDbEntity
  8
1
  6
Continuous
 62
     7
370
     9
100
AcDbLine
 10
155.6959222591398
 20
42.80383861872531
 30
0.0
 11
153.8459222591398
 21
46.00813261272771
 31
0.0
  0
LINE
  5
15C
330
1F
100
AcDbEntity
  8
1
  6
Continuous
 62
     7
370
     9
100
AcDbLine
 10
155.7543811159521
 20
42.83758985544233
 30
0.0
 11
153.904381115952
 21
46.04188384944479
 31
0.0
  0
LINE
  5
15D
330
1F
100
AcDbEntity
  8
1
  6
Continuous
 62
     7
370
     9
100
AcDbLine
 10
155.8449023693142
 20
42.88985232543831
 30
0.0
 11
153.9949023693142
 21
46.09414631944077
 31
0.0
  0
LINE
  5
15E
330
1F
100
AcDbEntity
  8
1
  6
Continuous
 62
     7
370
     9
100
AcDbLine
 10
155.9657241259958
 20
42.95960879918243
 30
0.0
 11
154.1157241259958
 21
46.16390279318489
 31
0.0
  0
LINE
  5
15F
330
1F
100
AcDbEntity
  8
1
  6
Continuous
 62
     7
370
     9
100
AcDbLine
 10
156.114494727936
 20
43.04550154626008
 30
0.0
 11
154.264494727936
 21
46.24979554026254
 31
0.0
  0
LINE
  5
160
330
1F
100
AcDbEntity
  8
1
  6
Continuous
 62
     7
370
     9
100
AcDbLine
 10
153.8196085154758
 20
45.99294036573991
 30
0.0
 11
155.6696085154759
 21
42.78864637173751
 31
0.0
  0
LINE
  5
161
330
1F
100
AcDbEntity
  8
1
  6
Continuous
 62
     7
370
     9
100
AcDbLine
 10
159.0239025094783
 20
44.37883875060214
 30
0.0
 11
159.1337101306136
 21
44.78864637173751
 31
0.0
  0
LINE
  5
162
330
1F
100
AcDbEntity
  8
1
  6
Continuous
 62
     7
370
     9
100
AcDbLine
 10
196.8957856332708
 20
45.97517985121067
 30
0.0
 11
196.6957856332708
 21
46.17517985121071
 31
0.0
  0
LINE
  5
163
330
1F
100
AcDbEntity
  8
1
  6
Continuous
 62
     7
370
     9
100
AcDbLine
 10
204.6957856332709
 20
45.3751798512107
 30
0.0
 11
207.5957856332706
 21
45.3751798512107
 31
0.0
  0
LINE
  5
164
330
1F
100
AcDbEntity
  8
1
  6
Continuous
 62
     7
370
     9
100
AcDbLine
 10
197.3957856332708
 20
46.25488330221788
 30
0.0
 11
203.0957856332708
 21
46.25488330221788
 31
0.0
  0
LINE
  5
165
330
1F
100
AcDbEntity
  8
1
  6
Continuous
 62
     7
370
     9
100
AcDbLine
 10
197.0957856332708
 20
46.22572042749994
 30
0.0
 11
203.3957856332708
 21
46.22572042749994
 31
0.0
  0
LINE
  5
166
330
1F
100
AcDbEntity
  8
1
  6
Continuous
 62
     7
370
     9
100
AcDbLine
 10
197.3957856332708
 20
45.85848531251816
 30
0.0
 11
203.0957856332708
 21
45.85848531251816
 31
0.0
  0
LINE
  5
167
330
1F
100
AcDbEntity
  8
1
  6
Continuous
 62
     7
370
     9
100
AcDbLine
 10
197.3957856332708
 20
45.60313413591905
 30
0.0
 11
203.0957856332708
 21
45.60313413591905
 31
0.0
  0
LINE
  5
168
330
1F
100
AcDbEntity
  8
1
  6
Continuous
 62
     7
370
     9
100
AcDbLine
 10
197.3957856332708
 20
45.38038128037067
 30
0.0
 11
203.0957856332708
 21
45.38038128037067
 31
0.0
  0
LINE
  5
169
330
1F
100
AcDbEntity
  8
1
  6
Continuous
 62
     7
370
     9
100
AcDbLine
 10
197.3957856332708
 20
45.27004821654236
 30
0.0
 11
203.0957856332708
 21
45.27004821654236
 31
0.0
  0
LINE
  5
16A
330
1F
100
AcDbEntity
  8
1
  6
Continuous
 62
     7
370
     9
100
AcDbLine
 10
197.3957856332708
 20
45.22517985121067
 30
0.0
 11
203.0957856332708
 21
45.22517985121067
 31
0.0
  0
LINE
  5
16B
330
1F
100
AcDbEntity
  8
1
  6
Continuous
 62
     7
370
     9
100
AcDbLine
 10
197.0957856332708
 20
45.71800102501396
 30
0.0
 11
197.2500168832813
 21
45.71800102501396
 31
0.0
  0
LINE
  5
16C
330
1F
100
AcDbEntity
  8
1
  6
Continuous
 62
     7
370
     9
100
AcDbLine
 10
197.3957856332708
 20
45.22517985121067
 30
0.0
 11
197.0957856332708
 21
45.52517985121068
 31
0.0
  0
LINE
  5
16D
330
1F
100
AcDbEntity
  8
1
  6
Continuous
 62
     7
370
     9
100
AcDbLine
 10
197.3957856332708
 20
45.60313413591905
 30
0.0
 11
197.3957856332708
 21
45.85848531251816
 31
0.0
  0
LINE
  5
16E
330
1F
100
AcDbEntity
  8
1
  6
Continuous
 62
     7
370
     9
100
AcDbLine
 10
197.0957856332708
 20
45.71800102501396
 30
0.0
 11
197.2500168832813
 21
45.71800102501396
 31
0.0
  0
LINE
  5
16F
330
1F
100
AcDbEntity
  8
1
  6
Continuous
 62
     7
370
     9
100
AcDbLine
 10
197.0957856332708
 20
45.71800102501396
 30
0.0
 11
197.3957856332708
 21
45.38038128037067
 31
0.0
  0
LINE
  5
170
330
1F
100
AcDbEntity
  8
1
  6
Continuous
 62
     7
370
     9
100
AcDbLine
 10
197.3957856332708
 20
45.60313413591905
 30
0.0
 11
197.0957856332708
 21
45.83953642880385
 31
0.0
  0
LINE
  5
171
330
1F
100
AcDbEntity
  8
1
  6
Continuous
 62
     7
370
     9
100
AcDbLine
 10
197.0957856332708
 20
46.22572042749994
 30
0.0
 11
197.3957856332708
 21
45.85848531251816
 31
0.0
  0
LINE
  5
172
330
1F
100
AcDbEntity
  8
1
  6
Continuous
 62
     7
370
     9
100
AcDbLine
 10
197.0957856332708
 20
45.55113712787937
 30
0.0
 11
197.3957856332708
 21
45.27004821654236
 31
0.0
  0
LINE
  5
173
330
1F
100
AcDbEntity
  8
1
  6
Continuous
 62
     7
370
     9
100
AcDbLine
 10
197.3957856332708
 20
45.27004821654236
 30
0.0
 11
197.3957856332708
 21
45.38038128037067
 31
0.0
  0
LINE
  5
174
330
1F
100
AcDbEntity
  8
1
  6
Continuous
 62
     7
370
     9
100
AcDbLine
 10
196.8957856332708
 20
45.97517985121067
 30
0.0
 11
197.0957856332708
 21
45.97517985121067
 31
0.0
  0
LINE
  5
175
330
1F
100
AcDbEntity
  8
1
  6
Continuous
 62
     7
370
     9
100
AcDbLine
 10
197.3957856332708
 20
45.22517985121067
 30
0.0
 11
197.0957856332708
 21
45.52517985121068
 31
0.0
  0
LINE
  5
176
330
1F
100
AcDbEntity
  8
1
  6
Continuous
 62
     7
370
     9
100
AcDbLine
 10
204.6957856332708
 20
45.3751798512107
 30
0.0
 11
204.1957856332708
 21
45.3751798512107
 31
0.0
  0
LINE
  5
177
330
1F
100
AcDbEntity
  8
1
  6
Continuous
 62
     7
370
     9
100
AcDbLine
 10
203.2415543832603
 20
45.71800102501396
 30
0.0
 11
203.3957856332708
 21
45.71800102501396
 31
0.0
  0
LINE
  5
178
330
1F
100
AcDbEntity
  8
1
  6
Continuous
 62
     7
370
     9
100
AcDbLine
 10
203.0957856332708
 20
45.22517985121067
 30
0.0
 11
203.3957856332708
 21
45.52517985121074
 31
0.0
  0
LINE
  5
179
330
1F
100
AcDbEntity
  8
1
  6
Continuous
 62
     7
370
     9
100
AcDbLine
 10
203.0957856332708
 20
45.60313413591905
 30
0.0
 11
203.0957856332708
 21
45.85848531251821
 31
0.0
  0
LINE
  5
17A
330
1F
100
AcDbEntity
  8
1
  6
Continuous
 62
     7
370
     9
100
AcDbLine
 10
203.3957856332708
 20
45.71800102501402
 30
0.0
 11
203.0957856332708
 21
45.38038128037067
 31
0.0
  0
LINE
  5
17B
330
1F
100
AcDbEntity
  8
1
  6
Continuous
 62
     7
370
     9
100
AcDbLine
 10
203.0957856332708
 20
45.60313413591905
 30
0.0
 11
203.3957856332708
 21
45.83953642880385
 31
0.0
  0
LINE
  5
17C
330
1F
100
AcDbEntity
  8
1
  6
Continuous
 62
     7
370
     9
100
AcDbLine
 10
203.3957856332708
 20
46.22572042749994
 30
0.0
 11
203.0957856332708
 21
45.85848531251821
 31
0.0
  0
LINE
  5
17D
330
1F
100
AcDbEntity
  8
1
  6
Continuous
 62
     7
370
     9
100
AcDbLine
 10
203.3957856332708
 20
45.55113712787943
 30
0.0
 11
203.0957856332708
 21
45.27004821654236
 31
0.0
  0
LINE
  5
17E
330
1F
100
AcDbEntity
  8
1
  6
Continuous
 62
     7
370
     9
100
AcDbLine
 10
203.0957856332708
 20
45.27004821654236
 30
0.0
 11
203.0957856332708
 21
45.38038128037067
 31
0.0
  0
LINE
  5
17F
330
1F
100
AcDbEntity
  8
1
  6
Continuous
 62
     7
370
     9
100
AcDbLine
 10
203.3957856332708
 20
46.17517985121071
 30
0.0
 11
203.8957856332708
 21
46.17517985121071
 31
0.0
  0
LINE
  5
180
330
1F
100
AcDbEntity
  8
1
  6
Continuous
 62
     7
370
     9
100
AcDbLine
 10
203.0957856332708
 20
45.22517985121067
 30
0.0
 11
203.3957856332708
 21
45.52517985121068
 31
0.0
  0
LINE
  5
181
330
1F
100
AcDbEntity
  8
1
  6
Continuous
 62
     7
370
     9
100
AcDbLine
 10
204.1957856332708
 20
45.3751798512107
 30
0.0
 11
203.8957856332708
 21
45.67517985121066
 31
0.0
  0
LINE
  5
182
330
1F
100
AcDbEntity
  8
1
  6
Continuous
 62
     7
370
     9
100
AcDbLine
 10
162.4532177148969
 20
68.19703902551004
 30
0.0
 11
162.0684380422513
 21
68.34474210325135
 31
0.0
  0
LINE
  5
183
330
1F
100
AcDbEntity
  8
1
  6
Continuous
 62
     7
370
     9
100
AcDbLine
 10
162.4531738457842
 20
55.75321102703435
 30
0.0
 11
162.0683915731945
 21
55.60550695126801
 31
0.0
  0
ARC
  5
184
330
1F
100
AcDbEntity
  8
1
  6
Continuous
 62
     7
370
     9
100
AcDbCircle
 10
146.9016593230447
 20
61.97517985121067
 30
0.0
 40
16.75
100
AcDbArc
 50
50.19426159436744
 51
69.80533442785229
  0
LINE
  5
185
330
1F
100
AcDbEntity
  8
1
  6
Continuous
 62
     7
370
     9
100
AcDbLine
 10
149.1765572093786
 20
78.56997842205067
 30
0.0
 11
149.4129610996262
 21
78.23235867740738
 31
0.0
  0
ARC
  5
186
330
1F
100
AcDbEntity
  8
1
  6
Continuous
 62
     7
370
     9
100
AcDbCircle
 10
146.9016593230447
 20
61.97517985121067
 30
0.0
 40
16.75
100
AcDbArc
 50
82.19426159436759
 51
85.80533442785207
  0
LINE
  5
187
330
1F
100
AcDbEntity
  8
1
  6
Continuous
 62
     7
370
     9
100
AcDbLine
 10
146.8448684826174
 20
78.72508357632034
 30
0.0
 11
147.1259592932633
 21
78.42365058630821
 31
0.0
  0
LINE
  5
188
330
1F
100
AcDbEntity
  8
1
  6
Continuous
 62
     7
370
     9
100
AcDbLine
 10
148.1268438268661
 20
78.68031148587897
 30
0.0
 11
147.8254128736134
 21
78.39922257454197
 31
0.0
  0
LINE
  5
189
330
1F
100
AcDbEntity
  8
1
  6
Continuous
 62
     7
370
     9
100
AcDbLine
 10
145.7900154439531
 20
78.68825101979246
 30
0.0
 11
145.5306380114529
 21
78.36794656592849
 31
0.0
  0
ARC
  5
18A
330
1F
100
AcDbEntity
  8
1
  6
Continuous
 62
     7
370
     9
100
AcDbCircle
 10
146.9016593230447
 20
61.97517985121067
 30
0.0
 40
16.75
100
AcDbArc
 50
90.19426159436745
 51
93.80533442785188
  0
LINE
  5
18B
330
1F
100
AcDbEntity
  8
1
  6
Continuous
 62
     7
370
     9
100
AcDbLine
 10
151.4639676364403
 20
78.09187438990318
 30
0.0
 11
151.6510832734715
 21
77.72463927492146
 31
0.0
  0
LINE
  5
18C
330
1F
100
AcDbEntity
  8
1
  6
Continuous
 62
     7
370
     9
100
AcDbLine
 10
150.4398253870389
 20
78.34722556650235
 30
0.0
 11
150.1022079236662
 21
78.11082327361748
 31
0.0
  0
ARC
  5
18D
330
1F
100
AcDbEntity
  8
1
  6
Continuous
 62
     7
370
     9
100
AcDbCircle
 10
146.9016593230447
 20
61.97517985121067
 30
0.0
 40
16.75
100
AcDbArc
 50
74.19426159436836
 51
77.80533442785233
  0
LINE
  5
18E
330
1F
100
AcDbEntity
  8
1
  6
Continuous
 62
     7
370
     9
100
AcDbLine
 10
152.6839405693803
 20
77.69547640020352
 30
0.0
 11
152.3167079357779
 21
77.50836202749821
 31
0.0
  0
LINE
  5
18F
330
1F
100
AcDbEntity
  8
1
  6
Continuous
 62
     7
370
     9
100
AcDbLine
 10
157.6246948663295
 20
49.10742912556134
 30
0.0
 11
157.6462653829547
 21
49.51901910171233
 31
0.0
  0
LINE
  5
190
330
1F
100
AcDbEntity
  8
1
  6
Continuous
 62
     7
370
     9
100
AcDbLine
 10
156.2877809162615
 20
47.41794036573992
 30
0.0
 11
156.0019903827921
 21
47.91294409003115
 31
0.0
  0
LINE
  5
191
330
1F
100
AcDbEntity
  8
1
  6
Continuous
 62
     7
370
     9
100
AcDbLine
 10
155.8829537357214
 20
47.83662084851096
 30
0.0
 11
156.2877809162615
 21
47.41794036573992
 31
0.0
  0
LINE
  5
192
330
1F
100
AcDbEntity
  8
1
  6
Continuous
 62
     7
370
     9
100
AcDbLine
 10
154.6553633859495
 20
47.12787122961555
 30
0.0
 11
154.8155377298279
 21
46.5679403657399
 31
0.0
  0
LINE
  5
193
330
1F
100
AcDbEntity
  8
1
  6
Continuous
 62
     7
370
     9
100
AcDbLine
 10
154.8155377298279
 20
46.5679403657399
 30
0.0
 11
154.5297471963585
 21
47.06294409003112
 31
0.0
  0
LINE
  5
194
330
1F
100
AcDbEntity
  8
1
  6
Continuous
 62
     7
370
     9
100
AcDbLine
 10
161.9314254698395
 20
54.58135610617455
 30
0.0
 11
161.7837223920982
 21
54.9661357788201
 31
0.0
  0
ARC
  5
195
330
1F
100
AcDbEntity
  8
1
  6
Continuous
 62
     7
370
     9
100
AcDbCircle
 10
146.9016593230447
 20
61.97517985121067
 30
0.0
 40
16.75
100
AcDbArc
 50
330.1942615943681
 51
333.8053344278534
  0
LINE
  5
196
330
1F
100
AcDbEntity
  8
1
  6
Continuous
 62
     7
370
     9
100
AcDbLine
 10
160.7561354403198
 20
52.56157312924415
 30
0.0
 11
160.6634207790062
 21
52.96316444791648
 31
0.0
  0
LINE
  5
197
330
1F
100
AcDbEntity
  8
1
  6
Continuous
 62
     7
370
     9
100
AcDbLine
 10
159.3111837924103
 20
50.72501529933788
 30
0.0
 11
159.2752621329455
 21
51.13560174582238
 31
0.0
  0
LINE
  5
198
330
1F
100
AcDbEntity
  8
1
  6
Continuous
 62
     7
370
     9
100
AcDbLine
 10
160.1357275129109
 20
51.70766120521006
 30
0.0
 11
159.7251382921067
 21
51.67173930302374
 31
0.0
  0
ARC
  5
199
330
1F
100
AcDbEntity
  8
1
  6
Continuous
 62
     7
370
     9
100
AcDbCircle
 10
146.9016593230447
 20
61.97517985121067
 30
0.0
 40
16.75
100
AcDbArc
 50
314.1942615943672
 51
317.8053344278502
  0
LINE
  5
19A
330
1F
100
AcDbEntity
  8
1
  6
Continuous
 62
     7
370
     9
100
AcDbLine
 10
158.5779720618886
 20
49.9657576825669
 30
0.0
 11
158.166379304637
 21
49.98732834494342
 31
0.0
  0
ARC
  5
19B
330
1F
100
AcDbEntity
  8
1
  6
Continuous
 62
     7
370
     9
100
AcDbCircle
 10
146.9016593230447
 20
61.97517985121067
 30
0.0
 40
16.75
100
AcDbArc
 50
322.1942615943683
 51
325.8053344278502
  0
LINE
  5
19C
330
1F
100
AcDbEntity
  8
1
  6
Continuous
 62
     7
370
     9
100
AcDbLine
 10
161.4358968801469
 20
53.64941029916821
 30
0.0
 11
161.0343028479348
 21
53.55669501138453
 31
0.0
  0
LINE
  5
19D
330
1F
100
AcDbEntity
  8
1
  6
Continuous
 62
     7
370
     9
100
AcDbLine
 10
157.6247855932582
 20
74.84285497117918
 30
0.0
 11
157.6463562556347
 21
74.43126221392765
 31
0.0
  0
ARC
  5
19E
330
1F
100
AcDbEntity
  8
1
  6
Continuous
 62
     7
370
     9
100
AcDbCircle
 10
146.9016593230447
 20
61.97517985121067
 30
0.0
 40
16.75
100
AcDbArc
 50
42.19426159436893
 51
45.80533442785293
  0
LINE
  5
19F
330
1F
100
AcDbEntity
  8
1
  6
Continuous
 62
     7
370
     9
100
AcDbLine
 10
158.57805673694
 20
73.98451969288305
 30
0.0
 11
158.166466760789
 21
73.96294917625778
 31
0.0
  0
LINE
  5
1A0
330
1F
100
AcDbEntity
  8
1
  6
Continuous
 62
     7
370
     9
100
AcDbLine
 10
161.9314776014123
 20
69.36889762505405
 30
0.0
 11
161.7837735256459
 21
68.98411535246441
 31
0.0
  0
ARC
  5
1A1
330
1F
100
AcDbEntity
  8
1
  6
Continuous
 62
     7
370
     9
100
AcDbCircle
 10
146.9016593230447
 20
61.97517985121067
 30
0.0
 40
16.75
100
AcDbArc
 50
26.19426159436701
 51
29.8053344278533
  0
LINE
  5
1A2
330
1F
100
AcDbEntity
  8
1
  6
Continuous
 62
     7
370
     9
100
AcDbLine
 10
160.7562018128912
 20
71.38868888860145
 30
0.0
 11
160.6634865251075
 21
70.98709485638926
 31
0.0
  0
ARC
  5
1A3
330
1F
100
AcDbEntity
  8
1
  6
Continuous
 62
     7
370
     9
100
AcDbCircle
 10
146.9016593230447
 20
61.97517985121067
 30
0.0
 40
16.75
100
AcDbArc
 50
34.19426159436619
 51
37.80533442785266
  0
LINE
  5
1A4
330
1F
100
AcDbEntity
  8
1
  6
Continuous
 62
     7
370
     9
100
AcDbLine
 10
160.1357999062107
 20
72.24260518695087
 30
0.0
 11
159.7252134597262
 21
72.27852684641562
 31
0.0
  0
LINE
  5
1A5
330
1F
100
AcDbEntity
  8
1
  6
Continuous
 62
     7
370
     9
100
AcDbLine
 10
161.4359555826418
 20
70.30084692588173
 30
0.0
 11
161.0343642639695
 21
70.39356158719534
 31
0.0
  0
LINE
  5
1A6
330
1F
100
AcDbEntity
  8
1
  6
Continuous
 62
     7
370
     9
100
AcDbLine
 10
159.3112631141137
 20
73.22525690644392
 30
0.0
 11
159.2753412119274
 21
72.81466768563973
 31
0.0
  0
ARC
  5
1A7
330
1F
100
AcDbEntity
  8
1
  6
Continuous
 62
     7
370
     9
100
AcDbCircle
 10
146.9016593230447
 20
61.97517985121067
 30
0.0
 40
16.75
100
AcDbArc
 50
10.19426159436833
 51
13.80533442785031
  0
LINE
  5
1A8
330
1F
100
AcDbEntity
  8
1
  6
Continuous
 62
     7
370
     9
100
AcDbLine
 10
167.9016593230447
 20
60.00556434518631
 30
0.0
 11
164.2016593230447
 21
60.00556434518626
 31
0.0
  0
LINE
  5
1A9
330
1F
100
AcDbEntity
  8
1
  6
Continuous
 62
     7
370
     9
100
AcDbLine
 10
167.9016593230447
 20
60.07306681862042
 30
0.0
 11
164.2016593230447
 21
60.07306681862042
 31
0.0
  0
LINE
  5
1AA
330
1F
100
AcDbEntity
  8
1
  6
Continuous
 62
     7
370
     9
100
AcDbLine
 10
167.9016593230447
 20
60.17759175861238
 30
0.0
 11
164.2016593230447
 21
60.17759175861238
 31
0.0
  0
LINE
  5
1AB
330
1F
100
AcDbEntity
  8
1
  6
Continuous
 62
     7
370
     9
100
AcDbLine
 10
167.9016593230447
 20
60.31710470610062
 30
0.0
 11
164.2016593230447
 21
60.31710470610062
 31
0.0
  0
LINE
  5
1AC
330
1F
100
AcDbEntity
  8
1
  6
Continuous
 62
     7
370
     9
100
AcDbLine
 10
167.9016593230447
 20
60.48889020025592
 30
0.0
 11
164.2016593230447
 21
60.48889020025592
 31
0.0
  0
LINE
  5
1AD
330
1F
100
AcDbEntity
  8
1
  6
Continuous
 62
     7
370
     9
100
AcDbLine
 10
167.9016593230447
 20
60.68960463183765
 30
0.0
 11
164.2016593230447
 21
60.6896046318376
 31
0.0
  0
LINE
  5
1AE
330
1F
100
AcDbEntity
  8
1
  6
Continuous
 62
     7
370
     9
100
AcDbLine
 10
167.9016593230447
 20
60.91534132274427
 30
0.0
 11
164.2016593230447
 21
60.91534132274427
 31
0.0
  0
LINE
  5
1AF
330
1F
100
AcDbEntity
  8
1
  6
Continuous
 62
     7
370
     9
100
AcDbLine
 10
167.9016593230447
 20
61.16170656505909
 30
0.0
 11
164.2016593230447
 21
61.16170656505909
 31
0.0
  0
LINE
  5
1B0
330
1F
100
AcDbEntity
  8
1
  6
Continuous
 62
     7
370
     9
100
AcDbLine
 10
167.9016593230447
 20
61.42390513957673
 30
0.0
 11
164.2016593230447
 21
61.42390513957673
 31
0.0
  0
LINE
  5
1B1
330
1F
100
AcDbEntity
  8
1
  6
Continuous
 62
     7
370
     9
100
AcDbLine
 10
167.9016593230447
 20
61.69683364929057
 30
0.0
 11
164.2016593230447
 21
61.69683364929057
 31
0.0
  0
LINE
  5
1B2
330
1F
100
AcDbEntity
  8
1
  6
Continuous
 62
     7
370
     9
100
AcDbLine
 10
167.9016593230447
 20
63.94479535723514
 30
0.0
 11
164.2016593230447
 21
63.94479535723514
 31
0.0
  0
LINE
  5
1B3
330
1F
100
AcDbEntity
  8
1
  6
Continuous
 62
     7
370
     9
100
AcDbLine
 10
167.9016593230447
 20
63.87729288380103
 30
0.0
 11
164.2016593230447
 21
63.87729288380103
 31
0.0
  0
LINE
  5
1B4
330
1F
100
AcDbEntity
  8
1
  6
Continuous
 62
     7
370
     9
100
AcDbLine
 10
167.9016593230447
 20
63.77276794380907
 30
0.0
 11
164.2016593230447
 21
63.77276794380907
 31
0.0
  0
LINE
  5
1B5
330
1F
100
AcDbEntity
  8
1
  6
Continuous
 62
     7
370
     9
100
AcDbLine
 10
167.9016593230447
 20
63.63325499632083
 30
0.0
 11
164.2016593230447
 21
63.63325499632083
 31
0.0
  0
LINE
  5
1B6
330
1F
100
AcDbEntity
  8
1
  6
Continuous
 62
     7
370
     9
100
AcDbLine
 10
167.9016593230447
 20
63.46146950216553
 30
0.0
 11
164.2016593230447
 21
63.46146950216553
 31
0.0
  0
LINE
  5
1B7
330
1F
100
AcDbEntity
  8
1
  6
Continuous
 62
     7
370
     9
100
AcDbLine
 10
167.9016593230447
 20
63.2607550705838
 30
0.0
 11
164.2016593230447
 21
63.2607550705838
 31
0.0
  0
LINE
  5
1B8
330
1F
100
AcDbEntity
  8
1
  6
Continuous
 62
     7
370
     9
100
AcDbLine
 10
167.9016593230447
 20
63.03501837967713
 30
0.0
 11
164.2016593230447
 21
63.03501837967713
 31
0.0
  0
LINE
  5
1B9
330
1F
100
AcDbEntity
  8
1
  6
Continuous
 62
     7
370
     9
100
AcDbLine
 10
167.9016593230447
 20
62.78865313736236
 30
0.0
 11
164.2016593230447
 21
62.7886531373623
 31
0.0
  0
LINE
  5
1BA
330
1F
100
AcDbEntity
  8
1
  6
Continuous
 62
     7
370
     9
100
AcDbLine
 10
167.9016593230447
 20
62.52645456284472
 30
0.0
 11
164.2016593230447
 21
62.52645456284472
 31
0.0
  0
LINE
  5
1BB
330
1F
100
AcDbEntity
  8
1
  6
Continuous
 62
     7
370
     9
100
AcDbLine
 10
167.9016593230447
 20
62.25352605313088
 30
0.0
 11
164.2016593230447
 21
62.25352605313083
 31
0.0
  0
LINE
  5
1BC
330
1F
100
AcDbEntity
  8
1
  6
Continuous
 62
     7
370
     9
100
AcDbLine
 10
164.2016593230447
 20
61.97517985121073
 30
0.0
 11
167.9016593230447
 21
61.97517985121073
 31
0.0
  0
LINE
  5
1BD
330
1F
100
AcDbEntity
  8
1
  6
Continuous
 62
     7
370
     9
100
AcDbLine
 10
164.2016593230447
 20
63.97517985121073
 30
0.0
 11
167.9016593230447
 21
63.97517985121073
 31
0.0
  0
LINE
  5
1BE
330
1F
100
AcDbEntity
  8
1
  6
Continuous
 62
     7
370
     9
100
AcDbLine
 10
164.2016593230447
 20
59.97517985121073
 30
0.0
 11
167.9016593230447
 21
59.97517985121073
 31
0.0
  0
LINE
  5
1BF
330
1F
100
AcDbEntity
  8
1
  6
Continuous
 62
     7
370
     9
100
AcDbLine
 10
163.6366577986262
 20
62.68392947010608
 30
0.0
 11
164.2016593230447
 21
62.82517985121069
 31
0.0
  0
LINE
  5
1C0
330
1F
100
AcDbEntity
  8
1
  6
Continuous
 62
     7
370
     9
100
AcDbLine
 10
164.2016593230447
 20
62.82517985121069
 30
0.0
 11
163.6300782561059
 21
62.82517985121069
 31
0.0
  0
LINE
  5
1C1
330
1F
100
AcDbEntity
  8
1
  6
Continuous
 62
     7
370
     9
100
AcDbLine
 10
163.5657535283499
 20
63.66942431902328
 30
0.0
 11
163.2365920534547
 21
63.91746528156835
 31
0.0
  0
LINE
  5
1C2
330
1F
100
AcDbEntity
  8
1
  6
Continuous
 62
     7
370
     9
100
AcDbLine
 10
164.2016593230447
 20
61.1251798512107
 30
0.0
 11
163.6300782561059
 21
61.1251798512107
 31
0.0
  0
LINE
  5
1C3
330
1F
100
AcDbEntity
  8
1
  6
Continuous
 62
     7
370
     9
100
AcDbLine
 10
163.6366577986262
 20
61.26643023231532
 30
0.0
 11
164.2016593230447
 21
61.1251798512107
 31
0.0
  0
LINE
  5
1C4
330
1F
100
AcDbEntity
  8
1
  6
Continuous
 62
     7
370
     9
100
AcDbLine
 10
163.3872118453277
 20
59.01054529783863
 30
0.0
 11
163.1391708827826
 21
59.33970677273385
 31
0.0
  0
LINE
  5
1C5
330
1F
100
AcDbEntity
  8
1
  6
Continuous
 62
     7
370
     9
100
AcDbLine
 10
163.5657415822544
 20
60.2808178892052
 30
0.0
 11
163.2365778832255
 21
60.03277525065516
 31
0.0
  0
LINE
  5
1C6
330
1F
100
AcDbEntity
  8
1
  6
Continuous
 62
     7
370
     9
100
AcDbLine
 10
162.8141781974175
 20
56.74505145195224
 30
0.0
 11
162.6143615756469
 21
57.10553017992333
 31
0.0
  0
LINE
  5
1C7
330
1F
100
AcDbEntity
  8
1
  6
Continuous
 62
     7
370
     9
100
AcDbLine
 10
163.1677582708219
 20
57.9781153006785
 30
0.0
 11
162.8072771071074
 21
57.7782973287533
 31
0.0
  0
ARC
  5
1C8
330
1F
100
AcDbEntity
  8
1
  6
Continuous
 62
     7
370
     9
100
AcDbCircle
 10
146.9016593230447
 20
61.97517985121067
 30
0.0
 40
16.75
100
AcDbArc
 50
346.1942615943678
 51
349.8053344278534
  0
LINE
  5
1C9
330
1F
100
AcDbEntity
  8
1
  6
Continuous
 62
     7
370
     9
100
AcDbLine
 10
164.2016593230447
 20
63.97517985121073
 30
0.0
 11
164.2016593230447
 21
59.97517985121073
 31
0.0
  0
ARC
  5
1CA
330
1F
100
AcDbEntity
  8
1
  6
Continuous
 62
     7
370
     9
100
AcDbCircle
 10
146.9016593230447
 20
61.97517985121067
 30
0.0
 40
16.75
100
AcDbArc
 50
354.1942615943685
 51
5.805334427851585
  0
LINE
  5
1CB
330
1F
100
AcDbEntity
  8
1
  6
Continuous
 62
     7
370
     9
100
AcDbLine
 10
163.3872327477924
 20
64.93969816912545
 30
0.0
 11
163.1391901092423
 21
64.61053447009652
 31
0.0
  0
ARC
  5
1CC
330
1F
100
AcDbEntity
  8
1
  6
Continuous
 62
     7
370
     9
100
AcDbCircle
 10
146.9016593230447
 20
61.97517985121067
 30
0.0
 40
16.75
100
AcDbArc
 50
338.194261594369
 51
341.8053344278517
  0
LINE
  5
1CD
330
1F
100
AcDbEntity
  8
1
  6
Continuous
 62
     7
370
     9
100
AcDbLine
 10
168.2016593230447
 20
63.67517985121071
 30
0.0
 11
167.9016593230447
 21
63.97517985121073
 31
0.0
  0
LINE
  5
1CE
330
1F
100
AcDbEntity
  8
1
  6
Continuous
 62
     7
370
     9
100
AcDbLine
 10
168.2016593230447
 20
60.27517985121068
 30
0.0
 11
167.9016593230447
 21
59.97517985121073
 31
0.0
  0
LINE
  5
1CF
330
1F
100
AcDbEntity
  8
1
  6
Continuous
 62
     7
370
     9
100
AcDbLine
 10
168.2016593230447
 20
63.67517985121071
 30
0.0
 11
168.2016593230447
 21
60.27517985121068
 31
0.0
  0
LINE
  5
1D0
330
1F
100
AcDbEntity
  8
1
  6
Continuous
 62
     7
370
     9
100
AcDbLine
 10
167.9016593230447
 20
63.97517985121073
 30
0.0
 11
167.9016593230447
 21
59.97517985121073
 31
0.0
  0
LINE
  5
1D1
330
1F
100
AcDbEntity
  8
1
  6
Continuous
 62
     7
370
     9
100
AcDbLine
 10
162.8142150733098
 20
67.20519605526812
 30
0.0
 11
162.6143971013846
 21
66.84471489155362
 31
0.0
  0
ARC
  5
1D2
330
1F
100
AcDbEntity
  8
1
  6
Continuous
 62
     7
370
     9
100
AcDbCircle
 10
146.9016593230447
 20
61.97517985121067
 30
0.0
 40
16.75
100
AcDbArc
 50
18.19426159436856
 51
21.80533442785379
  0
LINE
  5
1D3
330
1F
100
AcDbEntity
  8
1
  6
Continuous
 62
     7
370
     9
100
AcDbLine
 10
163.16778645269
 20
65.97212971357055
 30
0.0
 11
162.8073077247188
 21
66.17194633534109
 31
0.0
  0
LINE
  5
1D4
330
1F
100
AcDbEntity
  8
1
  6
Continuous
 62
     7
370
     9
100
AcDbLine
 10
196.8957856332708
 20
77.97517985121067
 30
0.0
 11
196.6957856332708
 21
77.77517985121068
 31
0.0
  0
LINE
  5
1D5
330
1F
100
AcDbEntity
  8
1
  6
Continuous
 62
     7
370
     9
100
AcDbLine
 10
196.6957856332708
 20
77.22517985121073
 30
0.0
 11
196.9957856332708
 21
76.92517985121066
 31
0.0
  0
LINE
  5
1D6
330
1F
100
AcDbEntity
  8
1
  6
Continuous
 62
     7
370
     9
100
AcDbLine
 10
196.6957856332708
 20
77.22517985121073
 30
0.0
 11
199.8251609434443
 21
77.22517985121073
 31
0.0
  0
LINE
  5
1D7
330
1F
100
AcDbEntity
  8
1
  6
Continuous
 62
     7
370
     9
100
AcDbLine
 10
196.6957856332708
 20
61.97517985121067
 30
0.0
 11
196.6957856332708
 21
77.77517985121068
 31
0.0
  0
LINE
  5
1D8
330
1F
100
AcDbEntity
  8
1
  6
Continuous
 62
     7
370
     9
100
AcDbLine
 10
203.0957856332708
 20
65.9721297135705
 30
0.0
 11
203.0957856332708
 21
64.93969816912539
 31
0.0
  0
LINE
  5
1D9
330
1F
100
AcDbEntity
  8
1
  6
Continuous
 62
     7
370
     9
100
AcDbLine
 10
203.3957856332708
 20
78.42517985121066
 30
0.0
 11
203.3957856332707
 21
61.97517985121067
 31
0.0
  0
LINE
  5
1DA
330
1F
100
AcDbEntity
  8
1
  6
Continuous
 62
     7
370
     9
100
AcDbLine
 10
204.6957856332708
 20
61.97517985121067
 30
0.0
 11
204.6957856332708
 21
78.57517985121069
 31
0.0
  0
LINE
  5
1DB
330
1F
100
AcDbEntity
  8
1
  6
Continuous
 62
     7
370
     9
100
AcDbLine
 10
203.8957856332708
 20
61.97517985121067
 30
0.0
 11
203.8957856332708
 21
78.27517985121068
 31
0.0
  0
LINE
  5
1DC
330
1F
100
AcDbEntity
  8
1
  6
Continuous
 62
     7
370
     9
100
AcDbLine
 10
197.3957856332707
 20
65.97212971357055
 30
0.0
 11
197.3957856332707
 21
64.93969816912539
 31
0.0
  0
LINE
  5
1DD
330
1F
100
AcDbEntity
  8
1
  6
Continuous
 62
     7
370
     9
100
AcDbLine
 10
197.0957856332708
 20
75.02521525964721
 30
0.0
 11
197.0957856332708
 21
61.97517985121067
 31
0.0
  0
LINE
  5
1DE
330
1F
100
AcDbEntity
  8
1
  6
Continuous
 62
     7
370
     9
100
AcDbLine
 10
203.0957856332708
 20
60.28093538339812
 30
0.0
 11
197.3957856332707
 21
60.28093538339812
 31
0.0
  0
LINE
  5
1DF
330
1F
100
AcDbEntity
  8
1
  6
Continuous
 62
     7
370
     9
100
AcDbLine
 10
197.0957856332708
 20
60.03289442085304
 30
0.0
 11
203.3957856332707
 21
60.03289442085304
 31
0.0
  0
LINE
  5
1E0
330
1F
100
AcDbEntity
  8
1
  6
Continuous
 62
     7
370
     9
100
AcDbLine
 10
203.3957856332707
 20
59.33982523232487
 30
0.0
 11
197.0957856332708
 21
59.33982523232487
 31
0.0
  0
LINE
  5
1E1
330
1F
100
AcDbEntity
  8
1
  6
Continuous
 62
     7
370
     9
100
AcDbLine
 10
197.3957856332707
 20
59.01066153329594
 30
0.0
 11
203.0957856332708
 21
59.01066153329594
 31
0.0
  0
LINE
  5
1E2
330
1F
100
AcDbEntity
  8
1
  6
Continuous
 62
     7
370
     9
100
AcDbLine
 10
197.3957856332707
 20
57.97822998885084
 30
0.0
 11
203.0957856332708
 21
57.97822998885084
 31
0.0
  0
LINE
  5
1E3
330
1F
100
AcDbEntity
  8
1
  6
Continuous
 62
     7
370
     9
100
AcDbLine
 10
203.3957856332708
 20
57.7784133670803
 30
0.0
 11
197.0957856332708
 21
57.7784133670803
 31
0.0
  0
LINE
  5
1E4
330
1F
100
AcDbEntity
  8
1
  6
Continuous
 62
     7
370
     9
100
AcDbLine
 10
197.0957856332708
 20
57.10564481086777
 30
0.0
 11
203.3957856332707
 21
57.10564481086777
 31
0.0
  0
LINE
  5
1E5
330
1F
100
AcDbEntity
  8
1
  6
Continuous
 62
     7
370
     9
100
AcDbLine
 10
203.0957856332708
 20
56.74516364715328
 30
0.0
 11
197.3957856332707
 21
56.74516364715328
 31
0.0
  0
LINE
  5
1E6
330
1F
100
AcDbEntity
  8
1
  6
Continuous
 62
     7
370
     9
100
AcDbLine
 10
203.0957856332708
 20
63.66942431902328
 30
0.0
 11
197.3957856332707
 21
63.66942431902328
 31
0.0
  0
LINE
  5
1E7
330
1F
100
AcDbEntity
  8
1
  6
Continuous
 62
     7
370
     9
100
AcDbLine
 10
197.0957856332708
 20
63.9174652815683
 30
0.0
 11
203.3957856332707
 21
63.9174652815683
 31
0.0
  0
LINE
  5
1E8
330
1F
100
AcDbEntity
  8
1
  6
Continuous
 62
     7
370
     9
100
AcDbLine
 10
203.3957856332707
 20
64.61053447009647
 30
0.0
 11
197.0957856332708
 21
64.61053447009652
 31
0.0
  0
LINE
  5
1E9
330
1F
100
AcDbEntity
  8
1
  6
Continuous
 62
     7
370
     9
100
AcDbLine
 10
197.3957856332707
 20
64.93969816912539
 30
0.0
 11
203.0957856332708
 21
64.93969816912539
 31
0.0
  0
CIRCLE
  5
1EA
330
1F
100
AcDbEntity
  8
1
  6
Continuous
 62
     7
370
     9
100
AcDbCircle
 10
201.8957856332707
 20
61.97517985121067
 30
0.0
 40
0.75
  0
LINE
  5
1EB
330
1F
100
AcDbEntity
  8
1
  6
Continuous
 62
     7
370
     9
100
AcDbLine
 10
197.3957856332707
 20
55.75332067691136
 30
0.0
 11
203.0957856332708
 21
55.75332067691136
 31
0.0
  0
LINE
  5
1EC
330
1F
100
AcDbEntity
  8
1
  6
Continuous
 62
     7
370
     9
100
AcDbLine
 10
203.3957856332707
 20
55.60561759917005
 30
0.0
 11
197.0957856332708
 21
55.60561759917005
 31
0.0
  0
LINE
  5
1ED
330
1F
100
AcDbEntity
  8
1
  6
Continuous
 62
     7
370
     9
100
AcDbLine
 10
197.0957856332708
 20
54.96624434995698
 30
0.0
 11
203.3957856332707
 21
54.96624434995698
 31
0.0
  0
LINE
  5
1EE
330
1F
100
AcDbEntity
  8
1
  6
Continuous
 62
     7
370
     9
100
AcDbLine
 10
203.0957856332708
 20
54.58146207736735
 30
0.0
 11
197.3957856332707
 21
54.58146207736735
 31
0.0
  0
LINE
  5
1EF
330
1F
100
AcDbEntity
  8
1
  6
Continuous
 62
     7
370
     9
100
AcDbLine
 10
197.3957856332707
 20
53.64951277653967
 30
0.0
 11
203.0957856332709
 21
53.64951277653967
 31
0.0
  0
LINE
  5
1F0
330
1F
100
AcDbEntity
  8
1
  6
Continuous
 62
     7
370
     9
100
AcDbLine
 10
203.3957856332708
 20
53.55679811522612
 30
0.0
 11
197.0957856332708
 21
53.55679811522612
 31
0.0
  0
LINE
  5
1F1
330
1F
100
AcDbEntity
  8
1
  6
Continuous
 62
     7
370
     9
100
AcDbLine
 10
197.0957856332708
 20
52.96326484603208
 30
0.0
 11
203.3957856332708
 21
52.96326484603208
 31
0.0
  0
LINE
  5
1F2
330
1F
100
AcDbEntity
  8
1
  6
Continuous
 62
     7
370
     9
100
AcDbLine
 10
203.0957856332708
 20
52.56167081381989
 30
0.0
 11
197.3957856332707
 21
52.56167081381989
 31
0.0
  0
LINE
  5
1F3
330
1F
100
AcDbEntity
  8
1
  6
Continuous
 62
     7
370
     9
100
AcDbLine
 10
203.0957856332708
 20
51.70775451547058
 30
0.0
 11
197.3957856332707
 21
51.70775451547053
 31
0.0
  0
LINE
  5
1F4
330
1F
100
AcDbEntity
  8
1
  6
Continuous
 62
     7
370
     9
100
AcDbLine
 10
197.0957856332708
 20
51.67183285600578
 30
0.0
 11
203.3957856332708
 21
51.67183285600578
 31
0.0
  0
LINE
  5
1F5
330
1F
100
AcDbEntity
  8
1
  6
Continuous
 62
     7
370
     9
100
AcDbLine
 10
203.3957856332708
 20
51.13569201678166
 30
0.0
 11
197.0957856332708
 21
51.1356920167816
 31
0.0
  0
LINE
  5
1F6
330
1F
100
AcDbEntity
  8
1
  6
Continuous
 62
     7
370
     9
100
AcDbLine
 10
197.3957856332708
 20
50.72510279597748
 30
0.0
 11
203.0957856332708
 21
50.72510279597748
 31
0.0
  0
LINE
  5
1F7
330
1F
100
AcDbEntity
  8
1
  6
Continuous
 62
     7
370
     9
100
AcDbLine
 10
197.3957856332708
 20
49.96584000953834
 30
0.0
 11
203.0957856332708
 21
49.96584000953834
 31
0.0
  0
LINE
  5
1F8
330
1F
100
AcDbEntity
  8
1
  6
Continuous
 62
     7
370
     9
100
AcDbLine
 10
197.0957856332708
 20
49.51909748849368
 30
0.0
 11
203.3957856332708
 21
49.51909748849368
 31
0.0
  0
LINE
  5
1F9
330
1F
100
AcDbEntity
  8
1
  6
Continuous
 62
     7
370
     9
100
AcDbLine
 10
197.3957856332708
 20
49.10750473124216
 30
0.0
 11
203.0957856332708
 21
49.10750473124216
 31
0.0
  0
LINE
  5
1FA
330
1F
100
AcDbEntity
  8
1
  6
Continuous
 62
     7
370
     9
100
AcDbLine
 10
197.0957856332708
 20
63.9174652815683
 30
0.0
 11
197.3957856332707
 21
63.66942431902328
 31
0.0
  0
LINE
  5
1FB
330
1F
100
AcDbEntity
  8
1
  6
Continuous
 62
     7
370
     9
100
AcDbLine
 10
197.3957856332707
 20
63.66942431902328
 30
0.0
 11
197.3957856332707
 21
61.97517985121067
 31
0.0
  0
LINE
  5
1FC
330
1F
100
AcDbEntity
  8
1
  6
Continuous
 62
     7
370
     9
100
AcDbLine
 10
197.0957856332708
 20
60.03289442085304
 30
0.0
 11
197.3957856332707
 21
60.28093538339812
 31
0.0
  0
LINE
  5
1FD
330
1F
100
AcDbEntity
  8
1
  6
Continuous
 62
     7
370
     9
100
AcDbLine
 10
197.3957856332707
 20
59.01066153329594
 30
0.0
 11
197.0957856332708
 21
59.33982523232487
 31
0.0
  0
LINE
  5
1FE
330
1F
100
AcDbEntity
  8
1
  6
Continuous
 62
     7
370
     9
100
AcDbLine
 10
197.0957856332708
 20
57.10564481086777
 30
0.0
 11
197.3957856332707
 21
56.74516364715328
 31
0.0
  0
LINE
  5
1FF
330
1F
100
AcDbEntity
  8
1
  6
Continuous
 62
     7
370
     9
100
AcDbLine
 10
197.0957856332708
 20
57.7784133670803
 30
0.0
 11
197.3957856332707
 21
57.97822998885084
 31
0.0
  0
LINE
  5
200
330
1F
100
AcDbEntity
  8
1
  6
Continuous
 62
     7
370
     9
100
AcDbLine
 10
197.3957856332707
 20
57.97822998885084
 30
0.0
 11
197.3957856332707
 21
59.01066153329594
 31
0.0
  0
LINE
  5
201
330
1F
100
AcDbEntity
  8
1
  6
Continuous
 62
     7
370
     9
100
AcDbLine
 10
197.3957856332707
 20
60.28093538339812
 30
0.0
 11
197.3957856332707
 21
61.97517985121067
 31
0.0
  0
LINE
  5
202
330
1F
100
AcDbEntity
  8
1
  6
Continuous
 62
     7
370
     9
100
AcDbLine
 10
197.3957856332707
 20
64.93969816912539
 30
0.0
 11
197.0957856332708
 21
64.61053447009652
 31
0.0
  0
LINE
  5
203
330
1F
100
AcDbEntity
  8
1
  6
Continuous
 62
     7
370
     9
100
AcDbLine
 10
197.3957856332707
 20
54.58146207736735
 30
0.0
 11
197.0957856332708
 21
54.96624434995698
 31
0.0
  0
LINE
  5
204
330
1F
100
AcDbEntity
  8
1
  6
Continuous
 62
     7
370
     9
100
AcDbLine
 10
197.3957856332707
 20
55.75332067691136
 30
0.0
 11
197.0957856332708
 21
55.60561759917005
 31
0.0
  0
LINE
  5
205
330
1F
100
AcDbEntity
  8
1
  6
Continuous
 62
     7
370
     9
100
AcDbLine
 10
197.0957856332708
 20
52.96326484603208
 30
0.0
 11
197.3957856332707
 21
52.56167081381989
 31
0.0
  0
LINE
  5
206
330
1F
100
AcDbEntity
  8
1
  6
Continuous
 62
     7
370
     9
100
AcDbLine
 10
197.0957856332708
 20
53.55679811522612
 30
0.0
 11
197.3957856332707
 21
53.64951277653967
 31
0.0
  0
LINE
  5
207
330
1F
100
AcDbEntity
  8
1
  6
Continuous
 62
     7
370
     9
100
AcDbLine
 10
197.3957856332707
 20
53.64951277653967
 30
0.0
 11
197.3957856332707
 21
54.58146207736735
 31
0.0
  0
LINE
  5
208
330
1F
100
AcDbEntity
  8
1
  6
Continuous
 62
     7
370
     9
100
AcDbLine
 10
197.3957856332708
 20
50.72510279597748
 30
0.0
 11
197.0957856332708
 21
51.1356920167816
 31
0.0
  0
LINE
  5
209
330
1F
100
AcDbEntity
  8
1
  6
Continuous
 62
     7
370
     9
100
AcDbLine
 10
197.3957856332707
 20
51.70775451547053
 30
0.0
 11
197.0957856332708
 21
51.67183285600578
 31
0.0
  0
LINE
  5
20A
330
1F
100
AcDbEntity
  8
1
  6
Continuous
 62
     7
370
     9
100
AcDbLine
 10
197.3957856332708
 20
49.96584000953834
 30
0.0
 11
197.0957856332708
 21
49.98741052616361
 31
0.0
  0
LINE
  5
20B
330
1F
100
AcDbEntity
  8
1
  6
Continuous
 62
     7
370
     9
100
AcDbLine
 10
197.0957856332708
 20
49.51909748849368
 30
0.0
 11
197.3957856332708
 21
49.10750473124216
 31
0.0
  0
LINE
  5
20C
330
1F
100
AcDbEntity
  8
1
  6
Continuous
 62
     7
370
     9
100
AcDbLine
 10
197.3957856332708
 20
49.96584000953834
 30
0.0
 11
197.3957856332708
 21
50.72510279597748
 31
0.0
  0
LINE
  5
20D
330
1F
100
AcDbEntity
  8
1
  6
Continuous
 62
     7
370
     9
100
AcDbLine
 10
197.3957856332707
 20
51.70775451547053
 30
0.0
 11
197.3957856332707
 21
52.56167081381989
 31
0.0
  0
LINE
  5
20E
330
1F
100
AcDbEntity
  8
1
  6
Continuous
 62
     7
370
     9
100
AcDbLine
 10
197.3957856332707
 20
55.75332067691136
 30
0.0
 11
197.3957856332707
 21
56.74516364715328
 31
0.0
  0
LINE
  5
20F
330
1F
100
AcDbEntity
  8
1
  6
Continuous
 62
     7
370
     9
100
AcDbLine
 10
203.3957856332707
 20
63.9174652815683
 30
0.0
 11
203.0957856332708
 21
63.66942431902328
 31
0.0
  0
LINE
  5
210
330
1F
100
AcDbEntity
  8
1
  6
Continuous
 62
     7
370
     9
100
AcDbLine
 10
203.0957856332708
 20
63.66942431902328
 30
0.0
 11
203.0957856332708
 21
61.97517985121067
 31
0.0
  0
LINE
  5
211
330
1F
100
AcDbEntity
  8
1
  6
Continuous
 62
     7
370
     9
100
AcDbLine
 10
203.3957856332707
 20
60.03289442085304
 30
0.0
 11
203.0957856332708
 21
60.28093538339812
 31
0.0
  0
LINE
  5
212
330
1F
100
AcDbEntity
  8
1
  6
Continuous
 62
     7
370
     9
100
AcDbLine
 10
203.0957856332708
 20
59.010661533296
 30
0.0
 11
203.3957856332707
 21
59.33982523232487
 31
0.0
  0
LINE
  5
213
330
1F
100
AcDbEntity
  8
1
  6
Continuous
 62
     7
370
     9
100
AcDbLine
 10
203.3957856332707
 20
57.10564481086777
 30
0.0
 11
203.0957856332708
 21
56.74516364715328
 31
0.0
  0
LINE
  5
214
330
1F
100
AcDbEntity
  8
1
  6
Continuous
 62
     7
370
     9
100
AcDbLine
 10
203.3957856332707
 20
57.7784133670803
 30
0.0
 11
203.0957856332708
 21
57.97822998885084
 31
0.0
  0
LINE
  5
215
330
1F
100
AcDbEntity
  8
1
  6
Continuous
 62
     7
370
     9
100
AcDbLine
 10
203.0957856332708
 20
57.97822998885084
 30
0.0
 11
203.0957856332708
 21
59.010661533296
 31
0.0
  0
LINE
  5
216
330
1F
100
AcDbEntity
  8
1
  6
Continuous
 62
     7
370
     9
100
AcDbLine
 10
203.0957856332708
 20
60.28093538339812
 30
0.0
 11
203.0957856332708
 21
61.97517985121067
 31
0.0
  0
LINE
  5
217
330
1F
100
AcDbEntity
  8
1
  6
Continuous
 62
     7
370
     9
100
AcDbLine
 10
203.0957856332708
 20
64.93969816912539
 30
0.0
 11
203.3957856332707
 21
64.61053447009647
 31
0.0
  0
LINE
  5
218
330
1F
100
AcDbEntity
  8
1
  6
Continuous
 62
     7
370
     9
100
AcDbLine
 10
203.0957856332708
 20
54.58146207736735
 30
0.0
 11
203.3957856332707
 21
54.96624434995698
 31
0.0
  0
LINE
  5
219
330
1F
100
AcDbEntity
  8
1
  6
Continuous
 62
     7
370
     9
100
AcDbLine
 10
203.0957856332708
 20
55.75332067691136
 30
0.0
 11
203.3957856332707
 21
55.60561759917005
 31
0.0
  0
LINE
  5
21A
330
1F
100
AcDbEntity
  8
1
  6
Continuous
 62
     7
370
     9
100
AcDbLine
 10
203.3957856332707
 20
52.96326484603208
 30
0.0
 11
203.0957856332708
 21
52.56167081381989
 31
0.0
  0
LINE
  5
21B
330
1F
100
AcDbEntity
  8
1
  6
Continuous
 62
     7
370
     9
100
AcDbLine
 10
203.3957856332707
 20
53.55679811522612
 30
0.0
 11
203.0957856332708
 21
53.64951277653972
 31
0.0
  0
LINE
  5
21C
330
1F
100
AcDbEntity
  8
1
  6
Continuous
 62
     7
370
     9
100
AcDbLine
 10
203.0957856332708
 20
53.64951277653972
 30
0.0
 11
203.0957856332708
 21
54.58146207736735
 31
0.0
  0
LINE
  5
21D
330
1F
100
AcDbEntity
  8
1
  6
Continuous
 62
     7
370
     9
100
AcDbLine
 10
203.0957856332708
 20
50.72510279597748
 30
0.0
 11
203.3957856332708
 21
51.13569201678166
 31
0.0
  0
LINE
  5
21E
330
1F
100
AcDbEntity
  8
1
  6
Continuous
 62
     7
370
     9
100
AcDbLine
 10
203.0957856332708
 20
51.70775451547058
 30
0.0
 11
203.3957856332707
 21
51.67183285600578
 31
0.0
  0
LINE
  5
21F
330
1F
100
AcDbEntity
  8
1
  6
Continuous
 62
     7
370
     9
100
AcDbLine
 10
203.0957856332708
 20
49.9658400095384
 30
0.0
 11
203.3957856332708
 21
49.98741052616361
 31
0.0
  0
LINE
  5
220
330
1F
100
AcDbEntity
  8
1
  6
Continuous
 62
     7
370
     9
100
AcDbLine
 10
203.0957856332708
 20
49.9658400095384
 30
0.0
 11
203.3957856332708
 21
49.98741052616361
 31
0.0
  0
LINE
  5
221
330
1F
100
AcDbEntity
  8
1
  6
Continuous
 62
     7
370
     9
100
AcDbLine
 10
203.3957856332708
 20
49.51909748849368
 30
0.0
 11
203.0957856332708
 21
49.10750473124216
 31
0.0
  0
LINE
  5
222
330
1F
100
AcDbEntity
  8
1
  6
Continuous
 62
     7
370
     9
100
AcDbLine
 10
203.0957856332708
 20
49.9658400095384
 30
0.0
 11
203.0957856332708
 21
50.72510279597748
 31
0.0
  0
LINE
  5
223
330
1F
100
AcDbEntity
  8
1
  6
Continuous
 62
     7
370
     9
100
AcDbLine
 10
203.0957856332708
 20
51.70775451547058
 30
0.0
 11
203.0957856332708
 21
52.56167081381989
 31
0.0
  0
LINE
  5
224
330
1F
100
AcDbEntity
  8
1
  6
Continuous
 62
     7
370
     9
100
AcDbLine
 10
203.0957856332708
 20
55.75332067691136
 30
0.0
 11
203.0957856332708
 21
56.74516364715328
 31
0.0
  0
LINE
  5
225
330
1F
100
AcDbEntity
  8
1
  6
Continuous
 62
     7
370
     9
100
AcDbLine
 10
197.3957856332707
 20
65.97212971357055
 30
0.0
 11
203.0957856332708
 21
65.97212971357055
 31
0.0
  0
LINE
  5
226
330
1F
100
AcDbEntity
  8
1
  6
Continuous
 62
     7
370
     9
100
AcDbLine
 10
203.3957856332708
 20
66.17194633534103
 30
0.0
 11
197.0957856332708
 21
66.17194633534109
 31
0.0
  0
LINE
  5
227
330
1F
100
AcDbEntity
  8
1
  6
Continuous
 62
     7
370
     9
100
AcDbLine
 10
197.0957856332708
 20
66.84471489155362
 30
0.0
 11
203.3957856332707
 21
66.84471489155362
 31
0.0
  0
LINE
  5
228
330
1F
100
AcDbEntity
  8
1
  6
Continuous
 62
     7
370
     9
100
AcDbLine
 10
203.0957856332708
 20
67.20519605526806
 30
0.0
 11
197.3957856332707
 21
67.20519605526812
 31
0.0
  0
LINE
  5
229
330
1F
100
AcDbEntity
  8
1
  6
Continuous
 62
     7
370
     9
100
AcDbLine
 10
197.3957856332707
 20
68.19703902551004
 30
0.0
 11
203.0957856332708
 21
68.19703902551004
 31
0.0
  0
LINE
  5
22A
330
1F
100
AcDbEntity
  8
1
  6
Continuous
 62
     7
370
     9
100
AcDbLine
 10
203.3957856332707
 20
68.34474210325129
 30
0.0
 11
197.0957856332708
 21
68.34474210325129
 31
0.0
  0
LINE
  5
22B
330
1F
100
AcDbEntity
  8
1
  6
Continuous
 62
     7
370
     9
100
AcDbLine
 10
197.0957856332708
 20
68.98411535246441
 30
0.0
 11
203.3957856332707
 21
68.98411535246441
 31
0.0
  0
LINE
  5
22C
330
1F
100
AcDbEntity
  8
1
  6
Continuous
 62
     7
370
     9
100
AcDbLine
 10
203.0957856332708
 20
69.36889762505405
 30
0.0
 11
197.3957856332707
 21
69.36889762505405
 31
0.0
  0
LINE
  5
22D
330
1F
100
AcDbEntity
  8
1
  6
Continuous
 62
     7
370
     9
100
AcDbLine
 10
197.3957856332707
 20
70.30084692588167
 30
0.0
 11
203.0957856332709
 21
70.30084692588167
 31
0.0
  0
LINE
  5
22E
330
1F
100
AcDbEntity
  8
1
  6
Continuous
 62
     7
370
     9
100
AcDbLine
 10
203.3957856332708
 20
70.39356158719522
 30
0.0
 11
197.0957856332708
 21
70.39356158719528
 31
0.0
  0
LINE
  5
22F
330
1F
100
AcDbEntity
  8
1
  6
Continuous
 62
     7
370
     9
100
AcDbLine
 10
197.0957856332708
 20
70.98709485638926
 30
0.0
 11
203.3957856332708
 21
70.98709485638926
 31
0.0
  0
LINE
  5
230
330
1F
100
AcDbEntity
  8
1
  6
Continuous
 62
     7
370
     9
100
AcDbLine
 10
203.0957856332708
 20
71.38868888860145
 30
0.0
 11
197.3957856332707
 21
71.38868888860145
 31
0.0
  0
LINE
  5
231
330
1F
100
AcDbEntity
  8
1
  6
Continuous
 62
     7
370
     9
100
AcDbLine
 10
203.0957856332708
 20
72.24260518695081
 30
0.0
 11
197.3957856332707
 21
72.24260518695081
 31
0.0
  0
LINE
  5
232
330
1F
100
AcDbEntity
  8
1
  6
Continuous
 62
     7
370
     9
100
AcDbLine
 10
197.0957856332708
 20
72.27852684641562
 30
0.0
 11
203.3957856332708
 21
72.27852684641562
 31
0.0
  0
LINE
  5
233
330
1F
100
AcDbEntity
  8
1
  6
Continuous
 62
     7
370
     9
100
AcDbLine
 10
203.3957856332708
 20
72.81466768563973
 30
0.0
 11
197.0957856332708
 21
72.81466768563973
 31
0.0
  0
LINE
  5
234
330
1F
100
AcDbEntity
  8
1
  6
Continuous
 62
     7
370
     9
100
AcDbLine
 10
197.3957856332708
 20
73.22525690644392
 30
0.0
 11
203.0957856332708
 21
73.22525690644392
 31
0.0
  0
LINE
  5
235
330
1F
100
AcDbEntity
  8
1
  6
Continuous
 62
     7
370
     9
100
AcDbLine
 10
197.3957856332708
 20
73.984519692883
 30
0.0
 11
203.0957856332708
 21
73.984519692883
 31
0.0
  0
LINE
  5
236
330
1F
100
AcDbEntity
  8
1
  6
Continuous
 62
     7
370
     9
100
AcDbLine
 10
197.0957856332708
 20
74.43126221392771
 30
0.0
 11
203.3957856332708
 21
74.43126221392771
 31
0.0
  0
LINE
  5
237
330
1F
100
AcDbEntity
  8
1
  6
Continuous
 62
     7
370
     9
100
AcDbLine
 10
197.3957856332708
 20
74.84285497117924
 30
0.0
 11
203.0957856332708
 21
74.84285497117924
 31
0.0
  0
LINE
  5
238
330
1F
100
AcDbEntity
  8
1
  6
Continuous
 62
     7
370
     9
100
AcDbLine
 10
200.4117280375432
 20
77.69547640020346
 30
0.0
 11
203.0957856332708
 21
77.69547640020346
 31
0.0
  0
LINE
  5
239
330
1F
100
AcDbEntity
  8
1
  6
Continuous
 62
     7
370
     9
100
AcDbLine
 10
200.4353735276728
 20
77.72463927492146
 30
0.0
 11
203.3957856332708
 21
77.72463927492146
 31
0.0
  0
LINE
  5
23A
330
1F
100
AcDbEntity
  8
1
  6
Continuous
 62
     7
370
     9
100
AcDbLine
 10
200.6663145917797
 20
78.09187438990318
 30
0.0
 11
203.0957856332708
 21
78.09187438990318
 31
0.0
  0
LINE
  5
23B
330
1F
100
AcDbEntity
  8
1
  6
Continuous
 62
     7
370
     9
100
AcDbLine
 10
200.7646513478377
 20
78.34722556650235
 30
0.0
 11
203.0957856332708
 21
78.34722556650235
 31
0.0
  0
LINE
  5
23C
330
1F
100
AcDbEntity
  8
1
  6
Continuous
 62
     7
370
     9
100
AcDbLine
 10
200.809108825762
 20
78.56997842205067
 30
0.0
 11
203.0957856332708
 21
78.56997842205067
 31
0.0
  0
LINE
  5
23D
330
1F
100
AcDbEntity
  8
1
  6
Continuous
 62
     7
370
     9
100
AcDbLine
 10
200.8150634982634
 20
78.68031148587897
 30
0.0
 11
203.0957856332708
 21
78.68031148587897
 31
0.0
  0
LINE
  5
23E
330
1F
100
AcDbEntity
  8
1
  6
Continuous
 62
     7
370
     9
100
AcDbLine
 10
197.3957856332708
 20
78.72517985121067
 30
0.0
 11
203.0957856332708
 21
78.72517985121067
 31
0.0
  0
LINE
  5
23F
330
1F
100
AcDbEntity
  8
1
  6
Continuous
 62
     7
370
     9
100
AcDbLine
 10
197.0957856332708
 20
78.42517985121066
 30
0.0
 11
197.0957856332708
 21
77.97517985121067
 31
0.0
  0
LINE
  5
240
330
1F
100
AcDbEntity
  8
1
  6
Continuous
 62
     7
370
     9
100
AcDbLine
 10
197.3957856332708
 20
78.72517985121067
 30
0.0
 11
197.0957856332708
 21
78.42517985121066
 31
0.0
  0
LINE
  5
241
330
1F
100
AcDbEntity
  8
1
  6
Continuous
 62
     7
370
     9
100
AcDbLine
 10
196.8957856332708
 20
77.97517985121067
 30
0.0
 11
197.0957856332708
 21
77.97517985121067
 31
0.0
  0
LINE
  5
242
330
1F
100
AcDbEntity
  8
1
  6
Continuous
 62
     7
370
     9
100
AcDbLine
 10
197.3957856332708
 20
78.72517985121067
 30
0.0
 11
197.0957856332708
 21
78.42517985121071
 31
0.0
  0
LINE
  5
243
330
1F
100
AcDbEntity
  8
1
  6
Continuous
 62
     7
370
     9
100
AcDbLine
 10
196.9957856332708
 20
76.92517985121066
 30
0.0
 11
196.9957856332708
 21
75.04413212129504
 31
0.0
  0
LINE
  5
244
330
1F
100
AcDbEntity
  8
1
  6
Continuous
 62
     7
370
     9
100
AcDbLine
 10
196.9957856332708
 20
76.92517985121066
 30
0.0
 11
199.403054780353
 21
76.92517985121071
 31
0.0
  0
LINE
  5
245
330
1F
100
AcDbEntity
  8
1
  6
Continuous
 62
     7
370
     9
100
AcDbLine
 10
197.3957856332708
 20
73.984519692883
 30
0.0
 11
197.3957856332708
 21
73.22525690644392
 31
0.0
  0
LINE
  5
246
330
1F
100
AcDbEntity
  8
1
  6
Continuous
 62
     7
370
     9
100
AcDbLine
 10
197.3957856332708
 20
73.984519692883
 30
0.0
 11
197.0957856332708
 21
73.96294917625778
 31
0.0
  0
LINE
  5
247
330
1F
100
AcDbEntity
  8
1
  6
Continuous
 62
     7
370
     9
100
AcDbLine
 10
197.0957856332708
 20
74.43126221392771
 30
0.0
 11
197.3957856332708
 21
74.84285497117924
 31
0.0
  0
LINE
  5
248
330
1F
100
AcDbEntity
  8
1
  6
Continuous
 62
     7
370
     9
100
AcDbLine
 10
197.3957856332708
 20
74.98031781851978
 30
0.0
 11
197.3957856332708
 21
74.84285497117924
 31
0.0
  0
LINE
  5
249
330
1F
100
AcDbEntity
  8
1
  6
Continuous
 62
     7
370
     9
100
AcDbLine
 10
197.3957856332707
 20
72.24260518695081
 30
0.0
 11
197.3957856332707
 21
71.38868888860145
 31
0.0
  0
LINE
  5
24A
330
1F
100
AcDbEntity
  8
1
  6
Continuous
 62
     7
370
     9
100
AcDbLine
 10
197.3957856332707
 20
72.24260518695081
 30
0.0
 11
197.0957856332708
 21
72.27852684641562
 31
0.0
  0
LINE
  5
24B
330
1F
100
AcDbEntity
  8
1
  6
Continuous
 62
     7
370
     9
100
AcDbLine
 10
197.0957856332708
 20
70.98709485638926
 30
0.0
 11
197.3957856332707
 21
71.38868888860145
 31
0.0
  0
LINE
  5
24C
330
1F
100
AcDbEntity
  8
1
  6
Continuous
 62
     7
370
     9
100
AcDbLine
 10
197.3957856332707
 20
70.30084692588167
 30
0.0
 11
197.3957856332707
 21
69.36889762505405
 31
0.0
  0
LINE
  5
24D
330
1F
100
AcDbEntity
  8
1
  6
Continuous
 62
     7
370
     9
100
AcDbLine
 10
197.3957856332707
 20
69.36889762505405
 30
0.0
 11
197.0957856332708
 21
68.98411535246441
 31
0.0
  0
LINE
  5
24E
330
1F
100
AcDbEntity
  8
1
  6
Continuous
 62
     7
370
     9
100
AcDbLine
 10
197.0957856332708
 20
70.39356158719528
 30
0.0
 11
197.3957856332707
 21
70.30084692588167
 31
0.0
  0
LINE
  5
24F
330
1F
100
AcDbEntity
  8
1
  6
Continuous
 62
     7
370
     9
100
AcDbLine
 10
197.3957856332707
 20
68.19703902550998
 30
0.0
 11
197.3957856332707
 21
67.20519605526812
 31
0.0
  0
LINE
  5
250
330
1F
100
AcDbEntity
  8
1
  6
Continuous
 62
     7
370
     9
100
AcDbLine
 10
197.0957856332708
 20
66.84471489155362
 30
0.0
 11
197.3957856332707
 21
67.20519605526812
 31
0.0
  0
LINE
  5
251
330
1F
100
AcDbEntity
  8
1
  6
Continuous
 62
     7
370
     9
100
AcDbLine
 10
197.3957856332707
 20
68.19703902551004
 30
0.0
 11
197.0957856332708
 21
68.34474210325129
 31
0.0
  0
LINE
  5
252
330
1F
100
AcDbEntity
  8
1
  6
Continuous
 62
     7
370
     9
100
AcDbLine
 10
197.0957856332708
 20
66.17194633534109
 30
0.0
 11
197.3957856332707
 21
65.97212971357055
 31
0.0
  0
LINE
  5
253
330
1F
100
AcDbEntity
  8
1
  6
Continuous
 62
     7
370
     9
100
AcDbLine
 10
197.3957856332708
 20
73.22525690644392
 30
0.0
 11
197.0957856332708
 21
72.81466768563973
 31
0.0
  0
LINE
  5
254
330
1F
100
AcDbEntity
  8
1
  6
Continuous
 62
     7
370
     9
100
AcDbLine
 10
204.6957856332708
 20
78.57517985121069
 30
0.0
 11
204.1957856332708
 21
78.57517985121069
 31
0.0
  0
LINE
  5
255
330
1F
100
AcDbEntity
  8
1
  6
Continuous
 62
     7
370
     9
100
AcDbLine
 10
203.2415543832603
 20
78.23235867740738
 30
0.0
 11
203.3957856332708
 21
78.23235867740738
 31
0.0
  0
LINE
  5
256
330
1F
100
AcDbEntity
  8
1
  6
Continuous
 62
     7
370
     9
100
AcDbLine
 10
203.0957856332708
 20
78.72517985121067
 30
0.0
 11
203.3957856332708
 21
78.42517985121066
 31
0.0
  0
LINE
  5
257
330
1F
100
AcDbEntity
  8
1
  6
Continuous
 62
     7
370
     9
100
AcDbLine
 10
203.0957856332708
 20
78.34722556650229
 30
0.0
 11
203.0957856332708
 21
78.09187438990318
 31
0.0
  0
LINE
  5
258
330
1F
100
AcDbEntity
  8
1
  6
Continuous
 62
     7
370
     9
100
AcDbLine
 10
203.3957856332708
 20
78.23235867740738
 30
0.0
 11
203.0957856332708
 21
78.56997842205067
 31
0.0
  0
LINE
  5
259
330
1F
100
AcDbEntity
  8
1
  6
Continuous
 62
     7
370
     9
100
AcDbLine
 10
203.0957856332708
 20
78.34722556650229
 30
0.0
 11
203.3957856332708
 21
78.11082327361748
 31
0.0
  0
LINE
  5
25A
330
1F
100
AcDbEntity
  8
1
  6
Continuous
 62
     7
370
     9
100
AcDbLine
 10
203.3957856332708
 20
77.72463927492146
 30
0.0
 11
203.0957856332708
 21
78.09187438990318
 31
0.0
  0
LINE
  5
25B
330
1F
100
AcDbEntity
  8
1
  6
Continuous
 62
     7
370
     9
100
AcDbLine
 10
203.0957856332708
 20
77.69547640020346
 30
0.0
 11
203.3957856332708
 21
77.50836202749815
 31
0.0
  0
LINE
  5
25C
330
1F
100
AcDbEntity
  8
1
  6
Continuous
 62
     7
370
     9
100
AcDbLine
 10
203.3957856332708
 20
78.39922257454197
 30
0.0
 11
203.0957856332708
 21
78.68031148587897
 31
0.0
  0
LINE
  5
25D
330
1F
100
AcDbEntity
  8
1
  6
Continuous
 62
     7
370
     9
100
AcDbLine
 10
203.0957856332708
 20
78.68031148587897
 30
0.0
 11
203.0957856332708
 21
78.56997842205067
 31
0.0
  0
LINE
  5
25E
330
1F
100
AcDbEntity
  8
1
  6
Continuous
 62
     7
370
     9
100
AcDbLine
 10
203.3957856332708
 20
77.77517985121068
 30
0.0
 11
203.8957856332708
 21
77.77517985121068
 31
0.0
  0
LINE
  5
25F
330
1F
100
AcDbEntity
  8
1
  6
Continuous
 62
     7
370
     9
100
AcDbLine
 10
203.0957856332708
 20
78.72517985121067
 30
0.0
 11
203.3957856332708
 21
78.42517985121071
 31
0.0
  0
LINE
  5
260
330
1F
100
AcDbEntity
  8
1
  6
Continuous
 62
     7
370
     9
100
AcDbLine
 10
204.1957856332708
 20
78.57517985121069
 30
0.0
 11
203.8957856332708
 21
78.27517985121068
 31
0.0
  0
LINE
  5
261
330
1F
100
AcDbEntity
  8
1
  6
Continuous
 62
     7
370
     9
100
AcDbLine
 10
203.0957856332708
 20
73.984519692883
 30
0.0
 11
203.3957856332708
 21
73.96294917625772
 31
0.0
  0
LINE
  5
262
330
1F
100
AcDbEntity
  8
1
  6
Continuous
 62
     7
370
     9
100
AcDbLine
 10
203.0957856332708
 20
73.984519692883
 30
0.0
 11
203.3957856332708
 21
73.96294917625772
 31
0.0
  0
LINE
  5
263
330
1F
100
AcDbEntity
  8
1
  6
Continuous
 62
     7
370
     9
100
AcDbLine
 10
203.0957856332708
 20
73.984519692883
 30
0.0
 11
203.0957856332708
 21
73.22525690644386
 31
0.0
  0
LINE
  5
264
330
1F
100
AcDbEntity
  8
1
  6
Continuous
 62
     7
370
     9
100
AcDbLine
 10
203.3957856332708
 20
74.43126221392771
 30
0.0
 11
203.0957856332708
 21
74.84285497117918
 31
0.0
  0
LINE
  5
265
330
1F
100
AcDbEntity
  8
1
  6
Continuous
 62
     7
370
     9
100
AcDbLine
 10
203.0957856332708
 20
77.69547640020346
 30
0.0
 11
203.0957856332708
 21
74.84285497117918
 31
0.0
  0
LINE
  5
266
330
1F
100
AcDbEntity
  8
1
  6
Continuous
 62
     7
370
     9
100
AcDbLine
 10
203.0957856332708
 20
72.24260518695081
 30
0.0
 11
203.3957856332707
 21
72.27852684641562
 31
0.0
  0
LINE
  5
267
330
1F
100
AcDbEntity
  8
1
  6
Continuous
 62
     7
370
     9
100
AcDbLine
 10
203.3957856332707
 20
70.98709485638926
 30
0.0
 11
203.0957856332708
 21
71.38868888860145
 31
0.0
  0
LINE
  5
268
330
1F
100
AcDbEntity
  8
1
  6
Continuous
 62
     7
370
     9
100
AcDbLine
 10
203.0957856332708
 20
72.24260518695081
 30
0.0
 11
203.0957856332708
 21
71.38868888860145
 31
0.0
  0
LINE
  5
269
330
1F
100
AcDbEntity
  8
1
  6
Continuous
 62
     7
370
     9
100
AcDbLine
 10
203.0957856332708
 20
70.30084692588167
 30
0.0
 11
203.0957856332708
 21
69.36889762505405
 31
0.0
  0
LINE
  5
26A
330
1F
100
AcDbEntity
  8
1
  6
Continuous
 62
     7
370
     9
100
AcDbLine
 10
203.0957856332708
 20
69.36889762505405
 30
0.0
 11
203.3957856332707
 21
68.98411535246441
 31
0.0
  0
LINE
  5
26B
330
1F
100
AcDbEntity
  8
1
  6
Continuous
 62
     7
370
     9
100
AcDbLine
 10
203.3957856332707
 20
70.39356158719522
 30
0.0
 11
203.0957856332708
 21
70.30084692588167
 31
0.0
  0
LINE
  5
26C
330
1F
100
AcDbEntity
  8
1
  6
Continuous
 62
     7
370
     9
100
AcDbLine
 10
203.0957856332708
 20
68.19703902550998
 30
0.0
 11
203.0957856332708
 21
67.20519605526806
 31
0.0
  0
LINE
  5
26D
330
1F
100
AcDbEntity
  8
1
  6
Continuous
 62
     7
370
     9
100
AcDbLine
 10
203.3957856332707
 20
66.84471489155356
 30
0.0
 11
203.0957856332708
 21
67.20519605526806
 31
0.0
  0
LINE
  5
26E
330
1F
100
AcDbEntity
  8
1
  6
Continuous
 62
     7
370
     9
100
AcDbLine
 10
203.0957856332708
 20
68.19703902550998
 30
0.0
 11
203.3957856332707
 21
68.34474210325129
 31
0.0
  0
LINE
  5
26F
330
1F
100
AcDbEntity
  8
1
  6
Continuous
 62
     7
370
     9
100
AcDbLine
 10
203.3957856332707
 20
66.17194633534103
 30
0.0
 11
203.0957856332708
 21
65.9721297135705
 31
0.0
  0
LINE
  5
270
330
1F
100
AcDbEntity
  8
1
  6
Continuous
 62
     7
370
     9
100
AcDbLine
 10
203.0957856332708
 20
73.22525690644386
 30
0.0
 11
203.3957856332708
 21
72.81466768563973
 31
0.0
  0
CIRCLE
  5
271
330
1F
100
AcDbEntity
  8
1
  6
Continuous
 62
     7
370
     9
100
AcDbCircle
 10
212.3457856332707
 20
61.79517985121083
 30
0.0
 40
0.25
  0
CIRCLE
  5
272
330
1F
100
AcDbEntity
  8
1
  6
Continuous
 62
     7
370
     9
100
AcDbCircle
 10
212.3457856332708
 20
58.87517985121087
 30
0.0
 40
0.25
  0
CIRCLE
  5
273
330
1F
100
AcDbEntity
  8
1
  6
Continuous
 62
     7
370
     9
100
AcDbCircle
 10
212.3457856332708
 20
57.41517985121084
 30
0.0
 40
0.25
  0
CIRCLE
  5
274
330
1F
100
AcDbEntity
  8
1
  6
Continuous
 62
     7
370
     9
100
AcDbCircle
 10
212.3457856332707
 20
64.69517985121081
 30
0.0
 40
0.25
  0
ARC
  5
275
330
1F
100
AcDbEntity
  8
1
  6
Continuous
 62
     7
370
     9
100
AcDbCircle
 10
207.0457856332708
 20
78.24283439857516
 30
0.0
 40
0.1500000000000057
100
AcDbArc
 50
270.0000000000105
 51
0.0
  0
LINE
  5
276
330
1F
100
AcDbEntity
  8
1
  6
Continuous
 62
     7
370
     9
100
AcDbLine
 10
207.1957856332708
 20
78.57517985121069
 30
0.0
 11
207.1957856332708
 21
78.24283439857516
 31
0.0
  0
ARC
  5
277
330
1F
100
AcDbEntity
  8
1
  6
Continuous
 62
     7
370
     9
100
AcDbCircle
 10
205.8457856332708
 20
78.24283439857516
 30
0.0
 40
0.1500000000000057
100
AcDbArc
 50
179.9999999999998
 51
270.0000000000105
  0
LINE
  5
278
330
1F
100
AcDbEntity
  8
1
  6
Continuous
 62
     7
370
     9
100
AcDbLine
 10
205.6957856332708
 20
78.24283439857516
 30
0.0
 11
205.6957856332708
 21
78.57517985121069
 31
0.0
  0
LINE
  5
279
330
1F
100
AcDbEntity
  8
1
  6
Continuous
 62
     7
370
     9
100
AcDbLine
 10
207.0457856332708
 20
78.09283439857512
 30
0.0
 11
205.8457856332708
 21
78.09283439857512
 31
0.0
  0
LINE
  5
27A
330
1F
100
AcDbEntity
  8
1
  6
Continuous
 62
     7
370
     9
100
AcDbLine
 10
207.1957856332707
 20
73.46017985121068
 30
0.0
 11
207.1957856332707
 21
73.0101798512107
 31
0.0
  0
ARC
  5
27B
330
1F
100
AcDbEntity
  8
1
  6
Continuous
 62
     7
370
     9
100
AcDbCircle
 10
207.0457856332707
 20
73.46017985121068
 30
0.0
 40
0.1500000000000057
100
AcDbArc
 50
0.0
 51
89.99999999998914
  0
LINE
  5
27C
330
1F
100
AcDbEntity
  8
1
  6
Continuous
 62
     7
370
     9
100
AcDbLine
 10
205.6957856332707
 20
73.0101798512107
 30
0.0
 11
205.6957856332707
 21
73.46017985121068
 31
0.0
  0
ARC
  5
27D
330
1F
100
AcDbEntity
  8
1
  6
Continuous
 62
     7
370
     9
100
AcDbCircle
 10
205.8457856332707
 20
73.46017985121068
 30
0.0
 40
0.1500000000000057
100
AcDbArc
 50
89.99999999998914
 51
179.9999999999998
  0
LINE
  5
27E
330
1F
100
AcDbEntity
  8
1
  6
Continuous
 62
     7
370
     9
100
AcDbLine
 10
207.0457856332708
 20
73.61017985121066
 30
0.0
 11
205.8457856332708
 21
73.61017985121066
 31
0.0
  0
LINE
  5
27F
330
1F
100
AcDbEntity
  8
1
  6
Continuous
 62
     7
370
     9
100
AcDbLine
 10
207.0457856332708
 20
72.86017985121066
 30
0.0
 11
205.8457856332708
 21
72.86017985121066
 31
0.0
  0
ARC
  5
280
330
1F
100
AcDbEntity
  8
1
  6
Continuous
 62
     7
370
     9
100
AcDbCircle
 10
207.0457856332707
 20
73.0101798512107
 30
0.0
 40
0.1500000000000057
100
AcDbArc
 50
270.0000000000105
 51
0.0
  0
ARC
  5
281
330
1F
100
AcDbEntity
  8
1
  6
Continuous
 62
     7
370
     9
100
AcDbCircle
 10
205.8457856332707
 20
73.0101798512107
 30
0.0
 40
0.1500000000000057
100
AcDbArc
 50
179.9999999999998
 51
270.0000000000105
  0
LINE
  5
282
330
1F
100
AcDbEntity
  8
1
  6
Continuous
 62
     7
370
     9
100
AcDbLine
 10
224.5957856332708
 20
45.97517985121067
 30
0.0
 11
224.8957856332708
 21
46.27517985121068
 31
0.0
  0
LINE
  5
283
330
1F
100
AcDbEntity
  8
1
  6
Continuous
 62
     7
370
     9
100
AcDbLine
 10
221.5957856332707
 20
46.59534580699574
 30
0.0
 11
221.2957856332707
 21
46.21595529480493
 31
0.0
  0
LINE
  5
284
330
1F
100
AcDbEntity
  8
1
  6
Continuous
 62
     7
370
     9
100
AcDbLine
 10
215.3957856332708
 20
46.59534580699574
 30
0.0
 11
215.6957856332708
 21
46.21595529480493
 31
0.0
  0
LINE
  5
285
330
1F
100
AcDbEntity
  8
1
  6
Continuous
 62
     7
370
     9
100
AcDbLine
 10
221.5957856332707
 20
45.52517985121068
 30
0.0
 11
221.5957856332707
 21
61.97517985121067
 31
0.0
  0
LINE
  5
286
330
1F
100
AcDbEntity
  8
1
  6
Continuous
 62
     7
370
     9
100
AcDbLine
 10
215.3957856332708
 20
45.52517985121068
 30
0.0
 11
215.3957856332708
 21
61.97517985121067
 31
0.0
  0
LINE
  5
287
330
1F
100
AcDbEntity
  8
1
  6
Continuous
 62
     7
370
     9
100
AcDbLine
 10
221.7957856332708
 20
61.97517985121067
 30
0.0
 11
221.7957856332708
 21
45.97517985121067
 31
0.0
  0
LINE
  5
288
330
1F
100
AcDbEntity
  8
1
  6
Continuous
 62
     7
370
     9
100
AcDbLine
 10
214.5957856332708
 20
61.97517985121067
 30
0.0
 11
214.5957856332708
 21
45.3751798512107
 31
0.0
  0
LINE
  5
289
330
1F
100
AcDbEntity
  8
1
  6
Continuous
 62
     7
370
     9
100
AcDbLine
 10
215.1957856332708
 20
61.97517985121067
 30
0.0
 11
215.1957856332708
 21
45.67517985121066
 31
0.0
  0
LINE
  5
28A
330
1F
100
AcDbEntity
  8
1
  6
Continuous
 62
     7
370
     9
100
AcDbLine
 10
221.5957856332708
 20
61.97517985121067
 30
0.0
 11
221.5957856332708
 21
45.52517985121068
 31
0.0
  0
LINE
  5
28B
330
1F
100
AcDbEntity
  8
1
  6
Continuous
 62
     7
370
     9
100
AcDbLine
 10
221.7957856332708
 20
45.97517985121067
 30
0.0
 11
224.5957856332708
 21
45.97517985121067
 31
0.0
  0
LINE
  5
28C
330
1F
100
AcDbEntity
  8
1
  6
Continuous
 62
     7
370
     9
100
AcDbLine
 10
221.2957856332707
 20
46.21595529480493
 30
0.0
 11
215.6957856332708
 21
46.21595529480493
 31
0.0
  0
LINE
  5
28D
330
1F
100
AcDbEntity
  8
1
  6
Continuous
 62
     7
370
     9
100
AcDbLine
 10
221.2957856332707
 20
45.88982560457072
 30
0.0
 11
215.6957856332708
 21
45.88982560457072
 31
0.0
  0
LINE
  5
28E
330
1F
100
AcDbEntity
  8
1
  6
Continuous
 62
     7
370
     9
100
AcDbLine
 10
221.2957856332707
 20
45.57947006817528
 30
0.0
 11
215.6957856332708
 21
45.57947006817528
 31
0.0
  0
LINE
  5
28F
330
1F
100
AcDbEntity
  8
1
  6
Continuous
 62
     7
370
     9
100
AcDbLine
 10
221.2957856332708
 20
45.39620562827997
 30
0.0
 11
215.6957856332708
 21
45.39620562827997
 31
0.0
  0
LINE
  5
290
330
1F
100
AcDbEntity
  8
1
  6
Continuous
 62
     7
370
     9
100
AcDbLine
 10
221.2957856332707
 20
45.26210868262893
 30
0.0
 11
215.6957856332708
 21
45.26210868262893
 31
0.0
  0
LINE
  5
291
330
1F
100
AcDbEntity
  8
1
  6
Continuous
 62
     7
370
     9
100
AcDbLine
 10
221.2957856332707
 20
45.22517985121067
 30
0.0
 11
215.6957856332708
 21
45.22517985121067
 31
0.0
  0
LINE
  5
292
330
1F
100
AcDbEntity
  8
1
  6
Continuous
 62
     7
370
     9
100
AcDbLine
 10
215.3957856332708
 20
46.10210102963231
 30
0.0
 11
215.6957856332708
 21
45.88982560457072
 31
0.0
  0
LINE
  5
293
330
1F
100
AcDbEntity
  8
1
  6
Continuous
 62
     7
370
     9
100
AcDbLine
 10
215.6957856332708
 20
45.39620562827997
 30
0.0
 11
215.3957856332708
 21
45.6555830607802
 31
0.0
  0
LINE
  5
294
330
1F
100
AcDbEntity
  8
1
  6
Continuous
 62
     7
370
     9
100
AcDbLine
 10
215.6957856332708
 20
45.22517985121067
 30
0.0
 11
215.3957856332708
 21
45.52517985121068
 31
0.0
  0
LINE
  5
295
330
1F
100
AcDbEntity
  8
1
  6
Continuous
 62
     7
370
     9
100
AcDbLine
 10
215.6957856332708
 20
45.57947006817528
 30
0.0
 11
215.3957856332708
 21
45.93275570271254
 31
0.0
  0
LINE
  5
296
330
1F
100
AcDbEntity
  8
1
  6
Continuous
 62
     7
370
     9
100
AcDbLine
 10
215.6957856332708
 20
45.26210868262893
 30
0.0
 11
215.3957856332708
 21
45.52517985121068
 31
0.0
  0
LINE
  5
297
330
1F
100
AcDbEntity
  8
1
  6
Continuous
 62
     7
370
     9
100
AcDbLine
 10
215.6957856332708
 20
45.88982560457072
 30
0.0
 11
215.6957856332708
 21
46.21595529480493
 31
0.0
  0
LINE
  5
298
330
1F
100
AcDbEntity
  8
1
  6
Continuous
 62
     7
370
     9
100
AcDbLine
 10
215.6957856332708
 20
45.22517985121067
 30
0.0
 11
215.6957856332708
 21
45.26210868262893
 31
0.0
  0
LINE
  5
299
330
1F
100
AcDbEntity
  8
1
  6
Continuous
 62
     7
370
     9
100
AcDbLine
 10
215.6957856332708
 20
45.39620562827997
 30
0.0
 11
215.6957856332708
 21
45.57947006817528
 31
0.0
  0
LINE
  5
29A
330
1F
100
AcDbEntity
  8
1
  6
Continuous
 62
     7
370
     9
100
AcDbLine
 10
215.6957856332708
 20
45.22517985121067
 30
0.0
 11
215.3957856332708
 21
45.52517985121068
 31
0.0
  0
LINE
  5
29B
330
1F
100
AcDbEntity
  8
1
  6
Continuous
 62
     7
370
     9
100
AcDbLine
 10
214.5957856332708
 20
45.3751798512107
 30
0.0
 11
214.8957856332708
 21
45.3751798512107
 31
0.0
  0
LINE
  5
29C
330
1F
100
AcDbEntity
  8
1
  6
Continuous
 62
     7
370
     9
100
AcDbLine
 10
214.8957856332708
 20
45.3751798512107
 30
0.0
 11
215.1957856332708
 21
45.67517985121066
 31
0.0
  0
LINE
  5
29D
330
1F
100
AcDbEntity
  8
1
  6
Continuous
 62
     7
370
     9
100
AcDbLine
 10
215.6957856332708
 20
45.22517985121067
 30
0.0
 11
215.3957856332708
 21
45.52517985121068
 31
0.0
  0
LINE
  5
29E
330
1F
100
AcDbEntity
  8
1
  6
Continuous
 62
     7
370
     9
100
AcDbLine
 10
221.5957856332707
 20
46.10210102963231
 30
0.0
 11
221.2957856332707
 21
45.88982560457072
 31
0.0
  0
LINE
  5
29F
330
1F
100
AcDbEntity
  8
1
  6
Continuous
 62
     7
370
     9
100
AcDbLine
 10
221.2957856332707
 20
45.39620562827997
 30
0.0
 11
221.5957856332707
 21
45.6555830607802
 31
0.0
  0
LINE
  5
2A0
330
1F
100
AcDbEntity
  8
1
  6
Continuous
 62
     7
370
     9
100
AcDbLine
 10
221.2957856332707
 20
45.22517985121067
 30
0.0
 11
221.5957856332707
 21
45.52517985121068
 31
0.0
  0
LINE
  5
2A1
330
1F
100
AcDbEntity
  8
1
  6
Continuous
 62
     7
370
     9
100
AcDbLine
 10
221.2957856332707
 20
45.57947006817528
 30
0.0
 11
221.5957856332707
 21
45.93275570271254
 31
0.0
  0
LINE
  5
2A2
330
1F
100
AcDbEntity
  8
1
  6
Continuous
 62
     7
370
     9
100
AcDbLine
 10
221.2957856332707
 20
45.26210868262893
 30
0.0
 11
221.5957856332707
 21
45.52517985121068
 31
0.0
  0
LINE
  5
2A3
330
1F
100
AcDbEntity
  8
1
  6
Continuous
 62
     7
370
     9
100
AcDbLine
 10
221.2957856332707
 20
45.88982560457072
 30
0.0
 11
221.2957856332707
 21
46.21595529480493
 31
0.0
  0
LINE
  5
2A4
330
1F
100
AcDbEntity
  8
1
  6
Continuous
 62
     7
370
     9
100
AcDbLine
 10
221.2957856332707
 20
45.57947006817528
 30
0.0
 11
221.2957856332707
 21
45.39620562827997
 31
0.0
  0
LINE
  5
2A5
330
1F
100
AcDbEntity
  8
1
  6
Continuous
 62
     7
370
     9
100
AcDbLine
 10
221.2957856332707
 20
45.22517985121067
 30
0.0
 11
221.2957856332707
 21
45.26210868262893
 31
0.0
  0
LINE
  5
2A6
330
1F
100
AcDbEntity
  8
1
  6
Continuous
 62
     7
370
     9
100
AcDbLine
 10
221.2957856332707
 20
45.22517985121067
 30
0.0
 11
221.5957856332707
 21
45.52517985121068
 31
0.0
  0
LINE
  5
2A7
330
1F
100
AcDbEntity
  8
1
  6
Continuous
 62
     7
370
     9
100
AcDbLine
 10
221.2957856332708
 20
45.22517985121067
 30
0.0
 11
221.5957856332708
 21
45.52517985121068
 31
0.0
  0
LINE
  5
2A8
330
1F
100
AcDbEntity
  8
1
  6
Continuous
 62
     7
370
     9
100
AcDbLine
 10
221.7957856332708
 20
77.97517985121067
 30
0.0
 11
224.5957856332708
 21
77.97517985121067
 31
0.0
  0
LINE
  5
2A9
330
1F
100
AcDbEntity
  8
1
  6
Continuous
 62
     7
370
     9
100
AcDbLine
 10
221.5957856332707
 20
78.42517985121066
 30
0.0
 11
221.5957856332707
 21
61.97517985121067
 31
0.0
  0
LINE
  5
2AA
330
1F
100
AcDbEntity
  8
1
  6
Continuous
 62
     7
370
     9
100
AcDbLine
 10
215.3957856332708
 20
78.42517985121066
 30
0.0
 11
215.3957856332708
 21
61.97517985121067
 31
0.0
  0
LINE
  5
2AB
330
1F
100
AcDbEntity
  8
1
  6
Continuous
 62
     7
370
     9
100
AcDbLine
 10
221.7957856332708
 20
61.97517985121067
 30
0.0
 11
221.7957856332708
 21
77.97517985121067
 31
0.0
  0
LINE
  5
2AC
330
1F
100
AcDbEntity
  8
1
  6
Continuous
 62
     7
370
     9
100
AcDbLine
 10
214.5957856332708
 20
61.97517985121067
 30
0.0
 11
214.5957856332708
 21
78.57517985121069
 31
0.0
  0
LINE
  5
2AD
330
1F
100
AcDbEntity
  8
1
  6
Continuous
 62
     7
370
     9
100
AcDbLine
 10
215.1957856332708
 20
61.97517985121067
 30
0.0
 11
215.1957856332708
 21
78.27517985121068
 31
0.0
  0
LINE
  5
2AE
330
1F
100
AcDbEntity
  8
1
  6
Continuous
 62
     7
370
     9
100
AcDbLine
 10
221.5957856332708
 20
61.97517985121067
 30
0.0
 11
221.5957856332708
 21
78.42517985121071
 31
0.0
  0
LINE
  5
2AF
330
1F
100
AcDbEntity
  8
1
  6
Continuous
 62
     7
370
     9
100
AcDbLine
 10
215.6957856332708
 20
64.82772567455419
 30
0.0
 11
221.2957856332708
 21
64.82772567455419
 31
0.0
  0
LINE
  5
2B0
330
1F
100
AcDbEntity
  8
1
  6
Continuous
 62
     7
370
     9
100
AcDbLine
 10
221.5957856332708
 20
65.05220127799987
 30
0.0
 11
215.3957856332709
 21
65.05220127799987
 31
0.0
  0
LINE
  5
2B1
330
1F
100
AcDbEntity
  8
1
  6
Continuous
 62
     7
370
     9
100
AcDbLine
 10
215.6957856332708
 20
59.12263402786721
 30
0.0
 11
221.2957856332708
 21
59.12263402786721
 31
0.0
  0
LINE
  5
2B2
330
1F
100
AcDbEntity
  8
1
  6
Continuous
 62
     7
370
     9
100
AcDbLine
 10
221.5957856332708
 20
58.89815842442147
 30
0.0
 11
215.3957856332709
 21
58.89815842442147
 31
0.0
  0
LINE
  5
2B3
330
1F
100
AcDbEntity
  8
1
  6
Continuous
 62
     7
370
     9
100
AcDbLine
 10
221.5957856332708
 20
58.21345510390779
 30
0.0
 11
215.3957856332709
 21
58.21345510390779
 31
0.0
  0
LINE
  5
2B4
330
1F
100
AcDbEntity
  8
1
  6
Continuous
 62
     7
370
     9
100
AcDbLine
 10
215.6957856332708
 20
57.86779298693062
 30
0.0
 11
221.2957856332708
 21
57.86779298693062
 31
0.0
  0
LINE
  5
2B5
330
1F
100
AcDbEntity
  8
1
  6
Continuous
 62
     7
370
     9
100
AcDbLine
 10
221.2957856332708
 20
56.85329868779178
 30
0.0
 11
215.6957856332708
 21
56.85329868779178
 31
0.0
  0
LINE
  5
2B6
330
1F
100
AcDbEntity
  8
1
  6
Continuous
 62
     7
370
     9
100
AcDbLine
 10
215.3957856332709
 20
56.67911453419214
 30
0.0
 11
221.5957856332707
 21
56.67911453419214
 31
0.0
  0
CIRCLE
  5
2B7
330
1F
100
AcDbEntity
  8
1
  6
Continuous
 62
     7
370
     9
100
AcDbCircle
 10
219.5957856332708
 20
61.97517985121067
 30
0.0
 40
1.700000000000045
  0
CIRCLE
  5
2B8
330
1F
100
AcDbEntity
  8
1
  6
Continuous
 62
     7
370
     9
100
AcDbCircle
 10
219.5957856332708
 20
61.97517985121067
 30
0.0
 40
2.000000000000028
  0
LINE
  5
2B9
330
1F
100
AcDbEntity
  8
1
  6
Continuous
 62
     7
370
     9
100
AcDbLine
 10
215.3957856332709
 20
56.02132969964202
 30
0.0
 11
221.5957856332707
 21
56.02132969964202
 31
0.0
  0
LINE
  5
2BA
330
1F
100
AcDbEntity
  8
1
  6
Continuous
 62
     7
370
     9
100
AcDbLine
 10
221.2957856332708
 20
55.64779057680443
 30
0.0
 11
215.6957856332708
 21
55.64779057680443
 31
0.0
  0
LINE
  5
2BB
330
1F
100
AcDbEntity
  8
1
  6
Continuous
 62
     7
370
     9
100
AcDbLine
 10
215.6957856332708
 20
54.68365493850888
 30
0.0
 11
221.2957856332708
 21
54.68365493850888
 31
0.0
  0
LINE
  5
2BC
330
1F
100
AcDbEntity
  8
1
  6
Continuous
 62
     7
370
     9
100
AcDbLine
 10
221.5957856332707
 20
54.56315253117356
 30
0.0
 11
215.3957856332709
 21
54.56315253117356
 31
0.0
  0
LINE
  5
2BD
330
1F
100
AcDbEntity
  8
1
  6
Continuous
 62
     7
370
     9
100
AcDbLine
 10
215.3957856332709
 20
53.94508921617233
 30
0.0
 11
221.5957856332708
 21
53.94508921617233
 31
0.0
  0
LINE
  5
2BE
330
1F
100
AcDbEntity
  8
1
  6
Continuous
 62
     7
370
     9
100
AcDbLine
 10
221.2957856332707
 20
53.55094360160598
 30
0.0
 11
215.6957856332708
 21
53.55094360160598
 31
0.0
  0
LINE
  5
2BF
330
1F
100
AcDbEntity
  8
1
  6
Continuous
 62
     7
370
     9
100
AcDbLine
 10
215.6957856332708
 20
52.65593242766499
 30
0.0
 11
221.2957856332707
 21
52.65593242766499
 31
0.0
  0
LINE
  5
2C0
330
1F
100
AcDbEntity
  8
1
  6
Continuous
 62
     7
370
     9
100
AcDbLine
 10
221.5957856332707
 20
52.59145720888336
 30
0.0
 11
215.3957856332708
 21
52.59145720888336
 31
0.0
  0
LINE
  5
2C1
330
1F
100
AcDbEntity
  8
1
  6
Continuous
 62
     7
370
     9
100
AcDbLine
 10
221.5957856332707
 20
52.02514531282094
 30
0.0
 11
215.3957856332708
 21
52.02514531282094
 31
0.0
  0
LINE
  5
2C2
330
1F
100
AcDbEntity
  8
1
  6
Continuous
 62
     7
370
     9
100
AcDbLine
 10
215.6957856332708
 20
51.61806480257934
 30
0.0
 11
221.2957856332707
 21
51.61806480257934
 31
0.0
  0
LINE
  5
2C3
330
1F
100
AcDbEntity
  8
1
  6
Continuous
 62
     7
370
     9
100
AcDbLine
 10
215.3957856332708
 20
50.80959846743366
 30
0.0
 11
221.5957856332708
 21
50.80959846743366
 31
0.0
  0
LINE
  5
2C4
330
1F
100
AcDbEntity
  8
1
  6
Continuous
 62
     7
370
     9
100
AcDbLine
 10
221.5957856332708
 20
50.29886751376273
 30
0.0
 11
215.3957856332708
 21
50.29886751376273
 31
0.0
  0
LINE
  5
2C5
330
1F
100
AcDbEntity
  8
1
  6
Continuous
 62
     7
370
     9
100
AcDbLine
 10
221.2957856332707
 20
49.8867754669306
 30
0.0
 11
215.6957856332708
 21
49.8867754669306
 31
0.0
  0
LINE
  5
2C6
330
1F
100
AcDbEntity
  8
1
  6
Continuous
 62
     7
370
     9
100
AcDbLine
 10
221.2957856332708
 20
49.18058984817696
 30
0.0
 11
215.6957856332708
 21
49.18058984817696
 31
0.0
  0
LINE
  5
2C7
330
1F
100
AcDbEntity
  8
1
  6
Continuous
 62
     7
370
     9
100
AcDbLine
 10
221.5957856332707
 20
48.79985585274454
 30
0.0
 11
215.3957856332708
 21
48.79985585274454
 31
0.0
  0
LINE
  5
2C8
330
1F
100
AcDbEntity
  8
1
  6
Continuous
 62
     7
370
     9
100
AcDbLine
 10
221.2957856332707
 20
48.39077317226565
 30
0.0
 11
215.6957856332708
 21
48.39077317226565
 31
0.0
  0
LINE
  5
2C9
330
1F
100
AcDbEntity
  8
1
  6
Continuous
 62
     7
370
     9
100
AcDbLine
 10
215.6957856332708
 20
47.80061336969885
 30
0.0
 11
221.2957856332707
 21
47.80061336969885
 31
0.0
  0
LINE
  5
2CA
330
1F
100
AcDbEntity
  8
1
  6
Continuous
 62
     7
370
     9
100
AcDbLine
 10
221.5957856332708
 20
47.5572868866476
 30
0.0
 11
215.3957856332708
 21
47.5572868866476
 31
0.0
  0
LINE
  5
2CB
330
1F
100
AcDbEntity
  8
1
  6
Continuous
 62
     7
370
     9
100
AcDbLine
 10
221.2957856332707
 20
47.15917590157278
 30
0.0
 11
215.6957856332708
 21
47.15917590157278
 31
0.0
  0
LINE
  5
2CC
330
1F
100
AcDbEntity
  8
1
  6
Continuous
 62
     7
370
     9
100
AcDbLine
 10
221.2957856332708
 20
46.69652870445299
 30
0.0
 11
215.6957856332708
 21
46.69652870445299
 31
0.0
  0
LINE
  5
2CD
330
1F
100
AcDbEntity
  8
1
  6
Continuous
 62
     7
370
     9
100
AcDbLine
 10
221.5957856332707
 20
46.59534580699574
 30
0.0
 11
215.3957856332708
 21
46.59534580699574
 31
0.0
  0
LINE
  5
2CE
330
1F
100
AcDbEntity
  8
1
  6
Continuous
 62
     7
370
     9
100
AcDbLine
 10
215.6957856332708
 20
64.82772567455419
 30
0.0
 11
215.3957856332708
 21
65.05220127799987
 31
0.0
  0
ARC
  5
2CF
330
1F
100
AcDbEntity
  8
1
  6
Continuous
 62
     7
370
     9
100
AcDbCircle
 10
216.9957856332708
 20
61.97517985121067
 30
0.0
 40
0.75
100
AcDbArc
 50
31.57854603590141
 51
328.4214539640982
  0
LINE
  5
2D0
330
1F
100
AcDbEntity
  8
1
  6
Continuous
 62
     7
370
     9
100
AcDbLine
 10
215.6957856332708
 20
59.12263402786721
 30
0.0
 11
215.3957856332708
 21
58.89815842442147
 31
0.0
  0
LINE
  5
2D1
330
1F
100
AcDbEntity
  8
1
  6
Continuous
 62
     7
370
     9
100
AcDbLine
 10
215.3957856332708
 20
58.21345510390779
 30
0.0
 11
215.6957856332708
 21
57.86779298693062
 31
0.0
  0
LINE
  5
2D2
330
1F
100
AcDbEntity
  8
1
  6
Continuous
 62
     7
370
     9
100
AcDbLine
 10
215.6957856332708
 20
56.85329868779178
 30
0.0
 11
215.3957856332708
 21
56.67911453419214
 31
0.0
  0
LINE
  5
2D3
330
1F
100
AcDbEntity
  8
1
  6
Continuous
 62
     7
370
     9
100
AcDbLine
 10
215.6957856332708
 20
56.85329868779178
 30
0.0
 11
215.6957856332708
 21
57.86779298693062
 31
0.0
  0
LINE
  5
2D4
330
1F
100
AcDbEntity
  8
1
  6
Continuous
 62
     7
370
     9
100
AcDbLine
 10
215.6957856332708
 20
59.12263402786721
 30
0.0
 11
215.6957856332708
 21
61.97517985121067
 31
0.0
  0
LINE
  5
2D5
330
1F
100
AcDbEntity
  8
1
  6
Continuous
 62
     7
370
     9
100
AcDbLine
 10
215.6957856332708
 20
64.82772567455419
 30
0.0
 11
215.6957856332708
 21
61.97517985121067
 31
0.0
  0
LINE
  5
2D6
330
1F
100
AcDbEntity
  8
1
  6
Continuous
 62
     7
370
     9
100
AcDbLine
 10
215.3957856332708
 20
56.02132969964202
 30
0.0
 11
215.6957856332708
 21
55.64779057680443
 31
0.0
  0
LINE
  5
2D7
330
1F
100
AcDbEntity
  8
1
  6
Continuous
 62
     7
370
     9
100
AcDbLine
 10
215.6957856332708
 20
54.68365493850888
 30
0.0
 11
215.3957856332708
 21
54.56315253117356
 31
0.0
  0
LINE
  5
2D8
330
1F
100
AcDbEntity
  8
1
  6
Continuous
 62
     7
370
     9
100
AcDbLine
 10
215.6957856332708
 20
54.68365493850888
 30
0.0
 11
215.6957856332708
 21
55.64779057680443
 31
0.0
  0
LINE
  5
2D9
330
1F
100
AcDbEntity
  8
1
  6
Continuous
 62
     7
370
     9
100
AcDbLine
 10
215.6957856332708
 20
52.65593242766499
 30
0.0
 11
215.3957856332708
 21
52.59145720888336
 31
0.0
  0
LINE
  5
2DA
330
1F
100
AcDbEntity
  8
1
  6
Continuous
 62
     7
370
     9
100
AcDbLine
 10
215.6957856332708
 20
53.55094360160598
 30
0.0
 11
215.3957856332708
 21
53.94508921617233
 31
0.0
  0
LINE
  5
2DB
330
1F
100
AcDbEntity
  8
1
  6
Continuous
 62
     7
370
     9
100
AcDbLine
 10
215.6957856332708
 20
52.65593242766499
 30
0.0
 11
215.6957856332708
 21
53.55094360160598
 31
0.0
  0
LINE
  5
2DC
330
1F
100
AcDbEntity
  8
1
  6
Continuous
 62
     7
370
     9
100
AcDbLine
 10
215.6957856332708
 20
51.61806480257934
 30
0.0
 11
215.3957856332708
 21
52.02514531282094
 31
0.0
  0
LINE
  5
2DD
330
1F
100
AcDbEntity
  8
1
  6
Continuous
 62
     7
370
     9
100
AcDbLine
 10
215.6957856332708
 20
50.80959846743366
 30
0.0
 11
215.6957856332708
 21
51.61806480257934
 31
0.0
  0
LINE
  5
2DE
330
1F
100
AcDbEntity
  8
1
  6
Continuous
 62
     7
370
     9
100
AcDbLine
 10
215.6957856332708
 20
49.18058984817696
 30
0.0
 11
215.3957856332708
 21
49.2308188854725
 31
0.0
  0
LINE
  5
2DF
330
1F
100
AcDbEntity
  8
1
  6
Continuous
 62
     7
370
     9
100
AcDbLine
 10
215.6957856332708
 20
48.39077317226565
 30
0.0
 11
215.3957856332708
 21
48.79985585274454
 31
0.0
  0
LINE
  5
2E0
330
1F
100
AcDbEntity
  8
1
  6
Continuous
 62
     7
370
     9
100
AcDbLine
 10
215.6957856332708
 20
49.8867754669306
 30
0.0
 11
215.3957856332708
 21
50.29886751376273
 31
0.0
  0
LINE
  5
2E1
330
1F
100
AcDbEntity
  8
1
  6
Continuous
 62
     7
370
     9
100
AcDbLine
 10
215.6957856332708
 20
49.18058984817696
 30
0.0
 11
215.6957856332708
 21
49.8867754669306
 31
0.0
  0
LINE
  5
2E2
330
1F
100
AcDbEntity
  8
1
  6
Continuous
 62
     7
370
     9
100
AcDbLine
 10
215.6957856332708
 20
47.80061336969885
 30
0.0
 11
215.3957856332708
 21
47.90728688664763
 31
0.0
  0
LINE
  5
2E3
330
1F
100
AcDbEntity
  8
1
  6
Continuous
 62
     7
370
     9
100
AcDbLine
 10
215.3957856332708
 20
47.5572868866476
 30
0.0
 11
215.6957856332708
 21
47.15917590157278
 31
0.0
  0
LINE
  5
2E4
330
1F
100
AcDbEntity
  8
1
  6
Continuous
 62
     7
370
     9
100
AcDbLine
 10
215.6957856332708
 20
46.69652870445299
 30
0.0
 11
215.3957856332708
 21
46.85757042238686
 31
0.0
  0
LINE
  5
2E5
330
1F
100
AcDbEntity
  8
1
  6
Continuous
 62
     7
370
     9
100
AcDbLine
 10
215.6957856332708
 20
46.69652870445299
 30
0.0
 11
215.6957856332708
 21
47.15917590157278
 31
0.0
  0
LINE
  5
2E6
330
1F
100
AcDbEntity
  8
1
  6
Continuous
 62
     7
370
     9
100
AcDbLine
 10
215.3957856332708
 20
46.47517985121067
 30
0.0
 11
215.1957856332708
 21
46.47517985121067
 31
0.0
  0
LINE
  5
2E7
330
1F
100
AcDbEntity
  8
1
  6
Continuous
 62
     7
370
     9
100
AcDbLine
 10
215.6957856332708
 20
47.80061336969885
 30
0.0
 11
215.6957856332708
 21
48.39077317226565
 31
0.0
  0
LINE
  5
2E8
330
1F
100
AcDbEntity
  8
1
  6
Continuous
 62
     7
370
     9
100
AcDbLine
 10
221.2957856332708
 20
64.82772567455419
 30
0.0
 11
221.5957856332707
 21
65.05220127799987
 31
0.0
  0
LINE
  5
2E9
330
1F
100
AcDbEntity
  8
1
  6
Continuous
 62
     7
370
     9
100
AcDbLine
 10
221.2957856332708
 20
59.12263402786721
 30
0.0
 11
221.5957856332707
 21
58.89815842442147
 31
0.0
  0
LINE
  5
2EA
330
1F
100
AcDbEntity
  8
1
  6
Continuous
 62
     7
370
     9
100
AcDbLine
 10
221.5957856332707
 20
58.21345510390779
 30
0.0
 11
221.2957856332708
 21
57.86779298693062
 31
0.0
  0
LINE
  5
2EB
330
1F
100
AcDbEntity
  8
1
  6
Continuous
 62
     7
370
     9
100
AcDbLine
 10
221.2957856332708
 20
56.85329868779178
 30
0.0
 11
221.5957856332707
 21
56.67911453419214
 31
0.0
  0
LINE
  5
2EC
330
1F
100
AcDbEntity
  8
1
  6
Continuous
 62
     7
370
     9
100
AcDbLine
 10
221.2957856332708
 20
56.85329868779178
 30
0.0
 11
221.2957856332708
 21
57.86779298693062
 31
0.0
  0
LINE
  5
2ED
330
1F
100
AcDbEntity
  8
1
  6
Continuous
 62
     7
370
     9
100
AcDbLine
 10
221.2957856332708
 20
59.12263402786721
 30
0.0
 11
221.2957856332708
 21
60.92161447592537
 31
0.0
  0
LINE
  5
2EE
330
1F
100
AcDbEntity
  8
1
  6
Continuous
 62
     7
370
     9
100
AcDbLine
 10
221.2957856332708
 20
64.82772567455419
 30
0.0
 11
221.2957856332708
 21
63.02874522649597
 31
0.0
  0
LINE
  5
2EF
330
1F
100
AcDbEntity
  8
1
  6
Continuous
 62
     7
370
     9
100
AcDbLine
 10
221.5957856332707
 20
56.02132969964202
 30
0.0
 11
221.2957856332708
 21
55.64779057680443
 31
0.0
  0
LINE
  5
2F0
330
1F
100
AcDbEntity
  8
1
  6
Continuous
 62
     7
370
     9
100
AcDbLine
 10
221.2957856332708
 20
54.68365493850888
 30
0.0
 11
221.5957856332707
 21
54.56315253117356
 31
0.0
  0
LINE
  5
2F1
330
1F
100
AcDbEntity
  8
1
  6
Continuous
 62
     7
370
     9
100
AcDbLine
 10
221.2957856332708
 20
54.68365493850888
 30
0.0
 11
221.2957856332708
 21
55.64779057680443
 31
0.0
  0
LINE
  5
2F2
330
1F
100
AcDbEntity
  8
1
  6
Continuous
 62
     7
370
     9
100
AcDbLine
 10
221.2957856332707
 20
52.65593242766499
 30
0.0
 11
221.5957856332707
 21
52.59145720888336
 31
0.0
  0
LINE
  5
2F3
330
1F
100
AcDbEntity
  8
1
  6
Continuous
 62
     7
370
     9
100
AcDbLine
 10
221.2957856332707
 20
53.55094360160598
 30
0.0
 11
221.5957856332707
 21
53.94508921617233
 31
0.0
  0
LINE
  5
2F4
330
1F
100
AcDbEntity
  8
1
  6
Continuous
 62
     7
370
     9
100
AcDbLine
 10
221.2957856332707
 20
52.65593242766499
 30
0.0
 11
221.2957856332707
 21
53.55094360160598
 31
0.0
  0
LINE
  5
2F5
330
1F
100
AcDbEntity
  8
1
  6
Continuous
 62
     7
370
     9
100
AcDbLine
 10
221.2957856332707
 20
51.61806480257934
 30
0.0
 11
221.5957856332707
 21
52.02514531282094
 31
0.0
  0
LINE
  5
2F6
330
1F
100
AcDbEntity
  8
1
  6
Continuous
 62
     7
370
     9
100
AcDbLine
 10
221.2957856332707
 20
50.80959846743366
 30
0.0
 11
221.2957856332707
 21
51.61806480257934
 31
0.0
  0
LINE
  5
2F7
330
1F
100
AcDbEntity
  8
1
  6
Continuous
 62
     7
370
     9
100
AcDbLine
 10
221.2957856332707
 20
49.18058984817696
 30
0.0
 11
221.5957856332707
 21
49.2308188854725
 31
0.0
  0
LINE
  5
2F8
330
1F
100
AcDbEntity
  8
1
  6
Continuous
 62
     7
370
     9
100
AcDbLine
 10
221.2957856332707
 20
48.39077317226565
 30
0.0
 11
221.5957856332707
 21
48.79985585274454
 31
0.0
  0
LINE
  5
2F9
330
1F
100
AcDbEntity
  8
1
  6
Continuous
 62
     7
370
     9
100
AcDbLine
 10
221.2957856332707
 20
49.8867754669306
 30
0.0
 11
221.5957856332707
 21
50.29886751376273
 31
0.0
  0
LINE
  5
2FA
330
1F
100
AcDbEntity
  8
1
  6
Continuous
 62
     7
370
     9
100
AcDbLine
 10
221.2957856332707
 20
49.18058984817696
 30
0.0
 11
221.2957856332707
 21
49.8867754669306
 31
0.0
  0
LINE
  5
2FB
330
1F
100
AcDbEntity
  8
1
  6
Continuous
 62
     7
370
     9
100
AcDbLine
 10
221.2957856332707
 20
47.80061336969885
 30
0.0
 11
221.5957856332707
 21
47.90728688664763
 31
0.0
  0
LINE
  5
2FC
330
1F
100
AcDbEntity
  8
1
  6
Continuous
 62
     7
370
     9
100
AcDbLine
 10
221.5957856332707
 20
47.5572868866476
 30
0.0
 11
221.2957856332707
 21
47.15917590157278
 31
0.0
  0
LINE
  5
2FD
330
1F
100
AcDbEntity
  8
1
  6
Continuous
 62
     7
370
     9
100
AcDbLine
 10
221.2957856332707
 20
46.69652870445299
 30
0.0
 11
221.5957856332707
 21
46.85757042238686
 31
0.0
  0
LINE
  5
2FE
330
1F
100
AcDbEntity
  8
1
  6
Continuous
 62
     7
370
     9
100
AcDbLine
 10
221.2957856332707
 20
46.69652870445299
 30
0.0
 11
221.2957856332707
 21
47.15917590157278
 31
0.0
  0
LINE
  5
2FF
330
1F
100
AcDbEntity
  8
1
  6
Continuous
 62
     7
370
     9
100
AcDbLine
 10
221.7957856332708
 20
46.72517985121067
 30
0.0
 11
221.5957856332708
 21
46.72517985121067
 31
0.0
  0
LINE
  5
300
330
1F
100
AcDbEntity
  8
1
  6
Continuous
 62
     7
370
     9
100
AcDbLine
 10
221.2957856332707
 20
47.80061336969885
 30
0.0
 11
221.2957856332707
 21
48.39077317226565
 31
0.0
  0
LINE
  5
301
330
1F
100
AcDbEntity
  8
1
  6
Continuous
 62
     7
370
     9
100
AcDbLine
 10
215.3957856332708
 20
73.14076123498768
 30
0.0
 11
221.5957856332708
 21
73.14076123498768
 31
0.0
  0
LINE
  5
302
330
1F
100
AcDbEntity
  8
1
  6
Continuous
 62
     7
370
     9
100
AcDbLine
 10
221.5957856332708
 20
73.65149218865861
 30
0.0
 11
215.3957856332708
 21
73.65149218865861
 31
0.0
  0
LINE
  5
303
330
1F
100
AcDbEntity
  8
1
  6
Continuous
 62
     7
370
     9
100
AcDbLine
 10
221.2957856332707
 20
74.0635842354908
 30
0.0
 11
215.6957856332708
 21
74.0635842354908
 31
0.0
  0
LINE
  5
304
330
1F
100
AcDbEntity
  8
1
  6
Continuous
 62
     7
370
     9
100
AcDbLine
 10
221.2957856332708
 20
74.76976985424443
 30
0.0
 11
215.6957856332708
 21
74.76976985424443
 31
0.0
  0
LINE
  5
305
330
1F
100
AcDbEntity
  8
1
  6
Continuous
 62
     7
370
     9
100
AcDbLine
 10
221.5957856332707
 20
75.1505038496768
 30
0.0
 11
215.3957856332708
 21
75.1505038496768
 31
0.0
  0
LINE
  5
306
330
1F
100
AcDbEntity
  8
1
  6
Continuous
 62
     7
370
     9
100
AcDbLine
 10
221.2957856332707
 20
75.55958653015574
 30
0.0
 11
215.6957856332708
 21
75.55958653015574
 31
0.0
  0
LINE
  5
307
330
1F
100
AcDbEntity
  8
1
  6
Continuous
 62
     7
370
     9
100
AcDbLine
 10
215.6957856332708
 20
76.14974633272249
 30
0.0
 11
221.2957856332707
 21
76.14974633272249
 31
0.0
  0
LINE
  5
308
330
1F
100
AcDbEntity
  8
1
  6
Continuous
 62
     7
370
     9
100
AcDbLine
 10
221.5957856332708
 20
76.39307281577373
 30
0.0
 11
215.3957856332708
 21
76.39307281577373
 31
0.0
  0
LINE
  5
309
330
1F
100
AcDbEntity
  8
1
  6
Continuous
 62
     7
370
     9
100
AcDbLine
 10
221.2957856332707
 20
76.79118380084856
 30
0.0
 11
215.6957856332708
 21
76.79118380084856
 31
0.0
  0
LINE
  5
30A
330
1F
100
AcDbEntity
  8
1
  6
Continuous
 62
     7
370
     9
100
AcDbLine
 10
221.2957856332708
 20
77.25383099796835
 30
0.0
 11
215.6957856332708
 21
77.25383099796835
 31
0.0
  0
LINE
  5
30B
330
1F
100
AcDbEntity
  8
1
  6
Continuous
 62
     7
370
     9
100
AcDbLine
 10
221.5957856332707
 20
77.35501389542566
 30
0.0
 11
215.3957856332708
 21
77.35501389542566
 31
0.0
  0
LINE
  5
30C
330
1F
100
AcDbEntity
  8
1
  6
Continuous
 62
     7
370
     9
100
AcDbLine
 10
221.2957856332707
 20
77.73440440761641
 30
0.0
 11
215.6957856332708
 21
77.73440440761641
 31
0.0
  0
LINE
  5
30D
330
1F
100
AcDbEntity
  8
1
  6
Continuous
 62
     7
370
     9
100
AcDbLine
 10
221.2957856332707
 20
78.06053409785068
 30
0.0
 11
215.6957856332708
 21
78.06053409785068
 31
0.0
  0
LINE
  5
30E
330
1F
100
AcDbEntity
  8
1
  6
Continuous
 62
     7
370
     9
100
AcDbLine
 10
221.2957856332707
 20
78.37088963424605
 30
0.0
 11
215.6957856332708
 21
78.37088963424605
 31
0.0
  0
LINE
  5
30F
330
1F
100
AcDbEntity
  8
1
  6
Continuous
 62
     7
370
     9
100
AcDbLine
 10
221.2957856332708
 20
78.55415407414137
 30
0.0
 11
215.6957856332708
 21
78.55415407414137
 31
0.0
  0
LINE
  5
310
330
1F
100
AcDbEntity
  8
1
  6
Continuous
 62
     7
370
     9
100
AcDbLine
 10
221.2957856332707
 20
78.6882510197924
 30
0.0
 11
215.6957856332708
 21
78.6882510197924
 31
0.0
  0
LINE
  5
311
330
1F
100
AcDbEntity
  8
1
  6
Continuous
 62
     7
370
     9
100
AcDbLine
 10
221.2957856332707
 20
78.72517985121067
 30
0.0
 11
215.6957856332708
 21
78.72517985121067
 31
0.0
  0
LINE
  5
312
330
1F
100
AcDbEntity
  8
1
  6
Continuous
 62
     7
370
     9
100
AcDbLine
 10
221.5957856332708
 20
65.73690459851355
 30
0.0
 11
215.3957856332709
 21
65.73690459851355
 31
0.0
  0
LINE
  5
313
330
1F
100
AcDbEntity
  8
1
  6
Continuous
 62
     7
370
     9
100
AcDbLine
 10
215.6957856332708
 20
66.08256671549071
 30
0.0
 11
221.2957856332708
 21
66.08256671549071
 31
0.0
  0
LINE
  5
314
330
1F
100
AcDbEntity
  8
1
  6
Continuous
 62
     7
370
     9
100
AcDbLine
 10
221.2957856332708
 20
67.09706101462956
 30
0.0
 11
215.6957856332708
 21
67.09706101462956
 31
0.0
  0
LINE
  5
315
330
1F
100
AcDbEntity
  8
1
  6
Continuous
 62
     7
370
     9
100
AcDbLine
 10
215.3957856332709
 20
67.2712451682292
 30
0.0
 11
221.5957856332707
 21
67.2712451682292
 31
0.0
  0
LINE
  5
316
330
1F
100
AcDbEntity
  8
1
  6
Continuous
 62
     7
370
     9
100
AcDbLine
 10
215.3957856332709
 20
67.92903000277937
 30
0.0
 11
221.5957856332707
 21
67.92903000277937
 31
0.0
  0
LINE
  5
317
330
1F
100
AcDbEntity
  8
1
  6
Continuous
 62
     7
370
     9
100
AcDbLine
 10
221.2957856332708
 20
68.30256912561691
 30
0.0
 11
215.6957856332708
 21
68.30256912561691
 31
0.0
  0
LINE
  5
318
330
1F
100
AcDbEntity
  8
1
  6
Continuous
 62
     7
370
     9
100
AcDbLine
 10
215.6957856332708
 20
69.26670476391251
 30
0.0
 11
221.2957856332708
 21
69.26670476391251
 31
0.0
  0
LINE
  5
319
330
1F
100
AcDbEntity
  8
1
  6
Continuous
 62
     7
370
     9
100
AcDbLine
 10
221.5957856332707
 20
69.38720717124784
 30
0.0
 11
215.3957856332709
 21
69.38720717124784
 31
0.0
  0
LINE
  5
31A
330
1F
100
AcDbEntity
  8
1
  6
Continuous
 62
     7
370
     9
100
AcDbLine
 10
215.3957856332709
 20
70.00527048624906
 30
0.0
 11
221.5957856332708
 21
70.00527048624906
 31
0.0
  0
LINE
  5
31B
330
1F
100
AcDbEntity
  8
1
  6
Continuous
 62
     7
370
     9
100
AcDbLine
 10
221.2957856332707
 20
70.39941610081536
 30
0.0
 11
215.6957856332708
 21
70.39941610081536
 31
0.0
  0
LINE
  5
31C
330
1F
100
AcDbEntity
  8
1
  6
Continuous
 62
     7
370
     9
100
AcDbLine
 10
215.6957856332708
 20
71.29442727475634
 30
0.0
 11
221.2957856332707
 21
71.29442727475634
 31
0.0
  0
LINE
  5
31D
330
1F
100
AcDbEntity
  8
1
  6
Continuous
 62
     7
370
     9
100
AcDbLine
 10
221.5957856332707
 20
71.35890249353798
 30
0.0
 11
215.3957856332708
 21
71.35890249353798
 31
0.0
  0
LINE
  5
31E
330
1F
100
AcDbEntity
  8
1
  6
Continuous
 62
     7
370
     9
100
AcDbLine
 10
221.5957856332707
 20
71.92521438960046
 30
0.0
 11
215.3957856332708
 21
71.92521438960046
 31
0.0
  0
LINE
  5
31F
330
1F
100
AcDbEntity
  8
1
  6
Continuous
 62
     7
370
     9
100
AcDbLine
 10
215.6957856332708
 20
72.332294899842
 30
0.0
 11
221.2957856332707
 21
72.332294899842
 31
0.0
  0
LINE
  5
320
330
1F
100
AcDbEntity
  8
1
  6
Continuous
 62
     7
370
     9
100
AcDbLine
 10
215.6957856332708
 20
77.25383099796835
 30
0.0
 11
215.3957856332708
 21
77.09278928003454
 31
0.0
  0
LINE
  5
321
330
1F
100
AcDbEntity
  8
1
  6
Continuous
 62
     7
370
     9
100
AcDbLine
 10
215.3957856332708
 20
77.35501389542566
 30
0.0
 11
215.6957856332708
 21
77.73440440761641
 31
0.0
  0
LINE
  5
322
330
1F
100
AcDbEntity
  8
1
  6
Continuous
 62
     7
370
     9
100
AcDbLine
 10
215.3957856332708
 20
77.84825867278909
 30
0.0
 11
215.6957856332708
 21
78.06053409785068
 31
0.0
  0
LINE
  5
323
330
1F
100
AcDbEntity
  8
1
  6
Continuous
 62
     7
370
     9
100
AcDbLine
 10
215.6957856332708
 20
78.55415407414142
 30
0.0
 11
215.3957856332708
 21
78.29477664164119
 31
0.0
  0
LINE
  5
324
330
1F
100
AcDbEntity
  8
1
  6
Continuous
 62
     7
370
     9
100
AcDbLine
 10
215.6957856332708
 20
78.72517985121067
 30
0.0
 11
215.3957856332708
 21
78.42517985121066
 31
0.0
  0
LINE
  5
325
330
1F
100
AcDbEntity
  8
1
  6
Continuous
 62
     7
370
     9
100
AcDbLine
 10
215.6957856332708
 20
78.37088963424605
 30
0.0
 11
215.3957856332708
 21
78.01760399970885
 31
0.0
  0
LINE
  5
326
330
1F
100
AcDbEntity
  8
1
  6
Continuous
 62
     7
370
     9
100
AcDbLine
 10
215.6957856332708
 20
78.6882510197924
 30
0.0
 11
215.3957856332708
 21
78.42517985121066
 31
0.0
  0
LINE
  5
327
330
1F
100
AcDbEntity
  8
1
  6
Continuous
 62
     7
370
     9
100
AcDbLine
 10
215.6957856332708
 20
78.06053409785068
 30
0.0
 11
215.6957856332708
 21
77.73440440761641
 31
0.0
  0
LINE
  5
328
330
1F
100
AcDbEntity
  8
1
  6
Continuous
 62
     7
370
     9
100
AcDbLine
 10
215.6957856332708
 20
78.72517985121067
 30
0.0
 11
215.6957856332708
 21
78.6882510197924
 31
0.0
  0
LINE
  5
329
330
1F
100
AcDbEntity
  8
1
  6
Continuous
 62
     7
370
     9
100
AcDbLine
 10
215.6957856332708
 20
78.55415407414137
 30
0.0
 11
215.6957856332708
 21
78.37088963424605
 31
0.0
  0
LINE
  5
32A
330
1F
100
AcDbEntity
  8
1
  6
Continuous
 62
     7
370
     9
100
AcDbLine
 10
215.6957856332708
 20
78.72517985121067
 30
0.0
 11
215.3957856332708
 21
78.42517985121071
 31
0.0
  0
LINE
  5
32B
330
1F
100
AcDbEntity
  8
1
  6
Continuous
 62
     7
370
     9
100
AcDbLine
 10
215.3957856332708
 20
77.47517985121067
 30
0.0
 11
215.1957856332708
 21
77.47517985121067
 31
0.0
  0
LINE
  5
32C
330
1F
100
AcDbEntity
  8
1
  6
Continuous
 62
     7
370
     9
100
AcDbLine
 10
214.5957856332708
 20
78.57517985121069
 30
0.0
 11
214.8957856332708
 21
78.57517985121069
 31
0.0
  0
LINE
  5
32D
330
1F
100
AcDbEntity
  8
1
  6
Continuous
 62
     7
370
     9
100
AcDbLine
 10
214.8957856332708
 20
78.57517985121069
 30
0.0
 11
215.1957856332708
 21
78.27517985121068
 31
0.0
  0
LINE
  5
32E
330
1F
100
AcDbEntity
  8
1
  6
Continuous
 62
     7
370
     9
100
AcDbLine
 10
215.6957856332708
 20
78.72517985121067
 30
0.0
 11
215.3957856332708
 21
78.42517985121071
 31
0.0
  0
LINE
  5
32F
330
1F
100
AcDbEntity
  8
1
  6
Continuous
 62
     7
370
     9
100
AcDbLine
 10
215.6957856332708
 20
75.55958653015574
 30
0.0
 11
215.3957856332708
 21
75.1505038496768
 31
0.0
  0
LINE
  5
330
330
1F
100
AcDbEntity
  8
1
  6
Continuous
 62
     7
370
     9
100
AcDbLine
 10
215.6957856332708
 20
76.14974633272249
 30
0.0
 11
215.3957856332708
 21
76.04307281577377
 31
0.0
  0
LINE
  5
331
330
1F
100
AcDbEntity
  8
1
  6
Continuous
 62
     7
370
     9
100
AcDbLine
 10
215.3957856332708
 20
76.39307281577373
 30
0.0
 11
215.6957856332708
 21
76.79118380084856
 31
0.0
  0
LINE
  5
332
330
1F
100
AcDbEntity
  8
1
  6
Continuous
 62
     7
370
     9
100
AcDbLine
 10
215.6957856332708
 20
76.14974633272249
 30
0.0
 11
215.6957856332708
 21
75.55958653015574
 31
0.0
  0
LINE
  5
333
330
1F
100
AcDbEntity
  8
1
  6
Continuous
 62
     7
370
     9
100
AcDbLine
 10
215.6957856332708
 20
74.76976985424443
 30
0.0
 11
215.3957856332708
 21
74.71954081694884
 31
0.0
  0
LINE
  5
334
330
1F
100
AcDbEntity
  8
1
  6
Continuous
 62
     7
370
     9
100
AcDbLine
 10
215.6957856332708
 20
74.0635842354908
 30
0.0
 11
215.3957856332708
 21
73.65149218865861
 31
0.0
  0
LINE
  5
335
330
1F
100
AcDbEntity
  8
1
  6
Continuous
 62
     7
370
     9
100
AcDbLine
 10
215.6957856332708
 20
74.76976985424443
 30
0.0
 11
215.6957856332708
 21
74.0635842354908
 31
0.0
  0
LINE
  5
336
330
1F
100
AcDbEntity
  8
1
  6
Continuous
 62
     7
370
     9
100
AcDbLine
 10
215.6957856332708
 20
77.25383099796835
 30
0.0
 11
215.6957856332708
 21
76.79118380084856
 31
0.0
  0
LINE
  5
337
330
1F
100
AcDbEntity
  8
1
  6
Continuous
 62
     7
370
     9
100
AcDbLine
 10
215.6957856332708
 20
72.332294899842
 30
0.0
 11
215.3957856332708
 21
71.92521438960046
 31
0.0
  0
LINE
  5
338
330
1F
100
AcDbEntity
  8
1
  6
Continuous
 62
     7
370
     9
100
AcDbLine
 10
215.6957856332708
 20
71.29442727475634
 30
0.0
 11
215.3957856332708
 21
71.35890249353798
 31
0.0
  0
LINE
  5
339
330
1F
100
AcDbEntity
  8
1
  6
Continuous
 62
     7
370
     9
100
AcDbLine
 10
215.6957856332708
 20
70.39941610081536
 30
0.0
 11
215.3957856332708
 21
70.00527048624906
 31
0.0
  0
LINE
  5
33A
330
1F
100
AcDbEntity
  8
1
  6
Continuous
 62
     7
370
     9
100
AcDbLine
 10
215.6957856332708
 20
69.26670476391251
 30
0.0
 11
215.3957856332708
 21
69.38720717124784
 31
0.0
  0
LINE
  5
33B
330
1F
100
AcDbEntity
  8
1
  6
Continuous
 62
     7
370
     9
100
AcDbLine
 10
215.6957856332708
 20
71.29442727475634
 30
0.0
 11
215.6957856332708
 21
70.39941610081536
 31
0.0
  0
LINE
  5
33C
330
1F
100
AcDbEntity
  8
1
  6
Continuous
 62
     7
370
     9
100
AcDbLine
 10
215.6957856332708
 20
67.09706101462956
 30
0.0
 11
215.3957856332708
 21
67.2712451682292
 31
0.0
  0
LINE
  5
33D
330
1F
100
AcDbEntity
  8
1
  6
Continuous
 62
     7
370
     9
100
AcDbLine
 10
215.3957856332708
 20
67.92903000277937
 30
0.0
 11
215.6957856332708
 21
68.30256912561691
 31
0.0
  0
LINE
  5
33E
330
1F
100
AcDbEntity
  8
1
  6
Continuous
 62
     7
370
     9
100
AcDbLine
 10
215.3957856332708
 20
65.73690459851355
 30
0.0
 11
215.6957856332708
 21
66.08256671549071
 31
0.0
  0
LINE
  5
33F
330
1F
100
AcDbEntity
  8
1
  6
Continuous
 62
     7
370
     9
100
AcDbLine
 10
215.6957856332708
 20
67.09706101462956
 30
0.0
 11
215.6957856332708
 21
66.08256671549071
 31
0.0
  0
LINE
  5
340
330
1F
100
AcDbEntity
  8
1
  6
Continuous
 62
     7
370
     9
100
AcDbLine
 10
215.6957856332708
 20
69.26670476391251
 30
0.0
 11
215.6957856332708
 21
68.30256912561691
 31
0.0
  0
LINE
  5
341
330
1F
100
AcDbEntity
  8
1
  6
Continuous
 62
     7
370
     9
100
AcDbLine
 10
215.6957856332708
 20
73.14076123498768
 30
0.0
 11
215.6957856332708
 21
72.332294899842
 31
0.0
  0
LINE
  5
342
330
1F
100
AcDbEntity
  8
1
  6
Continuous
 62
     7
370
     9
100
AcDbLine
 10
221.2957856332707
 20
77.25383099796835
 30
0.0
 11
221.5957856332707
 21
77.09278928003454
 31
0.0
  0
LINE
  5
343
330
1F
100
AcDbEntity
  8
1
  6
Continuous
 62
     7
370
     9
100
AcDbLine
 10
221.5957856332707
 20
77.35501389542566
 30
0.0
 11
221.2957856332707
 21
77.73440440761641
 31
0.0
  0
LINE
  5
344
330
1F
100
AcDbEntity
  8
1
  6
Continuous
 62
     7
370
     9
100
AcDbLine
 10
221.5957856332707
 20
77.84825867278909
 30
0.0
 11
221.2957856332707
 21
78.06053409785068
 31
0.0
  0
LINE
  5
345
330
1F
100
AcDbEntity
  8
1
  6
Continuous
 62
     7
370
     9
100
AcDbLine
 10
221.2957856332707
 20
78.55415407414142
 30
0.0
 11
221.5957856332707
 21
78.29477664164119
 31
0.0
  0
LINE
  5
346
330
1F
100
AcDbEntity
  8
1
  6
Continuous
 62
     7
370
     9
100
AcDbLine
 10
221.2957856332707
 20
78.72517985121067
 30
0.0
 11
221.5957856332707
 21
78.42517985121066
 31
0.0
  0
LINE
  5
347
330
1F
100
AcDbEntity
  8
1
  6
Continuous
 62
     7
370
     9
100
AcDbLine
 10
221.2957856332707
 20
78.37088963424605
 30
0.0
 11
221.5957856332707
 21
78.01760399970885
 31
0.0
  0
LINE
  5
348
330
1F
100
AcDbEntity
  8
1
  6
Continuous
 62
     7
370
     9
100
AcDbLine
 10
221.2957856332707
 20
78.6882510197924
 30
0.0
 11
221.5957856332707
 21
78.42517985121066
 31
0.0
  0
LINE
  5
349
330
1F
100
AcDbEntity
  8
1
  6
Continuous
 62
     7
370
     9
100
AcDbLine
 10
221.2957856332707
 20
78.06053409785068
 30
0.0
 11
221.2957856332707
 21
77.73440440761641
 31
0.0
  0
LINE
  5
34A
330
1F
100
AcDbEntity
  8
1
  6
Continuous
 62
     7
370
     9
100
AcDbLine
 10
221.2957856332707
 20
78.37088963424605
 30
0.0
 11
221.2957856332707
 21
78.55415407414142
 31
0.0
  0
LINE
  5
34B
330
1F
100
AcDbEntity
  8
1
  6
Continuous
 62
     7
370
     9
100
AcDbLine
 10
221.2957856332707
 20
78.72517985121067
 30
0.0
 11
221.2957856332707
 21
78.6882510197924
 31
0.0
  0
LINE
  5
34C
330
1F
100
AcDbEntity
  8
1
  6
Continuous
 62
     7
370
     9
100
AcDbLine
 10
221.2957856332707
 20
78.72517985121067
 30
0.0
 11
221.5957856332707
 21
78.42517985121071
 31
0.0
  0
LINE
  5
34D
330
1F
100
AcDbEntity
  8
1
  6
Continuous
 62
     7
370
     9
100
AcDbLine
 10
221.2957856332708
 20
78.72517985121067
 30
0.0
 11
221.5957856332708
 21
78.42517985121071
 31
0.0
  0
LINE
  5
34E
330
1F
100
AcDbEntity
  8
1
  6
Continuous
 62
     7
370
     9
100
AcDbLine
 10
221.7957856332708
 20
77.22517985121067
 30
0.0
 11
221.5957856332708
 21
77.22517985121067
 31
0.0
  0
LINE
  5
34F
330
1F
100
AcDbEntity
  8
1
  6
Continuous
 62
     7
370
     9
100
AcDbLine
 10
221.2957856332707
 20
75.55958653015574
 30
0.0
 11
221.5957856332707
 21
75.1505038496768
 31
0.0
  0
LINE
  5
350
330
1F
100
AcDbEntity
  8
1
  6
Continuous
 62
     7
370
     9
100
AcDbLine
 10
221.2957856332707
 20
76.14974633272249
 30
0.0
 11
221.5957856332707
 21
76.04307281577377
 31
0.0
  0
LINE
  5
351
330
1F
100
AcDbEntity
  8
1
  6
Continuous
 62
     7
370
     9
100
AcDbLine
 10
221.5957856332707
 20
76.39307281577373
 30
0.0
 11
221.2957856332707
 21
76.79118380084856
 31
0.0
  0
LINE
  5
352
330
1F
100
AcDbEntity
  8
1
  6
Continuous
 62
     7
370
     9
100
AcDbLine
 10
221.2957856332707
 20
76.14974633272249
 30
0.0
 11
221.2957856332707
 21
75.55958653015574
 31
0.0
  0
LINE
  5
353
330
1F
100
AcDbEntity
  8
1
  6
Continuous
 62
     7
370
     9
100
AcDbLine
 10
221.2957856332707
 20
74.76976985424443
 30
0.0
 11
221.5957856332707
 21
74.71954081694884
 31
0.0
  0
LINE
  5
354
330
1F
100
AcDbEntity
  8
1
  6
Continuous
 62
     7
370
     9
100
AcDbLine
 10
221.2957856332707
 20
74.0635842354908
 30
0.0
 11
221.5957856332707
 21
73.65149218865861
 31
0.0
  0
LINE
  5
355
330
1F
100
AcDbEntity
  8
1
  6
Continuous
 62
     7
370
     9
100
AcDbLine
 10
221.2957856332707
 20
74.76976985424443
 30
0.0
 11
221.2957856332707
 21
74.0635842354908
 31
0.0
  0
LINE
  5
356
330
1F
100
AcDbEntity
  8
1
  6
Continuous
 62
     7
370
     9
100
AcDbLine
 10
221.2957856332707
 20
77.25383099796835
 30
0.0
 11
221.2957856332707
 21
76.79118380084856
 31
0.0
  0
LINE
  5
357
330
1F
100
AcDbEntity
  8
1
  6
Continuous
 62
     7
370
     9
100
AcDbLine
 10
221.2957856332707
 20
72.332294899842
 30
0.0
 11
221.5957856332707
 21
71.92521438960046
 31
0.0
  0
LINE
  5
358
330
1F
100
AcDbEntity
  8
1
  6
Continuous
 62
     7
370
     9
100
AcDbLine
 10
221.2957856332707
 20
71.29442727475634
 30
0.0
 11
221.5957856332707
 21
71.35890249353798
 31
0.0
  0
LINE
  5
359
330
1F
100
AcDbEntity
  8
1
  6
Continuous
 62
     7
370
     9
100
AcDbLine
 10
221.2957856332707
 20
70.39941610081536
 30
0.0
 11
221.5957856332707
 21
70.00527048624906
 31
0.0
  0
LINE
  5
35A
330
1F
100
AcDbEntity
  8
1
  6
Continuous
 62
     7
370
     9
100
AcDbLine
 10
221.2957856332708
 20
69.26670476391251
 30
0.0
 11
221.5957856332707
 21
69.38720717124784
 31
0.0
  0
LINE
  5
35B
330
1F
100
AcDbEntity
  8
1
  6
Continuous
 62
     7
370
     9
100
AcDbLine
 10
221.2957856332707
 20
71.29442727475634
 30
0.0
 11
221.2957856332707
 21
70.39941610081536
 31
0.0
  0
LINE
  5
35C
330
1F
100
AcDbEntity
  8
1
  6
Continuous
 62
     7
370
     9
100
AcDbLine
 10
221.2957856332708
 20
67.09706101462956
 30
0.0
 11
221.5957856332707
 21
67.2712451682292
 31
0.0
  0
LINE
  5
35D
330
1F
100
AcDbEntity
  8
1
  6
Continuous
 62
     7
370
     9
100
AcDbLine
 10
221.5957856332707
 20
67.92903000277937
 30
0.0
 11
221.2957856332708
 21
68.30256912561691
 31
0.0
  0
LINE
  5
35E
330
1F
100
AcDbEntity
  8
1
  6
Continuous
 62
     7
370
     9
100
AcDbLine
 10
221.5957856332707
 20
65.73690459851355
 30
0.0
 11
221.2957856332708
 21
66.08256671549071
 31
0.0
  0
LINE
  5
35F
330
1F
100
AcDbEntity
  8
1
  6
Continuous
 62
     7
370
     9
100
AcDbLine
 10
221.2957856332708
 20
67.09706101462956
 30
0.0
 11
221.2957856332708
 21
66.08256671549071
 31
0.0
  0
LINE
  5
360
330
1F
100
AcDbEntity
  8
1
  6
Continuous
 62
     7
370
     9
100
AcDbLine
 10
221.2957856332708
 20
69.26670476391251
 30
0.0
 11
221.2957856332708
 21
68.30256912561691
 31
0.0
  0
LINE
  5
361
330
1F
100
AcDbEntity
  8
1
  6
Continuous
 62
     7
370
     9
100
AcDbLine
 10
221.2957856332707
 20
73.14076123498768
 30
0.0
 11
221.2957856332707
 21
72.332294899842
 31
0.0
  0
LINE
  5
362
330
1F
100
AcDbEntity
  8
1
  6
Continuous
 62
     7
370
     9
100
AcDbLine
 10
229.5244110564794
 20
61.97517985121067
 30
0.0
 11
229.5244110564794
 21
70.77517985121068
 31
0.0
  0
LINE
  5
363
330
1F
100
AcDbEntity
  8
1
  6
Continuous
 62
     7
370
     9
100
AcDbLine
 10
228.3957856332708
 20
61.97517985121067
 30
0.0
 11
228.3957856332708
 21
74.67517985121071
 31
0.0
  0
LINE
  5
364
330
1F
100
AcDbEntity
  8
1
  6
Continuous
 62
     7
370
     9
100
AcDbLine
 10
228.8957856332708
 20
61.97517985121067
 30
0.0
 11
228.8957856332708
 21
74.17517985121071
 31
0.0
  0
LINE
  5
365
330
1F
100
AcDbEntity
  8
1
  6
Continuous
 62
     7
370
     9
100
AcDbLine
 10
226.0957856332708
 20
74.67517985121071
 30
0.0
 11
226.0957856332708
 21
61.97517985121067
 31
0.0
  0
LINE
  5
366
330
1F
100
AcDbEntity
  8
1
  6
Continuous
 62
     7
370
     9
100
AcDbLine
 10
224.8957856332708
 20
61.97517985121067
 30
0.0
 11
224.8957856332708
 21
77.67517985121071
 31
0.0
  0
LINE
  5
367
330
1F
100
AcDbEntity
  8
1
  6
Continuous
 62
     7
370
     9
100
AcDbLine
 10
226.0957856332708
 20
49.27517985121068
 30
0.0
 11
228.3957856332708
 21
49.27517985121068
 31
0.0
  0
LINE
  5
368
330
1F
100
AcDbEntity
  8
1
  6
Continuous
 62
     7
370
     9
100
AcDbLine
 10
226.0957856332708
 20
49.77517985121068
 30
0.0
 11
228.8957856332708
 21
49.77517985121068
 31
0.0
  0
LINE
  5
369
330
1F
100
AcDbEntity
  8
1
  6
Continuous
 62
     7
370
     9
100
AcDbLine
 10
224.8957856332708
 20
49.77517985121068
 30
0.0
 11
226.0957856332708
 21
49.77517985121068
 31
0.0
  0
LINE
  5
36A
330
1F
100
AcDbEntity
  8
1
  6
Continuous
 62
     7
370
     9
100
AcDbLine
 10
226.0957856332708
 20
49.27517985121068
 30
0.0
 11
226.0957856332708
 21
61.97517985121067
 31
0.0
  0
LINE
  5
36B
330
1F
100
AcDbEntity
  8
1
  6
Continuous
 62
     7
370
     9
100
AcDbLine
 10
224.8957856332708
 20
61.97517985121067
 30
0.0
 11
224.8957856332708
 21
46.27517985121068
 31
0.0
  0
LINE
  5
36C
330
1F
100
AcDbEntity
  8
1
  6
Continuous
 62
     7
370
     9
100
AcDbLine
 10
229.3244110564793
 20
52.97517985121061
 30
0.0
 11
229.5244110564794
 21
53.17517985121071
 31
0.0
  0
LINE
  5
36D
330
1F
100
AcDbEntity
  8
1
  6
Continuous
 62
     7
370
     9
100
AcDbLine
 10
228.8957856332708
 20
52.97517985121067
 30
0.0
 11
229.3244110564793
 21
52.97517985121061
 31
0.0
  0
LINE
  5
36E
330
1F
100
AcDbEntity
  8
1
  6
Continuous
 62
     7
370
     9
100
AcDbLine
 10
229.5244110564794
 20
61.97517985121067
 30
0.0
 11
229.5244110564794
 21
53.17517985121071
 31
0.0
  0
LINE
  5
36F
330
1F
100
AcDbEntity
  8
1
  6
Continuous
 62
     7
370
     9
100
AcDbLine
 10
228.3957856332708
 20
49.27517985121068
 30
0.0
 11
228.8957856332708
 21
49.77517985121068
 31
0.0
  0
LINE
  5
370
330
1F
100
AcDbEntity
  8
1
  6
Continuous
 62
     7
370
     9
100
AcDbLine
 10
228.3957856332708
 20
61.97517985121067
 30
0.0
 11
228.3957856332708
 21
49.27517985121068
 31
0.0
  0
LINE
  5
371
330
1F
100
AcDbEntity
  8
1
  6
Continuous
 62
     7
370
     9
100
AcDbLine
 10
228.8957856332708
 20
61.97517985121067
 30
0.0
 11
228.8957856332708
 21
49.77517985121068
 31
0.0
  0
LINE
  5
372
330
1F
100
AcDbEntity
  8
1
  6
Continuous
 62
     7
370
     9
100
AcDbLine
 10
226.0957856332708
 20
74.67517985121071
 30
0.0
 11
228.3957856332708
 21
74.67517985121071
 31
0.0
  0
LINE
  5
373
330
1F
100
AcDbEntity
  8
1
  6
Continuous
 62
     7
370
     9
100
AcDbLine
 10
226.0957856332708
 20
74.17517985121071
 30
0.0
 11
228.8957856332708
 21
74.17517985121071
 31
0.0
  0
LINE
  5
374
330
1F
100
AcDbEntity
  8
1
  6
Continuous
 62
     7
370
     9
100
AcDbLine
 10
224.5957856332708
 20
77.97517985121067
 30
0.0
 11
224.8957856332708
 21
77.67517985121071
 31
0.0
  0
LINE
  5
375
330
1F
100
AcDbEntity
  8
1
  6
Continuous
 62
     7
370
     9
100
AcDbLine
 10
224.8957856332708
 20
74.17517985121071
 30
0.0
 11
226.0957856332708
 21
74.17517985121071
 31
0.0
  0
LINE
  5
376
330
1F
100
AcDbEntity
  8
1
  6
Continuous
 62
     7
370
     9
100
AcDbLine
 10
229.3244110564793
 20
70.97517985121067
 30
0.0
 11
229.5244110564794
 21
70.77517985121068
 31
0.0
  0
LINE
  5
377
330
1F
100
AcDbEntity
  8
1
  6
Continuous
 62
     7
370
     9
100
AcDbLine
 10
228.8957856332708
 20
70.97517985121067
 30
0.0
 11
229.3244110564793
 21
70.97517985121067
 31
0.0
  0
LINE
  5
378
330
1F
100
AcDbEntity
  8
1
  6
Continuous
 62
     7
370
     9
100
AcDbLine
 10
228.3957856332708
 20
74.67517985121071
 30
0.0
 11
228.8957856332708
 21
74.17517985121071
 31
0.0
  0
LINE
  5
379
330
1F
100
AcDbEntity
  8
25
  6
DASHDOT
 62
     7
370
     9
100
AcDbLine
 10
219.5957856332708
 20
64.28345231811346
 30
0.0
 11
219.5957856332708
 21
59.67020337689939
 31
0.0
  0
LINE
  5
37A
330
1F
100
AcDbEntity
  8
25
  6
DASHDOT
 62
     7
370
     9
100
AcDbLine
 10
209.5957856332706
 20
75.23921240544331
 30
0.0
 11
209.5957856332706
 21
77.46319070262155
 31
0.0
  0
LINE
  5
37B
330
1F
100
AcDbEntity
  8
25
  6
DASHDOT
 62
     7
370
     9
100
AcDbLine
 10
208.1574356527029
 20
76.3512015540324
 30
0.0
 11
211.0341356138383
 21
76.3512015540324
 31
0.0
  0
LINE
  5
37C
330
1F
100
AcDbEntity
  8
25
  6
DASHDOT
 62
     7
370
     9
100
AcDbLine
 10
201.9957856332708
 20
77.50836233364981
 30
0.0
 11
201.9957856332708
 21
75.43378400031986
 31
0.0
  0
LINE
  5
37D
330
1F
100
AcDbEntity
  8
25
  6
DASHDOT
 62
     7
370
     9
100
AcDbLine
 10
203.1211112802499
 20
76.48110567075167
 30
0.0
 11
200.8863523248243
 21
76.48110567075167
 31
0.0
  0
LINE
  5
37E
330
1F
100
AcDbEntity
  8
25
  6
DASHDOT
 62
     7
370
     9
100
AcDbLine
 10
201.9957856332708
 20
46.44199736877158
 30
0.0
 11
201.9957856332708
 21
48.51657570210153
 31
0.0
  0
LINE
  5
37F
330
1F
100
AcDbEntity
  8
25
  6
DASHDOT
 62
     7
370
     9
100
AcDbLine
 10
203.1211112802499
 20
47.46925403166972
 30
0.0
 11
200.8863523248243
 21
47.46925403166972
 31
0.0
  0
LINE
  5
380
330
1F
100
AcDbEntity
  8
25
  6
DASHDOT
 62
     7
370
     9
100
AcDbLine
 10
146.9016593230447
 20
42.28736442270997
 30
0.0
 11
146.9016593230447
 21
81.4068507442787
 31
0.0
  0
LINE
  5
381
330
1F
100
AcDbEntity
  8
25
  6
DASHDOT
 62
     7
370
     9
100
AcDbLine
 10
242.4217856332708
 20
61.97517985121067
 30
0.0
 11
193.5781461776717
 21
61.97517985121067
 31
0.0
  0
LINE
  5
382
330
1F
100
AcDbEntity
  8
25
  6
DASHDOT
 62
     7
370
     9
100
AcDbLine
 10
170.2581222995207
 20
61.97517985121067
 30
0.0
 11
125.2553952173608
 21
61.97517985121067
 31
0.0
  0
MTEXT
  5
383
330
1F
100
AcDbEntity
  8
1
  6
Continuous
 62
     7
370
     9
100
AcDbMText
 10
213.4622859668036
 20
66.21888226019888
 30
0.0
 40
2.0
 41
1.43988
 46
2.0
 71
     1
 72
     1
  1
{\fＭＳ ゴシック;\T0.750000;6}
 11
-1.608122649676637E-16
 21
-1.0
 31
0.0
 73
     1
 44
1.0
1001
ACAD
1000
ACAD_MTEXT_DEFINED_HEIGHT_BEGIN
1070
    46
1040
2.0
1000
ACAD_MTEXT_DEFINED_HEIGHT_END
  0
MTEXT
  5
384
330
1F
100
AcDbEntity
  8
1
  6
Continuous
 62
     7
370
     9
100
AcDbMText
 10
213.4622859668036
 20
56.25403123880733
 30
0.0
 40
2.0
 41
0.32944
 46
2.0
 71
     1
 72
     1
  1
{\fＭＳ ゴシック;\T0.750000;.}
 11
-1.608122649676637E-16
 21
-1.0
 31
0.0
 73
     1
 44
1.0
1001
ACAD
1000
ACAD_MTEXT_DEFINED_HEIGHT_BEGIN
1070
    46
1040
2.0
1000
ACAD_MTEXT_DEFINED_HEIGHT_END
  0
MTEXT
  5
385
330
1F
100
AcDbEntity
  8
1
  6
Continuous
 62
     7
370
     9
100
AcDbMText
 10
213.4622859668036
 20
60.91112074894852
 30
0.0
 40
2.0
 41
1.59892
 46
2.0
 71
     1
 72
     1
  1
{\fＭＳ ゴシック;\T0.750000;4}
 11
-1.608122649676637E-16
 21
-1.0
 31
0.0
 73
     1
 44
1.0
1001
ACAD
1000
ACAD_MTEXT_DEFINED_HEIGHT_BEGIN
1070
    46
1040
2.0
1000
ACAD_MTEXT_DEFINED_HEIGHT_END
  0
MTEXT
  5
386
330
1F
100
AcDbEntity
  8
1
  6
Continuous
 62
     7
370
     9
100
AcDbMText
 10
213.4622859668037
 20
57.11133861952197
 30
0.0
 40
2.0
 41
0.76396
 46
2.0
 71
     1
 72
     1
  1
{\fＭＳ ゴシック;\T0.750000;1}
 11
-1.608122649676637E-16
 21
-1.0
 31
0.0
 73
     1
 44
1.0
1001
ACAD
1000
ACAD_MTEXT_DEFINED_HEIGHT_BEGIN
1070
    46
1040
2.0
1000
ACAD_MTEXT_DEFINED_HEIGHT_END
  0
MTEXT
  5
387
330
1F
100
AcDbEntity
  8
1
  6
Continuous
 62
     7
370
     9
100
AcDbMText
 10
213.4622859668036
 20
55.74038856351308
 30
0.0
 40
2.0
 41
1.59892
 46
2.0
 71
     1
 72
     1
  1
{\fＭＳ ゴシック;\T0.750000;4}
 11
-1.608122649676637E-16
 21
-1.0
 31
0.0
 73
     1
 44
1.0
1001
ACAD
1000
ACAD_MTEXT_DEFINED_HEIGHT_BEGIN
1070
    46
1040
2.0
1000
ACAD_MTEXT_DEFINED_HEIGHT_END
  0
MTEXT
  5
388
330
1F
100
AcDbEntity
  8
1
  6
Continuous
 62
     7
370
     9
100
AcDbMText
 10
213.4622859668036
 20
63.83107452999229
 30
0.0
 40
2.0
 41
1.49952
 46
2.0
 71
     1
 72
     1
  1
{\fＭＳ ゴシック;\T0.750000;8}
 11
-1.608122649676637E-16
 21
-1.0
 31
0.0
 73
     1
 44
1.0
1001
ACAD
1000
ACAD_MTEXT_DEFINED_HEIGHT_BEGIN
1070
    46
1040
2.0
1000
ACAD_MTEXT_DEFINED_HEIGHT_END
  0
MTEXT
  5
389
330
1F
100
AcDbEntity
  8
1
  6
Continuous
 62
     7
370
     9
100
AcDbMText
 10
213.4622859668036
 20
67.18564142678554
 30
0.0
 40
2.0
 41
0.76396
 46
2.0
 71
     1
 72
     1
  1
{\fＭＳ ゴシック;\T0.750000;1}
 11
-1.608122649676637E-16
 21
-1.0
 31
0.0
 73
     1
 44
1.0
1001
ACAD
1000
ACAD_MTEXT_DEFINED_HEIGHT_BEGIN
1070
    46
1040
2.0
1000
ACAD_MTEXT_DEFINED_HEIGHT_END
  0
MTEXT
  5
38A
330
1F
100
AcDbEntity
  8
1
  6
Continuous
 62
     7
370
     9
100
AcDbMText
 10
213.4622859668036
 20
70.18873041464002
 30
0.0
 40
2.0
 41
1.58472
 46
2.0
 71
     1
 72
     1
  1
{\fＭＳ ゴシック;\T0.750000;C}
 11
-1.608122649676637E-16
 21
-1.0
 31
0.0
 73
     1
 44
1.0
1001
ACAD
1000
ACAD_MTEXT_DEFINED_HEIGHT_BEGIN
1070
    46
1040
2.0
1000
ACAD_MTEXT_DEFINED_HEIGHT_END
  0
DIMENSION
  5
393
330
1F
100
AcDbEntity
  8
25
  6
Continuous
 62
     7
370
     9
100
AcDbDimension
280
     0
  2
Dim1
 10
142.2036885775632
 20
52.30607591782588
 30
0.0
 11
154.6787942121477
 21
80.26987136868208
 31
0.0
 70
   163
  1
<>
 71
     5
 42
-1.0
 73
     0
 74
     0
 75
     0
  3
Standard
100
AcDbDiametricDimension
 15
151.5996300685262
 25
71.64428378459553
 35
0.0
 40
0.0
1001
ACAD
1000
DSTYLE
1002
{
1070
   340
1005
38B
1070
   140
1040
2.0
1070
    40
1040
1.0
1070
   147
1040
0.0
1070
    76
1070
     1
1070
    75
1070
     1
1070
   344
1005
51
1070
   343
1005
51
1070
   173
1070
     1
1070
   289
1070
     2
1070
   288
1070
     1
1070
    77
1070
     1
1070
   172
1070
     1
1070
   174
1070
     0
1070
    74
1070
     0
1070
    73
1070
     0
1070
   284
1070
     8
1070
    78
1070
     8
1070
    42
1040
0.0
1070
    44
1040
0.0
1070
    43
1040
10.0
1070
   271
1070
     2
1070
    41
1040
1.0
1002
}
  0
MTEXT
  5
394
330
1F
100
AcDbEntity
  8
25
  6
Continuous
 62
     7
370
     9
100
AcDbMText
 10
231.4854309282713
 20
30.26144792023
 30
0.0
 40
1.25
 41
7.097318799424426
 46
1.25
 71
     1
 72
     1
  1
{\fＭＳ 明朝;\T0.761675;(IN AIR)}
 73
     1
 44
1.0
1001
ACAD
1000
ACAD_MTEXT_DEFINED_HEIGHT_BEGIN
1070
    46
1040
1.25
1000
ACAD_MTEXT_DEFINED_HEIGHT_END
  0
DIMENSION
  5
39E
330
1F
100
AcDbEntity
  8
25
  6
Continuous
 62
     7
370
     9
100
AcDbDimension
280
     0
  2
Dim2
 10
196.6957856332716
 20
37.16892236318984
 30
0.0
 11
192.4742872368771
 21
38.66892236318996
 31
0.0
 70
   160
  1
(0.4)
 71
     5
 42
-1.0
 73
     0
 74
     0
 75
     0
  3
Standard
100
AcDbAlignedDimension
 13
197.0957856332708
 23
45.52517985121068
 33
0.0
 14
196.6957856332708
 24
46.17517985121071
 34
0.0
 50
179.9999999999959
100
AcDbRotatedDimension
1001
ACAD
1000
DSTYLE
1002
{
1070
   279
1070
     2
1070
   340
1005
38B
1070
   140
1040
2.0
1070
    40
1040
1.0
1070
   147
1040
0.0
1070
    76
1070
     0
1070
    75
1070
     0
1070
   344
1005
51
1070
   343
1005
51
1070
   173
1070
     1
1070
   289
1070
     2
1070
   288
1070
     1
1070
    77
1070
     1
1070
   172
1070
     1
1070
   174
1070
     0
1070
    74
1070
     0
1070
    73
1070
     0
1070
   284
1070
     8
1070
    78
1070
     8
1070
    42
1040
2.0
1070
    44
1040
1.0
1070
    43
1040
10.0
1070
   271
1070
     2
1070
    41
1040
1.0
1002
}
  0
DIMENSION
  5
3A8
330
1F
100
AcDbEntity
  8
25
  6
Continuous
 62
     7
370
     9
100
AcDbDimension
280
     0
  2
Dim3
 10
248.941313615774
 20
70.9751798512106
 30
0.0
 11
247.441313615774
 21
61.87463362643217
 31
0.0
 70
   160
  1
φ<>
 71
     5
 42
-1.0
 73
     0
 74
     0
 75
     0
  3
Standard
100
AcDbAlignedDimension
 13
229.3244110564793
 23
52.97517985121061
 33
0.0
 14
229.3244110564793
 24
70.97517985121067
 34
0.0
 50
89.99999999999991
100
AcDbRotatedDimension
1001
ACAD
1000
DSTYLE
1002
{
1070
   279
1070
     2
1070
   340
1005
38B
1070
   140
1040
2.0
1070
    40
1040
1.0
1070
   147
1040
0.0
1070
    76
1070
     0
1070
    75
1070
     0
1070
   344
1005
51
1070
   343
1005
51
1070
   173
1070
     1
1070
   289
1070
     2
1070
   288
1070
     1
1070
    77
1070
     1
1070
   172
1070
     1
1070
   174
1070
     0
1070
    74
1070
     0
1070
    73
1070
     0
1070
   284
1070
     8
1070
    78
1070
     8
1070
    42
1040
2.0
1070
    44
1040
1.0
1070
    43
1040
10.0
1070
   271
1070
     2
1070
    41
1040
1.0
1002
}
  0
DIMENSION
  5
3B2
330
1F
100
AcDbEntity
  8
25
  6
Continuous
 62
     7
370
     9
100
AcDbDimension
280
     0
  2
Dim4
 10
253.6895150546229
 20
77.97517985121047
 30
0.0
 11
252.1895150546229
 21
61.87463362643217
 31
0.0
 70
   160
  1
φ<>
 71
     5
 42
-1.0
 73
     0
 74
     0
 75
     0
  3
Standard
100
AcDbAlignedDimension
 13
224.5957856332708
 23
45.97517985121067
 33
0.0
 14
224.5957856332708
 24
77.97517985121067
 34
0.0
 50
89.99999999999991
100
AcDbRotatedDimension
1001
ACAD
1000
DSTYLE
1002
{
1070
   279
1070
     2
1070
   340
1005
38B
1070
   140
1040
2.0
1070
    40
1040
1.0
1070
   147
1040
0.0
1070
    76
1070
     0
1070
    75
1070
     0
1070
   344
1005
51
1070
   343
1005
51
1070
   173
1070
     1
1070
   289
1070
     2
1070
   288
1070
     1
1070
    77
1070
     1
1070
   172
1070
     1
1070
   174
1070
     0
1070
    74
1070
     0
1070
    73
1070
     0
1070
   284
1070
     8
1070
    78
1070
     8
1070
    42
1040
2.0
1070
    44
1040
1.0
1070
    43
1040
10.0
1070
   271
1070
     2
1070
    41
1040
1.0
1002
}
  0
DIMENSION
  5
3BC
330
1F
100
AcDbEntity
  8
25
  6
Continuous
 62
     7
370
     9
100
AcDbDimension
280
     0
  2
Dim5
 10
215.3957856332716
 20
37.16892236318978
 30
0.0
 11
218.4957856332708
 21
38.66892236318978
 31
0.0
 70
   160
  1
<>
 71
     5
 42
-1.0
 73
     0
 74
     0
 75
     0
  3
Standard
100
AcDbAlignedDimension
 13
221.5957856332707
 23
45.52517985121062
 33
0.0
 14
215.3957856332708
 24
45.52517985121068
 34
0.0
 50
179.9999999999998
100
AcDbRotatedDimension
1001
ACAD
1000
DSTYLE
1002
{
1070
   279
1070
     2
1070
   340
1005
38B
1070
   140
1040
2.0
1070
    40
1040
1.0
1070
   147
1040
0.0
1070
    76
1070
     0
1070
    75
1070
     0
1070
   344
1005
51
1070
   343
1005
51
1070
   173
1070
     1
1070
   289
1070
     2
1070
   288
1070
     1
1070
    77
1070
     1
1070
   172
1070
     1
1070
   174
1070
     0
1070
    74
1070
     0
1070
    73
1070
     0
1070
   284
1070
     8
1070
    78
1070
     8
1070
    42
1040
2.0
1070
    44
1040
1.0
1070
    43
1040
10.0
1070
   271
1070
     2
1070
    41
1040
1.0
1002
}
  0
DIMENSION
  5
3C6
330
1F
100
AcDbEntity
  8
25
  6
Continuous
 62
     7
370
     9
100
AcDbDimension
280
     0
  2
Dim6
 10
224.8957856332716
 20
30.97450500566572
 30
0.0
 11
233.6587856332708
 21
32.47450500566572
 31
0.0
 70
   160
  1
<>
 71
     5
 42
-1.0
 73
     0
 74
     0
 75
     0
  3
Standard
100
AcDbAlignedDimension
 13
242.4217856332708
 23
61.97517985121067
 33
0.0
 14
224.8957856332708
 24
36.54392236318984
 34
0.0
 50
179.9999999999998
100
AcDbRotatedDimension
1001
ACAD
1000
DSTYLE
1002
{
1070
   279
1070
     2
1070
   340
1005
38B
1070
   140
1040
2.0
1070
    40
1040
1.0
1070
   147
1040
0.0
1070
    76
1070
     0
1070
    75
1070
     0
1070
   344
1005
51
1070
   343
1005
51
1070
   173
1070
     1
1070
   289
1070
     2
1070
   288
1070
     1
1070
    77
1070
     1
1070
   172
1070
     1
1070
   174
1070
     0
1070
    74
1070
     0
1070
    73
1070
     0
1070
   284
1070
     8
1070
    78
1070
     8
1070
    42
1040
2.0
1070
    44
1040
1.0
1070
    43
1040
10.0
1070
   271
1070
     2
1070
    41
1040
1.0
1002
}
  0
DIMENSION
  5
3D0
330
1F
100
AcDbEntity
  8
25
  6
Continuous
 62
     7
370
     9
100
AcDbDimension
280
     0
  2
Dim7
 10
224.8957856332716
 20
37.16892236318978
 30
0.0
 11
226.8957856332708
 21
38.66892236318981
 31
0.0
 70
   160
  1
<>
 71
     5
 42
-1.0
 73
     0
 74
     0
 75
     0
  3
Standard
100
AcDbAlignedDimension
 13
228.8957856332708
 23
49.77517985121068
 33
0.0
 14
224.8957856332708
 24
46.27517985121068
 34
0.0
 50
-179.9999999999992
100
AcDbRotatedDimension
1001
ACAD
1000
DSTYLE
1002
{
1070
   279
1070
     2
1070
   340
1005
38B
1070
   140
1040
2.0
1070
    40
1040
1.0
1070
   147
1040
0.0
1070
    76
1070
     0
1070
    75
1070
     0
1070
   344
1005
51
1070
   343
1005
51
1070
   173
1070
     1
1070
   289
1070
     2
1070
   288
1070
     1
1070
    77
1070
     1
1070
   172
1070
     1
1070
   174
1070
     0
1070
    74
1070
     0
1070
    73
1070
     0
1070
   284
1070
     8
1070
    78
1070
     8
1070
    42
1040
2.0
1070
    44
1040
1.0
1070
    43
1040
10.0
1070
   271
1070
     2
1070
    41
1040
1.0
1002
}
  0
DIMENSION
  5
3DA
330
1F
100
AcDbEntity
  8
25
  6
Continuous
 62
     7
370
     9
100
AcDbDimension
280
     0
  2
Dim8
 10
221.5957856332715
 20
37.16892236318978
 30
0.0
 11
223.2457856332708
 21
38.66892236318978
 31
0.0
 70
   160
  1
<>
 71
     5
 42
-1.0
 73
     0
 74
     0
 75
     0
  3
Standard
100
AcDbAlignedDimension
 13
224.8957856332708
 23
46.27517985121068
 33
0.0
 14
221.5957856332707
 24
45.52517985121062
 34
0.0
 50
179.9999999999998
100
AcDbRotatedDimension
1001
ACAD
1000
DSTYLE
1002
{
1070
   279
1070
     2
1070
   340
1005
38B
1070
   140
1040
2.0
1070
    40
1040
1.0
1070
   147
1040
0.0
1070
    76
1070
     0
1070
    75
1070
     0
1070
   344
1005
51
1070
   343
1005
51
1070
   173
1070
     1
1070
   289
1070
     2
1070
   288
1070
     1
1070
    77
1070
     1
1070
   172
1070
     1
1070
   174
1070
     0
1070
    74
1070
     0
1070
    73
1070
     0
1070
   284
1070
     8
1070
    78
1070
     8
1070
    42
1040
2.0
1070
    44
1040
1.0
1070
    43
1040
10.0
1070
   271
1070
     2
1070
    41
1040
1.0
1002
}
  0
DIMENSION
  5
3E4
330
1F
100
AcDbEntity
  8
25
  6
Continuous
 62
     7
370
     9
100
AcDbDimension
280
     0
  2
Dim9
 10
197.0957856332716
 20
37.16892236318984
 30
0.0
 11
200.2457856332708
 21
38.66892236318981
 31
0.0
 70
   160
  1
<>
 71
     5
 42
-1.0
 73
     0
 74
     0
 75
     0
  3
Standard
100
AcDbAlignedDimension
 13
203.3957856332708
 23
45.52517985121068
 33
0.0
 14
197.0957856332708
 24
45.52517985121068
 34
0.0
 50
179.9999999999995
100
AcDbRotatedDimension
1001
ACAD
1000
DSTYLE
1002
{
1070
   279
1070
     2
1070
   340
1005
38B
1070
   140
1040
2.0
1070
    40
1040
1.0
1070
   147
1040
0.0
1070
    76
1070
     0
1070
    75
1070
     0
1070
   344
1005
51
1070
   343
1005
51
1070
   173
1070
     1
1070
   289
1070
     2
1070
   288
1070
     1
1070
    77
1070
     1
1070
   172
1070
     1
1070
   174
1070
     0
1070
    74
1070
     0
1070
    73
1070
     0
1070
   284
1070
     8
1070
    78
1070
     8
1070
    42
1040
2.0
1070
    44
1040
1.0
1070
    43
1040
10.0
1070
   271
1070
     2
1070
    41
1040
1.0
1002
}
  0
DIMENSION
  5
3EE
330
1F
100
AcDbEntity
  8
25
  6
Continuous
 62
     7
370
     9
100
AcDbDimension
280
     0
  2
Dim10
 10
196.6957856332716
 20
30.97450500566566
 30
0.0
 11
210.7957856332708
 21
32.47450500566569
 31
0.0
 70
   160
  1
<>
 71
     5
 42
-1.0
 73
     0
 74
     0
 75
     0
  3
Standard
100
AcDbAlignedDimension
 13
224.8957856332708
 23
36.54392236318984
 33
0.0
 14
196.6957856332708
 24
36.54392236318984
 34
0.0
 50
-179.9999999999999
100
AcDbRotatedDimension
1001
ACAD
1000
DSTYLE
1002
{
1070
   279
1070
     2
1070
   340
1005
38B
1070
   140
1040
2.0
1070
    40
1040
1.0
1070
   147
1040
0.0
1070
    76
1070
     0
1070
    75
1070
     0
1070
   344
1005
51
1070
   343
1005
51
1070
   173
1070
     1
1070
   289
1070
     2
1070
   288
1070
     1
1070
    77
1070
     1
1070
   172
1070
     1
1070
   174
1070
     0
1070
    74
1070
     0
1070
    73
1070
     0
1070
   284
1070
     8
1070
    78
1070
     8
1070
    42
1040
2.0
1070
    44
1040
1.0
1070
    43
1040
10.0
1070
   271
1070
     2
1070
    41
1040
1.0
1002
}
  0
DIMENSION
  5
3F8
330
1F
100
AcDbEntity
  8
25
  6
Continuous
 62
     7
370
     9
100
AcDbDimension
280
     0
  2
Dim11
 10
203.3957856332716
 20
37.16892236318978
 30
0.0
 11
209.3957856332708
 21
38.66892236318978
 31
0.0
 70
   160
  1
<>
 71
     5
 42
-1.0
 73
     0
 74
     0
 75
     0
  3
Standard
100
AcDbAlignedDimension
 13
215.3957856332708
 23
45.52517985121068
 33
0.0
 14
203.3957856332708
 24
45.52517985121068
 34
0.0
 50
179.9999999999998
100
AcDbRotatedDimension
1001
ACAD
1000
DSTYLE
1002
{
1070
   279
1070
     2
1070
   340
1005
38B
1070
   140
1040
2.0
1070
    40
1040
1.0
1070
   147
1040
0.0
1070
    76
1070
     0
1070
    75
1070
     0
1070
   344
1005
51
1070
   343
1005
51
1070
   173
1070
     1
1070
   289
1070
     2
1070
   288
1070
     1
1070
    77
1070
     1
1070
   172
1070
     1
1070
   174
1070
     0
1070
    74
1070
     0
1070
    73
1070
     0
1070
   284
1070
     8
1070
    78
1070
     8
1070
    42
1040
2.0
1070
    44
1040
1.0
1070
    43
1040
10.0
1070
   271
1070
     2
1070
    41
1040
1.0
1002
}
  0
MTEXT
  5
3F9
330
1F
100
AcDbEntity
  8
25
  6
Continuous
 62
     7
370
     9
100
AcDbMText
 10
190.3403003176834
 20
83.48396126105263
 30
0.0
 40
1.5
 41
11.69384870595
 46
1.5
 71
     9
 72
     1
  1
{\fＭＳ ゴシック;\T0.764137;M30.5 P=0.5}
 73
     1
 44
1.0
1001
ACAD
1000
ACAD_MTEXT_DEFINED_HEIGHT_BEGIN
1070
    46
1040
1.5
1000
ACAD_MTEXT_DEFINED_HEIGHT_END
  0
INSERT
  5
3FA
330
1F
100
AcDbEntity
  8
25
  6
Continuous
 62
     7
370
     9
100
AcDbBlockReference
  2
MARK_OPEN
 10
198.1918019641541
 20
77.22517985121073
 30
0.0
 50
316.1794809424781
  0
POLYLINE
  5
3FB
330
1F
100
AcDbEntity
  8
25
  6
Continuous
 62
     7
370
     9
100
AcDb2dPolyline
 66
     1
 10
0.0
 20
0.0
 30
0.0
  0
VERTEX
  5
3FC
330
3FB
100
AcDbEntity
  8
25
  6
Continuous
 62
     7
370
     9
100
AcDbVertex
100
AcDb2dVertex
 10
198.1918019641541
 20
77.22517985121073
 30
0.0
  0
VERTEX
  5
3FD
330
3FB
100
AcDbEntity
  8
25
  6
Continuous
 62
     7
370
     9
100
AcDbVertex
100
AcDb2dVertex
 10
191.9955205543122
 20
83.17146126105263
 30
0.0
  0
VERTEX
  5
3FE
330
3FB
100
AcDbEntity
  8
25
  6
Continuous
 62
     7
370
     9
100
AcDbVertex
100
AcDb2dVertex
 10
180.0138282267394
 20
83.17146126105263
 30
0.0
  0
SEQEND
  5
3FF
330
3FB
100
AcDbEntity
  8
25
  6
Continuous
 62
     7
370
     9
  0
INSERT
  5
400
330
1F
100
AcDbEntity
  8
25
  6
Continuous
 62
     7
370
     9
100
AcDbBlockReference
  2
MARK_OPEN
 10
201.9417319931657
 20
78.72517985121067
 30
0.0
 50
313.5445872475236
  0
POLYLINE
  5
401
330
1F
100
AcDbEntity
  8
25
  6
Continuous
 62
     7
370
     9
100
AcDb2dPolyline
 66
     1
 10
0.0
 20
0.0
 30
0.0
  0
VERTEX
  5
402
330
401
100
AcDbEntity
  8
25
  6
Continuous
 62
     7
370
     9
100
AcDbVertex
100
AcDb2dVertex
 10
201.9417319931657
 20
78.72517985121067
 30
0.0
  0
VERTEX
  5
403
330
401
100
AcDbEntity
  8
25
  6
Continuous
 62
     7
370
     9
100
AcDbVertex
100
AcDb2dVertex
 10
194.3043159379294
 20
86.7608041239464
 30
0.0
  0
VERTEX
  5
404
330
401
100
AcDbEntity
  8
25
  6
Continuous
 62
     7
370
     9
100
AcDbVertex
100
AcDb2dVertex
 10
183.3519460785367
 20
86.86930431849476
 30
0.0
  0
SEQEND
  5
405
330
401
100
AcDbEntity
  8
25
  6
Continuous
 62
     7
370
     9
  0
INSERT
  5
406
330
1F
100
AcDbEntity
  8
25
  6
Continuous
 62
     7
370
     9
100
AcDbBlockReference
  2
MARK_OPEN
 10
209.2609727925606
 20
78.57517985121069
 30
0.0
 50
312.3382688001404
  0
POLYLINE
  5
407
330
1F
100
AcDbEntity
  8
25
  6
Continuous
 62
     7
370
     9
100
AcDb2dPolyline
 66
     1
 10
0.0
 20
0.0
 30
0.0
  0
VERTEX
  5
408
330
407
100
AcDbEntity
  8
25
  6
Continuous
 62
     7
370
     9
100
AcDbVertex
100
AcDb2dVertex
 10
209.2609727925606
 20
78.57517985121069
 30
0.0
  0
VERTEX
  5
409
330
407
100
AcDbEntity
  8
25
  6
Continuous
 62
     7
370
     9
100
AcDbVertex
100
AcDb2dVertex
 10
197.5228784830535
 20
91.45788069365955
 30
0.0
  0
VERTEX
  5
40A
330
407
100
AcDbEntity
  8
25
  6
Continuous
 62
     7
370
     9
100
AcDbVertex
100
AcDb2dVertex
 10
183.5837968580713
 20
91.45788069365955
 30
0.0
  0
SEQEND
  5
40B
330
407
100
AcDbEntity
  8
25
  6
Continuous
 62
     7
370
     9
  0
INSERT
  5
40C
330
1F
100
AcDbEntity
  8
25
  6
Continuous
 62
     7
370
     9
100
AcDbBlockReference
  2
MARK_OPEN
 10
226.9369237497528
 20
74.67517985121066
 30
0.0
 50
229.9999999999999
  0
POLYLINE
  5
40D
330
1F
100
AcDbEntity
  8
25
  6
Continuous
 62
     7
370
     9
100
AcDb2dPolyline
 66
     1
 10
0.0
 20
0.0
 30
0.0
  0
VERTEX
  5
40E
330
40D
100
AcDbEntity
  8
25
  6
Continuous
 62
     7
370
     9
100
AcDbVertex
100
AcDb2dVertex
 10
226.9369237497528
 20
74.67517985121066
 30
0.0
  0
VERTEX
  5
40F
330
40D
100
AcDbEntity
  8
25
  6
Continuous
 62
     7
370
     9
100
AcDbVertex
100
AcDb2dVertex
 10
236.0497506761645
 20
85.53542407945099
 30
0.0
  0
VERTEX
  5
410
330
40D
100
AcDbEntity
  8
25
  6
Continuous
 62
     7
370
     9
100
AcDbVertex
100
AcDb2dVertex
 10
248.1931779142334
 20
85.53542407945099
 30
0.0
  0
SEQEND
  5
411
330
40D
100
AcDbEntity
  8
25
  6
Continuous
 62
     7
370
     9
  0
INSERT
  5
412
330
1F
100
AcDbEntity
  8
25
  6
Continuous
 62
     7
370
     9
100
AcDbBlockReference
  2
MARK_OPEN
 10
217.9255314428137
 20
78.72517985121067
 30
0.0
 50
230.0000000000001
  0
POLYLINE
  5
413
330
1F
100
AcDbEntity
  8
25
  6
Continuous
 62
     7
370
     9
100
AcDb2dPolyline
 66
     1
 10
0.0
 20
0.0
 30
0.0
  0
VERTEX
  5
414
330
413
100
AcDbEntity
  8
25
  6
Continuous
 62
     7
370
     9
100
AcDbVertex
100
AcDb2dVertex
 10
217.9255314428137
 20
78.72517985121067
 30
0.0
  0
VERTEX
  5
415
330
413
100
AcDbEntity
  8
25
  6
Continuous
 62
     7
370
     9
100
AcDbVertex
100
AcDb2dVertex
 10
227.0383583692253
 20
89.58542407945106
 30
0.0
  0
VERTEX
  5
416
330
413
100
AcDbEntity
  8
25
  6
Continuous
 62
     7
370
     9
100
AcDbVertex
100
AcDb2dVertex
 10
240.6100980594751
 20
89.58542407945106
 30
0.0
  0
SEQEND
  5
417
330
413
100
AcDbEntity
  8
25
  6
Continuous
 62
     7
370
     9
  0
ELLIPSE
  5
418
330
1F
100
AcDbEntity
  8
25
  6
Continuous
 62
     7
370
     9
100
AcDbEllipse
 10
209.5957856332706
 20
43.52883875060212
 30
0.0
 11
1.700000000000017
 21
0.0
 31
0.0
210
0.0
220
0.0
230
1.0
 40
0.5000000000000334
 41
0.0
 42
6.283185307179586
  0
DIMENSION
  5
422
330
1F
100
AcDbEntity
  8
25
  6
Continuous
 62
     7
370
     9
100
AcDbDimension
280
     0
  2
Dim12
 10
184.959305793625
 20
77.97517985121071
 30
0.0
 11
183.459305793625
 21
62.08566480149213
 31
0.0
 70
   160
  1
φ<>
 71
     5
 42
-1.0
 73
     0
 74
     0
 75
     0
  3
Standard
100
AcDbAlignedDimension
 13
196.8957856332708
 23
45.97517985121067
 33
0.0
 14
196.8957856332708
 24
77.97517985121067
 34
0.0
 50
89.99999999999991
100
AcDbRotatedDimension
1001
ACAD
1000
DSTYLE
1002
{
1070
   279
1070
     2
1070
   340
1005
38B
1070
   140
1040
2.0
1070
    40
1040
1.0
1070
   147
1040
0.0
1070
    76
1070
     0
1070
    75
1070
     0
1070
   344
1005
51
1070
   343
1005
51
1070
   173
1070
     1
1070
   289
1070
     2
1070
   288
1070
     1
1070
    77
1070
     1
1070
   172
1070
     1
1070
   174
1070
     0
1070
    74
1070
     0
1070
    73
1070
     0
1070
   284
1070
     8
1070
    78
1070
     8
1070
    42
1040
2.0
1070
    44
1040
1.0
1070
    43
1040
10.0
1070
   271
1070
     2
1070
    41
1040
1.0
1002
}
  0
DIMENSION
  5
42C
330
1F
100
AcDbEntity
  8
25
  6
Continuous
 62
     7
370
     9
100
AcDbDimension
280
     0
  2
Dim13
 10
180.4616973088196
 20
78.72517985121073
 30
0.0
 11
178.9616973088196
 21
61.98014921396214
 31
0.0
 70
   160
  1
φ<>
 71
     5
 42
-1.0
 73
     0
 74
     0
 75
     0
  3
Standard
100
AcDbAlignedDimension
 13
197.3957856332708
 23
45.22517985121067
 33
0.0
 14
197.3957856332708
 24
78.72517985121067
 34
0.0
 50
89.99999999999991
100
AcDbRotatedDimension
1001
ACAD
1000
DSTYLE
1002
{
1070
   279
1070
     2
1070
   340
1005
38B
1070
   140
1040
2.0
1070
    40
1040
1.0
1070
   147
1040
0.0
1070
    76
1070
     0
1070
    75
1070
     0
1070
   344
1005
51
1070
   343
1005
51
1070
   173
1070
     1
1070
   289
1070
     2
1070
   288
1070
     1
1070
    77
1070
     1
1070
   172
1070
     1
1070
   174
1070
     0
1070
    74
1070
     0
1070
    73
1070
     0
1070
   284
1070
     8
1070
    78
1070
     8
1070
    42
1040
2.0
1070
    44
1040
1.0
1070
    43
1040
10.0
1070
   271
1070
     2
1070
    41
1040
1.0
1002
}
  0
LINE
  5
42D
330
1F
100
AcDbEntity
  8
25
  6
Continuous
 62
     7
370
     9
100
AcDbLine
 10
242.7566269103885
 20
61.64033857409299
 30
0.0
 11
242.0869443561531
 21
62.31002112832834
 31
0.0
  0
LINE
  5
42E
330
1F
100
AcDbEntity
  8
25
  6
Continuous
 62
     7
370
     9
100
AcDbLine
 10
242.7566269103885
 20
62.31002112832834
 30
0.0
 11
242.0869443561531
 21
61.64033857409299
 31
0.0
  0
HATCH
  5
42F
330
1F
100
AcDbEntity
  8
1
  6
Continuous
 62
     7
370
     9
100
AcDbHatch
 10
0.0
 20
0.0
 30
0.0
210
0.0
220
0.0
230
1.0
  2
SOLID
 70
     1
 71
     0
 91
        1
 92
        0
 93
        6
 72
     2
 10
205.8457856332708
 20
78.24283439857516
 40
0.1500000000000057
 50
179.9999999999998
 51
270.0000000000001
 73
     1
 72
     1
 10
205.8457856332708
 20
78.09283439857512
 11
207.0457856332708
 21
78.09283439857512
 72
     2
 10
207.0457856332708
 20
78.24283439857516
 40
0.1500000000000057
 50
270.0000000000109
 51
360.0
 73
     1
 72
     1
 10
207.1957856332708
 20
78.24283439857516
 11
207.1957856332708
 21
78.57517985121069
 72
     1
 10
207.1957856332708
 20
78.57517985121069
 11
205.6957856332708
 21
78.57517985121069
 72
     1
 10
205.6957856332708
 20
78.57517985121069
 11
205.6957856332708
 21
78.24283439857516
 97
        0
 75
     0
 76
     1
 98
        0
  0
HATCH
  5
430
330
1F
100
AcDbEntity
  8
1
  6
Continuous
 62
     7
370
     9
100
AcDbHatch
 10
0.0
 20
0.0
 30
0.0
210
0.0
220
0.0
230
1.0
  2
SOLID
 70
     1
 71
     0
 91
        1
 92
        0
 93
        8
 72
     2
 10
207.0457856332707
 20
73.46017985121068
 40
0.1500000000000057
 50
0.0
 51
89.99999999999991
 73
     1
 72
     1
 10
207.0457856332707
 20
73.61017985121066
 11
205.8457856332707
 21
73.61017985121066
 72
     2
 10
205.8457856332707
 20
73.46017985121068
 40
0.1500000000000057
 50
89.99999999999991
 51
179.9999999999998
 73
     1
 72
     1
 10
205.6957856332707
 20
73.46017985121068
 11
205.6957856332707
 21
73.0101798512107
 72
     2
 10
205.8457856332707
 20
73.0101798512107
 40
0.1500000000000057
 50
179.9999999999998
 51
270.0000000000001
 73
     1
 72
     1
 10
205.8457856332707
 20
72.86017985121066
 11
207.0457856332707
 21
72.86017985121066
 72
     2
 10
207.0457856332707
 20
73.0101798512107
 40
0.1500000000000057
 50
270.0000000000001
 51
360.0
 73
     1
 72
     1
 10
207.1957856332707
 20
73.0101798512107
 11
207.1957856332707
 21
73.46017985121068
 97
        0
 75
     0
 76
     1
 98
        0
  0
LINE
  5
431
330
1F
100
AcDbEntity
  8
1
  6
Continuous
 62
     7
370
     9
100
AcDbLine
 10
207.2166282184618
 20
70.68811602079352
 30
0.0
 11
207.2166282184618
 21
70.23811602079353
 31
0.0
  0
ARC
  5
432
330
1F
100
AcDbEntity
  8
1
  6
Continuous
 62
     7
370
     9
100
AcDbCircle
 10
207.0666282184618
 20
70.68811602079352
 30
0.0
 40
0.1500000000000057
100
AcDbArc
 50
0.0
 51
89.99999999998914
  0
LINE
  5
433
330
1F
100
AcDbEntity
  8
1
  6
Continuous
 62
     7
370
     9
100
AcDbLine
 10
205.7166282184618
 20
70.23811602079353
 30
0.0
 11
205.7166282184618
 21
70.68811602079352
 31
0.0
  0
ARC
  5
434
330
1F
100
AcDbEntity
  8
1
  6
Continuous
 62
     7
370
     9
100
AcDbCircle
 10
205.8666282184618
 20
70.68811602079352
 30
0.0
 40
0.1500000000000057
100
AcDbArc
 50
89.99999999998914
 51
179.9999999999998
  0
LINE
  5
435
330
1F
100
AcDbEntity
  8
1
  6
Continuous
 62
     7
370
     9
100
AcDbLine
 10
207.0666282184619
 20
70.83811602079349
 30
0.0
 11
205.8666282184619
 21
70.83811602079349
 31
0.0
  0
LINE
  5
436
330
1F
100
AcDbEntity
  8
1
  6
Continuous
 62
     7
370
     9
100
AcDbLine
 10
207.0666282184619
 20
70.08811602079349
 30
0.0
 11
205.8666282184619
 21
70.08811602079349
 31
0.0
  0
ARC
  5
437
330
1F
100
AcDbEntity
  8
1
  6
Continuous
 62
     7
370
     9
100
AcDbCircle
 10
207.0666282184618
 20
70.23811602079353
 30
0.0
 40
0.1500000000000057
100
AcDbArc
 50
270.0000000000105
 51
0.0
  0
ARC
  5
438
330
1F
100
AcDbEntity
  8
1
  6
Continuous
 62
     7
370
     9
100
AcDbCircle
 10
205.8666282184618
 20
70.23811602079353
 30
0.0
 40
0.1500000000000057
100
AcDbArc
 50
179.9999999999998
 51
270.0000000000105
  0
HATCH
  5
439
330
1F
100
AcDbEntity
  8
1
  6
Continuous
 62
     7
370
     9
100
AcDbHatch
 10
0.0
 20
0.0
 30
0.0
210
0.0
220
0.0
230
1.0
  2
SOLID
 70
     1
 71
     0
 91
        1
 92
        0
 93
        8
 72
     2
 10
207.0666282184618
 20
70.68811602079352
 40
0.1500000000000057
 50
0.0
 51
89.99999999999991
 73
     1
 72
     1
 10
207.0666282184618
 20
70.83811602079349
 11
205.8666282184618
 21
70.83811602079349
 72
     2
 10
205.8666282184618
 20
70.68811602079352
 40
0.1500000000000057
 50
89.99999999999991
 51
179.9999999999998
 73
     1
 72
     1
 10
205.7166282184618
 20
70.68811602079352
 11
205.7166282184618
 21
70.23811602079353
 72
     2
 10
205.8666282184618
 20
70.23811602079353
 40
0.1500000000000057
 50
179.9999999999998
 51
270.0000000000001
 73
     1
 72
     1
 10
205.8666282184618
 20
70.08811602079349
 11
207.0666282184618
 21
70.08811602079349
 72
     2
 10
207.0666282184618
 20
70.23811602079353
 40
0.1500000000000057
 50
270.0000000000001
 51
360.0
 73
     1
 72
     1
 10
207.2166282184618
 20
70.23811602079353
 11
207.2166282184618
 21
70.68811602079352
 97
        0
 75
     0
 76
     1
 98
        0
  0
LINE
  5
43A
330
1F
100
AcDbEntity
  8
1
  6
Continuous
 62
     7
370
     9
100
AcDbLine
 10
207.2374708036529
 20
67.89520960518524
 30
0.0
 11
207.2374708036529
 21
67.44520960518525
 31
0.0
  0
ARC
  5
43B
330
1F
100
AcDbEntity
  8
1
  6
Continuous
 62
     7
370
     9
100
AcDbCircle
 10
207.0874708036529
 20
67.89520960518524
 30
0.0
 40
0.1500000000000057
100
AcDbArc
 50
0.0
 51
89.99999999998914
  0
LINE
  5
43C
330
1F
100
AcDbEntity
  8
1
  6
Continuous
 62
     7
370
     9
100
AcDbLine
 10
205.7374708036529
 20
67.44520960518525
 30
0.0
 11
205.7374708036529
 21
67.89520960518524
 31
0.0
  0
ARC
  5
43D
330
1F
100
AcDbEntity
  8
1
  6
Continuous
 62
     7
370
     9
100
AcDbCircle
 10
205.8874708036529
 20
67.89520960518524
 30
0.0
 40
0.1500000000000057
100
AcDbArc
 50
89.99999999998914
 51
179.9999999999998
  0
LINE
  5
43E
330
1F
100
AcDbEntity
  8
1
  6
Continuous
 62
     7
370
     9
100
AcDbLine
 10
207.087470803653
 20
68.04520960518522
 30
0.0
 11
205.887470803653
 21
68.04520960518522
 31
0.0
  0
LINE
  5
43F
330
1F
100
AcDbEntity
  8
1
  6
Continuous
 62
     7
370
     9
100
AcDbLine
 10
207.087470803653
 20
67.29520960518522
 30
0.0
 11
205.887470803653
 21
67.29520960518522
 31
0.0
  0
ARC
  5
440
330
1F
100
AcDbEntity
  8
1
  6
Continuous
 62
     7
370
     9
100
AcDbCircle
 10
207.0874708036529
 20
67.44520960518525
 30
0.0
 40
0.1500000000000057
100
AcDbArc
 50
270.0000000000105
 51
0.0
  0
ARC
  5
441
330
1F
100
AcDbEntity
  8
1
  6
Continuous
 62
     7
370
     9
100
AcDbCircle
 10
205.8874708036529
 20
67.44520960518525
 30
0.0
 40
0.1500000000000057
100
AcDbArc
 50
179.9999999999998
 51
270.0000000000105
  0
HATCH
  5
442
330
1F
100
AcDbEntity
  8
1
  6
Continuous
 62
     7
370
     9
100
AcDbHatch
 10
0.0
 20
0.0
 30
0.0
210
0.0
220
0.0
230
1.0
  2
SOLID
 70
     1
 71
     0
 91
        1
 92
        0
 93
        8
 72
     2
 10
207.0874708036529
 20
67.89520960518524
 40
0.1500000000000057
 50
0.0
 51
89.99999999999991
 73
     1
 72
     1
 10
207.0874708036529
 20
68.04520960518522
 11
205.8874708036529
 21
68.04520960518522
 72
     2
 10
205.8874708036529
 20
67.89520960518524
 40
0.1500000000000057
 50
89.99999999999991
 51
179.9999999999998
 73
     1
 72
     1
 10
205.7374708036529
 20
67.89520960518524
 11
205.7374708036529
 21
67.44520960518525
 72
     2
 10
205.8874708036529
 20
67.44520960518525
 40
0.1500000000000057
 50
179.9999999999998
 51
270.0000000000001
 73
     1
 72
     1
 10
205.8874708036529
 20
67.29520960518522
 11
207.0874708036529
 21
67.29520960518522
 72
     2
 10
207.0874708036529
 20
67.44520960518525
 40
0.1500000000000057
 50
270.0000000000001
 51
360.0
 73
     1
 72
     1
 10
207.2374708036529
 20
67.44520960518525
 11
207.2374708036529
 21
67.89520960518524
 97
        0
 75
     0
 76
     1
 98
        0
  0
LINE
  5
443
330
1F
100
AcDbEntity
  8
1
  6
Continuous
 62
     7
370
     9
100
AcDbLine
 10
207.1749430480796
 20
65.66505298973685
 30
0.0
 11
207.1749430480796
 21
65.21505298973686
 31
0.0
  0
ARC
  5
444
330
1F
100
AcDbEntity
  8
1
  6
Continuous
 62
     7
370
     9
100
AcDbCircle
 10
207.0249430480796
 20
65.66505298973685
 30
0.0
 40
0.1500000000000057
100
AcDbArc
 50
0.0
 51
89.99999999998914
  0
LINE
  5
445
330
1F
100
AcDbEntity
  8
1
  6
Continuous
 62
     7
370
     9
100
AcDbLine
 10
205.6749430480796
 20
65.21505298973686
 30
0.0
 11
205.6749430480796
 21
65.66505298973685
 31
0.0
  0
ARC
  5
446
330
1F
100
AcDbEntity
  8
1
  6
Continuous
 62
     7
370
     9
100
AcDbCircle
 10
205.8249430480796
 20
65.66505298973685
 30
0.0
 40
0.1500000000000057
100
AcDbArc
 50
89.99999999998914
 51
179.9999999999998
  0
LINE
  5
447
330
1F
100
AcDbEntity
  8
1
  6
Continuous
 62
     7
370
     9
100
AcDbLine
 10
207.0249430480796
 20
65.81505298973683
 30
0.0
 11
205.8249430480797
 21
65.81505298973683
 31
0.0
  0
LINE
  5
448
330
1F
100
AcDbEntity
  8
1
  6
Continuous
 62
     7
370
     9
100
AcDbLine
 10
207.0249430480796
 20
65.06505298973683
 30
0.0
 11
205.8249430480797
 21
65.06505298973683
 31
0.0
  0
ARC
  5
449
330
1F
100
AcDbEntity
  8
1
  6
Continuous
 62
     7
370
     9
100
AcDbCircle
 10
207.0249430480796
 20
65.21505298973686
 30
0.0
 40
0.1500000000000057
100
AcDbArc
 50
270.0000000000105
 51
0.0
  0
ARC
  5
44A
330
1F
100
AcDbEntity
  8
1
  6
Continuous
 62
     7
370
     9
100
AcDbCircle
 10
205.8249430480796
 20
65.21505298973686
 30
0.0
 40
0.1500000000000057
100
AcDbArc
 50
179.9999999999998
 51
270.0000000000105
  0
HATCH
  5
44B
330
1F
100
AcDbEntity
  8
1
  6
Continuous
 62
     7
370
     9
100
AcDbHatch
 10
0.0
 20
0.0
 30
0.0
210
0.0
220
0.0
230
1.0
  2
SOLID
 70
     1
 71
     0
 91
        1
 92
        0
 93
        8
 72
     2
 10
207.0249430480796
 20
65.66505298973685
 40
0.1500000000000057
 50
0.0
 51
89.99999999999991
 73
     1
 72
     1
 10
207.0249430480796
 20
65.81505298973683
 11
205.8249430480796
 21
65.81505298973683
 72
     2
 10
205.8249430480796
 20
65.66505298973685
 40
0.1500000000000057
 50
89.99999999999991
 51
179.9999999999998
 73
     1
 72
     1
 10
205.6749430480796
 20
65.66505298973685
 11
205.6749430480796
 21
65.21505298973686
 72
     2
 10
205.8249430480796
 20
65.21505298973686
 40
0.1500000000000057
 50
179.9999999999998
 51
270.0000000000001
 73
     1
 72
     1
 10
205.8249430480796
 20
65.06505298973683
 11
207.0249430480796
 21
65.06505298973683
 72
     2
 10
207.0249430480796
 20
65.21505298973686
 40
0.1500000000000057
 50
270.0000000000001
 51
360.0
 73
     1
 72
     1
 10
207.1749430480796
 20
65.21505298973686
 11
207.1749430480796
 21
65.66505298973685
 97
        0
 75
     0
 76
     1
 98
        0
  0
HATCH
  5
44C
330
1F
100
AcDbEntity
  8
1
  6
Continuous
 62
     7
370
     9
100
AcDbHatch
 10
0.0
 20
0.0
 30
0.0
210
0.0
220
0.0
230
1.0
  2
SOLID
 70
     1
 71
     0
 91
        1
 92
        0
 93
        1
 72
     2
 10
212.3457856332707
 20
64.69517985121081
 40
0.25
 50
0.0
 51
360.0
 73
     1
 97
        0
 75
     0
 76
     1
 98
        0
  0
HATCH
  5
44D
330
1F
100
AcDbEntity
  8
1
  6
Continuous
 62
     7
370
     9
100
AcDbHatch
 10
0.0
 20
0.0
 30
0.0
210
0.0
220
0.0
230
1.0
  2
SOLID
 70
     1
 71
     0
 91
        1
 92
        0
 93
        1
 72
     2
 10
212.3457856332707
 20
61.79517985121083
 40
0.25
 50
0.0
 51
360.0
 73
     1
 97
        0
 75
     0
 76
     1
 98
        0
  0
HATCH
  5
44E
330
1F
100
AcDbEntity
  8
1
  6
Continuous
 62
     7
370
     9
100
AcDbHatch
 10
0.0
 20
0.0
 30
0.0
210
0.0
220
0.0
230
1.0
  2
SOLID
 70
     1
 71
     0
 91
        1
 92
        0
 93
        1
 72
     2
 10
201.8957856332707
 20
61.97517985121067
 40
0.75
 50
0.0
 51
360.0
 73
     1
 97
        0
 75
     0
 76
     1
 98
        0
  0
HATCH
  5
44F
330
1F
100
AcDbEntity
  8
1
  6
Continuous
 62
     7
370
     9
100
AcDbHatch
 10
0.0
 20
0.0
 30
0.0
210
0.0
220
0.0
230
1.0
  2
SOLID
 70
     1
 71
     0
 91
        1
 92
        0
 93
        2
 72
     2
 10
219.5957856332708
 20
61.97517985121067
 40
2.000000000000028
 50
168.6749353986475
 51
191.3250646013525
 73
     1
 72
     2
 10
216.9957856332708
 20
61.97517985121067
 40
0.75
 50
31.57854603589749
 51
328.4214539641025
 73
     0
 97
        0
 75
     0
 76
     1
 98
        0
  0
HATCH
  5
450
330
1F
100
AcDbEntity
  8
1
  6
Continuous
 62
     7
370
     9
100
AcDbHatch
 10
0.0
 20
0.0
 30
0.0
210
0.0
220
0.0
230
1.0
  2
SOLID
 70
     1
 71
     0
 91
        1
 92
        0
 93
        1
 72
     2
 10
212.3457856332708
 20
58.87517985121087
 40
0.25
 50
0.0
 51
360.0
 73
     1
 97
        0
 75
     0
 76
     1
 98
        0
  0
HATCH
  5
451
330
1F
100
AcDbEntity
  8
1
  6
Continuous
 62
     7
370
     9
100
AcDbHatch
 10
0.0
 20
0.0
 30
0.0
210
0.0
220
0.0
230
1.0
  2
SOLID
 70
     1
 71
     0
 91
        1
 92
        0
 93
        1
 72
     2
 10
212.3457856332708
 20
57.41517985121084
 40
0.25
 50
0.0
 51
360.0
 73
     1
 97
        0
 75
     0
 76
     1
 98
        0
  0
MTEXT
  5
452
330
1F
100
AcDbEntity
  8
1
  6
Continuous
 62
     7
370
     9
100
AcDbMText
 10
204.884899104369
 20
63.6829700772348
 30
0.0
 40
3.5
 41
5.850570570570571
 46
3.5
 71
     7
 72
     1
  1
{\fＭＳ 明朝;\T0.750000;∞}
 11
1.615544574432587E-15
 21
-1.0
 31
0.0
 73
     1
 44
1.0
1001
ACAD
1000
ACAD_MTEXT_DEFINED_HEIGHT_BEGIN
1070
    46
1040
3.5
1000
ACAD_MTEXT_DEFINED_HEIGHT_END
  0
POLYLINE
  5
453
330
1F
100
AcDbEntity
  8
1
  6
Continuous
 62
     7
370
     9
100
AcDb2dPolyline
 66
     1
 10
0.0
 20
0.0
 30
0.0
 70
     2
  0
VERTEX
  5
454
330
453
100
AcDbEntity
  8
1
  6
Continuous
 62
     7
370
     9
100
AcDbVertex
100
AcDb2dVertex
 10
199.403054780353
 20
76.92517985121071
 30
0.0
  0
VERTEX
  5
455
330
453
100
AcDbEntity
  8
1
  6
Continuous
 62
     7
370
     9
100
AcDbVertex
100
AcDb2dVertex
 10
199.405419731585
 20
76.92681099482716
 30
0.0
  0
VERTEX
  5
456
330
453
100
AcDbEntity
  8
1
  6
Continuous
 62
     7
370
     9
100
AcDbVertex
100
AcDb2dVertex
 10
199.4124514781159
 20
76.93166106482457
 30
0.0
  0
VERTEX
  5
457
330
453
100
AcDbEntity
  8
1
  6
Continuous
 62
     7
370
     9
100
AcDbVertex
100
AcDb2dVertex
 10
199.4239703136172
 20
76.93960753531525
 30
0.0
  0
VERTEX
  5
458
330
453
100
AcDbEntity
  8
1
  6
Continuous
 62
     7
370
     9
100
AcDbVertex
100
AcDb2dVertex
 10
199.4397057209576
 20
76.95046892251624
 30
0.0
  0
VERTEX
  5
459
330
453
100
AcDbEntity
  8
1
  6
Continuous
 62
     7
370
     9
100
AcDbVertex
100
AcDb2dVertex
 10
199.4593300161114
 20
76.96403094300013
 30
0.0
  0
VERTEX
  5
45A
330
453
100
AcDbEntity
  8
1
  6
Continuous
 62
     7
370
     9
100
AcDbVertex
100
AcDb2dVertex
 10
199.4824886112906
 20
76.98006957767181
 30
0.0
  0
VERTEX
  5
45B
330
453
100
AcDbEntity
  8
1
  6
Continuous
 62
     7
370
     9
100
AcDbVertex
100
AcDb2dVertex
 10
199.5088159682202
 20
76.99836225411482
 30
0.0
  0
VERTEX
  5
45C
330
453
100
AcDbEntity
  8
1
  6
Continuous
 62
     7
370
     9
100
AcDbVertex
100
AcDb2dVertex
 10
199.5379298911699
 20
77.01868125851811
 30
0.0
  0
VERTEX
  5
45D
330
453
100
AcDbEntity
  8
1
  6
Continuous
 62
     7
370
     9
100
AcDbVertex
100
AcDb2dVertex
 10
199.5694028407747
 20
77.04076836617989
 30
0.0
  0
VERTEX
  5
45E
330
453
100
AcDbEntity
  8
1
  6
Continuous
 62
     7
370
     9
100
AcDbVertex
100
AcDb2dVertex
 10
199.6027159418818
 20
77.06429533168533
 30
0.0
  0
VERTEX
  5
45F
330
453
100
AcDbEntity
  8
1
  6
Continuous
 62
     7
370
     9
100
AcDbVertex
100
AcDb2dVertex
 10
199.637207508852
 20
77.08881985042787
 30
0.0
  0
VERTEX
  5
460
330
453
100
AcDbEntity
  8
1
  6
Continuous
 62
     7
370
     9
100
AcDbVertex
100
AcDb2dVertex
 10
199.6720315525021
 20
77.11374954568171
 30
0.0
  0
VERTEX
  5
461
330
453
100
AcDbEntity
  8
1
  6
Continuous
 62
     7
370
     9
100
AcDbVertex
100
AcDb2dVertex
 10
199.7061417532877
 20
77.13832655284922
 30
0.0
  0
VERTEX
  5
462
330
453
100
AcDbEntity
  8
1
  6
Continuous
 62
     7
370
     9
100
AcDbVertex
100
AcDb2dVertex
 10
199.7383125235833
 20
77.16164215337388
 30
0.0
  0
VERTEX
  5
463
330
453
100
AcDbEntity
  8
1
  6
Continuous
 62
     7
370
     9
100
AcDbVertex
100
AcDb2dVertex
 10
199.7672017161019
 20
77.18268520267527
 30
0.0
  0
VERTEX
  5
464
330
453
100
AcDbEntity
  8
1
  6
Continuous
 62
     7
370
     9
100
AcDbVertex
100
AcDb2dVertex
 10
199.7914507476663
 20
77.20042099610586
 30
0.0
  0
VERTEX
  5
465
330
453
100
AcDbEntity
  8
1
  6
Continuous
 62
     7
370
     9
100
AcDbVertex
100
AcDb2dVertex
 10
199.8098093509635
 20
77.21389030165578
 30
0.0
  0
VERTEX
  5
466
330
453
100
AcDbEntity
  8
1
  6
Continuous
 62
     7
370
     9
100
AcDbVertex
100
AcDb2dVertex
 10
199.8212658138918
 20
77.22231315066786
 30
0.0
  0
VERTEX
  5
467
330
453
100
AcDbEntity
  8
1
  6
Continuous
 62
     7
370
     9
100
AcDbVertex
100
AcDb2dVertex
 10
199.8251609434443
 20
77.22517985121073
 30
0.0
  0
VERTEX
  5
468
330
453
100
AcDbEntity
  8
1
  6
Continuous
 62
     7
370
     9
100
AcDbVertex
100
AcDb2dVertex
 10
199.8290770022876
 20
77.22806346639294
 30
0.0
  0
VERTEX
  5
469
330
453
100
AcDbEntity
  8
1
  6
Continuous
 62
     7
370
     9
100
AcDbVertex
100
AcDb2dVertex
 10
199.8408389287646
 20
77.23673389562587
 30
0.0
  0
VERTEX
  5
46A
330
453
100
AcDbEntity
  8
1
  6
Continuous
 62
     7
370
     9
100
AcDbVertex
100
AcDb2dVertex
 10
199.8604543997844
 20
77.25122753613928
 30
0.0
  0
VERTEX
  5
46B
330
453
100
AcDbEntity
  8
1
  6
Continuous
 62
     7
370
     9
100
AcDbVertex
100
AcDb2dVertex
 10
199.8878336666394
 20
77.27153620491258
 30
0.0
  0
VERTEX
  5
46C
330
453
100
AcDbEntity
  8
1
  6
Continuous
 62
     7
370
     9
100
AcDbVertex
100
AcDb2dVertex
 10
199.9226661803992
 20
77.297522356031
 30
0.0
  0
VERTEX
  5
46D
330
453
100
AcDbEntity
  8
1
  6
Continuous
 62
     7
370
     9
100
AcDbVertex
100
AcDb2dVertex
 10
199.9643008930443
 20
77.32883281096102
 30
0.0
  0
VERTEX
  5
46E
330
453
100
AcDbEntity
  8
1
  6
Continuous
 62
     7
370
     9
100
AcDbVertex
100
AcDb2dVertex
 10
200.0116668876914
 20
77.36483393246036
 30
0.0
  0
VERTEX
  5
46F
330
453
100
AcDbEntity
  8
1
  6
Continuous
 62
     7
370
     9
100
AcDbVertex
100
AcDb2dVertex
 10
200.0632626285984
 20
77.4045867376669
 30
0.0
  0
VERTEX
  5
470
330
453
100
AcDbEntity
  8
1
  6
Continuous
 62
     7
370
     9
100
AcDbVertex
100
AcDb2dVertex
 10
200.1172263956638
 20
77.44687160645056
 30
0.0
  0
VERTEX
  5
471
330
453
100
AcDbEntity
  8
1
  6
Continuous
 62
     7
370
     9
100
AcDbVertex
100
AcDb2dVertex
 10
200.1714811554246
 20
77.49026110302856
 30
0.0
  0
VERTEX
  5
472
330
453
100
AcDbEntity
  8
1
  6
Continuous
 62
     7
370
     9
100
AcDbVertex
100
AcDb2dVertex
 10
200.2239289084844
 20
77.53322863715603
 30
0.0
  0
VERTEX
  5
473
330
453
100
AcDbEntity
  8
1
  6
Continuous
 62
     7
370
     9
100
AcDbVertex
100
AcDb2dVertex
 10
200.2726569050213
 20
77.57427279566764
 30
0.0
  0
VERTEX
  5
474
330
453
100
AcDbEntity
  8
1
  6
Continuous
 62
     7
370
     9
100
AcDbVertex
100
AcDb2dVertex
 10
200.3161141895338
 20
77.61203402026518
 30
0.0
  0
VERTEX
  5
475
330
453
100
AcDbEntity
  8
1
  6
Continuous
 62
     7
370
     9
100
AcDbVertex
100
AcDb2dVertex
 10
200.3532227956728
 20
77.6453825936051
 30
0.0
  0
VERTEX
  5
476
330
453
100
AcDbEntity
  8
1
  6
Continuous
 62
     7
370
     9
100
AcDbVertex
100
AcDb2dVertex
 10
200.3834022804246
 20
77.67346401669074
 30
0.0
  0
VERTEX
  5
477
330
453
100
AcDbEntity
  8
1
  6
Continuous
 62
     7
370
     9
100
AcDbVertex
100
AcDb2dVertex
 10
200.4065058236621
 20
77.6956980557594
 30
0.0
  0
VERTEX
  5
478
330
453
100
AcDbEntity
  8
1
  6
Continuous
 62
     7
370
     9
100
AcDbVertex
100
AcDb2dVertex
 10
200.4226862174533
 20
77.71173852114961
 30
0.0
  0
VERTEX
  5
479
330
453
100
AcDbEntity
  8
1
  6
Continuous
 62
     7
370
     9
100
AcDbVertex
100
AcDb2dVertex
 10
200.4322259570093
 20
77.72140960736397
 30
0.0
  0
VERTEX
  5
47A
330
453
100
AcDbEntity
  8
1
  6
Continuous
 62
     7
370
     9
100
AcDbVertex
100
AcDb2dVertex
 10
200.4353735276727
 20
77.72463927492146
 30
0.0
  0
VERTEX
  5
47B
330
453
100
AcDbEntity
  8
1
  6
Continuous
 62
     7
370
     9
100
AcDbVertex
100
AcDb2dVertex
 10
200.4384896272453
 20
77.7278567688648
 30
0.0
  0
VERTEX
  5
47C
330
453
100
AcDbEntity
  8
1
  6
Continuous
 62
     7
370
     9
100
AcDbVertex
100
AcDb2dVertex
 10
200.4475686009907
 20
77.73734983913162
 30
0.0
  0
VERTEX
  5
47D
330
453
100
AcDbEntity
  8
1
  6
Continuous
 62
     7
370
     9
100
AcDbVertex
100
AcDb2dVertex
 10
200.461841662008
 20
77.75265512577566
 30
0.0
  0
VERTEX
  5
47E
330
453
100
AcDbEntity
  8
1
  6
Continuous
 62
     7
370
     9
100
AcDbVertex
100
AcDb2dVertex
 10
200.48015074548
 20
77.77304773237489
 30
0.0
  0
VERTEX
  5
47F
330
453
100
AcDbEntity
  8
1
  6
Continuous
 62
     7
370
     9
100
AcDbVertex
100
AcDb2dVertex
 10
200.5011091233486
 20
77.79760495476502
 30
0.0
  0
VERTEX
  5
480
330
453
100
AcDbEntity
  8
1
  6
Continuous
 62
     7
370
     9
100
AcDbVertex
100
AcDb2dVertex
 10
200.5232830652735
 20
77.82528225946555
 30
0.0
  0
VERTEX
  5
481
330
453
100
AcDbEntity
  8
1
  6
Continuous
 62
     7
370
     9
100
AcDbVertex
100
AcDb2dVertex
 10
200.545362510184
 20
77.85499125781203
 30
0.0
  0
VERTEX
  5
482
330
453
100
AcDbEntity
  8
1
  6
Continuous
 62
     7
370
     9
100
AcDbVertex
100
AcDb2dVertex
 10
200.5662926404522
 20
77.88567004618301
 30
0.0
  0
VERTEX
  5
483
330
453
100
AcDbEntity
  8
1
  6
Continuous
 62
     7
370
     9
100
AcDbVertex
100
AcDb2dVertex
 10
200.5853477032081
 20
77.91633849877145
 30
0.0
  0
VERTEX
  5
484
330
453
100
AcDbEntity
  8
1
  6
Continuous
 62
     7
370
     9
100
AcDbVertex
100
AcDb2dVertex
 10
200.6021411456934
 20
77.94613437573567
 30
0.0
  0
VERTEX
  5
485
330
453
100
AcDbEntity
  8
1
  6
Continuous
 62
     7
370
     9
100
AcDbVertex
100
AcDb2dVertex
 10
200.6165792085451
 20
77.97432972969123
 30
0.0
  0
VERTEX
  5
486
330
453
100
AcDbEntity
  8
1
  6
Continuous
 62
     7
370
     9
100
AcDbVertex
100
AcDb2dVertex
 10
200.6287756625847
 20
78.00033031940744
 30
0.0
  0
VERTEX
  5
487
330
453
100
AcDbEntity
  8
1
  6
Continuous
 62
     7
370
     9
100
AcDbVertex
100
AcDb2dVertex
 10
200.6389511842785
 20
78.02366297449117
 30
0.0
  0
VERTEX
  5
488
330
453
100
AcDbEntity
  8
1
  6
Continuous
 62
     7
370
     9
100
AcDbVertex
100
AcDb2dVertex
 10
200.6473409307875
 20
78.0439567670527
 30
0.0
  0
VERTEX
  5
489
330
453
100
AcDbEntity
  8
1
  6
Continuous
 62
     7
370
     9
100
AcDbVertex
100
AcDb2dVertex
 10
200.6541285724983
 20
78.06092342653481
 30
0.0
  0
VERTEX
  5
48A
330
453
100
AcDbEntity
  8
1
  6
Continuous
 62
     7
370
     9
100
AcDbVertex
100
AcDb2dVertex
 10
200.6594159982147
 20
78.07434097472783
 30
0.0
  0
VERTEX
  5
48B
330
453
100
AcDbEntity
  8
1
  6
Continuous
 62
     7
370
     9
100
AcDbVertex
100
AcDb2dVertex
 10
200.6632275785483
 20
78.08404256327495
 30
0.0
  0
VERTEX
  5
48C
330
453
100
AcDbEntity
  8
1
  6
Continuous
 62
     7
370
     9
100
AcDbVertex
100
AcDb2dVertex
 10
200.6655389124408
 20
78.08991054339326
 30
0.0
  0
VERTEX
  5
48D
330
453
100
AcDbEntity
  8
1
  6
Continuous
 62
     7
370
     9
100
AcDbVertex
100
AcDb2dVertex
 10
200.6663145917797
 20
78.09187438990318
 30
0.0
  0
VERTEX
  5
48E
330
453
100
AcDbEntity
  8
1
  6
Continuous
 62
     7
370
     9
100
AcDbVertex
100
AcDb2dVertex
 10
200.6670896596002
 20
78.09383323449777
 30
0.0
  0
VERTEX
  5
48F
330
453
100
AcDbEntity
  8
1
  6
Continuous
 62
     7
370
     9
100
AcDbVertex
100
AcDb2dVertex
 10
200.6693901641994
 20
78.09962720890186
 30
0.0
  0
VERTEX
  5
490
330
453
100
AcDbEntity
  8
1
  6
Continuous
 62
     7
370
     9
100
AcDbVertex
100
AcDb2dVertex
 10
200.6731420854935
 20
78.10901634061483
 30
0.0
  0
VERTEX
  5
491
330
453
100
AcDbEntity
  8
1
  6
Continuous
 62
     7
370
     9
100
AcDbVertex
100
AcDb2dVertex
 10
200.6782226111945
 20
78.1216250059969
 30
0.0
  0
VERTEX
  5
492
330
453
100
AcDbEntity
  8
1
  6
Continuous
 62
     7
370
     9
100
AcDbVertex
100
AcDb2dVertex
 10
200.6844619189126
 20
78.13697397828962
 30
0.0
  0
VERTEX
  5
493
330
453
100
AcDbEntity
  8
1
  6
Continuous
 62
     7
370
     9
100
AcDbVertex
100
AcDb2dVertex
 10
200.6916472452876
 20
78.1545173913628
 30
0.0
  0
VERTEX
  5
494
330
453
100
AcDbEntity
  8
1
  6
Continuous
 62
     7
370
     9
100
AcDbVertex
100
AcDb2dVertex
 10
200.6995301439561
 20
78.17367879687917
 30
0.0
  0
VERTEX
  5
495
330
453
100
AcDbEntity
  8
1
  6
Continuous
 62
     7
370
     9
100
AcDbVertex
100
AcDb2dVertex
 10
200.7078373382406
 20
78.19388125740295
 30
0.0
  0
VERTEX
  5
496
330
453
100
AcDbEntity
  8
1
  6
Continuous
 62
     7
370
     9
100
AcDbVertex
100
AcDb2dVertex
 10
200.716284818471
 20
78.21456819134588
 30
0.0
  0
VERTEX
  5
497
330
453
100
AcDbEntity
  8
1
  6
Continuous
 62
     7
370
     9
100
AcDbVertex
100
AcDb2dVertex
 10
200.7245939998385
 20
78.23521403394673
 30
0.0
  0
VERTEX
  5
498
330
453
100
AcDbEntity
  8
1
  6
Continuous
 62
     7
370
     9
100
AcDbVertex
100
AcDb2dVertex
 10
200.732508060828
 20
78.25532614720055
 30
0.0
  0
VERTEX
  5
499
330
453
100
AcDbEntity
  8
1
  6
Continuous
 62
     7
370
     9
100
AcDbVertex
100
AcDb2dVertex
 10
200.7398062208823
 20
78.27444125708703
 30
0.0
  0
VERTEX
  5
49A
330
453
100
AcDbEntity
  8
1
  6
Continuous
 62
     7
370
     9
100
AcDbVertex
100
AcDb2dVertex
 10
200.7463138148469
 20
78.29212061333146
 30
0.0
  0
VERTEX
  5
49B
330
453
100
AcDbEntity
  8
1
  6
Continuous
 62
     7
370
     9
100
AcDbVertex
100
AcDb2dVertex
 10
200.7519066016491
 20
78.30794788153305
 30
0.0
  0
VERTEX
  5
49C
330
453
100
AcDbEntity
  8
1
  6
Continuous
 62
     7
370
     9
100
AcDbVertex
100
AcDb2dVertex
 10
200.7565087112989
 20
78.32153258428005
 30
0.0
  0
VERTEX
  5
49D
330
453
100
AcDbEntity
  8
1
  6
Continuous
 62
     7
370
     9
100
AcDbVertex
100
AcDb2dVertex
 10
200.7600847962507
 20
78.33252004142307
 30
0.0
  0
VERTEX
  5
49E
330
453
100
AcDbEntity
  8
1
  6
Continuous
 62
     7
370
     9
100
AcDbVertex
100
AcDb2dVertex
 10
200.7626280636135
 20
78.34060670927192
 30
0.0
  0
VERTEX
  5
49F
330
453
100
AcDbEntity
  8
1
  6
Continuous
 62
     7
370
     9
100
AcDbVertex
100
AcDb2dVertex
 10
200.764146677507
 20
78.3455581063564
 30
0.0
  0
VERTEX
  5
4A0
330
453
100
AcDbEntity
  8
1
  6
Continuous
 62
     7
370
     9
100
AcDbVertex
100
AcDb2dVertex
 10
200.7646513478378
 20
78.34722556650235
 30
0.0
  0
VERTEX
  5
4A1
330
453
100
AcDbEntity
  8
1
  6
Continuous
 62
     7
370
     9
100
AcDbVertex
100
AcDb2dVertex
 10
200.7651528826792
 20
78.34889400864078
 30
0.0
  0
VERTEX
  5
4A2
330
453
100
AcDbEntity
  8
1
  6
Continuous
 62
     7
370
     9
100
AcDbVertex
100
AcDb2dVertex
 10
200.7666253490461
 20
78.35385911736954
 30
0.0
  0
VERTEX
  5
4A3
330
453
100
AcDbEntity
  8
1
  6
Continuous
 62
     7
370
     9
100
AcDbVertex
100
AcDb2dVertex
 10
200.7689756836823
 20
78.36199728225064
 30
0.0
  0
VERTEX
  5
4A4
330
453
100
AcDbEntity
  8
1
  6
Continuous
 62
     7
370
     9
100
AcDbVertex
100
AcDb2dVertex
 10
200.772059477958
 20
78.3730939870502
 30
0.0
  0
VERTEX
  5
4A5
330
453
100
AcDbEntity
  8
1
  6
Continuous
 62
     7
370
     9
100
AcDbVertex
100
AcDb2dVertex
 10
200.7756954462633
 20
78.38683544042952
 30
0.0
  0
VERTEX
  5
4A6
330
453
100
AcDbEntity
  8
1
  6
Continuous
 62
     7
370
     9
100
AcDbVertex
100
AcDb2dVertex
 10
200.7796828068012
 20
78.40280435247851
 30
0.0
  0
VERTEX
  5
4A7
330
453
100
AcDbEntity
  8
1
  6
Continuous
 62
     7
370
     9
100
AcDbVertex
100
AcDb2dVertex
 10
200.7838192935795
 20
78.42048472887144
 30
0.0
  0
VERTEX
  5
4A8
330
453
100
AcDbEntity
  8
1
  6
Continuous
 62
     7
370
     9
100
AcDbVertex
100
AcDb2dVertex
 10
200.7879175822889
 20
78.43927896308946
 30
0.0
  0
VERTEX
  5
4A9
330
453
100
AcDbEntity
  8
1
  6
Continuous
 62
     7
370
     9
100
AcDbVertex
100
AcDb2dVertex
 10
200.7918183127705
 20
78.45853780649577
 30
0.0
  0
VERTEX
  5
4AA
330
453
100
AcDbEntity
  8
1
  6
Continuous
 62
     7
370
     9
100
AcDbVertex
100
AcDb2dVertex
 10
200.7953985338547
 20
78.47760063526391
 30
0.0
  0
VERTEX
  5
4AB
330
453
100
AcDbEntity
  8
1
  6
Continuous
 62
     7
370
     9
100
AcDbVertex
100
AcDb2dVertex
 10
200.7985751509346
 20
78.49584060191705
 30
0.0
  0
VERTEX
  5
4AC
330
453
100
AcDbEntity
  8
1
  6
Continuous
 62
     7
370
     9
100
AcDbVertex
100
AcDb2dVertex
 10
200.8013036817635
 20
78.51270749373444
 30
0.0
  0
VERTEX
  5
4AD
330
453
100
AcDbEntity
  8
1
  6
Continuous
 62
     7
370
     9
100
AcDbVertex
100
AcDb2dVertex
 10
200.8035732007028
 20
78.52776091953417
 30
0.0
  0
VERTEX
  5
4AE
330
453
100
AcDbEntity
  8
1
  6
Continuous
 62
     7
370
     9
100
AcDbVertex
100
AcDb2dVertex
 10
200.8053986983774
 20
78.54068794365553
 30
0.0
  0
VERTEX
  5
4AF
330
453
100
AcDbEntity
  8
1
  6
Continuous
 62
     7
370
     9
100
AcDbVertex
100
AcDb2dVertex
 10
200.8068121801814
 20
78.55130220752949
 30
0.0
  0
VERTEX
  5
4B0
330
453
100
AcDbEntity
  8
1
  6
Continuous
 62
     7
370
     9
100
AcDbVertex
100
AcDb2dVertex
 10
200.8078537052155
 20
78.55952530075218
 30
0.0
  0
VERTEX
  5
4B1
330
453
100
AcDbEntity
  8
1
  6
Continuous
 62
     7
370
     9
100
AcDbVertex
100
AcDb2dVertex
 10
200.8085632994311
 20
78.56535483238801
 30
0.0
  0
VERTEX
  5
4B2
330
453
100
AcDbEntity
  8
1
  6
Continuous
 62
     7
370
     9
100
AcDbVertex
100
AcDb2dVertex
 10
200.8089743538817
 20
78.56882646243726
 30
0.0
  0
VERTEX
  5
4B3
330
453
100
AcDbEntity
  8
1
  6
Continuous
 62
     7
370
     9
100
AcDbVertex
100
AcDb2dVertex
 10
200.809108825762
 20
78.56997842205068
 30
0.0
  0
VERTEX
  5
4B4
330
453
100
AcDbEntity
  8
1
  6
Continuous
 62
     7
370
     9
100
AcDbVertex
100
AcDb2dVertex
 10
200.8092413975746
 20
78.57112230953445
 30
0.0
  0
VERTEX
  5
4B5
330
453
100
AcDbEntity
  8
1
  6
Continuous
 62
     7
370
     9
100
AcDbVertex
100
AcDb2dVertex
 10
200.8096243995185
 20
78.5744755293634
 30
0.0
  0
VERTEX
  5
4B6
330
453
100
AcDbEntity
  8
1
  6
Continuous
 62
     7
370
     9
100
AcDbVertex
100
AcDb2dVertex
 10
200.8102160228353
 20
78.57981311086449
 30
0.0
  0
VERTEX
  5
4B7
330
453
100
AcDbEntity
  8
1
  6
Continuous
 62
     7
370
     9
100
AcDbVertex
100
AcDb2dVertex
 10
200.810953910441
 20
78.58679270704431
 30
0.0
  0
VERTEX
  5
4B8
330
453
100
AcDbEntity
  8
1
  6
Continuous
 62
     7
370
     9
100
AcDbVertex
100
AcDb2dVertex
 10
200.8117646705839
 20
78.59499719112654
 30
0.0
  0
VERTEX
  5
4B9
330
453
100
AcDbEntity
  8
1
  6
Continuous
 62
     7
370
     9
100
AcDbVertex
100
AcDb2dVertex
 10
200.8125745751352
 20
78.60398305446277
 30
0.0
  0
VERTEX
  5
4BA
330
453
100
AcDbEntity
  8
1
  6
Continuous
 62
     7
370
     9
100
AcDbVertex
100
AcDb2dVertex
 10
200.8133195033806
 20
78.61332627316322
 30
0.0
  0
VERTEX
  5
4BB
330
453
100
AcDbEntity
  8
1
  6
Continuous
 62
     7
370
     9
100
AcDbVertex
100
AcDb2dVertex
 10
200.8139524364662
 20
78.62265833213404
 30
0.0
  0
VERTEX
  5
4BC
330
453
100
AcDbEntity
  8
1
  6
Continuous
 62
     7
370
     9
100
AcDbVertex
100
AcDb2dVertex
 10
200.8144473883872
 20
78.63168755141828
 30
0.0
  0
VERTEX
  5
4BD
330
453
100
AcDbEntity
  8
1
  6
Continuous
 62
     7
370
     9
100
AcDbVertex
100
AcDb2dVertex
 10
200.8147994383085
 20
78.64020416261029
 30
0.0
  0
VERTEX
  5
4BE
330
453
100
AcDbEntity
  8
1
  6
Continuous
 62
     7
370
     9
100
AcDbVertex
100
AcDb2dVertex
 10
200.8150213275354
 20
78.6480709729345
 30
0.0
  0
VERTEX
  5
4BF
330
453
100
AcDbEntity
  8
1
  6
Continuous
 62
     7
370
     9
100
AcDbVertex
100
AcDb2dVertex
 10
200.8151377258127
 20
78.6552041790327
 30
0.0
  0
VERTEX
  5
4C0
330
453
100
AcDbEntity
  8
1
  6
Continuous
 62
     7
370
     9
100
AcDbVertex
100
AcDb2dVertex
 10
200.8151786216968
 20
78.66155038077544
 30
0.0
  0
VERTEX
  5
4C1
330
453
100
AcDbEntity
  8
1
  6
Continuous
 62
     7
370
     9
100
AcDbVertex
100
AcDb2dVertex
 10
200.8151732891645
 20
78.66706583635971
 30
0.0
  0
VERTEX
  5
4C2
330
453
100
AcDbEntity
  8
1
  6
Continuous
 62
     7
370
     9
100
AcDbVertex
100
AcDb2dVertex
 10
200.8151459510892
 20
78.6717025944246
 30
0.0
  0
VERTEX
  5
4C3
330
453
100
AcDbEntity
  8
1
  6
Continuous
 62
     7
370
     9
100
AcDbVertex
100
AcDb2dVertex
 10
200.8151137002884
 20
78.67540376479464
 30
0.0
  0
VERTEX
  5
4C4
330
453
100
AcDbEntity
  8
1
  6
Continuous
 62
     7
370
     9
100
AcDbVertex
100
AcDb2dVertex
 10
200.8150866014567
 20
78.67810748900006
 30
0.0
  0
VERTEX
  5
4C5
330
453
100
AcDbEntity
  8
1
  6
Continuous
 62
     7
370
     9
100
AcDbVertex
100
AcDb2dVertex
 10
200.8150693456554
 20
78.67975683935387
 30
0.0
  0
VERTEX
  5
4C6
330
453
100
AcDbEntity
  8
1
  6
Continuous
 62
     7
370
     9
100
AcDbVertex
100
AcDb2dVertex
 10
200.8150634982634
 20
78.68031148587897
 30
0.0
  0
SEQEND
  5
4C7
330
453
100
AcDbEntity
  8
1
  6
Continuous
 62
     7
370
     9
  0
LINE
  5
4C8
330
1F
100
AcDbEntity
  8
1
  6
Continuous
 62
     7
370
     9
100
AcDbLine
 10
198.8309415661105
 20
74.74540463684036
 30
0.0
 11
199.403054780353
 21
76.92517985121071
 31
0.0
  0
INSERT
  5
4D4
330
1F
100
AcDbEntity
  8
0
100
AcDbBlockReference
  2
*G29
 10
0.0
 20
0.0
 30
0.0
  0
MTEXT
  5
4D5
330
1F
100
AcDbEntity
  8
25
  6
Continuous
 62
     7
370
     9
100
AcDbMText
 10
227.7106370129057
 20
90.21042407945106
 30
0.0
 40
1.5
 41
16.9372275
 46
1.5
 71
     7
 72
     1
  1
{\fＭＳ ゴシック;\T0.750000;アイリスリング}
 73
     1
 44
1.0
1001
ACAD
1000
ACAD_MTEXT_DEFINED_HEIGHT_BEGIN
1070
    46
1040
1.5
1000
ACAD_MTEXT_DEFINED_HEIGHT_END
  0
MTEXT
  5
4D6
330
1F
100
AcDbEntity
  8
25
  6
Continuous
 62
     7
370
     9
100
AcDbMText
 10
197.377654278152
 20
91.77038069365955
 30
0.0
 40
1.5
 41
21.79416
 46
1.5
 71
     9
 72
     1
  1
{\fＭＳ ゴシック;\T0.750000;インデックスリング}
 73
     1
 44
1.0
1001
ACAD
1000
ACAD_MTEXT_DEFINED_HEIGHT_BEGIN
1070
    46
1040
1.5
1000
ACAD_MTEXT_DEFINED_HEIGHT_END
  0
MTEXT
  5
4D7
330
1F
100
AcDbEntity
  8
25
  6
Continuous
 62
     7
370
     9
100
AcDbMText
 10
194.0662960210392
 20
87.11146059347476
 30
0.0
 40
1.5
 41
19.17718875
 46
1.5
 71
     9
 72
     1
  1
{\fＭＳ ゴシック;\T0.750000;フォーカスリング}
 73
     1
 44
1.0
1001
ACAD
1000
ACAD_MTEXT_DEFINED_HEIGHT_BEGIN
1070
    46
1040
1.5
1000
ACAD_MTEXT_DEFINED_HEIGHT_END
  0
MTEXT
  5
4D8
330
1F
100
AcDbEntity
  8
25
  6
Continuous
 62
     7
370
     9
100
AcDbMText
 10
239.0608526712664
 20
86.05895525451095
 30
0.0
 40
1.5
 41
7.4245522677
 46
1.5
 71
     7
 72
     1
  1
{\fＭＳ ゴシック;\T0.772570;1-32UNF}
 73
     1
 44
1.0
1001
ACAD
1000
ACAD_MTEXT_DEFINED_HEIGHT_BEGIN
1070
    46
1040
1.5
1000
ACAD_MTEXT_DEFINED_HEIGHT_END
  0
LINE
  5
4D9
330
1F
100
AcDbEntity
  8
1
  6
Continuous
 62
     7
370
     9
100
AcDbLine
 10
183.3519460785367
 20
86.86930431849476
 30
0.0
 11
181.8506561920096
 21
86.86930431849476
 31
0.0
  0
DIMENSION
  5
4E3
330
1F
100
AcDbEntity
  8
25
  6
Continuous
 62
     7
370
     9
100
AcDbDimension
280
     0
  2
Dim14
 10
228.8957856332714
 20
37.16892236318984
 30
0.0
 11
234.3781094527363
 21
38.66892236318984
 31
0.0
 70
   160
  1
(0.6)
 71
     5
 42
-1.0
 73
     0
 74
     0
 75
     0
  3
Standard
100
AcDbAlignedDimension
 13
229.5244110564794
 23
53.17517985121071
 33
0.0
 14
228.8957856332708
 24
49.77517985121068
 34
0.0
 50
179.9999999999998
100
AcDbRotatedDimension
1001
ACAD
1000
DSTYLE
1002
{
1070
   279
1070
     2
1070
   340
1005
38B
1070
   140
1040
2.0
1070
    40
1040
1.0
1070
   147
1040
0.0
1070
    76
1070
     0
1070
    75
1070
     0
1070
   344
1005
51
1070
   343
1005
51
1070
   173
1070
     1
1070
   289
1070
     2
1070
   288
1070
     1
1070
    77
1070
     1
1070
   172
1070
     1
1070
   174
1070
     0
1070
    74
1070
     0
1070
    73
1070
     0
1070
   284
1070
     8
1070
    78
1070
     8
1070
    42
1040
2.0
1070
    44
1040
1.0
1070
    43
1040
10.0
1070
   271
1070
     2
1070
    41
1040
1.0
1002
}
  0
ELLIPSE
  5
4E4
330
1F
100
AcDbEntity
  8
1
  6
Continuous
 62
     7
370
     9
100
AcDbEllipse
 10
209.5957856332706
 20
43.78864637173746
 30
0.0
 11
2.0
 21
0.0
 31
0.0
210
0.0
220
0.0
230
1.0
 40
0.500000000000032
 41
-0.7910425951345488
 42
3.962308160330418
  0
VIEWPORT
  5
3F
330
1B
100
AcDbEntity
 67
     1
  8
0
100
AcDbViewport
 10
210.0
 20
148.5
 30
0.0
 40
420.0
 41
297.0
 68
     1
 69
     1
 12
210.0
 22
148.5
 13
0.0
 23
0.0
 14
0.5
 24
0.5
 15
0.5
 25
0.5
 16
0.0
 26
0.0
 36
1.0
 17
0.0
 27
0.0
 37
0.0
 42
50.0
 43
0.0
 44
0.0
 45
9.0
 50
0.0
 51
0.0
 72
   100
 90
   557152
  1

281
     0
 71
     1
 74
     0
110
0.0
120
0.0
130
0.0
111
1.0
121
0.0
131
0.0
112
0.0
122
1.0
132
0.0
 79
     0
146
0.0
170
     0
 61
     5
292
     1
282
     1
141
0.0
142
0.0
 63
   256
  0
ENDSEC
  0
SECTION
  2
OBJECTS
  0
DICTIONARY
  5
C
330
0
100
AcDbDictionary
281
     1
  3
ACAD_GROUP
350
D
  3
ACAD_LAYOUT
350
1A
  3
ACAD_MATERIAL
350
3B
  3
ACAD_MLEADERSTYLE
350
4E6
  3
ACAD_MLINESTYLE
350
17
  3
ACAD_PLOTSETTINGS
350
19
  3
ACAD_PLOTSTYLENAME
350
E
  3
ACAD_TABLESTYLE
350
4E5
  3
ACAD_VISUALSTYLE
350
2A
  0
DICTIONARY
  5
D
102
{ACAD_REACTORS
330
C
102
}
330
C
100
AcDbDictionary
281
     1
  0
DICTIONARY
  5
1A
102
{ACAD_REACTORS
330
C
102
}
330
C
100
AcDbDictionary
281
     1
  3
Layout1
350
1E
  3
Layout2
350
26
  3
Model
350
22
  0
DICTIONARY
  5
3B
102
{ACAD_REACTORS
330
C
102
}
330
C
100
AcDbDictionary
281
     1
  3
ByBlock
350
3D
  3
ByLayer
350
3C
  3
Global
350
3E
  0
DICTIONARY
  5
4E6
102
{ACAD_REACTORS
330
C
102
}
330
C
100
AcDbDictionary
281
     1
  0
DICTIONARY
  5
17
102
{ACAD_REACTORS
330
C
102
}
330
C
100
AcDbDictionary
281
     1
  3
Standard
350
18
  0
DICTIONARY
  5
19
102
{ACAD_REACTORS
330
C
102
}
330
C
100
AcDbDictionary
281
     1
  0
ACDBDICTIONARYWDFLT
  5
E
102
{ACAD_REACTORS
330
C
102
}
330
C
100
AcDbDictionary
281
     1
  3
Normal
350
F
100
AcDbDictionaryWithDefault
340
F
  0
DICTIONARY
  5
4E5
102
{ACAD_REACTORS
330
C
102
}
330
C
100
AcDbDictionary
281
     1
  0
DICTIONARY
  5
2A
102
{ACAD_REACTORS
330
C
102
}
330
C
100
AcDbDictionary
281
     1
  3
2dWireframe
350
2F
  3
3D Hidden
350
31
  3
3dWireframe
350
30
  3
Basic
350
32
  3
Brighten
350
36
  3
ColorChange
350
3A
  3
Conceptual
350
34
  3
Dim
350
35
  3
Facepattern
350
39
  3
Flat
350
2B
  3
FlatWithEdges
350
2C
  3
Gouraud
350
2D
  3
GouraudWithEdges
350
2E
  3
Linepattern
350
38
  3
Realistic
350
33
  3
Thicken
350
37
  0
LAYOUT
  5
1E
102
{ACAD_REACTORS
330
1A
102
}
330
1A
100
AcDbPlotSettings
  1

  2
none_device
  4

  6

 40
0.0
 41
0.0
 42
0.0
 43
0.0
 44
0.0
 45
0.0
 46
0.0
 47
0.0
 48
0.0
 49
0.0
140
0.0
141
0.0
142
1.0
143
1.0
 70
   688
 72
     0
 73
     0
 74
     5
  7

 75
    16
 76
     0
 77
     2
 78
   300
147
1.0
148
0.0
149
0.0
100
AcDbLayout
  1
Layout1
 70
     1
 71
     1
 10
0.0
 20
0.0
 11
420.0
 21
297.0
 12
0.0
 22
0.0
 32
0.0
 14
0.0
 24
0.0
 34
0.0
 15
420.0
 25
297.0
 35
0.0
146
0.0
 13
0.0
 23
0.0
 33
0.0
 16
1.0
 26
0.0
 36
0.0
 17
0.0
 27
1.0
 37
0.0
 76
     0
330
1B
331
3F
  0
LAYOUT
  5
26
102
{ACAD_REACTORS
330
1A
102
}
330
1A
100
AcDbPlotSettings
  1

  2
none_device
  4

  6

 40
0.0
 41
0.0
 42
0.0
 43
0.0
 44
0.0
 45
0.0
 46
0.0
 47
0.0
 48
0.0
 49
0.0
140
0.0
141
0.0
142
1.0
143
1.0
 70
   688
 72
     0
 73
     0
 74
     5
  7

 75
    16
 76
     0
 77
     2
 78
   300
147
1.0
148
0.0
149
0.0
100
AcDbLayout
  1
Layout2
 70
     1
 71
     2
 10
0.0
 20
0.0
 11
0.0
 21
0.0
 12
0.0
 22
0.0
 32
0.0
 14
0.0
 24
0.0
 34
0.0
 15
0.0
 25
0.0
 35
0.0
146
0.0
 13
0.0
 23
0.0
 33
0.0
 16
1.0
 26
0.0
 36
0.0
 17
0.0
 27
1.0
 37
0.0
 76
     0
330
23
  0
LAYOUT
  5
22
102
{ACAD_REACTORS
330
1A
102
}
330
1A
100
AcDbPlotSettings
  1

  2
none_device
  4

  6

 40
0.0
 41
0.0
 42
0.0
 43
0.0
 44
0.0
 45
0.0
 46
0.0
 47
0.0
 48
0.0
 49
0.0
140
0.0
141
0.0
142
1.0
143
1.0
 70
  1712
 72
     0
 73
     0
 74
     0
  7

 75
     0
 76
     0
 77
     2
 78
   300
147
1.0
148
0.0
149
0.0
100
AcDbLayout
  1
Model
 70
     1
 71
     0
 10
0.0
 20
0.0
 11
420.0
 21
297.0
 12
0.0
 22
0.0
 32
0.0
 14
125.2553952173608
 24
29.01144792023
 34
0.0
 15
254.6895150546229
 25
93.27038069365955
 35
0.0
146
0.0
 13
0.0
 23
0.0
 33
0.0
 16
1.0
 26
0.0
 36
0.0
 17
0.0
 27
1.0
 37
0.0
 76
     0
330
1F
331
29
  0
MATERIAL
  5
3D
102
{ACAD_REACTORS
330
3B
102
}
330
3B
100
AcDbMaterial
  1
ByBlock
 72
     1
 94
      127
  0
MATERIAL
  5
3C
102
{ACAD_REACTORS
330
3B
102
}
330
3B
100
AcDbMaterial
  1
ByLayer
 72
     1
 94
      127
  0
MATERIAL
  5
3E
102
{ACAD_REACTORS
330
3B
102
}
330
3B
100
AcDbMaterial
  1
Global
 72
     1
 94
      127
  0
MLINESTYLE
  5
18
102
{ACAD_REACTORS
330
17
102
}
330
17
100
AcDbMlineStyle
  2
Standard
 70
     0
  3

 62
   256
 51
90.0
 52
90.0
 71
     2
 49
0.5
 62
   256
  6
BYLAYER
 49
-0.5
 62
   256
  6
BYLAYER
  0
ACDBPLACEHOLDER
  5
F
102
{ACAD_REACTORS
330
E
102
}
330
E
  0
VISUALSTYLE
  5
2F
102
{ACAD_REACTORS
330
2A
102
}
330
2A
100
AcDbVisualStyle
  2
2dWireframe
 70
     4
177
     2
291
     0
 71
     0
176
     1
 72
     2
176
     1
 73
     0
176
     1
 90
        0
176
     1
 40
-0.6
176
     1
 41
-30.0
176
     1
 62
     5
 63
     7
421
 16777215
176
     1
 74
     1
176
     1
 91
        4
176
     1
 64
     7
176
     1
 65
   257
176
     1
 75
     1
176
     1
175
     1
176
     1
 42
1.0
176
     1
 92
        0
176
     1
 66
   257
176
     1
 43
1.0
176
     1
 76
     1
176
     1
 77
     6
176
     1
 78
     2
176
     1
 67
     7
176
     1
 79
     5
176
     1
170
     0
176
     1
171
     0
176
     1
290
     0
176
     1
 93
        1
176
     1
 44
0.0
176
     1
173
     0
176
     1
  0
VISUALSTYLE
  5
31
102
{ACAD_REACTORS
330
2A
102
}
330
2A
100
AcDbVisualStyle
  2
3D Hidden
 70
     6
177
     2
291
     0
 71
     1
176
     1
 72
     2
176
     1
 73
     2
176
     1
 90
        0
176
     1
 40
-0.6
176
     1
 41
-30.0
176
     1
 62
     5
 63
     7
421
 16777215
176
     1
 74
     2
176
     1
 91
        2
176
     1
 64
     7
176
     1
 65
   257
176
     1
 75
     2
176
     1
175
     1
176
     1
 42
40.0
176
     1
 92
        0
176
     1
 66
   257
176
     1
 43
1.0
176
     1
 76
     1
176
     1
 77
     6
176
     1
 78
     2
176
     1
 67
     7
176
     1
 79
     3
176
     1
170
     0
176
     1
171
     0
176
     1
290
     0
176
     1
 93
        1
176
     1
 44
0.0
176
     1
173
     0
176
     1
  0
VISUALSTYLE
  5
30
102
{ACAD_REACTORS
330
2A
102
}
330
2A
100
AcDbVisualStyle
  2
3dWireframe
 70
     5
177
     2
291
     0
 71
     0
176
     1
 72
     2
176
     1
 73
     0
176
     1
 90
        0
176
     1
 40
-0.6
176
     1
 41
-30.0
176
     1
 62
     5
 63
     7
421
 16777215
176
     1
 74
     1
176
     1
 91
        4
176
     1
 64
     7
176
     1
 65
   257
176
     1
 75
     1
176
     1
175
     1
176
     1
 42
1.0
176
     1
 92
        0
176
     1
 66
   257
176
     1
 43
1.0
176
     1
 76
     1
176
     1
 77
     6
176
     1
 78
     2
176
     1
 67
     7
176
     1
 79
     5
176
     1
170
     0
176
     1
171
     0
176
     1
290
     0
176
     1
 93
        1
176
     1
 44
0.0
176
     1
173
     0
176
     1
  0
VISUALSTYLE
  5
32
102
{ACAD_REACTORS
330
2A
102
}
330
2A
100
AcDbVisualStyle
  2
Basic
 70
     7
177
     2
291
     1
 71
     1
176
     1
 72
     0
176
     1
 73
     1
176
     1
 90
        0
176
     1
 40
-0.6
176
     1
 41
-30.0
176
     1
 62
     5
 63
     7
421
 16777215
176
     1
 74
     0
176
     1
 91
        4
176
     1
 64
     7
176
     1
 65
   257
176
     1
 75
     1
176
     1
175
     1
176
     1
 42
1.0
176
     1
 92
        8
176
     1
 66
     7
176
     1
 43
1.0
176
     1
 76
     1
176
     1
 77
     6
176
     1
 78
     2
176
     1
 67
     7
176
     1
 79
     5
176
     1
170
     0
176
     1
171
     0
176
     1
290
     0
176
     1
 93
        1
176
     1
 44
0.0
176
     1
173
     0
176
     1
  0
VISUALSTYLE
  5
36
102
{ACAD_REACTORS
330
2A
102
}
330
2A
100
AcDbVisualStyle
  2
Brighten
 70
    12
177
     2
291
     1
 71
     2
176
     1
 72
     2
176
     1
 73
     0
176
     1
 90
        0
176
     1
 40
-0.6
176
     1
 41
-30.0
176
     1
 62
     5
 63
     7
421
 16777215
176
     1
 74
     1
176
     1
 91
        4
176
     1
 64
     7
176
     1
 65
   257
176
     1
 75
     1
176
     1
175
     1
176
     1
 42
1.0
176
     1
 92
        8
176
     1
 66
     7
176
     1
 43
1.0
176
     1
 76
     1
176
     1
 77
     6
176
     1
 78
     2
176
     1
 67
     7
176
     1
 79
     5
176
     1
170
     0
176
     1
171
     0
176
     1
290
     0
176
     1
 93
        1
176
     1
 44
50.0
176
     1
173
     0
176
     1
  0
VISUALSTYLE
  5
3A
102
{ACAD_REACTORS
330
2A
102
}
330
2A
100
AcDbVisualStyle
  2
ColorChange
 70
    16
177
     2
291
     1
 71
     2
176
     1
 72
     2
176
     1
 73
     3
176
     1
 90
        0
176
     1
 40
-0.6
176
     1
 41
-30.0
176
     1
 62
     5
 63
     8
421
  8421504
176
     1
 74
     1
176
     1
 91
        4
176
     1
 64
     7
176
     1
 65
   257
176
     1
 75
     1
176
     1
175
     1
176
     1
 42
1.0
176
     1
 92
        8
176
     1
 66
     8
424
  8421504
176
     1
 43
1.0
176
     1
 76
     1
176
     1
 77
     6
176
     1
 78
     2
176
     1
 67
     7
176
     1
 79
     5
176
     1
170
     0
176
     1
171
     0
176
     1
290
     0
176
     1
 93
        1
176
     1
 44
0.0
176
     1
173
     0
176
     1
  0
VISUALSTYLE
  5
34
102
{ACAD_REACTORS
330
2A
102
}
330
2A
100
AcDbVisualStyle
  2
Conceptual
 70
     9
177
     2
291
     0
 71
     3
176
     1
 72
     2
176
     1
 73
     0
176
     1
 90
        0
176
     1
 40
-0.6
176
     1
 41
-30.0
176
     1
 62
     5
 63
     7
421
 16777215
176
     1
 74
     2
176
     1
 91
        2
176
     1
 64
     7
176
     1
 65
   257
176
     1
 75
     1
176
     1
175
     1
176
     1
 42
40.0
176
     1
 92
        8
176
     1
 66
     7
176
     1
 43
1.0
176
     1
 76
     1
176
     1
 77
     6
176
     1
 78
     2
176
     1
 67
     7
176
     1
 79
     3
176
     1
170
     0
176
     1
171
     0
176
     1
290
     0
176
     1
 93
        1
176
     1
 44
0.0
176
     1
173
     0
176
     1
  0
VISUALSTYLE
  5
35
102
{ACAD_REACTORS
330
2A
102
}
330
2A
100
AcDbVisualStyle
  2
Dim
 70
    11
177
     2
291
     1
 71
     2
176
     1
 72
     2
176
     1
 73
     0
176
     1
 90
        0
176
     1
 40
-0.6
176
     1
 41
-30.0
176
     1
 62
     5
 63
     7
421
 16777215
176
     1
 74
     1
176
     1
 91
        4
176
     1
 64
     7
176
     1
 65
   257
176
     1
 75
     1
176
     1
175
     1
176
     1
 42
1.0
176
     1
 92
        8
176
     1
 66
     7
176
     1
 43
1.0
176
     1
 76
     1
176
     1
 77
     6
176
     1
 78
     2
176
     1
 67
     7
176
     1
 79
     5
176
     1
170
     0
176
     1
171
     0
176
     1
290
     0
176
     1
 93
        1
176
     1
 44
-50.0
176
     1
173
     0
176
     1
  0
VISUALSTYLE
  5
39
102
{ACAD_REACTORS
330
2A
102
}
330
2A
100
AcDbVisualStyle
  2
Facepattern
 70
    15
177
     2
291
     1
 71
     2
176
     1
 72
     2
176
     1
 73
     0
176
     1
 90
        0
176
     1
 40
-0.6
176
     1
 41
-30.0
176
     1
 62
     5
 63
     7
421
 16777215
176
     1
 74
     1
176
     1
 91
        4
176
     1
 64
     7
176
     1
 65
   257
176
     1
 75
     1
176
     1
175
     1
176
     1
 42
1.0
176
     1
 92
        8
176
     1
 66
     7
176
     1
 43
1.0
176
     1
 76
     1
176
     1
 77
     6
176
     1
 78
     2
176
     1
 67
     7
176
     1
 79
     5
176
     1
170
     0
176
     1
171
     0
176
     1
290
     0
176
     1
 93
        1
176
     1
 44
0.0
176
     1
173
     0
176
     1
  0
VISUALSTYLE
  5
2B
102
{ACAD_REACTORS
330
2A
102
}
330
2A
100
AcDbVisualStyle
  2
Flat
 70
     0
177
     2
291
     1
 71
     2
176
     1
 72
     1
176
     1
 73
     1
176
     1
 90
        2
176
     1
 40
-0.6
176
     1
 41
30.0
176
     1
 62
     5
 63
     7
421
 16777215
176
     1
 74
     0
176
     1
 91
        4
176
     1
 64
     7
176
     1
 65
   257
176
     1
 75
     1
176
     1
175
     1
176
     1
 42
1.0
176
     1
 92
        8
176
     1
 66
     7
176
     1
 43
1.0
176
     1
 76
     1
176
     1
 77
     6
176
     1
 78
     2
176
     1
 67
     7
176
     1
 79
     5
176
     1
170
     0
176
     1
171
     0
176
     1
290
     0
176
     1
 93
       13
176
     1
 44
0.0
176
     1
173
     0
176
     1
  0
VISUALSTYLE
  5
2C
102
{ACAD_REACTORS
330
2A
102
}
330
2A
100
AcDbVisualStyle
  2
FlatWithEdges
 70
     1
177
     2
291
     1
 71
     2
176
     1
 72
     1
176
     1
 73
     1
176
     1
 90
        2
176
     1
 40
-0.6
176
     1
 41
30.0
176
     1
 62
     5
 63
     7
421
 16777215
176
     1
 74
     1
176
     1
 91
        4
176
     1
 64
     7
176
     1
 65
   257
176
     1
 75
     1
176
     1
175
     1
176
     1
 42
1.0
176
     1
 92
        0
176
     1
 66
   257
176
     1
 43
1.0
176
     1
 76
     1
176
     1
 77
     6
176
     1
 78
     2
176
     1
 67
     7
176
     1
 79
     5
176
     1
170
     0
176
     1
171
     0
176
     1
290
     0
176
     1
 93
       13
176
     1
 44
0.0
176
     1
173
     0
176
     1
  0
VISUALSTYLE
  5
2D
102
{ACAD_REACTORS
330
2A
102
}
330
2A
100
AcDbVisualStyle
  2
Gouraud
 70
     2
177
     2
291
     1
 71
     2
176
     1
 72
     2
176
     1
 73
     1
176
     1
 90
        2
176
     1
 40
-0.6
176
     1
 41
30.0
176
     1
 62
     5
 63
     7
421
 16777215
176
     1
 74
     0
176
     1
 91
        4
176
     1
 64
     7
176
     1
 65
   257
176
     1
 75
     1
176
     1
175
     1
176
     1
 42
1.0
176
     1
 92
        0
176
     1
 66
     7
176
     1
 43
1.0
176
     1
 76
     1
176
     1
 77
     6
176
     1
 78
     2
176
     1
 67
     7
176
     1
 79
     5
176
     1
170
     0
176
     1
171
     0
176
     1
290
     0
176
     1
 93
       13
176
     1
 44
0.0
176
     1
173
     0
176
     1
  0
VISUALSTYLE
  5
2E
102
{ACAD_REACTORS
330
2A
102
}
330
2A
100
AcDbVisualStyle
  2
GouraudWithEdges
 70
     3
177
     2
291
     1
 71
     2
176
     1
 72
     2
176
     1
 73
     1
176
     1
 90
        2
176
     1
 40
-0.6
176
     1
 41
30.0
176
     1
 62
     5
 63
     7
421
 16777215
176
     1
 74
     1
176
     1
 91
        4
176
     1
 64
     7
176
     1
 65
   257
176
     1
 75
     1
176
     1
175
     1
176
     1
 42
1.0
176
     1
 92
        0
176
     1
 66
   257
176
     1
 43
1.0
176
     1
 76
     1
176
     1
 77
     6
176
     1
 78
     2
176
     1
 67
     7
176
     1
 79
     5
176
     1
170
     0
176
     1
171
     0
176
     1
290
     0
176
     1
 93
       13
176
     1
 44
0.0
176
     1
173
     0
176
     1
  0
VISUALSTYLE
  5
38
102
{ACAD_REACTORS
330
2A
102
}
330
2A
100
AcDbVisualStyle
  2
Linepattern
 70
    14
177
     2
291
     1
 71
     2
176
     1
 72
     2
176
     1
 73
     0
176
     1
 90
        0
176
     1
 40
-0.6
176
     1
 41
-30.0
176
     1
 62
     5
 63
     7
421
 16777215
176
     1
 74
     1
176
     1
 91
        4
176
     1
 64
     7
176
     1
 65
   257
176
     1
 75
     7
176
     1
175
     7
176
     1
 42
1.0
176
     1
 92
        8
176
     1
 66
     7
176
     1
 43
1.0
176
     1
 76
     1
176
     1
 77
     6
176
     1
 78
     2
176
     1
 67
     7
176
     1
 79
     5
176
     1
170
     0
176
     1
171
     0
176
     1
290
     0
176
     1
 93
        1
176
     1
 44
0.0
176
     1
173
     0
176
     1
  0
VISUALSTYLE
  5
33
102
{ACAD_REACTORS
330
2A
102
}
330
2A
100
AcDbVisualStyle
  2
Realistic
 70
     8
177
     2
291
     0
 71
     2
176
     1
 72
     2
176
     1
 73
     0
176
     1
 90
        0
176
     1
 40
-0.6
176
     1
 41
-30.0
176
     1
 62
     5
 63
     7
421
 16777215
176
     1
 74
     1
176
     1
 91
        0
176
     1
 64
     7
176
     1
 65
   257
176
     1
 75
     1
176
     1
175
     1
176
     1
 42
1.0
176
     1
 92
        8
176
     1
 66
     8
424
  7895160
176
     1
 43
1.0
176
     1
 76
     1
176
     1
 77
     6
176
     1
 78
     2
176
     1
 67
     7
176
     1
 79
     5
176
     1
170
     0
176
     1
171
     0
176
     1
290
     0
176
     1
 93
       13
176
     1
 44
0.0
176
     1
173
     0
176
     1
  0
VISUALSTYLE
  5
37
102
{ACAD_REACTORS
330
2A
102
}
330
2A
100
AcDbVisualStyle
  2
Thicken
 70
    13
177
     2
291
     1
 71
     2
176
     1
 72
     2
176
     1
 73
     0
176
     1
 90
        0
176
     1
 40
-0.6
176
     1
 41
-30.0
176
     1
 62
     5
 63
     7
421
 16777215
176
     1
 74
     1
176
     1
 91
        4
176
     1
 64
     7
176
     1
 65
   257
176
     1
 75
     1
176
     1
175
     1
176
     1
 42
1.0
176
     1
 92
       12
176
     1
 66
     7
176
     1
 43
1.0
176
     1
 76
     1
176
     1
 77
     6
176
     1
 78
     2
176
     1
 67
     7
176
     1
 79
     5
176
     1
170
     0
176
     1
171
     0
176
     1
290
     0
176
     1
 93
        1
176
     1
 44
0.0
176
     1
173
     0
176
     1
  0
ENDSEC
  0
EOF
