  0
SECTION
  2
HEADER
  9
$ACADVER
  1
AC1024
  9
$ACADMAINTVER
 70
     6
  9
$DWGCODEPAGE
  3
ANSI_932
  9
$INSBASE
 10
0.0
 20
0.0
 30
0.0
  9
$EXTMIN
 10
114.1861368810516
 20
12.05661528163341
 30
0.0
  9
$EXTMAX
 10
244.6150169972497
 20
78.78325916625266
 30
0.0
  9
$LIMMIN
 10
0.0
 20
0.0
  9
$LIMMAX
 10
420.0
 20
297.0
  9
$ORTHOMODE
 70
     0
  9
$REGENMODE
 70
     1
  9
$FILLMODE
 70
     1
  9
$QTEXTMODE
 70
     0
  9
$MIRRTEXT
 70
     1
  9
$LTSCALE
 40
0.25
  9
$ATTMODE
 70
     1
  9
$TEXTSIZE
 40
5.0
  9
$TRACEWID
 40
0.05
  9
$TEXTSTYLE
  7
Standard
  9
$CLAYER
  8
0
  9
$CELTYPE
  6
ByLayer
  9
$CECOLOR
 62
   256
  9
$CELTSCALE
 40
1.0
  9
$DISPSILH
 70
     0
  9
$DIMSCALE
 40
1.0
  9
$DIMASZ
 40
4.0
  9
$DIMEXO
 40
2.0
  9
$DIMDLI
 40
10.0
  9
$DIMRND
 40
0.0
  9
$DIMDLE
 40
0.0
  9
$DIMEXE
 40
2.0
  9
$DIMTP
 40
0.0
  9
$DIMTM
 40
0.0
  9
$DIMTXT
 40
3.5
  9
$DIMCEN
 40
0.09
  9
$DIMTSZ
 40
0.0
  9
$DIMTOL
 70
     0
  9
$DIMLIM
 70
     0
  9
$DIMTIH
 70
     0
  9
$DIMTOH
 70
     0
  9
$DIMSE1
 70
     0
  9
$DIMSE2
 70
     0
  9
$DIMTAD
 70
     3
  9
$DIMZIN
 70
     8
  9
$DIMBLK
  1

  9
$DIMASO
 70
     1
  9
$DIMSHO
 70
     1
  9
$DIMPOST
  1

  9
$DIMAPOST
  1

  9
$DIMALT
 70
     0
  9
$DIMALTD
 70
     2
  9
$DIMALTF
 40
25.4
  9
$DIMLFAC
 40
1.0
  9
$DIMTOFL
 70
     1
  9
$DIMTVP
 40
0.7
  9
$DIMTIX
 70
     0
  9
$DIMSOXD
 70
     0
  9
$DIMSAH
 70
     0
  9
$DIMBLK1
  1

  9
$DIMBLK2
  1

  9
$DIMSTYLE
  2
Standard
  9
$DIMCLRD
 70
     0
  9
$DIMCLRE
 70
     0
  9
$DIMCLRT
 70
     0
  9
$DIMTFAC
 40
0.5
  9
$DIMGAP
 40
0.09
  9
$DIMJUST
 70
     0
  9
$DIMSD1
 70
     0
  9
$DIMSD2
 70
     0
  9
$DIMTOLJ
 70
     1
  9
$DIMTZIN
 70
     8
  9
$DIMALTZ
 70
     0
  9
$DIMALTTZ
 70
     0
  9
$DIMUPT
 70
     1
  9
$DIMDEC
 70
     2
  9
$DIMTDEC
 70
     4
  9
$DIMALTU
 70
     2
  9
$DIMALTTD
 70
     2
  9
$DIMTXSTY
  7
Standard
  9
$DIMAUNIT
 70
     0
  9
$DIMADEC
 70
     0
  9
$DIMALTRND
 40
0.0
  9
$DIMAZIN
 70
     0
  9
$DIMDSEP
 70
    46
  9
$DIMATFIT
 70
     2
  9
$DIMFRAC
 70
     0
  9
$DIMLDRBLK
  1

  9
$DIMLUNIT
 70
     2
  9
$DIMLWD
 70
    -2
  9
$DIMLWE
 70
    -2
  9
$DIMTMOVE
 70
     2
  9
$DIMFXL
 40
1.0
  9
$DIMFXLON
 70
     0
  9
$DIMJOGANG
 40
0.7853981633974483
  9
$DIMTFILL
 70
     0
  9
$DIMTFILLCLR
 70
     0
  9
$DIMARCSYM
 70
     0
  9
$DIMLTYPE
  6

  9
$DIMLTEX1
  6

  9
$DIMLTEX2
  6

  9
$DIMTXTDIRECTION
 70
     0
  9
$LUNITS
 70
     2
  9
$LUPREC
 70
     4
  9
$SKETCHINC
 40
0.1
  9
$FILLETRAD
 40
0.5
  9
$AUNITS
 70
     0
  9
$AUPREC
 70
     0
  9
$MENU
  1
.
  9
$ELEVATION
 40
0.0
  9
$PELEVATION
 40
0.0
  9
$THICKNESS
 40
0.0
  9
$LIMCHECK
 70
     0
  9
$CHAMFERA
 40
0.5
  9
$CHAMFERB
 40
0.5
  9
$CHAMFERC
 40
1.0
  9
$CHAMFERD
 40
0.0
  9
$SKPOLY
 70
     0
  9
$TDCREATE
 40
2456776.983993056
  9
$TDUCREATE
 40
2456776.608993056
  9
$TDUPDATE
 40
2456776.608995035
  9
$TDUUPDATE
 40
2456776.233995035
  9
$TDINDWG
 40
0.0000000116
  9
$TDUSRTIMER
 40
0.0000000116
  9
$USRTIMER
 70
     1
  9
$ANGBASE
 50
0.0
  9
$ANGDIR
 70
     0
  9
$PDMODE
 70
     0
  9
$PDSIZE
 40
0.0
  9
$PLINEWID
 40
0.0
  9
$SPLFRAME
 70
     0
  9
$SPLINETYPE
 70
     6
  9
$SPLINESEGS
 70
     8
  9
$HANDSEED
  5
4B0
  9
$SURFTAB1
 70
     6
  9
$SURFTAB2
 70
     6
  9
$SURFTYPE
 70
     6
  9
$SURFU
 70
     6
  9
$SURFV
 70
     6
  9
$UCSBASE
  2

  9
$UCSNAME
  2

  9
$UCSORG
 10
0.0
 20
0.0
 30
0.0
  9
$UCSXDIR
 10
1.0
 20
0.0
 30
0.0
  9
$UCSYDIR
 10
0.0
 20
1.0
 30
0.0
  9
$UCSORTHOREF
  2

  9
$UCSORTHOVIEW
 70
     0
  9
$UCSORGTOP
 10
0.0
 20
0.0
 30
0.0
  9
$UCSORGBOTTOM
 10
0.0
 20
0.0
 30
0.0
  9
$UCSORGLEFT
 10
0.0
 20
0.0
 30
0.0
  9
$UCSORGRIGHT
 10
0.0
 20
0.0
 30
0.0
  9
$UCSORGFRONT
 10
0.0
 20
0.0
 30
0.0
  9
$UCSORGBACK
 10
0.0
 20
0.0
 30
0.0
  9
$PUCSBASE
  2

  9
$PUCSNAME
  2

  9
$PUCSORG
 10
0.0
 20
0.0
 30
0.0
  9
$PUCSXDIR
 10
1.0
 20
0.0
 30
0.0
  9
$PUCSYDIR
 10
0.0
 20
1.0
 30
0.0
  9
$PUCSORTHOREF
  2

  9
$PUCSORTHOVIEW
 70
     0
  9
$PUCSORGTOP
 10
0.0
 20
0.0
 30
0.0
  9
$PUCSORGBOTTOM
 10
0.0
 20
0.0
 30
0.0
  9
$PUCSORGLEFT
 10
0.0
 20
0.0
 30
0.0
  9
$PUCSORGRIGHT
 10
0.0
 20
0.0
 30
0.0
  9
$PUCSORGFRONT
 10
0.0
 20
0.0
 30
0.0
  9
$PUCSORGBACK
 10
0.0
 20
0.0
 30
0.0
  9
$USERI1
 70
     0
  9
$USERI2
 70
     0
  9
$USERI3
 70
     0
  9
$USERI4
 70
     0
  9
$USERI5
 70
     0
  9
$USERR1
 40
0.0
  9
$USERR2
 40
0.0
  9
$USERR3
 40
0.0
  9
$USERR4
 40
0.0
  9
$USERR5
 40
0.0
  9
$WORLDVIEW
 70
     1
  9
$SHADEDGE
 70
     3
  9
$SHADEDIF
 70
    70
  9
$TILEMODE
 70
     1
  9
$MAXACTVP
 70
    64
  9
$PINSBASE
 10
0.0
 20
0.0
 30
0.0
  9
$PLIMCHECK
 70
     0
  9
$PEXTMIN
 10
0.0
 20
0.0
 30
0.0
  9
$PEXTMAX
 10
420.0
 20
297.0
 30
0.0
  9
$PLIMMIN
 10
0.0
 20
0.0
  9
$PLIMMAX
 10
420.0
 20
297.0
  9
$UNITMODE
 70
     0
  9
$VISRETAIN
 70
     1
  9
$PLINEGEN
 70
     0
  9
$PSLTSCALE
 70
     1
  9
$TREEDEPTH
 70
  3020
  9
$CMLSTYLE
  2
Standard
  9
$CMLJUST
 70
     0
  9
$CMLSCALE
 40
1.0
  9
$PROXYGRAPHICS
 70
     1
  9
$MEASUREMENT
 70
     1
  9
$CELWEIGHT
370
    -1
  9
$ENDCAPS
280
     0
  9
$JOINSTYLE
280
     0
  9
$LWDISPLAY
290
     0
  9
$INSUNITS
 70
     4
  9
$HYPERLINKBASE
  1

  9
$STYLESHEET
  1

  9
$XEDIT
290
     1
  9
$CEPSNTYPE
380
     0
  9
$PSTYLEMODE
290
     1
  9
$FINGERPRINTGUID
  2
{168DF905-5DF2-4DC3-980A-DDC568A837EA}
  9
$VERSIONGUID
  2
{FAEB1C32-E019-11D5-929B-00C0DF256EC4}
  9
$EXTNAMES
290
     1
  9
$PSVPSCALE
 40
0.0
  9
$OLESTARTUP
290
     0
  9
$SORTENTS
280
   127
  9
$INDEXCTL
280
     0
  9
$HIDETEXT
280
     1
  9
$XCLIPFRAME
280
     2
  9
$HALOGAP
280
     0
  9
$OBSCOLOR
 70
   257
  9
$OBSLTYPE
280
     0
  9
$INTERSECTIONDISPLAY
280
     0
  9
$INTERSECTIONCOLOR
 70
   257
  9
$DIMASSOC
280
     1
  9
$PROJECTNAME
  1

  9
$CAMERADISPLAY
290
     0
  9
$LENSLENGTH
 40
50.0
  9
$CAMERAHEIGHT
 40
0.0
  9
$STEPSPERSEC
 40
2.0
  9
$STEPSIZE
 40
6.0
  9
$3DDWFPREC
 40
2.0
  9
$PSOLWIDTH
 40
0.25
  9
$PSOLHEIGHT
 40
4.0
  9
$LOFTANG1
 40
1.570796326794897
  9
$LOFTANG2
 40
1.570796326794897
  9
$LOFTMAG1
 40
0.0
  9
$LOFTMAG2
 40
0.0
  9
$LOFTPARAM
 70
     7
  9
$LOFTNORMALS
280
     1
  9
$LATITUDE
 40
37.795
  9
$LONGITUDE
 40
-122.394
  9
$NORTHDIRECTION
 40
0.0
  9
$TIMEZONE
 70
 -8000
  9
$LIGHTGLYPHDISPLAY
280
     1
  9
$TILEMODELIGHTSYNCH
280
     1
  9
$SOLIDHIST
280
     1
  9
$SHOWHIST
280
     1
  9
$DWFFRAME
280
     2
  9
$DGNFRAME
280
     2
  9
$REALWORLDSCALE
290
     1
  9
$INTERFERECOLOR
 62
   256
  9
$CSHADOW
280
     0
  9
$SHADOWPLANELOCATION
 40
0.0
  0
ENDSEC
  0
SECTION
  2
CLASSES
  0
CLASS
  1
ACDBDICTIONARYWDFLT
  2
AcDbDictionaryWithDefault
  3
ObjectDBX Classes
 90
        0
 91
        4
280
     0
281
     0
  0
CLASS
  1
VISUALSTYLE
  2
AcDbVisualStyle
  3
ObjectDBX Classes
 90
     4095
 91
        4
280
     0
281
     0
  0
CLASS
  1
MATERIAL
  2
AcDbMaterial
  3
ObjectDBX Classes
 90
     1153
 91
        4
280
     0
281
     0
  0
ENDSEC
  0
SECTION
  2
TABLES
  0
TABLE
  2
VPORT
  5
8
330
0
100
AcDbSymbolTable
 70
     1
  0
VPORT
  5
29
330
8
100
AcDbSymbolTableRecord
100
AcDbViewportTableRecord
  2
*Active
 70
     0
 10
0.0
 20
0.0
 11
1.0
 21
1.0
 12
10.42990654205607
 22
4.5
 13
0.0
 23
0.0
 14
0.5
 24
0.5
 15
0.5
 25
0.5
 16
0.0
 26
0.0
 36
1.0
 17
0.0
 27
0.0
 37
0.0
 40
9.0
 41
1.972972972850329
 42
50.0
 43
0.0
 44
0.0
 50
0.0
 51
0.0
 71
     0
 72
   100
 73
     1
 74
     3
 75
     0
 76
     0
 77
     0
 78
     0
281
     0
 65
     1
110
0.0
120
0.0
130
0.0
111
1.0
121
0.0
131
0.0
112
0.0
122
1.0
132
0.0
 79
     0
146
0.0
 60
     3
 61
     5
292
     1
282
     1
141
0.0
142
0.0
 63
   250
  0
ENDTAB
  0
TABLE
  2
LTYPE
  5
5
330
0
100
AcDbSymbolTable
 70
     9
  0
LTYPE
  5
14
330
5
100
AcDbSymbolTableRecord
100
AcDbLinetypeTableRecord
  2
ByBlock
 70
     0
  3

 72
    65
 73
     0
 40
0.0
  0
LTYPE
  5
15
330
5
100
AcDbSymbolTableRecord
100
AcDbLinetypeTableRecord
  2
ByLayer
 70
     0
  3

 72
    65
 73
     0
 40
0.0
  0
LTYPE
  5
16
330
5
100
AcDbSymbolTableRecord
100
AcDbLinetypeTableRecord
  2
Continuous
 70
     0
  3
Solid line
 72
    65
 73
     0
 40
0.0
  0
LTYPE
  5
8E
330
5
100
AcDbSymbolTableRecord
100
AcDbLinetypeTableRecord
  2
DOT
 70
     0
  3
DOT
 72
    65
 73
     2
 40
4.0
 49
6.0
 74
     0
 49
-2.0
 74
     0
  0
LTYPE
  5
8F
330
5
100
AcDbSymbolTableRecord
100
AcDbLinetypeTableRecord
  2
HIDDEN
 70
     0
  3
HIDDEN
 72
    65
 73
     2
 40
4.2
 49
8.4
 74
     0
 49
-4.2
 74
     0
  0
LTYPE
  5
90
330
5
100
AcDbSymbolTableRecord
100
AcDbLinetypeTableRecord
  2
DASHDOT
 70
     0
  3
DASHDOT
 72
    65
 73
     4
 40
14.5
 49
30.0
 74
     0
 49
-9.0
 74
     0
 49
2.5
 74
     0
 49
-9.0
 74
     0
  0
LTYPE
  5
91
330
5
100
AcDbSymbolTableRecord
100
AcDbLinetypeTableRecord
  2
PHANTOM
 70
     0
  3
PHANTOM
 72
    65
 73
     6
 40
12.0
 49
30.0
 74
     0
 49
-9.0
 74
     0
 49
2.5
 74
     0
 49
-5.0
 74
     0
 49
2.5
 74
     0
 49
-9.0
 74
     0
  0
LTYPE
  5
92
330
5
100
AcDbSymbolTableRecord
100
AcDbLinetypeTableRecord
  2
ACAD_ISO14W100
 70
     0
  3
ACAD_ISO14W100
 72
    65
 73
     8
 40
1.5
 49
12.0
 74
     0
 49
-3.0
 74
     0
 49
0.5
 74
     0
 49
-3.0
 74
     0
 49
0.5
 74
     0
 49
-3.0
 74
     0
 49
0.5
 74
     0
 49
-3.0
 74
     0
  0
LTYPE
  5
93
330
5
100
AcDbSymbolTableRecord
100
AcDbLinetypeTableRecord
  2
ACAD_ISO06W100
 70
     0
  3
ACAD_ISO06W100
 72
    65
 73
     8
 40
13.5
 49
24.0
 74
     0
 49
-3.0
 74
     0
 49
0.5
 74
     0
 49
-3.0
 74
     0
 49
0.5
 74
     0
 49
-3.0
 74
     0
 49
0.5
 74
     0
 49
-3.0
 74
     0
  0
LTYPE
  5
94
330
5
100
AcDbSymbolTableRecord
100
AcDbLinetypeTableRecord
  2
ACAD_ISO11W100
 70
     0
  3
ACAD_ISO11W100
 72
    65
 73
     6
 40
15.5
 49
12.0
 74
     0
 49
-3.0
 74
     0
 49
12.0
 74
     0
 49
-3.0
 74
     0
 49
0.5
 74
     0
 49
-3.0
 74
     0
  0
LTYPE
  5
95
330
5
100
AcDbSymbolTableRecord
100
AcDbLinetypeTableRecord
  2
ACAD_ISO13W100
 70
     0
  3
ACAD_ISO13W100
 72
    65
 73
     8
 40
13.0
 49
12.0
 74
     0
 49
-3.0
 74
     0
 49
12.0
 74
     0
 49
-3.0
 74
     0
 49
0.5
 74
     0
 49
-3.0
 74
     0
 49
0.5
 74
     0
 49
-3.0
 74
     0
  0
ENDTAB
  0
TABLE
  2
LAYER
  5
2
330
0
100
AcDbSymbolTable
 70
    31
  0
LAYER
  5
10
330
2
100
AcDbSymbolTableRecord
100
AcDbLayerTableRecord
  2
0
 70
     0
 62
     7
  6
Continuous
370
    -3
390
F
347
3E
  0
LAYER
  5
96
330
2
100
AcDbSymbolTableRecord
100
AcDbLayerTableRecord
  2
1
 70
     0
 62
     7
  6
Continuous
370
     9
390
F
347
3E
  0
LAYER
  5
97
330
2
100
AcDbSymbolTableRecord
100
AcDbLayerTableRecord
  2
2
 70
     0
 62
   134
  6
Continuous
370
     9
390
F
347
3E
  0
LAYER
  5
98
330
2
100
AcDbSymbolTableRecord
100
AcDbLayerTableRecord
  2
3
 70
     0
 62
   214
  6
Continuous
370
     9
390
F
347
3E
  0
LAYER
  5
99
330
2
100
AcDbSymbolTableRecord
100
AcDbLayerTableRecord
  2
4
 70
     0
 62
    54
  6
Continuous
370
     9
390
F
347
3E
  0
LAYER
  5
9A
330
2
100
AcDbSymbolTableRecord
100
AcDbLayerTableRecord
  2
5
 70
     0
 62
    94
  6
Continuous
370
     9
390
F
347
3E
  0
LAYER
  5
9B
330
2
100
AcDbSymbolTableRecord
100
AcDbLayerTableRecord
  2
6
 70
     0
 62
    14
  6
Continuous
370
     9
390
F
347
3E
  0
LAYER
  5
9C
330
2
100
AcDbSymbolTableRecord
100
AcDbLayerTableRecord
  2
7
 70
     0
 62
     4
  6
Continuous
370
     9
390
F
347
3E
  0
LAYER
  5
9D
330
2
100
AcDbSymbolTableRecord
100
AcDbLayerTableRecord
  2
8
 70
     0
 62
     6
  6
Continuous
370
     9
390
F
347
3E
  0
LAYER
  5
9E
330
2
100
AcDbSymbolTableRecord
100
AcDbLayerTableRecord
  2
9
 70
     0
 62
     2
  6
Continuous
370
     9
390
F
347
3E
  0
LAYER
  5
9F
330
2
100
AcDbSymbolTableRecord
100
AcDbLayerTableRecord
  2
10
 70
     0
 62
     3
  6
Continuous
370
     9
390
F
347
3E
  0
LAYER
  5
A0
330
2
100
AcDbSymbolTableRecord
100
AcDbLayerTableRecord
  2
11
 70
     0
 62
   251
  6
Continuous
370
     9
390
F
347
3E
  0
LAYER
  5
A1
330
2
100
AcDbSymbolTableRecord
100
AcDbLayerTableRecord
  2
12
 70
     0
 62
   136
  6
Continuous
370
     9
390
F
347
3E
  0
LAYER
  5
A2
330
2
100
AcDbSymbolTableRecord
100
AcDbLayerTableRecord
  2
13
 70
     0
 62
   216
  6
Continuous
370
     9
390
F
347
3E
  0
LAYER
  5
A3
330
2
100
AcDbSymbolTableRecord
100
AcDbLayerTableRecord
  2
14
 70
     0
 62
    56
  6
Continuous
370
     9
390
F
347
3E
  0
LAYER
  5
A4
330
2
100
AcDbSymbolTableRecord
100
AcDbLayerTableRecord
  2
15
 70
     0
 62
    96
  6
Continuous
370
     9
390
F
347
3E
  0
LAYER
  5
A5
330
2
100
AcDbSymbolTableRecord
100
AcDbLayerTableRecord
  2
16
 70
     0
 62
    16
  6
Continuous
370
     9
390
F
347
3E
  0
LAYER
  5
A6
330
2
100
AcDbSymbolTableRecord
100
AcDbLayerTableRecord
  2
17
 70
     0
 62
   132
  6
Continuous
370
     9
390
F
347
3E
  0
LAYER
  5
A7
330
2
100
AcDbSymbolTableRecord
100
AcDbLayerTableRecord
  2
18
 70
     0
 62
   212
  6
Continuous
370
     9
390
F
347
3E
  0
LAYER
  5
A8
330
2
100
AcDbSymbolTableRecord
100
AcDbLayerTableRecord
  2
19
 70
     0
 62
    52
  6
Continuous
370
     9
390
F
347
3E
  0
LAYER
  5
A9
330
2
100
AcDbSymbolTableRecord
100
AcDbLayerTableRecord
  2
20
 70
     0
 62
   250
  6
Continuous
370
     9
390
F
347
3E
  0
LAYER
  5
AA
330
2
100
AcDbSymbolTableRecord
100
AcDbLayerTableRecord
  2
21
 70
     0
 62
     7
  6
Continuous
370
     9
390
F
347
3E
  0
LAYER
  5
AB
330
2
100
AcDbSymbolTableRecord
100
AcDbLayerTableRecord
  2
22
 70
     0
 62
     7
  6
Continuous
370
     9
390
F
347
3E
  0
LAYER
  5
AC
330
2
100
AcDbSymbolTableRecord
100
AcDbLayerTableRecord
  2
23
 70
     0
 62
     5
  6
Continuous
370
     9
390
F
347
3E
  0
LAYER
  5
AD
330
2
100
AcDbSymbolTableRecord
100
AcDbLayerTableRecord
  2
24
 70
     0
 62
   104
  6
Continuous
370
     9
390
F
347
3E
  0
LAYER
  5
AE
330
2
100
AcDbSymbolTableRecord
100
AcDbLayerTableRecord
  2
25
 70
     0
 62
     7
  6
Continuous
370
     9
390
F
347
3E
  0
LAYER
  5
AF
330
2
100
AcDbSymbolTableRecord
100
AcDbLayerTableRecord
  2
26
 70
     0
 62
     1
  6
Continuous
370
     9
390
F
347
3E
  0
LAYER
  5
B0
330
2
100
AcDbSymbolTableRecord
100
AcDbLayerTableRecord
  2
27
 70
     0
 62
    12
  6
Continuous
370
     9
390
F
347
3E
  0
LAYER
  5
B1
330
2
100
AcDbSymbolTableRecord
100
AcDbLayerTableRecord
  2
28
 70
     0
 62
   104
  6
Continuous
370
     9
390
F
347
3E
  0
LAYER
  5
B2
330
2
100
AcDbSymbolTableRecord
100
AcDbLayerTableRecord
  2
29
 70
     0
 62
     1
  6
Continuous
370
     9
390
F
347
3E
  0
LAYER
  5
B3
330
2
100
AcDbSymbolTableRecord
100
AcDbLayerTableRecord
  2
30
 70
     0
 62
   104
  6
Continuous
370
     9
390
F
347
3E
  0
ENDTAB
  0
TABLE
  2
STYLE
  5
3
330
0
100
AcDbSymbolTable
 70
     3
  0
STYLE
  5
11
330
3
100
AcDbSymbolTableRecord
100
AcDbTextStyleTableRecord
  2
Standard
 70
     0
 40
0.0
 41
1.0
 50
0.0
 71
     0
 42
5.0
  3
txt
  4
bigfont
  0
STYLE
  5
41
330
3
100
AcDbSymbolTableRecord
100
AcDbTextStyleTableRecord
  2
T_STANDARD
 70
     4
 40
10.0
 41
1.0
 50
0.0
 71
     0
 42
10.0
  3
txt
  4
bigfont
  0
STYLE
  5
420
330
3
100
AcDbSymbolTableRecord
100
AcDbTextStyleTableRecord
  2
ＭＳ ゴシック
 70
     0
 40
0.0
 41
1.0
 50
0.0
 71
     0
 42
0.0
  3
MSGOTHIC.TTC
  4

  0
ENDTAB
  0
TABLE
  2
VIEW
  5
6
330
0
100
AcDbSymbolTable
 70
     0
  0
ENDTAB
  0
TABLE
  2
UCS
  5
7
330
0
100
AcDbSymbolTable
 70
     0
  0
ENDTAB
  0
TABLE
  2
APPID
  5
9
330
0
100
AcDbSymbolTable
 70
     2
  0
APPID
  5
12
330
9
100
AcDbSymbolTableRecord
100
AcDbRegAppTableRecord
  2
ACAD
 70
     0
  0
APPID
  5
40
330
9
100
AcDbSymbolTableRecord
100
AcDbRegAppTableRecord
  2
ODA
 70
     0
  0
ENDTAB
  0
TABLE
  2
DIMSTYLE
  5
A
330
0
100
AcDbSymbolTable
 70
     1
100
AcDbDimStyleTable
  0
DIMSTYLE
105
27
102
{ACAD_REACTORS
330
42A
330
434
330
43E
330
448
330
452
330
45C
330
466
330
46E
330
478
330
482
330
48C
330
496
102
}
330
A
100
AcDbSymbolTableRecord
100
AcDbDimStyleTableRecord
  2
Standard
 70
     0
178
     0
340
11
  0
ENDTAB
  0
TABLE
  2
BLOCK_RECORD
  5
1
330
0
100
AcDbSymbolTable
 70
    29
  0
BLOCK_RECORD
  5
1F
330
1
100
AcDbSymbolTableRecord
100
AcDbBlockTableRecord
  2
*Model_Space
340
22
 70
     0
280
     1
281
     0
  0
BLOCK_RECORD
  5
1B
330
1
100
AcDbSymbolTableRecord
100
AcDbBlockTableRecord
  2
*Paper_Space
340
1E
 70
     0
280
     1
281
     0
  0
BLOCK_RECORD
  5
23
330
1
100
AcDbSymbolTableRecord
100
AcDbBlockTableRecord
  2
*Paper_Space0
340
26
 70
     0
280
     1
281
     0
  0
BLOCK_RECORD
  5
42
330
1
100
AcDbSymbolTableRecord
100
AcDbBlockTableRecord
  2
_ORIGIN
340
0
 70
     0
280
     1
281
     0
  0
BLOCK_RECORD
  5
47
330
1
100
AcDbSymbolTableRecord
100
AcDbBlockTableRecord
  2
_DOTBLANK
340
0
 70
     0
280
     1
281
     0
  0
BLOCK_RECORD
  5
4C
330
1
100
AcDbSymbolTableRecord
100
AcDbBlockTableRecord
  2
_DOT
340
0
 70
     0
280
     1
281
     0
  0
BLOCK_RECORD
  5
51
330
1
100
AcDbSymbolTableRecord
100
AcDbBlockTableRecord
  2
_OPEN
340
0
102
{BLKREFS
331
428
331
429
331
432
331
433
331
43C
331
43D
331
446
331
447
331
450
331
451
331
45A
331
45B
331
464
331
465
331
46C
331
46D
331
476
331
477
331
480
331
481
331
48A
331
48B
331
494
331
495
102
}
 70
     0
280
     1
281
     0
  0
BLOCK_RECORD
  5
57
330
1
100
AcDbSymbolTableRecord
100
AcDbBlockTableRecord
  2
_CLOSED
340
0
 70
     0
280
     1
281
     0
  0
BLOCK_RECORD
  5
5E
330
1
100
AcDbSymbolTableRecord
100
AcDbBlockTableRecord
  2
_CLOSEDBLANK
340
0
 70
     0
280
     1
281
     0
  0
BLOCK_RECORD
  5
64
330
1
100
AcDbSymbolTableRecord
100
AcDbBlockTableRecord
  2
_ARROWFILLED
340
0
 70
     0
280
     1
281
     0
  0
BLOCK_RECORD
  5
68
330
1
100
AcDbSymbolTableRecord
100
AcDbBlockTableRecord
  2
_BOXBLANK
340
0
 70
     0
280
     1
281
     0
  0
BLOCK_RECORD
  5
70
330
1
100
AcDbSymbolTableRecord
100
AcDbBlockTableRecord
  2
_BOXFILLED
340
0
 70
     0
280
     1
281
     0
  0
BLOCK_RECORD
  5
75
330
1
100
AcDbSymbolTableRecord
100
AcDbBlockTableRecord
  2
_INTEGRAL
340
0
 70
     0
280
     1
281
     0
  0
BLOCK_RECORD
  5
7A
330
1
100
AcDbSymbolTableRecord
100
AcDbBlockTableRecord
  2
_OBLIQUE
340
0
 70
     0
280
     1
281
     0
  0
BLOCK_RECORD
  5
7E
330
1
100
AcDbSymbolTableRecord
100
AcDbBlockTableRecord
  2
_NONE
340
0
 70
     0
280
     1
281
     0
  0
BLOCK_RECORD
  5
81
330
1
100
AcDbSymbolTableRecord
100
AcDbBlockTableRecord
  2
MARK_OPEN
340
0
102
{BLKREFS
331
3F5
331
3FB
331
401
331
407
331
40D
102
}
 70
     0
280
     1
281
     0
  0
BLOCK_RECORD
  5
86
330
1
100
AcDbSymbolTableRecord
100
AcDbBlockTableRecord
  2
MARK_ORIGIN
340
0
 70
     0
280
     1
281
     0
  0
BLOCK_RECORD
  5
8A
330
1
100
AcDbSymbolTableRecord
100
AcDbBlockTableRecord
  2
MARK_DOT
340
0
 70
     0
280
     1
281
     0
  0
BLOCK_RECORD
  5
421
330
1
100
AcDbSymbolTableRecord
100
AcDbBlockTableRecord
  2
Dim1
340
0
 70
     0
280
     1
281
     0
  0
BLOCK_RECORD
  5
42B
330
1
100
AcDbSymbolTableRecord
100
AcDbBlockTableRecord
  2
Dim2
340
0
 70
     0
280
     1
281
     0
  0
BLOCK_RECORD
  5
435
330
1
100
AcDbSymbolTableRecord
100
AcDbBlockTableRecord
  2
Dim3
340
0
 70
     0
280
     1
281
     0
  0
BLOCK_RECORD
  5
43F
330
1
100
AcDbSymbolTableRecord
100
AcDbBlockTableRecord
  2
Dim4
340
0
 70
     0
280
     1
281
     0
  0
BLOCK_RECORD
  5
449
330
1
100
AcDbSymbolTableRecord
100
AcDbBlockTableRecord
  2
Dim5
340
0
 70
     0
280
     1
281
     0
  0
BLOCK_RECORD
  5
453
330
1
100
AcDbSymbolTableRecord
100
AcDbBlockTableRecord
  2
Dim6
340
0
 70
     0
280
     1
281
     0
  0
BLOCK_RECORD
  5
45D
330
1
100
AcDbSymbolTableRecord
100
AcDbBlockTableRecord
  2
Dim7
340
0
 70
     0
280
     1
281
     0
  0
BLOCK_RECORD
  5
467
330
1
100
AcDbSymbolTableRecord
100
AcDbBlockTableRecord
  2
Dim8
340
0
 70
     0
280
     1
281
     0
  0
BLOCK_RECORD
  5
46F
330
1
100
AcDbSymbolTableRecord
100
AcDbBlockTableRecord
  2
Dim9
340
0
 70
     0
280
     1
281
     0
  0
BLOCK_RECORD
  5
479
330
1
100
AcDbSymbolTableRecord
100
AcDbBlockTableRecord
  2
Dim10
340
0
 70
     0
280
     1
281
     0
  0
BLOCK_RECORD
  5
483
330
1
100
AcDbSymbolTableRecord
100
AcDbBlockTableRecord
  2
Dim11
340
0
 70
     0
280
     1
281
     0
  0
BLOCK_RECORD
  5
48D
330
1
100
AcDbSymbolTableRecord
100
AcDbBlockTableRecord
  2
Dim12
340
0
 70
     0
280
     1
281
     0
  0
BLOCK_RECORD
  5
49C
330
1
100
AcDbSymbolTableRecord
100
AcDbBlockTableRecord
  2
*G28
340
0
102
{BLKREFS
331
4A4
102
}
 70
     0
280
     1
281
     0
  0
ENDTAB
  0
ENDSEC
  0
SECTION
  2
BLOCKS
  0
BLOCK
  5
20
330
1F
100
AcDbEntity
  8
0
100
AcDbBlockBegin
  2
*Model_Space
 70
     0
 10
0.0
 20
0.0
 30
0.0
  3
*Model_Space
  1

  0
ENDBLK
  5
21
330
1F
100
AcDbEntity
  8
0
100
AcDbBlockEnd
  0
BLOCK
  5
1C
330
1B
100
AcDbEntity
 67
     1
  8
0
100
AcDbBlockBegin
  2
*Paper_Space
 70
     0
 10
0.0
 20
0.0
 30
0.0
  3
*Paper_Space
  1

  0
ENDBLK
  5
1D
330
1B
100
AcDbEntity
 67
     1
  8
0
100
AcDbBlockEnd
  0
BLOCK
  5
24
330
23
100
AcDbEntity
  8
0
100
AcDbBlockBegin
  2
*Paper_Space0
 70
     0
 10
0.0
 20
0.0
 30
0.0
  3
*Paper_Space0
  1

  0
ENDBLK
  5
25
330
23
100
AcDbEntity
  8
0
100
AcDbBlockEnd
  0
BLOCK
  5
45
330
42
100
AcDbEntity
  8
0
100
AcDbBlockBegin
  2
_ORIGIN
 70
     0
 10
0.0
 20
0.0
 30
0.0
  3
_ORIGIN
  1

  0
CIRCLE
  5
43
330
42
100
AcDbEntity
  8
0
100
AcDbCircle
 10
0.0
 20
0.0
 30
0.0
 40
0.5
  0
LINE
  5
44
330
42
100
AcDbEntity
  8
0
100
AcDbLine
 10
0.0
 20
0.0
 30
0.0
 11
-1.0
 21
0.0
 31
0.0
  0
ENDBLK
  5
46
330
42
100
AcDbEntity
  8
0
100
AcDbBlockEnd
  0
BLOCK
  5
4A
330
47
100
AcDbEntity
  8
0
100
AcDbBlockBegin
  2
_DOTBLANK
 70
     0
 10
0.0
 20
0.0
 30
0.0
  3
_DOTBLANK
  1

  0
CIRCLE
  5
48
330
47
100
AcDbEntity
  8
0
100
AcDbCircle
 10
0.0
 20
0.0
 30
0.0
 40
0.5
  0
LINE
  5
49
330
47
100
AcDbEntity
  8
0
100
AcDbLine
 10
-0.5
 20
0.0
 30
0.0
 11
-1.0
 21
0.0
 31
0.0
  0
ENDBLK
  5
4B
330
47
100
AcDbEntity
  8
0
100
AcDbBlockEnd
  0
BLOCK
  5
4F
330
4C
100
AcDbEntity
  8
0
100
AcDbBlockBegin
  2
_DOT
 70
     0
 10
0.0
 20
0.0
 30
0.0
  3
_DOT
  1

  0
LWPOLYLINE
  5
4D
330
4C
100
AcDbEntity
  8
0
100
AcDbPolyline
 90
        2
 70
     1
 43
0.5
 10
-0.25
 20
0.0
 42
1.0
 10
0.25
 20
0.0
 42
1.0
  0
LINE
  5
4E
330
4C
100
AcDbEntity
  8
0
100
AcDbLine
 10
-0.5
 20
0.0
 30
0.0
 11
-1.0
 21
0.0
 31
0.0
  0
ENDBLK
  5
50
330
4C
100
AcDbEntity
  8
0
100
AcDbBlockEnd
  0
BLOCK
  5
55
330
51
100
AcDbEntity
  8
0
100
AcDbBlockBegin
  2
_OPEN
 70
     0
 10
0.0
 20
0.0
 30
0.0
  3
_OPEN
  1

  0
LINE
  5
52
330
51
100
AcDbEntity
  8
0
100
AcDbLine
 10
0.0
 20
0.0
 30
0.0
 11
-1.0
 21
0.1666666666666667
 31
0.0
  0
LINE
  5
53
330
51
100
AcDbEntity
  8
0
100
AcDbLine
 10
0.0
 20
0.0
 30
0.0
 11
-1.0
 21
-0.1666666666666667
 31
0.0
  0
LINE
  5
54
330
51
100
AcDbEntity
  8
0
100
AcDbLine
 10
0.0
 20
0.0
 30
0.0
 11
-1.0
 21
0.0
 31
0.0
  0
ENDBLK
  5
56
330
51
100
AcDbEntity
  8
0
100
AcDbBlockEnd
  0
BLOCK
  5
5C
330
57
100
AcDbEntity
  8
0
100
AcDbBlockBegin
  2
_CLOSED
 70
     0
 10
0.0
 20
0.0
 30
0.0
  3
_CLOSED
  1

  0
LINE
  5
58
330
57
100
AcDbEntity
  8
0
100
AcDbLine
 10
0.0
 20
0.0
 30
0.0
 11
-1.0
 21
0.1666666666666667
 31
0.0
  0
LINE
  5
59
330
57
100
AcDbEntity
  8
0
100
AcDbLine
 10
0.0
 20
0.0
 30
0.0
 11
-1.0
 21
-0.1666666666666667
 31
0.0
  0
LINE
  5
5A
330
57
100
AcDbEntity
  8
0
100
AcDbLine
 10
-1.0
 20
0.1666666666666667
 30
0.0
 11
-1.0
 21
-0.1666666666666667
 31
0.0
  0
LINE
  5
5B
330
57
100
AcDbEntity
  8
0
100
AcDbLine
 10
0.0
 20
0.0
 30
0.0
 11
-1.0
 21
0.0
 31
0.0
  0
ENDBLK
  5
5D
330
57
100
AcDbEntity
  8
0
100
AcDbBlockEnd
  0
BLOCK
  5
62
330
5E
100
AcDbEntity
  8
0
100
AcDbBlockBegin
  2
_CLOSEDBLANK
 70
     0
 10
0.0
 20
0.0
 30
0.0
  3
_CLOSEDBLANK
  1

  0
LINE
  5
5F
330
5E
100
AcDbEntity
  8
0
100
AcDbLine
 10
0.0
 20
0.0
 30
0.0
 11
-1.0
 21
0.1666666666666667
 31
0.0
  0
LINE
  5
60
330
5E
100
AcDbEntity
  8
0
100
AcDbLine
 10
0.0
 20
0.0
 30
0.0
 11
-1.0
 21
-0.1666666666666667
 31
0.0
  0
LINE
  5
61
330
5E
100
AcDbEntity
  8
0
100
AcDbLine
 10
-1.0
 20
0.1666666666666667
 30
0.0
 11
-1.0
 21
-0.1666666666666667
 31
0.0
  0
ENDBLK
  5
63
330
5E
100
AcDbEntity
  8
0
100
AcDbBlockEnd
  0
BLOCK
  5
66
330
64
100
AcDbEntity
  8
0
100
AcDbBlockBegin
  2
_ARROWFILLED
 70
     0
 10
0.0
 20
0.0
 30
0.0
  3
_ARROWFILLED
  1

  0
SOLID
  5
65
330
64
100
AcDbEntity
  8
0
100
AcDbTrace
 10
0.0
 20
0.0
 30
0.0
 11
-1.0
 21
-0.1666666666666667
 31
0.0
 12
-1.0
 22
0.1666666666666667
 32
0.0
 13
0.0
 23
0.0
 33
0.0
  0
ENDBLK
  5
67
330
64
100
AcDbEntity
  8
0
100
AcDbBlockEnd
  0
BLOCK
  5
6E
330
68
100
AcDbEntity
  8
0
100
AcDbBlockBegin
  2
_BOXBLANK
 70
     0
 10
0.0
 20
0.0
 30
0.0
  3
_BOXBLANK
  1

  0
LINE
  5
69
330
68
100
AcDbEntity
  8
0
100
AcDbLine
 10
-0.5
 20
-0.5
 30
0.0
 11
0.5
 21
-0.5
 31
0.0
  0
LINE
  5
6A
330
68
100
AcDbEntity
  8
0
100
AcDbLine
 10
0.5
 20
-0.5
 30
0.0
 11
0.5
 21
0.5
 31
0.0
  0
LINE
  5
6B
330
68
100
AcDbEntity
  8
0
100
AcDbLine
 10
0.5
 20
0.5
 30
0.0
 11
-0.5
 21
0.5
 31
0.0
  0
LINE
  5
6C
330
68
100
AcDbEntity
  8
0
100
AcDbLine
 10
-0.5
 20
0.5
 30
0.0
 11
-0.5
 21
-0.5
 31
0.0
  0
LINE
  5
6D
330
68
100
AcDbEntity
  8
0
100
AcDbLine
 10
-0.5
 20
0.0
 30
0.0
 11
-1.0
 21
0.0
 31
0.0
  0
ENDBLK
  5
6F
330
68
100
AcDbEntity
  8
0
100
AcDbBlockEnd
  0
BLOCK
  5
73
330
70
100
AcDbEntity
  8
0
100
AcDbBlockBegin
  2
_BOXFILLED
 70
     0
 10
0.0
 20
0.0
 30
0.0
  3
_BOXFILLED
  1

  0
SOLID
  5
71
330
70
100
AcDbEntity
  8
0
100
AcDbTrace
 10
-0.5
 20
0.5
 30
0.0
 11
0.5
 21
0.5
 31
0.0
 12
-0.5
 22
-0.5
 32
0.0
 13
0.5
 23
-0.5
 33
0.0
  0
LINE
  5
72
330
70
100
AcDbEntity
  8
0
100
AcDbLine
 10
-0.5
 20
0.0
 30
0.0
 11
-1.0
 21
0.0
 31
0.0
  0
ENDBLK
  5
74
330
70
100
AcDbEntity
  8
0
100
AcDbBlockEnd
  0
BLOCK
  5
78
330
75
100
AcDbEntity
  8
0
100
AcDbBlockBegin
  2
_INTEGRAL
 70
     0
 10
0.0
 20
0.0
 30
0.0
  3
_INTEGRAL
  1

  0
ARC
  5
76
330
75
100
AcDbEntity
  8
0
100
AcDbCircle
 10
0.444888
 20
-0.0913346
 30
0.0
 40
0.4541666
100
AcDbArc
 50
101.9999999999999
 51
167.9999999999998
  0
ARC
  5
77
330
75
100
AcDbEntity
  8
0
100
AcDbCircle
 10
-0.444888
 20
0.0913346
 30
0.0
 40
0.4541666
100
AcDbArc
 50
281.9999999999997
 51
347.9999999999997
  0
ENDBLK
  5
79
330
75
100
AcDbEntity
  8
0
100
AcDbBlockEnd
  0
BLOCK
  5
7C
330
7A
100
AcDbEntity
  8
0
100
AcDbBlockBegin
  2
_OBLIQUE
 70
     0
 10
0.0
 20
0.0
 30
0.0
  3
_OBLIQUE
  1

  0
LINE
  5
7B
330
7A
100
AcDbEntity
  8
0
100
AcDbLine
 10
-0.5
 20
-0.5
 30
0.0
 11
0.5
 21
0.5
 31
0.0
  0
ENDBLK
  5
7D
330
7A
100
AcDbEntity
  8
0
100
AcDbBlockEnd
  0
BLOCK
  5
7F
330
7E
100
AcDbEntity
  8
0
100
AcDbBlockBegin
  2
_NONE
 70
     0
 10
0.0
 20
0.0
 30
0.0
  3
_NONE
  1

  0
ENDBLK
  5
80
330
7E
100
AcDbEntity
  8
0
100
AcDbBlockEnd
  0
BLOCK
  5
84
330
81
100
AcDbEntity
  8
0
100
AcDbBlockBegin
  2
MARK_OPEN
 70
     0
 10
0.0
 20
0.0
 30
0.0
  3
MARK_OPEN
  1

  0
LINE
  5
82
330
81
100
AcDbEntity
  8
0
100
AcDbLine
 10
0.0
 20
0.0
 30
0.0
 11
-1.0
 21
0.1666666666666667
 31
0.0
  0
LINE
  5
83
330
81
100
AcDbEntity
  8
0
100
AcDbLine
 10
0.0
 20
0.0
 30
0.0
 11
-1.0
 21
-0.1666666666666667
 31
0.0
  0
ENDBLK
  5
85
330
81
100
AcDbEntity
  8
0
100
AcDbBlockEnd
  0
BLOCK
  5
88
330
86
100
AcDbEntity
  8
0
100
AcDbBlockBegin
  2
MARK_ORIGIN
 70
     0
 10
0.0
 20
0.0
 30
0.0
  3
MARK_ORIGIN
  1

  0
CIRCLE
  5
87
330
86
100
AcDbEntity
  8
0
100
AcDbCircle
 10
0.0
 20
0.0
 30
0.0
 40
0.5
  0
ENDBLK
  5
89
330
86
100
AcDbEntity
  8
0
100
AcDbBlockEnd
  0
BLOCK
  5
8C
330
8A
100
AcDbEntity
  8
0
100
AcDbBlockBegin
  2
MARK_DOT
 70
     0
 10
0.0
 20
0.0
 30
0.0
  3
MARK_DOT
  1

  0
LWPOLYLINE
  5
8B
330
8A
100
AcDbEntity
  8
0
100
AcDbPolyline
 90
        2
 70
     1
 43
0.5
 10
-0.25
 20
0.0
 42
1.0
 10
0.25
 20
0.0
 42
1.0
  0
ENDBLK
  5
8D
330
8A
100
AcDbEntity
  8
0
100
AcDbBlockEnd
  0
BLOCK
  5
422
330
421
100
AcDbEntity
  8
0
100
AcDbBlockBegin
  2
Dim1
 70
     0
 10
0.0
 20
0.0
 30
0.0
  3
Dim1
  1

  0
LINE
  5
424
330
421
100
AcDbEntity
  8
25
  6
Continuous
 62
     7
370
     9
100
AcDbLine
 10
218.5480307113736
 20
29.49063542562044
 30
0.0
 11
218.5480307113743
 21
19.90121412709357
 31
0.0
  0
LINE
  5
425
330
421
100
AcDbEntity
  8
25
  6
Continuous
 62
     7
370
     9
100
AcDbLine
 10
215.2480307113737
 20
28.87103863519008
 30
0.0
 11
215.2480307113744
 21
19.90121412709357
 31
0.0
  0
LINE
  5
426
330
421
100
AcDbEntity
  8
25
  6
Continuous
 62
     7
370
     9
100
AcDbLine
 10
218.5480307113743
 20
20.90121412709357
 30
0.0
 11
215.2480307113743
 21
20.90121412709357
 31
0.0
  0
MTEXT
  5
427
330
421
100
AcDbEntity
  8
25
  6
Continuous
 62
     7
370
     9
100
AcDbMText
 10
216.8980307113735
 20
21.40121412709357
 30
0.0
 40
2.0
 41
20.18
 46
2.0
 71
     8
 72
     1
  1
3.3
  7
ＭＳ ゴシック
 73
     1
 44
1.0
1001
ACAD
1000
ACAD_MTEXT_DEFINED_HEIGHT_BEGIN
1070
    46
1040
2.0
1000
ACAD_MTEXT_DEFINED_HEIGHT_END
  0
INSERT
  5
428
330
421
100
AcDbEntity
  8
25
  6
Continuous
 62
     7
370
     9
100
AcDbBlockReference
  2
_OPEN
 10
218.5480307113743
 20
20.90121412709357
 30
0.0
 50
359.9999999999997
  0
INSERT
  5
429
330
421
100
AcDbEntity
  8
25
  6
Continuous
 62
     7
370
     9
100
AcDbBlockReference
  2
_OPEN
 10
215.2480307113743
 20
20.90121412709357
 30
0.0
 50
179.9999999999998
  0
ENDBLK
  5
423
330
421
100
AcDbEntity
  8
0
100
AcDbBlockEnd
  0
BLOCK
  5
42C
330
42B
100
AcDbEntity
  8
0
100
AcDbBlockBegin
  2
Dim2
 70
     0
 10
0.0
 20
0.0
 30
0.0
  3
Dim2
  1

  0
LINE
  5
42E
330
42B
100
AcDbEntity
  8
25
  6
Continuous
 62
     7
370
     9
100
AcDbLine
 10
215.2480307113737
 20
28.87103863519008
 30
0.0
 11
215.2480307113744
 21
19.90121412709357
 31
0.0
  0
LINE
  5
42F
330
42B
100
AcDbEntity
  8
25
  6
Continuous
 62
     7
370
     9
100
AcDbLine
 10
205.9480307113737
 20
28.74063542562055
 30
0.0
 11
205.9480307113744
 21
19.90121412709357
 31
0.0
  0
LINE
  5
430
330
42B
100
AcDbEntity
  8
25
  6
Continuous
 62
     7
370
     9
100
AcDbLine
 10
215.2480307113743
 20
20.90121412709357
 30
0.0
 11
205.9480307113743
 21
20.90121412709357
 31
0.0
  0
MTEXT
  5
431
330
42B
100
AcDbEntity
  8
25
  6
Continuous
 62
     7
370
     9
100
AcDbMText
 10
210.5980307113735
 20
21.40121412709357
 30
0.0
 40
2.0
 41
20.21
 46
2.0
 71
     8
 72
     1
  1
9.3
  7
ＭＳ ゴシック
 73
     1
 44
1.0
1001
ACAD
1000
ACAD_MTEXT_DEFINED_HEIGHT_BEGIN
1070
    46
1040
2.0
1000
ACAD_MTEXT_DEFINED_HEIGHT_END
  0
INSERT
  5
432
330
42B
100
AcDbEntity
  8
25
  6
Continuous
 62
     7
370
     9
100
AcDbBlockReference
  2
_OPEN
 10
215.2480307113743
 20
20.90121412709357
 30
0.0
 50
359.9999999999997
  0
INSERT
  5
433
330
42B
100
AcDbEntity
  8
25
  6
Continuous
 62
     7
370
     9
100
AcDbBlockReference
  2
_OPEN
 10
205.9480307113743
 20
20.90121412709357
 30
0.0
 50
179.9999999999998
  0
ENDBLK
  5
42D
330
42B
100
AcDbEntity
  8
0
100
AcDbBlockEnd
  0
BLOCK
  5
436
330
435
100
AcDbEntity
  8
0
100
AcDbBlockBegin
  2
Dim3
 70
     0
 10
0.0
 20
0.0
 30
0.0
  3
Dim3
  1

  0
LINE
  5
438
330
435
100
AcDbEntity
  8
25
  6
Continuous
 62
     7
370
     9
100
AcDbLine
 10
222.5480307113736
 20
32.99063542562044
 30
0.0
 11
222.5480307113743
 21
19.90121412709357
 31
0.0
  0
LINE
  5
439
330
435
100
AcDbEntity
  8
25
  6
Continuous
 62
     7
370
     9
100
AcDbLine
 10
218.5480307113736
 20
29.49063542562044
 30
0.0
 11
218.5480307113743
 21
19.90121412709357
 31
0.0
  0
LINE
  5
43A
330
435
100
AcDbEntity
  8
25
  6
Continuous
 62
     7
370
     9
100
AcDbLine
 10
222.5480307113743
 20
20.90121412709357
 30
0.0
 11
218.5480307113743
 21
20.90121412709357
 31
0.0
  0
MTEXT
  5
43B
330
435
100
AcDbEntity
  8
25
  6
Continuous
 62
     7
370
     9
100
AcDbMText
 10
220.5480307113735
 20
21.40121412709357
 30
0.0
 40
2.0
 41
6.89
 46
2.0
 71
     8
 72
     1
  1
4
  7
ＭＳ ゴシック
 73
     1
 44
1.0
1001
ACAD
1000
ACAD_MTEXT_DEFINED_HEIGHT_BEGIN
1070
    46
1040
2.0
1000
ACAD_MTEXT_DEFINED_HEIGHT_END
  0
INSERT
  5
43C
330
435
100
AcDbEntity
  8
25
  6
Continuous
 62
     7
370
     9
100
AcDbBlockReference
  2
_OPEN
 10
222.5480307113743
 20
20.90121412709357
 30
0.0
 50
359.9999999999997
  0
INSERT
  5
43D
330
435
100
AcDbEntity
  8
25
  6
Continuous
 62
     7
370
     9
100
AcDbBlockReference
  2
_OPEN
 10
218.5480307113743
 20
20.90121412709357
 30
0.0
 50
179.9999999999998
  0
ENDBLK
  5
437
330
435
100
AcDbEntity
  8
0
100
AcDbBlockEnd
  0
BLOCK
  5
440
330
43F
100
AcDbEntity
  8
0
100
AcDbBlockBegin
  2
Dim4
 70
     0
 10
0.0
 20
0.0
 30
0.0
  3
Dim4
  1

  0
LINE
  5
442
330
43F
100
AcDbEntity
  8
25
  6
Continuous
 62
     7
370
     9
100
AcDbLine
 10
236.0740307113735
 20
45.19063542562048
 30
0.0
 11
236.0740307113743
 21
12.75203173155023
 31
0.0
  0
LINE
  5
443
330
43F
100
AcDbEntity
  8
25
  6
Continuous
 62
     7
370
     9
100
AcDbLine
 10
218.5480307113737
 20
18.27621412709357
 30
0.0
 11
218.5480307113744
 21
12.75203173155023
 31
0.0
  0
LINE
  5
444
330
43F
100
AcDbEntity
  8
25
  6
Continuous
 62
     7
370
     9
100
AcDbLine
 10
236.0740307113743
 20
13.75203173155023
 30
0.0
 11
218.5480307113743
 21
13.75203173155023
 31
0.0
  0
MTEXT
  5
445
330
43F
100
AcDbEntity
  8
25
  6
Continuous
 62
     7
370
     9
100
AcDbMText
 10
227.3110307113735
 20
14.25203173155023
 30
0.0
 40
2.0
 41
46.85000000000001
 46
2.0
 71
     8
 72
     1
  1
17.526
  7
ＭＳ ゴシック
 73
     1
 44
1.0
1001
ACAD
1000
ACAD_MTEXT_DEFINED_HEIGHT_BEGIN
1070
    46
1040
2.0
1000
ACAD_MTEXT_DEFINED_HEIGHT_END
  0
INSERT
  5
446
330
43F
100
AcDbEntity
  8
25
  6
Continuous
 62
     7
370
     9
100
AcDbBlockReference
  2
_OPEN
 10
236.0740307113743
 20
13.75203173155023
 30
0.0
 50
359.9999999999997
  0
INSERT
  5
447
330
43F
100
AcDbEntity
  8
25
  6
Continuous
 62
     7
370
     9
100
AcDbBlockReference
  2
_OPEN
 10
218.5480307113743
 20
13.75203173155023
 30
0.0
 50
179.9999999999998
  0
ENDBLK
  5
441
330
43F
100
AcDbEntity
  8
0
100
AcDbBlockEnd
  0
BLOCK
  5
44A
330
449
100
AcDbEntity
  8
0
100
AcDbBlockBegin
  2
Dim5
 70
     0
 10
0.0
 20
0.0
 30
0.0
  3
Dim5
  1

  0
LINE
  5
44C
330
449
100
AcDbEntity
  8
25
  6
Continuous
 62
     7
370
     9
100
AcDbLine
 10
193.9480307113736
 20
28.74063542562044
 30
0.0
 11
193.9480307113743
 21
19.90121412709357
 31
0.0
  0
LINE
  5
44D
330
449
100
AcDbEntity
  8
25
  6
Continuous
 62
     7
370
     9
100
AcDbLine
 10
186.5480307113736
 20
28.74063542562055
 30
0.0
 11
186.5480307113743
 21
19.90121412709351
 31
0.0
  0
LINE
  5
44E
330
449
100
AcDbEntity
  8
25
  6
Continuous
 62
     7
370
     9
100
AcDbLine
 10
193.9480307113742
 20
20.90121412709357
 30
0.0
 11
186.5480307113743
 21
20.90121412709351
 31
0.0
  0
MTEXT
  5
44F
330
449
100
AcDbEntity
  8
25
  6
Continuous
 62
     7
370
     9
100
AcDbMText
 10
190.2480307113734
 20
21.40121412709354
 30
0.0
 40
2.0
 41
19.99
 46
2.0
 71
     8
 72
     1
  1
7.4
  7
ＭＳ ゴシック
 73
     1
 44
1.0
1001
ACAD
1000
ACAD_MTEXT_DEFINED_HEIGHT_BEGIN
1070
    46
1040
2.0
1000
ACAD_MTEXT_DEFINED_HEIGHT_END
  0
INSERT
  5
450
330
449
100
AcDbEntity
  8
25
  6
Continuous
 62
     7
370
     9
100
AcDbBlockReference
  2
_OPEN
 10
193.9480307113742
 20
20.90121412709357
 30
0.0
 50
0.0000000000002544
  0
INSERT
  5
451
330
449
100
AcDbEntity
  8
25
  6
Continuous
 62
     7
370
     9
100
AcDbBlockReference
  2
_OPEN
 10
186.5480307113743
 20
20.90121412709351
 30
0.0
 50
180.0000000000002
  0
ENDBLK
  5
44B
330
449
100
AcDbEntity
  8
0
100
AcDbBlockEnd
  0
BLOCK
  5
454
330
453
100
AcDbEntity
  8
0
100
AcDbBlockBegin
  2
Dim6
 70
     0
 10
0.0
 20
0.0
 30
0.0
  3
Dim6
  1

  0
LINE
  5
456
330
453
100
AcDbEntity
  8
25
  6
Continuous
 62
     7
370
     9
100
AcDbLine
 10
218.5480307113737
 20
18.27621412709357
 30
0.0
 11
218.5480307113744
 21
12.75203173155023
 31
0.0
  0
LINE
  5
457
330
453
100
AcDbEntity
  8
25
  6
Continuous
 62
     7
370
     9
100
AcDbLine
 10
180.3480307113737
 20
18.27621412709357
 30
0.0
 11
180.3480307113744
 21
12.75203173155023
 31
0.0
  0
LINE
  5
458
330
453
100
AcDbEntity
  8
25
  6
Continuous
 62
     7
370
     9
100
AcDbLine
 10
218.5480307113743
 20
13.75203173155023
 30
0.0
 11
180.3480307113743
 21
13.75203173155023
 31
0.0
  0
MTEXT
  5
459
330
453
100
AcDbEntity
  8
25
  6
Continuous
 62
     7
370
     9
100
AcDbMText
 10
199.4480307113735
 20
14.25203173155023
 30
0.0
 40
2.0
 41
30.18
 46
2.0
 71
     8
 72
     1
  1
38.2
  7
ＭＳ ゴシック
 73
     1
 44
1.0
1001
ACAD
1000
ACAD_MTEXT_DEFINED_HEIGHT_BEGIN
1070
    46
1040
2.0
1000
ACAD_MTEXT_DEFINED_HEIGHT_END
  0
INSERT
  5
45A
330
453
100
AcDbEntity
  8
25
  6
Continuous
 62
     7
370
     9
100
AcDbBlockReference
  2
_OPEN
 10
218.5480307113743
 20
13.75203173155023
 30
0.0
 50
359.9999999999997
  0
INSERT
  5
45B
330
453
100
AcDbEntity
  8
25
  6
Continuous
 62
     7
370
     9
100
AcDbBlockReference
  2
_OPEN
 10
180.3480307113743
 20
13.75203173155023
 30
0.0
 50
179.9999999999998
  0
ENDBLK
  5
455
330
453
100
AcDbEntity
  8
0
100
AcDbBlockEnd
  0
BLOCK
  5
45E
330
45D
100
AcDbEntity
  8
0
100
AcDbBlockBegin
  2
Dim7
 70
     0
 10
0.0
 20
0.0
 30
0.0
  3
Dim7
  1

  0
LINE
  5
460
330
45D
100
AcDbEntity
  8
25
  6
Continuous
 62
     7
370
     9
100
AcDbLine
 10
205.9480307113737
 20
28.74063542562055
 30
0.0
 11
205.9480307113744
 21
19.90121412709357
 31
0.0
  0
LINE
  5
461
330
45D
100
AcDbEntity
  8
25
  6
Continuous
 62
     7
370
     9
100
AcDbLine
 10
193.9480307113736
 20
28.74063542562044
 30
0.0
 11
193.9480307113743
 21
19.90121412709357
 31
0.0
  0
LINE
  5
462
330
45D
100
AcDbEntity
  8
25
  6
Continuous
 62
     7
370
     9
100
AcDbLine
 10
205.9480307113743
 20
20.90121412709357
 30
0.0
 11
193.9480307113742
 21
20.90121412709357
 31
0.0
  0
MTEXT
  5
463
330
45D
100
AcDbEntity
  8
25
  6
Continuous
 62
     7
370
     9
100
AcDbMText
 10
199.9480307113735
 20
21.40121412709357
 30
0.0
 40
2.0
 41
13.52
 46
2.0
 71
     8
 72
     1
  1
12
  7
ＭＳ ゴシック
 73
     1
 44
1.0
1001
ACAD
1000
ACAD_MTEXT_DEFINED_HEIGHT_BEGIN
1070
    46
1040
2.0
1000
ACAD_MTEXT_DEFINED_HEIGHT_END
  0
INSERT
  5
464
330
45D
100
AcDbEntity
  8
25
  6
Continuous
 62
     7
370
     9
100
AcDbBlockReference
  2
_OPEN
 10
205.9480307113743
 20
20.90121412709357
 30
0.0
 50
359.9999999999997
  0
INSERT
  5
465
330
45D
100
AcDbEntity
  8
25
  6
Continuous
 62
     7
370
     9
100
AcDbBlockReference
  2
_OPEN
 10
193.9480307113742
 20
20.90121412709357
 30
0.0
 50
179.9999999999998
  0
ENDBLK
  5
45F
330
45D
100
AcDbEntity
  8
0
100
AcDbBlockEnd
  0
BLOCK
  5
468
330
467
100
AcDbEntity
  8
0
100
AcDbBlockBegin
  2
Dim8
 70
     0
 10
0.0
 20
0.0
 30
0.0
  3
Dim8
  1

  0
LINE
  5
46A
330
467
100
AcDbEntity
  8
25
  6
Continuous
 62
     7
370
     9
100
AcDbLine
 10
130.3104610077866
 20
36.53661370286761
 30
0.0
 11
145.7835607232291
 21
66.3903863108825
 31
0.0
  0
MTEXT
  5
46B
330
467
100
AcDbEntity
  8
25
  6
Continuous
 62
     7
370
     9
100
AcDbMText
 10
143.4989964917982
 20
63.06912656908779
 30
0.0
 40
2.0
 41
24.4
 46
2.0
 71
     7
 72
     1
  1
φ24
  7
ＭＳ ゴシック
 11
0.4601616649123983
 21
0.8878351435627279
 31
0.0
 73
     1
 44
1.0
1001
ACAD
1000
ACAD_MTEXT_DEFINED_HEIGHT_BEGIN
1070
    46
1040
2.0
1000
ACAD_MTEXT_DEFINED_HEIGHT_END
  0
INSERT
  5
46C
330
467
100
AcDbEntity
  8
25
  6
Continuous
 62
     7
370
     9
100
AcDbBlockReference
  2
_OPEN
 10
130.3104610077866
 20
36.53661370286761
 30
0.0
 50
242.6024600648766
  0
INSERT
  5
46D
330
467
100
AcDbEntity
  8
25
  6
Continuous
 62
     7
370
     9
100
AcDbBlockReference
  2
_OPEN
 10
141.3543409656843
 20
57.84465714837336
 30
0.0
 50
62.60246006487658
  0
ENDBLK
  5
469
330
467
100
AcDbEntity
  8
0
100
AcDbBlockEnd
  0
BLOCK
  5
470
330
46F
100
AcDbEntity
  8
0
100
AcDbBlockBegin
  2
Dim9
 70
     0
 10
0.0
 20
0.0
 30
0.0
  3
Dim9
  1

  0
LINE
  5
472
330
46F
100
AcDbEntity
  8
25
  6
Continuous
 62
     7
370
     9
100
AcDbLine
 10
184.8480307113734
 20
30.44063542562049
 30
0.0
 11
164.0980307113734
 21
30.44063542562056
 31
0.0
  0
LINE
  5
473
330
46F
100
AcDbEntity
  8
25
  6
Continuous
 62
     7
370
     9
100
AcDbLine
 10
184.5980307113735
 20
63.94063542562049
 30
0.0
 11
164.0980307113734
 21
63.94063542562056
 31
0.0
  0
LINE
  5
474
330
46F
100
AcDbEntity
  8
25
  6
Continuous
 62
     7
370
     9
100
AcDbLine
 10
165.0980307113734
 20
30.44063542562056
 30
0.0
 11
165.0980307113734
 21
63.94063542562056
 31
0.0
  0
MTEXT
  5
475
330
46F
100
AcDbEntity
  8
25
  6
Continuous
 62
     7
370
     9
100
AcDbMText
 10
164.5980307113734
 20
47.56520208421347
 30
0.0
 40
2.0
 41
37.84
 46
2.0
 71
     8
 72
     1
  1
φ33.5
  7
ＭＳ ゴシック
 11
1.615544574432587E-15
 21
1.0
 31
0.0
 73
     1
 44
1.0
1001
ACAD
1000
ACAD_MTEXT_DEFINED_HEIGHT_BEGIN
1070
    46
1040
2.0
1000
ACAD_MTEXT_DEFINED_HEIGHT_END
  0
INSERT
  5
476
330
46F
100
AcDbEntity
  8
25
  6
Continuous
 62
     7
370
     9
100
AcDbBlockReference
  2
_OPEN
 10
165.0980307113734
 20
30.44063542562056
 30
0.0
 50
269.9999999999998
  0
INSERT
  5
477
330
46F
100
AcDbEntity
  8
25
  6
Continuous
 62
     7
370
     9
100
AcDbBlockReference
  2
_OPEN
 10
165.0980307113734
 20
63.94063542562056
 30
0.0
 50
89.99999999999991
  0
ENDBLK
  5
471
330
46F
100
AcDbEntity
  8
0
100
AcDbBlockEnd
  0
BLOCK
  5
47A
330
479
100
AcDbEntity
  8
0
100
AcDbBlockBegin
  2
Dim10
 70
     0
 10
0.0
 20
0.0
 30
0.0
  3
Dim10
  1

  0
LINE
  5
47C
330
479
100
AcDbEntity
  8
25
  6
Continuous
 62
     7
370
     9
100
AcDbLine
 10
178.5480307113735
 20
31.19063542562049
 30
0.0
 11
168.5768358134222
 21
31.19063542562053
 31
0.0
  0
LINE
  5
47D
330
479
100
AcDbEntity
  8
25
  6
Continuous
 62
     7
370
     9
100
AcDbLine
 10
178.5480307113735
 20
63.19063542562049
 30
0.0
 11
168.5768358134222
 21
63.19063542562053
 31
0.0
  0
LINE
  5
47E
330
479
100
AcDbEntity
  8
25
  6
Continuous
 62
     7
370
     9
100
AcDbLine
 10
169.5768358134222
 20
31.19063542562052
 30
0.0
 11
169.5768358134222
 21
63.19063542562053
 31
0.0
  0
MTEXT
  5
47F
330
479
100
AcDbEntity
  8
25
  6
Continuous
 62
     7
370
     9
100
AcDbMText
 10
169.0768358134222
 20
47.34213491057596
 30
0.0
 40
2.0
 41
24.51
 46
2.0
 71
     8
 72
     1
  1
φ32
  7
ＭＳ ゴシック
 11
1.615544574432587E-15
 21
1.0
 31
0.0
 73
     1
 44
1.0
1001
ACAD
1000
ACAD_MTEXT_DEFINED_HEIGHT_BEGIN
1070
    46
1040
2.0
1000
ACAD_MTEXT_DEFINED_HEIGHT_END
  0
INSERT
  5
480
330
479
100
AcDbEntity
  8
25
  6
Continuous
 62
     7
370
     9
100
AcDbBlockReference
  2
_OPEN
 10
169.5768358134222
 20
31.19063542562052
 30
0.0
 50
269.9999999999998
  0
INSERT
  5
481
330
479
100
AcDbEntity
  8
25
  6
Continuous
 62
     7
370
     9
100
AcDbBlockReference
  2
_OPEN
 10
169.5768358134222
 20
63.19063542562053
 30
0.0
 50
89.99999999999991
  0
ENDBLK
  5
47B
330
479
100
AcDbEntity
  8
0
100
AcDbBlockEnd
  0
BLOCK
  5
484
330
483
100
AcDbEntity
  8
0
100
AcDbBlockBegin
  2
Dim11
 70
     0
 10
0.0
 20
0.0
 30
0.0
  3
Dim11
  1

  0
LINE
  5
486
330
483
100
AcDbEntity
  8
25
  6
Continuous
 62
     7
370
     9
100
AcDbLine
 10
186.5480307113736
 20
28.74063542562055
 30
0.0
 11
186.5480307113743
 21
19.90121412709358
 31
0.0
  0
LINE
  5
487
330
483
100
AcDbEntity
  8
25
  6
Continuous
 62
     7
370
     9
100
AcDbLine
 10
180.3480307113736
 20
29.39063542562053
 30
0.0
 11
180.3480307113743
 21
19.90121412709359
 31
0.0
  0
LINE
  5
488
330
483
100
AcDbEntity
  8
25
  6
Continuous
 62
     7
370
     9
100
AcDbLine
 10
186.5480307113742
 20
20.90121412709358
 30
0.0
 11
180.3480307113742
 21
20.90121412709359
 31
0.0
  0
MTEXT
  5
489
330
483
100
AcDbEntity
  8
25
  6
Continuous
 62
     7
370
     9
100
AcDbMText
 10
183.4070005789482
 20
21.40121412709358
 30
0.0
 40
2.0
 41
33.55
 46
2.0
 71
     8
 72
     1
  1
(6.2)
  7
ＭＳ ゴシック
 73
     1
 44
1.0
1001
ACAD
1000
ACAD_MTEXT_DEFINED_HEIGHT_BEGIN
1070
    46
1040
2.0
1000
ACAD_MTEXT_DEFINED_HEIGHT_END
  0
INSERT
  5
48A
330
483
100
AcDbEntity
  8
25
  6
Continuous
 62
     7
370
     9
100
AcDbBlockReference
  2
_OPEN
 10
186.5480307113742
 20
20.90121412709358
 30
0.0
 50
359.9999999999997
  0
INSERT
  5
48B
330
483
100
AcDbEntity
  8
25
  6
Continuous
 62
     7
370
     9
100
AcDbBlockReference
  2
_OPEN
 10
180.3480307113742
 20
20.90121412709359
 30
0.0
 50
179.9999999999997
  0
ENDBLK
  5
485
330
483
100
AcDbEntity
  8
0
100
AcDbBlockEnd
  0
BLOCK
  5
48E
330
48D
100
AcDbEntity
  8
0
100
AcDbBlockBegin
  2
Dim12
 70
     0
 10
0.0
 20
0.0
 30
0.0
  3
Dim12
  1

  0
LINE
  5
490
330
48D
100
AcDbEntity
  8
25
  6
Continuous
 62
     7
370
     9
100
AcDbLine
 10
220.2480307113735
 20
31.19063542562047
 30
0.0
 11
244.6150169972497
 21
31.19063542562029
 31
0.0
  0
LINE
  5
491
330
48D
100
AcDbEntity
  8
25
  6
Continuous
 62
     7
370
     9
100
AcDbLine
 10
220.2480307113735
 20
63.19063542562047
 30
0.0
 11
244.6150169972497
 21
63.19063542562029
 31
0.0
  0
LINE
  5
492
330
48D
100
AcDbEntity
  8
25
  6
Continuous
 62
     7
370
     9
100
AcDbLine
 10
243.6150169972497
 20
31.1906354256203
 30
0.0
 11
243.6150169972497
 21
63.1906354256203
 31
0.0
  0
MTEXT
  5
493
330
48D
100
AcDbEntity
  8
25
  6
Continuous
 62
     7
370
     9
100
AcDbMText
 10
243.1150169972497
 20
46.93317842557386
 30
0.0
 40
2.0
 41
24.51
 46
2.0
 71
     8
 72
     1
  1
φ32
  7
ＭＳ ゴシック
 11
1.615544574432587E-15
 21
1.0
 31
0.0
 73
     1
 44
1.0
1001
ACAD
1000
ACAD_MTEXT_DEFINED_HEIGHT_BEGIN
1070
    46
1040
2.0
1000
ACAD_MTEXT_DEFINED_HEIGHT_END
  0
INSERT
  5
494
330
48D
100
AcDbEntity
  8
25
  6
Continuous
 62
     7
370
     9
100
AcDbBlockReference
  2
_OPEN
 10
243.6150169972497
 20
31.1906354256203
 30
0.0
 50
269.9999999999998
  0
INSERT
  5
495
330
48D
100
AcDbEntity
  8
25
  6
Continuous
 62
     7
370
     9
100
AcDbBlockReference
  2
_OPEN
 10
243.6150169972497
 20
63.1906354256203
 30
0.0
 50
89.99999999999991
  0
ENDBLK
  5
48F
330
48D
100
AcDbEntity
  8
0
100
AcDbBlockEnd
  0
BLOCK
  5
49D
330
49C
100
AcDbEntity
  8
0
100
AcDbBlockBegin
  2
*G28
 70
     1
 10
0.0
 20
0.0
 30
0.0
  3
*G28
  1

  0
LINE
  5
49F
330
49C
100
AcDbEntity
  8
1
  6
Continuous
 62
     7
370
     9
100
AcDbLine
 10
182.9991154943373
 20
62.14063542562047
 30
0.0
 11
183.6898997751244
 21
62.8314197064076
 31
0.0
  0
LINE
  5
4A0
330
49C
100
AcDbEntity
  8
1
  6
Continuous
 62
     7
370
     9
100
AcDbLine
 10
182.2920087131508
 20
62.14063542562047
 30
0.0
 11
183.3420087131508
 21
63.19063542562048
 31
0.0
  0
LINE
  5
4A1
330
49C
100
AcDbEntity
  8
1
  6
Continuous
 62
     7
370
     9
100
AcDbLine
 10
181.5849019319642
 20
62.14063542562047
 30
0.0
 11
182.6349019319642
 21
63.19063542562048
 31
0.0
  0
LINE
  5
4A2
330
49C
100
AcDbEntity
  8
1
  6
Continuous
 62
     7
370
     9
100
AcDbLine
 10
180.8777951507776
 20
62.14063542562047
 30
0.0
 11
181.9277951507777
 21
63.19063542562048
 31
0.0
  0
LINE
  5
4A3
330
49C
100
AcDbEntity
  8
1
  6
Continuous
 62
     7
370
     9
100
AcDbLine
 10
180.4093595404823
 20
62.37930659651166
 30
0.0
 11
181.2206883695911
 21
63.19063542562048
 31
0.0
  0
ENDBLK
  5
49E
330
49C
100
AcDbEntity
  8
0
100
AcDbBlockEnd
  0
ENDSEC
  0
SECTION
  2
ENTITIES
  0
POLYLINE
  5
B4
330
1F
100
AcDbEntity
  8
1
  6
Continuous
 62
     7
370
     9
100
AcDb2dPolyline
 66
     1
 10
0.0
 20
0.0
 30
0.0
 70
     2
  0
VERTEX
  5
B5
330
B4
100
AcDbEntity
  8
1
  6
Continuous
 62
     7
370
     9
100
AcDbVertex
100
AcDb2dVertex
 10
180.3480307113735
 20
60.44968765006399
 30
0.0
  0
VERTEX
  5
B6
330
B4
100
AcDbEntity
  8
1
  6
Continuous
 62
     7
370
     9
100
AcDbVertex
100
AcDb2dVertex
 10
180.355252149008
 20
60.44654357087743
 30
0.0
  0
VERTEX
  5
B7
330
B4
100
AcDbEntity
  8
1
  6
Continuous
 62
     7
370
     9
100
AcDbVertex
100
AcDb2dVertex
 10
180.3767179721802
 20
60.4372024707093
 30
0.0
  0
VERTEX
  5
B8
330
B4
100
AcDbEntity
  8
1
  6
Continuous
 62
     7
370
     9
100
AcDbVertex
100
AcDb2dVertex
 10
180.4118296401383
 20
60.4219655278991
 30
0.0
  0
VERTEX
  5
B9
330
B4
100
AcDbEntity
  8
1
  6
Continuous
 62
     7
370
     9
100
AcDbVertex
100
AcDb2dVertex
 10
180.459582434709
 20
60.40141579178483
 30
0.0
  0
VERTEX
  5
BA
330
B4
100
AcDbEntity
  8
1
  6
Continuous
 62
     7
370
     9
100
AcDbVertex
100
AcDb2dVertex
 10
180.5185646314801
 20
60.37650293653218
 30
0.0
  0
VERTEX
  5
BB
330
B4
100
AcDbEntity
  8
1
  6
Continuous
 62
     7
370
     9
100
AcDbVertex
100
AcDb2dVertex
 10
180.5869730837289
 20
60.34859908175137
 30
0.0
  0
VERTEX
  5
BC
330
B4
100
AcDbEntity
  8
1
  6
Continuous
 62
     7
370
     9
100
AcDbVertex
100
AcDb2dVertex
 10
180.6626556554078
 20
60.31948543619342
 30
0.0
  0
VERTEX
  5
BD
330
B4
100
AcDbEntity
  8
1
  6
Continuous
 62
     7
370
     9
100
AcDbVertex
100
AcDb2dVertex
 10
180.7431867796294
 20
60.29124362687283
 30
0.0
  0
VERTEX
  5
BE
330
B4
100
AcDbEntity
  8
1
  6
Continuous
 62
     7
370
     9
100
AcDbVertex
100
AcDb2dVertex
 10
180.8259756668544
 20
60.26604902646335
 30
0.0
  0
VERTEX
  5
BF
330
B4
100
AcDbEntity
  8
1
  6
Continuous
 62
     7
370
     9
100
AcDbVertex
100
AcDb2dVertex
 10
180.9083989535609
 20
60.24589045982169
 30
0.0
  0
VERTEX
  5
C0
330
B4
100
AcDbEntity
  8
1
  6
Continuous
 62
     7
370
     9
100
AcDbVertex
100
AcDb2dVertex
 10
180.9879428114825
 20
60.23226443961163
 30
0.0
  0
VERTEX
  5
C1
330
B4
100
AcDbEntity
  8
1
  6
Continuous
 62
     7
370
     9
100
AcDbVertex
100
AcDb2dVertex
 10
181.0623355263743
 20
60.22590615552023
 30
0.0
  0
VERTEX
  5
C2
330
B4
100
AcDbEntity
  8
1
  6
Continuous
 62
     7
370
     9
100
AcDbVertex
100
AcDb2dVertex
 10
181.129651500595
 20
60.22661956070481
 30
0.0
  0
VERTEX
  5
C3
330
B4
100
AcDbEntity
  8
1
  6
Continuous
 62
     7
370
     9
100
AcDbVertex
100
AcDb2dVertex
 10
181.188371817913
 20
60.23325405841754
 30
0.0
  0
VERTEX
  5
C4
330
B4
100
AcDbEntity
  8
1
  6
Continuous
 62
     7
370
     9
100
AcDbVertex
100
AcDb2dVertex
 10
181.2373942020273
 20
60.24384809099897
 30
0.0
  0
VERTEX
  5
C5
330
B4
100
AcDbEntity
  8
1
  6
Continuous
 62
     7
370
     9
100
AcDbVertex
100
AcDb2dVertex
 10
181.2759948064589
 20
60.25592605581641
 30
0.0
  0
VERTEX
  5
C6
330
B4
100
AcDbEntity
  8
1
  6
Continuous
 62
     7
370
     9
100
AcDbVertex
100
AcDb2dVertex
 10
181.3037536886082
 20
60.26690190936863
 30
0.0
  0
VERTEX
  5
C7
330
B4
100
AcDbEntity
  8
1
  6
Continuous
 62
     7
370
     9
100
AcDbVertex
100
AcDb2dVertex
 10
181.3204629187345
 20
60.27451813777432
 30
0.0
  0
VERTEX
  5
C8
330
B4
100
AcDbEntity
  8
1
  6
Continuous
 62
     7
370
     9
100
AcDbVertex
100
AcDb2dVertex
 10
181.3260394067485
 20
60.27723832970196
 30
0.0
  0
VERTEX
  5
C9
330
B4
100
AcDbEntity
  8
1
  6
Continuous
 62
     7
370
     9
100
AcDbVertex
100
AcDb2dVertex
 10
181.3315933816577
 20
60.28003878934546
 30
0.0
  0
VERTEX
  5
CA
330
B4
100
AcDbEntity
  8
1
  6
Continuous
 62
     7
370
     9
100
AcDbVertex
100
AcDb2dVertex
 10
181.3479733725503
 20
60.28882926331446
 30
0.0
  0
VERTEX
  5
CB
330
B4
100
AcDbEntity
  8
1
  6
Continuous
 62
     7
370
     9
100
AcDbVertex
100
AcDb2dVertex
 10
181.3743723259498
 20
60.30465839452897
 30
0.0
  0
VERTEX
  5
CC
330
B4
100
AcDbEntity
  8
1
  6
Continuous
 62
     7
370
     9
100
AcDbVertex
100
AcDb2dVertex
 10
181.4095658110074
 20
60.32890727134932
 30
0.0
  0
VERTEX
  5
CD
330
B4
100
AcDbEntity
  8
1
  6
Continuous
 62
     7
370
     9
100
AcDbVertex
100
AcDb2dVertex
 10
181.4520652725623
 20
60.36283343210838
 30
0.0
  0
VERTEX
  5
CE
330
B4
100
AcDbEntity
  8
1
  6
Continuous
 62
     7
370
     9
100
AcDbVertex
100
AcDb2dVertex
 10
181.5002839097417
 20
60.40709722929034
 30
0.0
  0
VERTEX
  5
CF
330
B4
100
AcDbEntity
  8
1
  6
Continuous
 62
     7
370
     9
100
AcDbVertex
100
AcDb2dVertex
 10
181.5526806892781
 20
60.46138685664194
 30
0.0
  0
VERTEX
  5
D0
330
B4
100
AcDbEntity
  8
1
  6
Continuous
 62
     7
370
     9
100
AcDbVertex
100
AcDb2dVertex
 10
181.6078545362773
 20
60.52423557269663
 30
0.0
  0
VERTEX
  5
D1
330
B4
100
AcDbEntity
  8
1
  6
Continuous
 62
     7
370
     9
100
AcDbVertex
100
AcDb2dVertex
 10
181.6645738062305
 20
60.59307954913437
 30
0.0
  0
VERTEX
  5
D2
330
B4
100
AcDbEntity
  8
1
  6
Continuous
 62
     7
370
     9
100
AcDbVertex
100
AcDb2dVertex
 10
181.721742554323
 20
60.66454816327997
 30
0.0
  0
VERTEX
  5
D3
330
B4
100
AcDbEntity
  8
1
  6
Continuous
 62
     7
370
     9
100
AcDbVertex
100
AcDb2dVertex
 10
181.7783209068024
 20
60.7349240091882
 30
0.0
  0
VERTEX
  5
D4
330
B4
100
AcDbEntity
  8
1
  6
Continuous
 62
     7
370
     9
100
AcDbVertex
100
AcDb2dVertex
 10
181.8332281894488
 20
60.80067046235728
 30
0.0
  0
VERTEX
  5
D5
330
B4
100
AcDbEntity
  8
1
  6
Continuous
 62
     7
370
     9
100
AcDbVertex
100
AcDb2dVertex
 10
181.8852616441374
 20
60.85890967968787
 30
0.0
  0
VERTEX
  5
D6
330
B4
100
AcDbEntity
  8
1
  6
Continuous
 62
     7
370
     9
100
AcDbVertex
100
AcDb2dVertex
 10
181.9330595678585
 20
60.90774692035494
 30
0.0
  0
VERTEX
  5
D7
330
B4
100
AcDbEntity
  8
1
  6
Continuous
 62
     7
370
     9
100
AcDbVertex
100
AcDb2dVertex
 10
181.9751265181761
 20
60.94637477453936
 30
0.0
  0
VERTEX
  5
D8
330
B4
100
AcDbEntity
  8
1
  6
Continuous
 62
     7
370
     9
100
AcDbVertex
100
AcDb2dVertex
 10
182.0099225635208
 20
60.97494409328839
 30
0.0
  0
VERTEX
  5
D9
330
B4
100
AcDbEntity
  8
1
  6
Continuous
 62
     7
370
     9
100
AcDbVertex
100
AcDb2dVertex
 10
182.036002217492
 20
60.99424422801336
 30
0.0
  0
VERTEX
  5
DA
330
B4
100
AcDbEntity
  8
1
  6
Continuous
 62
     7
370
     9
100
AcDbVertex
100
AcDb2dVertex
 10
182.0521756502881
 20
61.00528012998608
 30
0.0
  0
VERTEX
  5
DB
330
B4
100
AcDbEntity
  8
1
  6
Continuous
 62
     7
370
     9
100
AcDbVertex
100
AcDb2dVertex
 10
182.0576581922075
 20
61.00885711516094
 30
0.0
  0
VERTEX
  5
DC
330
B4
100
AcDbEntity
  8
1
  6
Continuous
 62
     7
370
     9
100
AcDbVertex
100
AcDb2dVertex
 10
182.0631622344549
 20
61.01236455088568
 30
0.0
  0
VERTEX
  5
DD
330
B4
100
AcDbEntity
  8
1
  6
Continuous
 62
     7
370
     9
100
AcDbVertex
100
AcDb2dVertex
 10
182.0796484414965
 20
61.02238721910118
 30
0.0
  0
VERTEX
  5
DE
330
B4
100
AcDbEntity
  8
1
  6
Continuous
 62
     7
370
     9
100
AcDbVertex
100
AcDb2dVertex
 10
182.1070069264867
 20
61.0375328875326
 30
0.0
  0
VERTEX
  5
DF
330
B4
100
AcDbEntity
  8
1
  6
Continuous
 62
     7
370
     9
100
AcDbVertex
100
AcDb2dVertex
 10
182.1449565568734
 20
61.05581191124969
 30
0.0
  0
VERTEX
  5
E0
330
B4
100
AcDbEntity
  8
1
  6
Continuous
 62
     7
370
     9
100
AcDbVertex
100
AcDb2dVertex
 10
182.1929275732627
 20
61.07505221194038
 30
0.0
  0
VERTEX
  5
E1
330
B4
100
AcDbEntity
  8
1
  6
Continuous
 62
     7
370
     9
100
AcDbVertex
100
AcDb2dVertex
 10
182.2499488520118
 20
61.0933378799992
 30
0.0
  0
VERTEX
  5
E2
330
B4
100
AcDbEntity
  8
1
  6
Continuous
 62
     7
370
     9
100
AcDbVertex
100
AcDb2dVertex
 10
182.314575552435
 20
61.10937059670076
 30
0.0
  0
VERTEX
  5
E3
330
B4
100
AcDbEntity
  8
1
  6
Continuous
 62
     7
370
     9
100
AcDbVertex
100
AcDb2dVertex
 10
182.3848848460706
 20
61.12267232892419
 30
0.0
  0
VERTEX
  5
E4
330
B4
100
AcDbEntity
  8
1
  6
Continuous
 62
     7
370
     9
100
AcDbVertex
100
AcDb2dVertex
 10
182.4585522200645
 20
61.1335862020421
 30
0.0
  0
VERTEX
  5
E5
330
B4
100
AcDbEntity
  8
1
  6
Continuous
 62
     7
370
     9
100
AcDbVertex
100
AcDb2dVertex
 10
182.5330021174002
 20
61.14308084161525
 30
0.0
  0
VERTEX
  5
E6
330
B4
100
AcDbEntity
  8
1
  6
Continuous
 62
     7
370
     9
100
AcDbVertex
100
AcDb2dVertex
 10
182.6056089465636
 20
61.15241017609534
 30
0.0
  0
VERTEX
  5
E7
330
B4
100
AcDbEntity
  8
1
  6
Continuous
 62
     7
370
     9
100
AcDbVertex
100
AcDb2dVertex
 10
182.6739120770264
 20
61.1627145403912
 30
0.0
  0
VERTEX
  5
E8
330
B4
100
AcDbEntity
  8
1
  6
Continuous
 62
     7
370
     9
100
AcDbVertex
100
AcDb2dVertex
 10
182.7358043948434
 20
61.17466187119934
 30
0.0
  0
VERTEX
  5
E9
330
B4
100
AcDbEntity
  8
1
  6
Continuous
 62
     7
370
     9
100
AcDbVertex
100
AcDb2dVertex
 10
182.7896593843364
 20
61.18821685035173
 30
0.0
  0
VERTEX
  5
EA
330
B4
100
AcDbEntity
  8
1
  6
Continuous
 62
     7
370
     9
100
AcDbVertex
100
AcDb2dVertex
 10
182.8343753213906
 20
61.20259380267019
 30
0.0
  0
VERTEX
  5
EB
330
B4
100
AcDbEntity
  8
1
  6
Continuous
 62
     7
370
     9
100
AcDbVertex
100
AcDb2dVertex
 10
182.8693338207171
 20
61.21640383780803
 30
0.0
  0
VERTEX
  5
EC
330
B4
100
AcDbEntity
  8
1
  6
Continuous
 62
     7
370
     9
100
AcDbVertex
100
AcDb2dVertex
 10
182.8942892583845
 20
61.22795916170921
 30
0.0
  0
VERTEX
  5
ED
330
B4
100
AcDbEntity
  8
1
  6
Continuous
 62
     7
370
     9
100
AcDbVertex
100
AcDb2dVertex
 10
182.9092209093052
 20
61.23565919898331
 30
0.0
  0
VERTEX
  5
EE
330
B4
100
AcDbEntity
  8
1
  6
Continuous
 62
     7
370
     9
100
AcDbVertex
100
AcDb2dVertex
 10
182.9141873469107
 20
61.23836341045729
 30
0.0
  0
VERTEX
  5
EF
330
B4
100
AcDbEntity
  8
1
  6
Continuous
 62
     7
370
     9
100
AcDbVertex
100
AcDb2dVertex
 10
182.9191248550033
 20
61.24112619128677
 30
0.0
  0
VERTEX
  5
F0
330
B4
100
AcDbEntity
  8
1
  6
Continuous
 62
     7
370
     9
100
AcDbVertex
100
AcDb2dVertex
 10
182.9336317225791
 20
61.24967949726297
 30
0.0
  0
VERTEX
  5
F1
330
B4
100
AcDbEntity
  8
1
  6
Continuous
 62
     7
370
     9
100
AcDbVertex
100
AcDb2dVertex
 10
182.9568190638493
 20
61.26473338887291
 30
0.0
  0
VERTEX
  5
F2
330
B4
100
AcDbEntity
  8
1
  6
Continuous
 62
     7
370
     9
100
AcDbVertex
100
AcDb2dVertex
 10
182.9872958170908
 20
61.2872090734212
 30
0.0
  0
VERTEX
  5
F3
330
B4
100
AcDbEntity
  8
1
  6
Continuous
 62
     7
370
     9
100
AcDbVertex
100
AcDb2dVertex
 10
183.0232935890834
 20
61.31791255229974
 30
0.0
  0
VERTEX
  5
F4
330
B4
100
AcDbEntity
  8
1
  6
Continuous
 62
     7
370
     9
100
AcDbVertex
100
AcDb2dVertex
 10
183.0628213362474
 20
61.35719523107804
 30
0.0
  0
VERTEX
  5
F5
330
B4
100
AcDbEntity
  8
1
  6
Continuous
 62
     7
370
     9
100
AcDbVertex
100
AcDb2dVertex
 10
183.1038329475914
 20
61.40468458798421
 30
0.0
  0
VERTEX
  5
F6
330
B4
100
AcDbEntity
  8
1
  6
Continuous
 62
     7
370
     9
100
AcDbVertex
100
AcDb2dVertex
 10
183.1443899387651
 20
61.45915195078994
 30
0.0
  0
VERTEX
  5
F7
330
B4
100
AcDbEntity
  8
1
  6
Continuous
 62
     7
370
     9
100
AcDbVertex
100
AcDb2dVertex
 10
183.1828027562263
 20
61.51855248121006
 30
0.0
  0
VERTEX
  5
F8
330
B4
100
AcDbEntity
  8
1
  6
Continuous
 62
     7
370
     9
100
AcDbVertex
100
AcDb2dVertex
 10
183.2177373534892
 20
61.58023227293429
 30
0.0
  0
VERTEX
  5
F9
330
B4
100
AcDbEntity
  8
1
  6
Continuous
 62
     7
370
     9
100
AcDbVertex
100
AcDb2dVertex
 10
183.2482782320706
 20
61.64125864516586
 30
0.0
  0
VERTEX
  5
FA
330
B4
100
AcDbEntity
  8
1
  6
Continuous
 62
     7
370
     9
100
AcDbVertex
100
AcDb2dVertex
 10
183.2739443922081
 20
61.6988015064067
 30
0.0
  0
VERTEX
  5
FB
330
B4
100
AcDbEntity
  8
1
  6
Continuous
 62
     7
370
     9
100
AcDbVertex
100
AcDb2dVertex
 10
183.2946599329573
 20
61.75048274039489
 30
0.0
  0
VERTEX
  5
FC
330
B4
100
AcDbEntity
  8
1
  6
Continuous
 62
     7
370
     9
100
AcDbVertex
100
AcDb2dVertex
 10
183.3106857641428
 20
61.79461941997663
 30
0.0
  0
VERTEX
  5
FD
330
B4
100
AcDbEntity
  8
1
  6
Continuous
 62
     7
370
     9
100
AcDbVertex
100
AcDb2dVertex
 10
183.3225225720393
 20
61.8303130170754
 30
0.0
  0
VERTEX
  5
FE
330
B4
100
AcDbEntity
  8
1
  6
Continuous
 62
     7
370
     9
100
AcDbVertex
100
AcDb2dVertex
 10
183.3307975284229
 20
61.85737418052188
 30
0.0
  0
VERTEX
  5
FF
330
B4
100
AcDbEntity
  8
1
  6
Continuous
 62
     7
370
     9
100
AcDbVertex
100
AcDb2dVertex
 10
183.3361481492593
 20
61.87611200391831
 30
0.0
  0
VERTEX
  5
100
330
B4
100
AcDbEntity
  8
1
  6
Continuous
 62
     7
370
     9
100
AcDbVertex
100
AcDb2dVertex
 10
183.3391162582497
 20
61.88704848339813
 30
0.0
  0
VERTEX
  5
101
330
B4
100
AcDbEntity
  8
1
  6
Continuous
 62
     7
370
     9
100
AcDbVertex
100
AcDb2dVertex
 10
183.3400633731402
 20
61.89063542562053
 30
0.0
  0
VERTEX
  5
102
330
B4
100
AcDbEntity
  8
1
  6
Continuous
 62
     7
370
     9
100
AcDbVertex
100
AcDb2dVertex
 10
183.3409847221558
 20
61.89417506132983
 30
0.0
  0
VERTEX
  5
103
330
B4
100
AcDbEntity
  8
1
  6
Continuous
 62
     7
370
     9
100
AcDbVertex
100
AcDb2dVertex
 10
183.3435738667835
 20
61.90442219317985
 30
0.0
  0
VERTEX
  5
104
330
B4
100
AcDbEntity
  8
1
  6
Continuous
 62
     7
370
     9
100
AcDbVertex
100
AcDb2dVertex
 10
183.3473421086725
 20
61.92033227132058
 30
0.0
  0
VERTEX
  5
105
330
B4
100
AcDbEntity
  8
1
  6
Continuous
 62
     7
370
     9
100
AcDbVertex
100
AcDb2dVertex
 10
183.3515869951698
 20
61.94038437108256
 30
0.0
  0
VERTEX
  5
106
330
B4
100
AcDbEntity
  8
1
  6
Continuous
 62
     7
370
     9
100
AcDbVertex
100
AcDb2dVertex
 10
183.3555342871558
 20
61.96285917350997
 30
0.0
  0
VERTEX
  5
107
330
B4
100
AcDbEntity
  8
1
  6
Continuous
 62
     7
370
     9
100
AcDbVertex
100
AcDb2dVertex
 10
183.3584907339914
 20
61.98613670172578
 30
0.0
  0
VERTEX
  5
108
330
B4
100
AcDbEntity
  8
1
  6
Continuous
 62
     7
370
     9
100
AcDbVertex
100
AcDb2dVertex
 10
183.3599746852708
 20
62.00894866826737
 30
0.0
  0
VERTEX
  5
109
330
B4
100
AcDbEntity
  8
1
  6
Continuous
 62
     7
370
     9
100
AcDbVertex
100
AcDb2dVertex
 10
183.35979724241
 20
62.03053211826994
 30
0.0
  0
VERTEX
  5
10A
330
B4
100
AcDbEntity
  8
1
  6
Continuous
 62
     7
370
     9
100
AcDbVertex
100
AcDb2dVertex
 10
183.3580784463504
 20
62.05065512402692
 30
0.0
  0
VERTEX
  5
10B
330
B4
100
AcDbEntity
  8
1
  6
Continuous
 62
     7
370
     9
100
AcDbVertex
100
AcDb2dVertex
 10
183.355198080977
 20
62.06951579922502
 30
0.0
  0
VERTEX
  5
10C
330
B4
100
AcDbEntity
  8
1
  6
Continuous
 62
     7
370
     9
100
AcDbVertex
100
AcDb2dVertex
 10
183.351695470993
 20
62.08754556370189
 30
0.0
  0
VERTEX
  5
10D
330
B4
100
AcDbEntity
  8
1
  6
Continuous
 62
     7
370
     9
100
AcDbVertex
100
AcDb2dVertex
 10
183.3481437042008
 20
62.10516936631691
 30
0.0
  0
VERTEX
  5
10E
330
B4
100
AcDbEntity
  8
1
  6
Continuous
 62
     7
370
     9
100
AcDbVertex
100
AcDb2dVertex
 10
183.3450284818978
 20
62.12258436859823
 30
0.0
  0
VERTEX
  5
10F
330
B4
100
AcDbEntity
  8
1
  6
Continuous
 62
     7
370
     9
100
AcDbVertex
100
AcDb2dVertex
 10
183.3426592973212
 20
62.13961246050116
 30
0.0
  0
VERTEX
  5
110
330
B4
100
AcDbEntity
  8
1
  6
Continuous
 62
     7
370
     9
100
AcDbVertex
100
AcDb2dVertex
 10
183.3411316148643
 20
62.1556625779576
 30
0.0
  0
VERTEX
  5
111
330
B4
100
AcDbEntity
  8
1
  6
Continuous
 62
     7
370
     9
100
AcDbVertex
100
AcDb2dVertex
 10
183.340345482322
 20
62.16981095839636
 30
0.0
  0
VERTEX
  5
112
330
B4
100
AcDbEntity
  8
1
  6
Continuous
 62
     7
370
     9
100
AcDbVertex
100
AcDb2dVertex
 10
183.340071849552
 20
62.18097804245595
 30
0.0
  0
VERTEX
  5
113
330
B4
100
AcDbEntity
  8
1
  6
Continuous
 62
     7
370
     9
100
AcDbVertex
100
AcDb2dVertex
 10
183.3400462637366
 20
62.18815688247072
 30
0.0
  0
VERTEX
  5
114
330
B4
100
AcDbEntity
  8
1
  6
Continuous
 62
     7
370
     9
100
AcDbVertex
100
AcDb2dVertex
 10
183.3400633731402
 20
62.19063542562048
 30
0.0
  0
VERTEX
  5
115
330
B4
100
AcDbEntity
  8
1
  6
Continuous
 62
     7
370
     9
100
AcDbVertex
100
AcDb2dVertex
 10
183.3400938273076
 20
62.19314677040342
 30
0.0
  0
VERTEX
  5
116
330
B4
100
AcDbEntity
  8
1
  6
Continuous
 62
     7
370
     9
100
AcDbVertex
100
AcDb2dVertex
 10
183.3402634129584
 20
62.20080365488423
 30
0.0
  0
VERTEX
  5
117
330
B4
100
AcDbEntity
  8
1
  6
Continuous
 62
     7
370
     9
100
AcDbVertex
100
AcDb2dVertex
 10
183.3407960435629
 20
62.21393219098958
 30
0.0
  0
VERTEX
  5
118
330
B4
100
AcDbEntity
  8
1
  6
Continuous
 62
     7
370
     9
100
AcDbVertex
100
AcDb2dVertex
 10
183.3420302961219
 20
62.23294425401584
 30
0.0
  0
VERTEX
  5
119
330
B4
100
AcDbEntity
  8
1
  6
Continuous
 62
     7
370
     9
100
AcDbVertex
100
AcDb2dVertex
 10
183.3443716971912
 20
62.2581721027095
 30
0.0
  0
VERTEX
  5
11A
330
B4
100
AcDbEntity
  8
1
  6
Continuous
 62
     7
370
     9
100
AcDbVertex
100
AcDb2dVertex
 10
183.3482338445554
 20
62.28969337659408
 30
0.0
  0
VERTEX
  5
11B
330
B4
100
AcDbEntity
  8
1
  6
Continuous
 62
     7
370
     9
100
AcDbVertex
100
AcDb2dVertex
 10
183.3539752060657
 20
62.32718700048712
 30
0.0
  0
VERTEX
  5
11C
330
B4
100
AcDbEntity
  8
1
  6
Continuous
 62
     7
370
     9
100
AcDbVertex
100
AcDb2dVertex
 10
183.3618389889022
 20
62.36985353253212
 30
0.0
  0
VERTEX
  5
11D
330
B4
100
AcDbEntity
  8
1
  6
Continuous
 62
     7
370
     9
100
AcDbVertex
100
AcDb2dVertex
 10
183.3719031978723
 20
62.41641894758655
 30
0.0
  0
VERTEX
  5
11E
330
B4
100
AcDbEntity
  8
1
  6
Continuous
 62
     7
370
     9
100
AcDbVertex
100
AcDb2dVertex
 10
183.3840469335739
 20
62.46522221779183
 30
0.0
  0
VERTEX
  5
11F
330
B4
100
AcDbEntity
  8
1
  6
Continuous
 62
     7
370
     9
100
AcDbVertex
100
AcDb2dVertex
 10
183.3979372414363
 20
62.51436872057795
 30
0.0
  0
VERTEX
  5
120
330
B4
100
AcDbEntity
  8
1
  6
Continuous
 62
     7
370
     9
100
AcDbVertex
100
AcDb2dVertex
 10
183.4130386048743
 20
62.56191772718088
 30
0.0
  0
VERTEX
  5
121
330
B4
100
AcDbEntity
  8
1
  6
Continuous
 62
     7
370
     9
100
AcDbVertex
100
AcDb2dVertex
 10
183.4286447245346
 20
62.60606612058037
 30
0.0
  0
VERTEX
  5
122
330
B4
100
AcDbEntity
  8
1
  6
Continuous
 62
     7
370
     9
100
AcDbVertex
100
AcDb2dVertex
 10
183.4439298079843
 20
62.64529331138448
 30
0.0
  0
VERTEX
  5
123
330
B4
100
AcDbEntity
  8
1
  6
Continuous
 62
     7
370
     9
100
AcDbVertex
100
AcDb2dVertex
 10
183.4580144707045
 20
62.67844316874291
 30
0.0
  0
VERTEX
  5
124
330
B4
100
AcDbEntity
  8
1
  6
Continuous
 62
     7
370
     9
100
AcDbVertex
100
AcDb2dVertex
 10
183.4700397458645
 20
62.70473485961773
 30
0.0
  0
VERTEX
  5
125
330
B4
100
AcDbEntity
  8
1
  6
Continuous
 62
     7
370
     9
100
AcDbVertex
100
AcDb2dVertex
 10
183.4792417852812
 20
62.72371178212295
 30
0.0
  0
VERTEX
  5
126
330
B4
100
AcDbEntity
  8
1
  6
Continuous
 62
     7
370
     9
100
AcDbVertex
100
AcDb2dVertex
 10
183.4850197009911
 20
62.73515204814148
 30
0.0
  0
VERTEX
  5
127
330
B4
100
AcDbEntity
  8
1
  6
Continuous
 62
     7
370
     9
100
AcDbVertex
100
AcDb2dVertex
 10
183.4869896568801
 20
62.73897178150514
 30
0.0
  0
VERTEX
  5
128
330
B4
100
AcDbEntity
  8
1
  6
Continuous
 62
     7
370
     9
100
AcDbVertex
100
AcDb2dVertex
 10
183.4889728423049
 20
62.74277660604664
 30
0.0
  0
VERTEX
  5
129
330
B4
100
AcDbEntity
  8
1
  6
Continuous
 62
     7
370
     9
100
AcDbVertex
100
AcDb2dVertex
 10
183.4949456254457
 20
62.75399983654537
 30
0.0
  0
VERTEX
  5
12A
330
B4
100
AcDbEntity
  8
1
  6
Continuous
 62
     7
370
     9
100
AcDbVertex
100
AcDb2dVertex
 10
183.504963602959
 20
62.77208817350309
 30
0.0
  0
VERTEX
  5
12B
330
B4
100
AcDbEntity
  8
1
  6
Continuous
 62
     7
370
     9
100
AcDbVertex
100
AcDb2dVertex
 10
183.5190755536241
 20
62.79618396216706
 30
0.0
  0
VERTEX
  5
12C
330
B4
100
AcDbEntity
  8
1
  6
Continuous
 62
     7
370
     9
100
AcDbVertex
100
AcDb2dVertex
 10
183.5372676707674
 20
62.82521015898929
 30
0.0
  0
VERTEX
  5
12D
330
B4
100
AcDbEntity
  8
1
  6
Continuous
 62
     7
370
     9
100
AcDbVertex
100
AcDb2dVertex
 10
183.5594033449104
 20
62.85796824635382
 30
0.0
  0
VERTEX
  5
12E
330
B4
100
AcDbEntity
  8
1
  6
Continuous
 62
     7
370
     9
100
AcDbVertex
100
AcDb2dVertex
 10
183.5851716172428
 20
62.89323344229865
 30
0.0
  0
VERTEX
  5
12F
330
B4
100
AcDbEntity
  8
1
  6
Continuous
 62
     7
370
     9
100
AcDbVertex
100
AcDb2dVertex
 10
183.6140556292973
 20
62.92983338875229
 30
0.0
  0
VERTEX
  5
130
330
B4
100
AcDbEntity
  8
1
  6
Continuous
 62
     7
370
     9
100
AcDbVertex
100
AcDb2dVertex
 10
183.645328267878
 20
62.96670100267632
 30
0.0
  0
VERTEX
  5
131
330
B4
100
AcDbEntity
  8
1
  6
Continuous
 62
     7
370
     9
100
AcDbVertex
100
AcDb2dVertex
 10
183.6780767125581
 20
63.00289825175093
 30
0.0
  0
VERTEX
  5
132
330
B4
100
AcDbEntity
  8
1
  6
Continuous
 62
     7
370
     9
100
AcDbVertex
100
AcDb2dVertex
 10
183.7112519817358
 20
63.03761386440706
 30
0.0
  0
VERTEX
  5
133
330
B4
100
AcDbEntity
  8
1
  6
Continuous
 62
     7
370
     9
100
AcDbVertex
100
AcDb2dVertex
 10
183.7437350754369
 20
63.07014301105407
 30
0.0
  0
VERTEX
  5
134
330
B4
100
AcDbEntity
  8
1
  6
Continuous
 62
     7
370
     9
100
AcDbVertex
100
AcDb2dVertex
 10
183.7744088641235
 20
63.09985974297751
 30
0.0
  0
VERTEX
  5
135
330
B4
100
AcDbEntity
  8
1
  6
Continuous
 62
     7
370
     9
100
AcDbVertex
100
AcDb2dVertex
 10
183.8022249005144
 20
63.12619296427593
 30
0.0
  0
VERTEX
  5
136
330
B4
100
AcDbEntity
  8
1
  6
Continuous
 62
     7
370
     9
100
AcDbVertex
100
AcDb2dVertex
 10
183.8262566704099
 20
63.14861412691762
 30
0.0
  0
VERTEX
  5
137
330
B4
100
AcDbEntity
  8
1
  6
Continuous
 62
     7
370
     9
100
AcDbVertex
100
AcDb2dVertex
 10
183.845734747344
 20
63.16664047122778
 30
0.0
  0
VERTEX
  5
138
330
B4
100
AcDbEntity
  8
1
  6
Continuous
 62
     7
370
     9
100
AcDbVertex
100
AcDb2dVertex
 10
183.8600638215981
 20
63.17985267213128
 30
0.0
  0
VERTEX
  5
139
330
B4
100
AcDbEntity
  8
1
  6
Continuous
 62
     7
370
     9
100
AcDbVertex
100
AcDb2dVertex
 10
183.8688254977261
 20
63.18792147987789
 30
0.0
  0
VERTEX
  5
13A
330
B4
100
AcDbEntity
  8
1
  6
Continuous
 62
     7
370
     9
100
AcDbVertex
100
AcDb2dVertex
 10
183.8717731525549
 20
63.19063542562048
 30
0.0
  0
SEQEND
  5
13B
330
B4
100
AcDbEntity
  8
1
  6
Continuous
 62
     7
370
     9
  0
LINE
  5
13C
330
1F
100
AcDbEntity
  8
1
  6
Continuous
 62
     7
370
     9
100
AcDbLine
 10
130.0986704489465
 20
50.92280989279948
 30
0.0
 11
131.5128840113196
 21
52.33702345517258
 31
0.0
  0
LINE
  5
13D
330
1F
100
AcDbEntity
  8
1
  6
Continuous
 62
     7
370
     9
100
AcDbLine
 10
128.4601364369005
 20
50.74082253790039
 30
0.0
 11
131.6817987452237
 21
54.1345238804364
 31
0.0
  0
LINE
  5
13E
330
1F
100
AcDbEntity
  8
1
  6
Continuous
 62
     7
370
     9
100
AcDbLine
 10
128.6632903391864
 20
41.35819000255947
 30
0.0
 11
130.0775039015595
 21
42.77240356493257
 31
0.0
  0
LINE
  5
13F
330
1F
100
AcDbEntity
  8
1
  6
Continuous
 62
     7
370
     9
100
AcDbLine
 10
128.4601364369005
 20
39.74082253790039
 30
0.0
 11
131.6817987452237
 21
43.1345238804364
 31
0.0
  0
LINE
  5
140
330
1F
100
AcDbEntity
  8
1
  6
Continuous
 62
     7
370
     9
100
AcDbLine
 10
130.0986704489465
 20
39.92280989279948
 30
0.0
 11
131.5128840113196
 21
41.33702345517258
 31
0.0
  0
LINE
  5
141
330
1F
100
AcDbEntity
  8
1
  6
Continuous
 62
     7
370
     9
100
AcDbLine
 10
128.6632903391864
 20
52.35819000255947
 30
0.0
 11
130.0775039015595
 21
53.77240356493257
 31
0.0
  0
LINE
  5
142
330
1F
100
AcDbEntity
  8
1
  6
Continuous
 62
     7
370
     9
100
AcDbLine
 10
139.4601364369005
 20
50.74082253790039
 30
0.0
 11
142.6817987452237
 21
54.1345238804364
 31
0.0
  0
LINE
  5
143
330
1F
100
AcDbEntity
  8
1
  6
Continuous
 62
     7
370
     9
100
AcDbLine
 10
141.0986704489465
 20
50.92280989279948
 30
0.0
 11
142.5128840113196
 21
52.33702345517258
 31
0.0
  0
LINE
  5
144
330
1F
100
AcDbEntity
  8
1
  6
Continuous
 62
     7
370
     9
100
AcDbLine
 10
139.4601364369005
 20
39.74082253790039
 30
0.0
 11
142.6817987452237
 21
43.1345238804364
 31
0.0
  0
LINE
  5
145
330
1F
100
AcDbEntity
  8
1
  6
Continuous
 62
     7
370
     9
100
AcDbLine
 10
139.6632903391864
 20
41.35819000255947
 30
0.0
 11
141.0775039015595
 21
42.77240356493257
 31
0.0
  0
LINE
  5
146
330
1F
100
AcDbEntity
  8
1
  6
Continuous
 62
     7
370
     9
100
AcDbLine
 10
141.0986704489465
 20
39.92280989279948
 30
0.0
 11
142.5128840113196
 21
41.33702345517258
 31
0.0
  0
LINE
  5
147
330
1F
100
AcDbEntity
  8
1
  6
Continuous
 62
     7
370
     9
100
AcDbLine
 10
139.6632903391864
 20
52.35819000255947
 30
0.0
 11
141.0775039015595
 21
53.77240356493257
 31
0.0
  0
LINE
  5
148
330
1F
100
AcDbEntity
  8
1
  6
Continuous
 62
     7
370
     9
100
AcDbLine
 10
180.6480307113735
 20
62.14063542562042
 30
0.0
 11
183.3401509654177
 21
62.14063542562053
 31
0.0
  0
LINE
  5
149
330
1F
100
AcDbEntity
  8
1
  6
Continuous
 62
     7
370
     9
100
AcDbLine
 10
180.3480307113735
 20
62.44063542562048
 30
0.0
 11
183.3713916814476
 21
62.44063542562048
 31
0.0
  0
LINE
  5
14A
330
1F
100
AcDbEntity
  8
1
  6
Continuous
 62
     7
370
     9
100
AcDbLine
 10
180.6480307113735
 20
62.14063542562042
 30
0.0
 11
180.6480307113735
 21
60.32960548522192
 31
0.0
  0
LINE
  5
14B
330
1F
100
AcDbEntity
  8
1
  6
Continuous
 62
     7
370
     9
100
AcDbLine
 10
180.3480307113735
 20
62.44063542562048
 30
0.0
 11
180.6480307113735
 21
62.14063542562042
 31
0.0
  0
ELLIPSE
  5
14C
330
1F
100
AcDbEntity
  8
1
  6
Continuous
 62
     7
370
     9
100
AcDbEllipse
 10
200.1480307113735
 20
61.56665712844222
 30
0.0
 11
1.25
 21
0.0
 31
0.0
210
0.0
220
0.0
230
1.0
 40
0.467039104197238
 41
0.0
 42
6.283185307179586
  0
ELLIPSE
  5
14D
330
1F
100
AcDbEntity
  8
1
  6
Continuous
 62
     7
370
     9
100
AcDbEllipse
 10
188.9480307113735
 20
61.69656124516143
 30
0.0
 11
-0.8499999999999943
 21
2.746425776535379E-15
 31
0.0
210
0.0
220
0.0
230
1.0
 40
0.5219879437762297
 41
0.0
 42
6.283185307179586
  0
ELLIPSE
  5
14E
330
1F
100
AcDbEntity
  8
1
  6
Continuous
 62
     7
370
     9
100
AcDbEllipse
 10
200.1480307113735
 20
28.74429432501188
 30
0.0
 11
1.700000000000017
 21
0.0
 31
0.0
210
0.0
220
0.0
230
1.0
 40
0.5000000000000334
 41
0.0
 42
6.283185307179586
  0
ELLIPSE
  5
14F
330
1F
100
AcDbEntity
  8
1
  6
Continuous
 62
     7
370
     9
100
AcDbEllipse
 10
200.1480307113735
 20
32.20839594014967
 30
0.0
 11
2.0
 21
0.0
 31
0.0
210
0.0
220
0.0
230
1.0
 40
0.500000000000032
 41
0.0
 42
3.14159265358979
  0
ELLIPSE
  5
150
330
1F
100
AcDbEntity
  8
1
  6
Continuous
 62
     7
370
     9
100
AcDbEllipse
 10
200.1480307113735
 20
29.00410194614722
 30
0.0
 11
2.0
 21
0.0
 31
0.0
210
0.0
220
0.0
230
1.0
 40
0.500000000000032
 41
-1.057926349532212
 42
4.199519003122008
  0
ELLIPSE
  5
151
330
1F
100
AcDbEntity
  8
1
  6
Continuous
 62
     7
370
     9
100
AcDbEllipse
 10
188.9480307113734
 20
32.68470991223114
 30
0.0
 11
-0.8499999999999943
 21
2.746425776535379E-15
 31
0.0
210
0.0
220
0.0
230
1.0
 40
0.5219879437762297
 41
0.0
 42
6.283185307179586
  0
CIRCLE
  5
152
330
1F
100
AcDbEntity
  8
1
  6
Continuous
 62
     7
370
     9
100
AcDbCircle
 10
135.8324009867355
 20
47.19063542562048
 30
0.0
 40
12.00000000000011
  0
CIRCLE
  5
153
330
1F
100
AcDbEntity
  8
1
  6
Continuous
 62
     7
370
     9
100
AcDbCircle
 10
135.8324009867355
 20
47.19063542562048
 30
0.0
 40
12.68984306069784
  0
CIRCLE
  5
154
330
1F
100
AcDbEntity
  8
1
  6
Continuous
 62
     7
370
     9
100
AcDbCircle
 10
135.8324009867355
 20
47.19063542562048
 30
0.0
 40
16.45
  0
CIRCLE
  5
155
330
1F
100
AcDbEntity
  8
1
  6
Continuous
 62
     7
370
     9
100
AcDbCircle
 10
135.8324009867355
 20
47.19063542562048
 30
0.0
 40
15.0
  0
CIRCLE
  5
156
330
1F
100
AcDbEntity
  8
1
  6
Continuous
 62
     7
370
     9
100
AcDbCircle
 10
135.8324009867355
 20
47.19063542562048
 30
0.0
 40
16.0
  0
ARC
  5
157
330
1F
100
AcDbEntity
  8
1
  6
Continuous
 62
     7
370
     9
100
AcDbCircle
 10
135.8324009867355
 20
47.19063542562048
 30
0.0
 40
16.75
100
AcDbArc
 50
162.1942615943658
 51
165.8053344278492
  0
LINE
  5
158
330
1F
100
AcDbEntity
  8
1
  6
Continuous
 62
     7
370
     9
100
AcDbLine
 10
125.0221758894367
 20
34.39604542258678
 30
0.0
 11
125.4312585699156
 21
34.44627445988237
 31
0.0
  0
LINE
  5
159
330
1F
100
AcDbEntity
  8
1
  6
Continuous
 62
     7
370
     9
100
AcDbLine
 10
120.7527403656389
 20
39.8991105129187
 30
0.0
 11
121.1468859802053
 21
39.77860810558332
 31
0.0
  0
LINE
  5
15A
330
1F
100
AcDbEntity
  8
1
  6
Continuous
 62
     7
370
     9
100
AcDbLine
 10
119.5938088942189
 20
51.29802228990059
 30
0.0
 11
119.8182844976647
 21
50.95236017292336
 31
0.0
  0
LINE
  5
15B
330
1F
100
AcDbEntity
  8
1
  6
Continuous
 62
     7
370
     9
100
AcDbLine
 10
119.327104310091
 20
50.04329762362943
 30
0.0
 11
119.6727687626962
 21
50.26777474384971
 31
0.0
  0
LINE
  5
15C
330
1F
100
AcDbEntity
  8
1
  6
Continuous
 62
     7
370
     9
100
AcDbLine
 10
119.327084197115
 20
44.33808960227702
 30
0.0
 11
119.6727463140922
 21
44.11361399883128
 31
0.0
  0
ARC
  5
15D
330
1F
100
AcDbEntity
  8
1
  6
Continuous
 62
     7
370
     9
100
AcDbCircle
 10
135.8324009867355
 20
47.19063542562048
 30
0.0
 40
16.75
100
AcDbArc
 50
170.1942615943693
 51
189.8053344278508
  0
LINE
  5
15E
330
1F
100
AcDbEntity
  8
1
  6
Continuous
 62
     7
370
     9
100
AcDbLine
 10
119.593779934496
 20
43.08336305557168
 30
0.0
 11
119.8182570547163
 21
43.42902750817689
 31
0.0
  0
LINE
  5
15F
330
1F
100
AcDbEntity
  8
1
  6
Continuous
 62
     7
370
     9
100
AcDbLine
 10
119.8847104533756
 20
42.06875426220154
 30
0.0
 11
120.2582495762132
 21
41.8945701086019
 31
0.0
  0
ARC
  5
160
330
1F
100
AcDbEntity
  8
1
  6
Continuous
 62
     7
370
     9
100
AcDbCircle
 10
135.8324009867355
 20
47.19063542562048
 30
0.0
 40
16.75
100
AcDbArc
 50
194.1942615943645
 51
197.8053344278536
  0
LINE
  5
161
330
1F
100
AcDbEntity
  8
1
  6
Continuous
 62
     7
370
     9
100
AcDbLine
 10
120.3234349105354
 20
40.86335550078104
 30
0.0
 11
120.4976202410919
 21
41.23689714761076
 31
0.0
  0
ARC
  5
162
330
1F
100
AcDbEntity
  8
1
  6
Continuous
 62
     7
370
     9
100
AcDbCircle
 10
135.8324009867355
 20
47.19063542562048
 30
0.0
 40
16.75
100
AcDbArc
 50
202.1942615943671
 51
205.8053344278528
  0
LINE
  5
163
330
1F
100
AcDbEntity
  8
1
  6
Continuous
 62
     7
370
     9
100
AcDbLine
 10
121.3549542700606
 20
38.76650125255321
 30
0.0
 11
121.4754574916268
 21
39.16064953034902
 31
0.0
  0
ARC
  5
164
330
1F
100
AcDbEntity
  8
1
  6
Continuous
 62
     7
370
     9
100
AcDbCircle
 10
135.8324009867355
 20
47.19063542562048
 30
0.0
 40
16.75
100
AcDbArc
 50
210.1942615943683
 51
213.8053344278538
  0
LINE
  5
165
330
1F
100
AcDbEntity
  8
1
  6
Continuous
 62
     7
370
     9
100
AcDbLine
 10
121.9142787190322
 20
37.87138800207481
 30
0.0
 11
122.3213592292738
 21
37.80691278329323
 31
0.0
  0
LINE
  5
166
330
1F
100
AcDbEntity
  8
1
  6
Continuous
 62
     7
370
     9
100
AcDbLine
 10
122.6682606620742
 20
36.83361319369362
 30
0.0
 11
122.7327363165129
 21
37.2406964545653
 31
0.0
  0
ARC
  5
167
330
1F
100
AcDbEntity
  8
1
  6
Continuous
 62
     7
370
     9
100
AcDbCircle
 10
135.8324009867355
 20
47.19063542562048
 30
0.0
 40
16.75
100
AcDbArc
 50
218.1942615943704
 51
221.8053344278531
  0
LINE
  5
168
330
1F
100
AcDbEntity
  8
1
  6
Continuous
 62
     7
370
     9
100
AcDbLine
 10
123.3467174907368
 20
36.02505404184342
 30
0.0
 11
123.758809537569
 21
36.01786094840963
 31
0.0
  0
LINE
  5
169
330
1F
100
AcDbEntity
  8
1
  6
Continuous
 62
     7
370
     9
100
AcDbLine
 10
124.2377920715198
 20
35.1023127916402
 30
0.0
 11
124.2449852135571
 21
35.51440762296534
 31
0.0
  0
ARC
  5
16A
330
1F
100
AcDbEntity
  8
1
  6
Continuous
 62
     7
370
     9
100
AcDbCircle
 10
135.8324009867355
 20
47.19063542562048
 30
0.0
 40
16.75
100
AcDbArc
 50
226.194261594368
 51
229.8053344278542
  0
LINE
  5
16B
330
1F
100
AcDbEntity
  8
1
  6
Continuous
 62
     7
370
     9
100
AcDbLine
 10
128.0189408442468
 20
32.37468656630881
 30
0.0
 11
127.9122666065084
 21
32.77280024140691
 31
0.0
  0
LINE
  5
16C
330
1F
100
AcDbEntity
  8
1
  6
Continuous
 62
     7
370
     9
100
AcDbLine
 10
128.9676126334299
 20
31.91198427886275
 30
0.0
 11
129.3470031456206
 21
32.07302599679667
 31
0.0
  0
ARC
  5
16D
330
1F
100
AcDbEntity
  8
1
  6
Continuous
 62
     7
370
     9
100
AcDbCircle
 10
135.8324009867355
 20
47.19063542562048
 30
0.0
 40
16.75
100
AcDbArc
 50
242.1942615943664
 51
245.8053344278514
  0
LINE
  5
16E
330
1F
100
AcDbEntity
  8
1
  6
Continuous
 62
     7
370
     9
100
AcDbLine
 10
133.4449098945219
 20
30.61166120268979
 30
0.0
 11
133.7652143483858
 21
30.87103863519008
 31
0.0
  0
LINE
  5
16F
330
1F
100
AcDbEntity
  8
1
  6
Continuous
 62
     7
370
     9
100
AcDbLine
 10
131.1607975403692
 20
31.10528117898048
 30
0.0
 11
131.5140831749065
 21
31.31755660404212
 31
0.0
  0
LINE
  5
170
330
1F
100
AcDbEntity
  8
1
  6
Continuous
 62
     7
370
     9
100
AcDbLine
 10
132.4054500065209
 20
30.794949804726
 30
0.0
 11
132.193173147121
 21
31.14823782640315
 31
0.0
  0
ARC
  5
171
330
1F
100
AcDbEntity
  8
1
  6
Continuous
 62
     7
370
     9
100
AcDbCircle
 10
135.8324009867355
 20
47.19063542562048
 30
0.0
 40
16.75
100
AcDbArc
 50
250.1942615943664
 51
253.8053344278516
  0
LINE
  5
172
330
1F
100
AcDbEntity
  8
1
  6
Continuous
 62
     7
370
     9
100
AcDbLine
 10
130.1569624476601
 20
31.43145088487802
 30
0.0
 11
129.9959196415725
 21
31.8108439605985
 31
0.0
  0
ARC
  5
173
330
1F
100
AcDbEntity
  8
1
  6
Continuous
 62
     7
370
     9
100
AcDbCircle
 10
135.8324009867355
 20
47.19063542562048
 30
0.0
 40
16.75
100
AcDbArc
 50
258.1942615943676
 51
261.8053344278516
  0
LINE
  5
174
330
1F
100
AcDbEntity
  8
1
  6
Continuous
 62
     7
370
     9
100
AcDbLine
 10
126.9080430232066
 20
33.01606894410861
 30
0.0
 11
127.3061540082814
 21
33.12274246105744
 31
0.0
  0
LINE
  5
175
330
1F
100
AcDbEntity
  8
1
  6
Continuous
 62
     7
370
     9
100
AcDbLine
 10
126.0329993548278
 20
33.60629783939396
 30
0.0
 11
125.9827699781362
 21
34.01538328403171
 31
0.0
  0
ARC
  5
176
330
1F
100
AcDbEntity
  8
1
  6
Continuous
 62
     7
370
     9
100
AcDbCircle
 10
135.8324009867355
 20
47.19063542562048
 30
0.0
 40
16.75
100
AcDbArc
 50
234.1942615943653
 51
237.8053344278522
  0
LINE
  5
177
330
1F
100
AcDbEntity
  8
1
  6
Continuous
 62
     7
370
     9
100
AcDbLine
 10
125.0222661010631
 20
59.98530164844829
 30
0.0
 11
125.4313515457008
 21
59.93507227175667
 31
0.0
  0
LINE
  5
178
330
1F
100
AcDbEntity
  8
1
  6
Continuous
 62
     7
370
     9
100
AcDbLine
 10
120.7527917766774
 20
54.48226666094308
 30
0.0
 11
121.1469400544732
 21
54.60276988250928
 31
0.0
  0
LINE
  5
179
330
1F
100
AcDbEntity
  8
1
  6
Continuous
 62
     7
370
     9
100
AcDbLine
 10
120.3234795229415
 20
53.51802470002679
 30
0.0
 11
120.4976636765412
 21
53.14448557718924
 31
0.0
  0
LINE
  5
17A
330
1F
100
AcDbEntity
  8
1
  6
Continuous
 62
     7
370
     9
100
AcDbLine
 10
119.8847465668365
 20
52.31262903196932
 30
0.0
 11
120.2582882136661
 21
52.48681436252582
 31
0.0
  0
ARC
  5
17B
330
1F
100
AcDbEntity
  8
1
  6
Continuous
 62
     7
370
     9
100
AcDbCircle
 10
135.8324009867355
 20
47.19063542562048
 30
0.0
 40
16.75
100
AcDbArc
 50
154.1942615943704
 51
157.8053344278501
  0
LINE
  5
17C
330
1F
100
AcDbEntity
  8
1
  6
Continuous
 62
     7
370
     9
100
AcDbLine
 10
124.2378773034565
 20
59.27903980990061
 30
0.0
 11
124.2450703968903
 21
58.86694776306842
 31
0.0
  0
ARC
  5
17D
330
1F
100
AcDbEntity
  8
1
  6
Continuous
 62
     7
370
     9
100
AcDbCircle
 10
135.8324009867355
 20
47.19063542562048
 30
0.0
 40
16.75
100
AcDbArc
 50
130.1942615943694
 51
133.80533442785
  0
LINE
  5
17E
330
1F
100
AcDbEntity
  8
1
  6
Continuous
 62
     7
370
     9
100
AcDbLine
 10
122.6683336870969
 20
57.54775047425187
 30
0.0
 11
122.7328089058785
 21
57.14066996401027
 31
0.0
  0
LINE
  5
17F
330
1F
100
AcDbEntity
  8
1
  6
Continuous
 62
     7
370
     9
100
AcDbLine
 10
121.9143444269907
 20
56.50998098202876
 30
0.0
 11
122.3214276878625
 21
56.57445663646752
 31
0.0
  0
ARC
  5
180
330
1F
100
AcDbEntity
  8
1
  6
Continuous
 62
     7
370
     9
100
AcDbCircle
 10
135.8324009867355
 20
47.19063542562048
 30
0.0
 40
16.75
100
AcDbArc
 50
138.1942615943646
 51
141.8053344278506
  0
LINE
  5
181
330
1F
100
AcDbEntity
  8
1
  6
Continuous
 62
     7
370
     9
100
AcDbLine
 10
123.3467962166849
 20
58.35630484245758
 30
0.0
 11
123.75889104801
 21
58.36349798449487
 31
0.0
  0
LINE
  5
182
330
1F
100
AcDbEntity
  8
1
  6
Continuous
 62
     7
370
     9
100
AcDbLine
 10
121.3550136668201
 20
55.61487167522523
 30
0.0
 11
121.4755160741554
 21
55.22072606065888
 31
0.0
  0
ARC
  5
183
330
1F
100
AcDbEntity
  8
1
  6
Continuous
 62
     7
370
     9
100
AcDbCircle
 10
135.8324009867355
 20
47.19063542562048
 30
0.0
 40
16.75
100
AcDbArc
 50
146.1942615943654
 51
149.8053344278504
  0
LINE
  5
184
330
1F
100
AcDbEntity
  8
1
  6
Continuous
 62
     7
370
     9
100
AcDbLine
 10
126.9081429646448
 20
61.36526483012881
 30
0.0
 11
127.306256639743
 21
61.25859059239042
 31
0.0
  0
LINE
  5
185
330
1F
100
AcDbEntity
  8
1
  6
Continuous
 62
     7
370
     9
100
AcDbLine
 10
128.0190453078793
 20
62.00663937525837
 30
0.0
 11
127.9123717909305
 21
61.60852839018355
 31
0.0
  0
LINE
  5
186
330
1F
100
AcDbEntity
  8
1
  6
Continuous
 62
     7
370
     9
100
AcDbLine
 10
128.9677203594334
 20
62.46933497385248
 30
0.0
 11
129.3471134351539
 21
62.30829216776476
 31
0.0
  0
ARC
  5
187
330
1F
100
AcDbEntity
  8
1
  6
Continuous
 62
     7
370
     9
100
AcDbCircle
 10
135.8324009867355
 20
47.19063542562048
 30
0.0
 40
16.75
100
AcDbArc
 50
114.1942615943647
 51
117.8053344278496
  0
LINE
  5
188
330
1F
100
AcDbEntity
  8
1
  6
Continuous
 62
     7
370
     9
100
AcDbLine
 10
126.0330951347359
 20
60.77504210456561
 30
0.0
 11
125.9828660974403
 21
60.36595942408667
 31
0.0
  0
ARC
  5
189
330
1F
100
AcDbEntity
  8
1
  6
Continuous
 62
     7
370
     9
100
AcDbCircle
 10
135.8324009867355
 20
47.19063542562048
 30
0.0
 40
16.75
100
AcDbArc
 50
122.1942615943666
 51
125.8053344278544
  0
LINE
  5
18A
330
1F
100
AcDbEntity
  8
1
  6
Continuous
 62
     7
370
     9
100
AcDbLine
 10
133.4450267886572
 20
63.76962648172366
 30
0.0
 11
133.7653334068082
 21
63.51024729661833
 31
0.0
  0
LINE
  5
18B
330
1F
100
AcDbEntity
  8
1
  6
Continuous
 62
     7
370
     9
100
AcDbLine
 10
132.4055656083613
 20
63.58634520865587
 30
0.0
 11
132.1932901832997
 21
63.23305957411867
 31
0.0
  0
LINE
  5
18C
330
1F
100
AcDbEntity
  8
1
  6
Continuous
 62
     7
370
     9
100
AcDbLine
 10
131.160910954174
 20
63.27602261013294
 30
0.0
 11
131.5141989758511
 21
63.06374575073301
 31
0.0
  0
LINE
  5
18D
330
1F
100
AcDbEntity
  8
1
  6
Continuous
 62
     7
370
     9
100
AcDbLine
 10
130.1570735617512
 20
62.94985998202628
 30
0.0
 11
129.9960318438174
 21
62.57046946983542
 31
0.0
  0
ARC
  5
18E
330
1F
100
AcDbEntity
  8
1
  6
Continuous
 62
     7
370
     9
100
AcDbCircle
 10
135.8324009867355
 20
47.19063542562048
 30
0.0
 40
16.75
100
AcDbArc
 50
106.1942615943692
 51
109.8053344278512
  0
ARC
  5
18F
330
1F
100
AcDbEntity
  8
1
  6
Continuous
 62
     7
370
     9
100
AcDbCircle
 10
135.8324009867355
 20
47.19063542562048
 30
0.0
 40
16.75
100
AcDbArc
 50
98.19426159436779
 51
101.8053344278512
  0
LINE
  5
190
330
1F
100
AcDbEntity
  8
1
  6
Continuous
 62
     7
370
     9
100
AcDbLine
 10
195.2480307113736
 20
63.79063542562051
 30
0.0
 11
205.1480307113735
 21
63.79063542562051
 31
0.0
  0
CIRCLE
  5
191
330
1F
100
AcDbEntity
  8
1
  6
Continuous
 62
     7
370
     9
100
AcDbCircle
 10
202.8980307113736
 20
48.5106354256211
 30
0.0
 40
0.25
  0
CIRCLE
  5
192
330
1F
100
AcDbEntity
  8
1
  6
Continuous
 62
     7
370
     9
100
AcDbCircle
 10
202.8980307113737
 20
45.56063542562094
 30
0.0
 40
0.25
  0
CIRCLE
  5
193
330
1F
100
AcDbEntity
  8
1
  6
Continuous
 62
     7
370
     9
100
AcDbCircle
 10
202.8980307113737
 20
42.69063542562117
 30
0.0
 40
0.25
  0
CIRCLE
  5
194
330
1F
100
AcDbEntity
  8
1
  6
Continuous
 62
     7
370
     9
100
AcDbCircle
 10
202.8980307113737
 20
41.250635425621
 30
0.0
 40
0.25
  0
LINE
  5
195
330
1F
100
AcDbEntity
  8
1
  6
Continuous
 62
     7
370
     9
100
AcDbLine
 10
202.1480307113735
 20
30.59063542562046
 30
0.0
 11
205.1480307113735
 21
30.59063542562046
 31
0.0
  0
LINE
  5
196
330
1F
100
AcDbEntity
  8
1
  6
Continuous
 62
     7
370
     9
100
AcDbLine
 10
151.3839593785876
 20
53.41249459991991
 30
0.0
 11
150.9991797059421
 21
53.56019767766111
 31
0.0
  0
LINE
  5
197
330
1F
100
AcDbEntity
  8
1
  6
Continuous
 62
     7
370
     9
100
AcDbLine
 10
151.3839155094749
 20
40.96866660144417
 30
0.0
 11
150.9991332368853
 21
40.82096252567783
 31
0.0
  0
ARC
  5
198
330
1F
100
AcDbEntity
  8
1
  6
Continuous
 62
     7
370
     9
100
AcDbCircle
 10
135.8324009867355
 20
47.19063542562048
 30
0.0
 40
16.75
100
AcDbArc
 50
290.1942615943687
 51
309.8053344278543
  0
LINE
  5
199
330
1F
100
AcDbEntity
  8
1
  6
Continuous
 62
     7
370
     9
100
AcDbLine
 10
138.1071818673635
 20
30.5958208154741
 30
0.0
 11
138.3435841602483
 21
30.93343827884678
 31
0.0
  0
ARC
  5
19A
330
1F
100
AcDbEntity
  8
1
  6
Continuous
 62
     7
370
     9
100
AcDbCircle
 10
135.8324009867355
 20
47.19063542562048
 30
0.0
 40
16.75
100
AcDbArc
 50
274.1942615943671
 51
277.8053344278521
  0
LINE
  5
19B
330
1F
100
AcDbEntity
  8
1
  6
Continuous
 62
     7
370
     9
100
AcDbLine
 10
135.7754920470537
 20
30.44073210134468
 30
0.0
 11
136.0565809583907
 21
30.74216305459743
 31
0.0
  0
LINE
  5
19C
330
1F
100
AcDbEntity
  8
1
  6
Continuous
 62
     7
370
     9
100
AcDbLine
 10
137.0574677069471
 20
30.48549515290711
 30
0.0
 11
136.7560347169349
 21
30.7665859635531
 31
0.0
  0
LINE
  5
19D
330
1F
100
AcDbEntity
  8
1
  6
Continuous
 62
     7
370
     9
100
AcDbLine
 10
134.7206392681126
 20
30.47757209536883
 30
0.0
 11
134.4612600830072
 21
30.79787871351982
 31
0.0
  0
ARC
  5
19E
330
1F
100
AcDbEntity
  8
1
  6
Continuous
 62
     7
370
     9
100
AcDbCircle
 10
135.8324009867355
 20
47.19063542562048
 30
0.0
 40
16.75
100
AcDbArc
 50
266.1942615943674
 51
269.8053344278514
  0
LINE
  5
19F
330
1F
100
AcDbEntity
  8
1
  6
Continuous
 62
     7
370
     9
100
AcDbLine
 10
140.3945956653567
 20
31.07390871966811
 30
0.0
 11
140.581710038062
 21
31.4411413532705
 31
0.0
  0
LINE
  5
1A0
330
1F
100
AcDbEntity
  8
1
  6
Continuous
 62
     7
370
     9
100
AcDbLine
 10
139.3704516155654
 20
30.81856476403846
 30
0.0
 11
139.0328318709221
 21
31.05496865428609
 31
0.0
  0
ARC
  5
1A1
330
1F
100
AcDbEntity
  8
1
  6
Continuous
 62
     7
370
     9
100
AcDbCircle
 10
135.8324009867355
 20
47.19063542562048
 30
0.0
 40
16.75
100
AcDbArc
 50
282.1942615943676
 51
285.8053344278515
  0
LINE
  5
1A2
330
1F
100
AcDbEntity
  8
1
  6
Continuous
 62
     7
370
     9
100
AcDbLine
 10
141.6145713931665
 20
31.47029810764309
 30
0.0
 11
141.2473362781847
 21
31.65741374467427
 31
0.0
  0
LINE
  5
1A3
330
1F
100
AcDbEntity
  8
1
  6
Continuous
 62
     7
370
     9
100
AcDbLine
 10
145.2185225799523
 20
32.63339594014974
 30
0.0
 11
144.9327320464828
 21
33.12839966444096
 31
0.0
  0
LINE
  5
1A4
330
1F
100
AcDbEntity
  8
1
  6
Continuous
 62
     7
370
     9
100
AcDbLine
 10
144.8136953994122
 20
33.05207642292078
 30
0.0
 11
145.2185225799523
 21
32.63339594014974
 31
0.0
  0
LINE
  5
1A5
330
1F
100
AcDbEntity
  8
1
  6
Continuous
 62
     7
370
     9
100
AcDbLine
 10
146.2144517943044
 20
33.20839594014979
 30
0.0
 11
148.0644517943044
 21
30.00410194614733
 31
0.0
  0
LINE
  5
1A6
330
1F
100
AcDbEntity
  8
1
  6
Continuous
 62
     7
370
     9
100
AcDbLine
 10
148.0381380506404
 20
29.98890969915954
 30
0.0
 11
146.1881380506404
 21
33.19320369316199
 31
0.0
  0
LINE
  5
1A7
330
1F
100
AcDbEntity
  8
1
  6
Continuous
 62
     7
370
     9
100
AcDbLine
 10
147.9796791938282
 20
29.95515846244245
 30
0.0
 11
146.1296791938281
 21
33.15945245644491
 31
0.0
  0
LINE
  5
1A8
330
1F
100
AcDbEntity
  8
1
  6
Continuous
 62
     7
370
     9
100
AcDbLine
 10
147.889157940466
 20
29.90289599244647
 30
0.0
 11
146.0391579404661
 21
33.10718998644893
 31
0.0
  0
LINE
  5
1A9
330
1F
100
AcDbEntity
  8
1
  6
Continuous
 62
     7
370
     9
100
AcDbLine
 10
147.7683361837844
 20
29.83313951870241
 30
0.0
 11
145.9183361837844
 21
33.03743351270475
 31
0.0
  0
LINE
  5
1AA
330
1F
100
AcDbEntity
  8
1
  6
Continuous
 62
     7
370
     9
100
AcDbLine
 10
147.6195655818443
 20
29.74724677162476
 30
0.0
 11
145.7695655818443
 21
32.9515407656271
 31
0.0
  0
LINE
  5
1AB
330
1F
100
AcDbEntity
  8
1
  6
Continuous
 62
     7
370
     9
100
AcDbLine
 10
147.4457417851883
 20
29.64688955583381
 30
0.0
 11
145.5957417851883
 21
32.85118354983626
 31
0.0
  0
LINE
  5
1AC
330
1F
100
AcDbEntity
  8
1
  6
Continuous
 62
     7
370
     9
100
AcDbLine
 10
146.2144517943044
 20
33.20839594014979
 30
0.0
 11
142.7503501791666
 21
31.20839594014979
 31
0.0
  0
LINE
  5
1AD
330
1F
100
AcDbEntity
  8
1
  6
Continuous
 62
     7
370
     9
100
AcDbLine
 10
147.954644173169
 20
29.59429432501202
 30
0.0
 11
145.0101578003019
 21
27.89429432501197
 31
0.0
  0
LINE
  5
1AE
330
1F
100
AcDbEntity
  8
1
  6
Continuous
 62
     7
370
     9
100
AcDbLine
 10
148.0644517943044
 20
30.00410194614733
 30
0.0
 11
144.6003501791666
 21
28.00410194614733
 31
0.0
  0
LINE
  5
1AF
330
1F
100
AcDbEntity
  8
1
  6
Continuous
 62
     7
370
     9
100
AcDbLine
 10
147.2502480762969
 20
29.5340212103805
 30
0.0
 11
145.4002480762969
 21
32.73831520438296
 31
0.0
  0
LINE
  5
1B0
330
1F
100
AcDbEntity
  8
1
  6
Continuous
 62
     7
370
     9
100
AcDbLine
 10
147.0368895178428
 20
29.41083858922309
 30
0.0
 11
145.1868895178428
 21
32.61513258322555
 31
0.0
  0
LINE
  5
1B1
330
1F
100
AcDbEntity
  8
1
  6
Continuous
 62
     7
370
     9
100
AcDbLine
 10
145.0101578003019
 20
27.89429432501197
 30
0.0
 11
144.6003501791666
 21
28.00410194614733
 31
0.0
  0
LINE
  5
1B2
330
1F
100
AcDbEntity
  8
1
  6
Continuous
 62
     7
370
     9
100
AcDbLine
 10
146.0913461048257
 20
28.86492884518725
 30
0.0
 11
144.2413461048257
 21
32.06922283918971
 31
0.0
  0
LINE
  5
1B3
330
1F
100
AcDbEntity
  8
1
  6
Continuous
 62
     7
370
     9
100
AcDbLine
 10
146.8098188914745
 20
29.27973930196436
 30
0.0
 11
144.9598188914745
 21
32.4840332959667
 31
0.0
  0
LINE
  5
1B4
330
1F
100
AcDbEntity
  8
1
  6
Continuous
 62
     7
370
     9
100
AcDbLine
 10
146.5734558686453
 20
29.14327504710741
 30
0.0
 11
144.7234558686452
 21
32.34756904110986
 31
0.0
  0
LINE
  5
1B5
330
1F
100
AcDbEntity
  8
1
  6
Continuous
 62
     7
370
     9
100
AcDbLine
 10
144.4824009867355
 20
32.20839594014979
 30
0.0
 11
146.3324009867355
 21
29.00410194614733
 31
0.0
  0
LINE
  5
1B6
330
1F
100
AcDbEntity
  8
1
  6
Continuous
 62
     7
370
     9
100
AcDbLine
 10
143.5861050496403
 20
32.34332680402542
 30
0.0
 11
143.7462793935187
 21
31.78339594014972
 31
0.0
  0
LINE
  5
1B7
330
1F
100
AcDbEntity
  8
1
  6
Continuous
 62
     7
370
     9
100
AcDbLine
 10
143.7462793935187
 20
31.78339594014972
 30
0.0
 11
143.4604888600493
 21
32.27839966444094
 31
0.0
  0
LINE
  5
1B8
330
1F
100
AcDbEntity
  8
1
  6
Continuous
 62
     7
370
     9
100
AcDbLine
 10
142.7503501791666
 20
31.20839594014979
 30
0.0
 11
144.6003501791666
 21
28.00410194614733
 31
0.0
  0
LINE
  5
1B9
330
1F
100
AcDbEntity
  8
1
  6
Continuous
 62
     7
370
     9
100
AcDbLine
 10
144.6266639228306
 20
28.01929419313512
 30
0.0
 11
142.7766639228306
 21
31.22358818713747
 31
0.0
  0
LINE
  5
1BA
330
1F
100
AcDbEntity
  8
1
  6
Continuous
 62
     7
370
     9
100
AcDbLine
 10
144.6851227796428
 20
28.0530454298522
 30
0.0
 11
142.8351227796428
 21
31.25733942385455
 31
0.0
  0
LINE
  5
1BB
330
1F
100
AcDbEntity
  8
1
  6
Continuous
 62
     7
370
     9
100
AcDbLine
 10
144.7756440330049
 20
28.10530789984819
 30
0.0
 11
142.9256440330049
 21
31.30960189385053
 31
0.0
  0
LINE
  5
1BC
330
1F
100
AcDbEntity
  8
1
  6
Continuous
 62
     7
370
     9
100
AcDbLine
 10
144.8964657896866
 20
28.17506437359225
 30
0.0
 11
143.0464657896866
 21
31.3793583675947
 31
0.0
  0
LINE
  5
1BD
330
1F
100
AcDbEntity
  8
1
  6
Continuous
 62
     7
370
     9
100
AcDbLine
 10
145.0452363916267
 20
28.2609571206699
 30
0.0
 11
143.1952363916267
 21
31.46525111467236
 31
0.0
  0
LINE
  5
1BE
330
1F
100
AcDbEntity
  8
1
  6
Continuous
 62
     7
370
     9
100
AcDbLine
 10
145.2190601882826
 20
28.36131433646074
 30
0.0
 11
143.3690601882826
 21
31.56560833046319
 31
0.0
  0
LINE
  5
1BF
330
1F
100
AcDbEntity
  8
1
  6
Continuous
 62
     7
370
     9
100
AcDbLine
 10
145.414553897174
 20
28.47418268191404
 30
0.0
 11
143.5645538971741
 21
31.6784766759165
 31
0.0
  0
LINE
  5
1C0
330
1F
100
AcDbEntity
  8
1
  6
Continuous
 62
     7
370
     9
100
AcDbLine
 10
145.6279124556282
 20
28.59736530307146
 30
0.0
 11
143.7779124556282
 21
31.80165929707391
 31
0.0
  0
LINE
  5
1C1
330
1F
100
AcDbEntity
  8
1
  6
Continuous
 62
     7
370
     9
100
AcDbLine
 10
145.8549830819965
 20
28.7284645903303
 30
0.0
 11
144.0049830819965
 21
31.93275858433276
 31
0.0
  0
LINE
  5
1C2
330
1F
100
AcDbEntity
  8
1
  6
Continuous
 62
     7
370
     9
100
AcDbLine
 10
147.954644173169
 20
29.59429432501202
 30
0.0
 11
148.0644517943044
 21
30.00410194614733
 31
0.0
  0
LINE
  5
1C3
330
1F
100
AcDbEntity
  8
1
  6
Continuous
 62
     7
370
     9
100
AcDbLine
 10
146.5554365300203
 20
34.32288469997115
 30
0.0
 11
146.5770070466455
 21
34.73447467612209
 31
0.0
  0
LINE
  5
1C4
330
1F
100
AcDbEntity
  8
1
  6
Continuous
 62
     7
370
     9
100
AcDbLine
 10
150.8621671335303
 20
39.79681168058437
 30
0.0
 11
150.714464055789
 21
40.18159135322992
 31
0.0
  0
ARC
  5
1C5
330
1F
100
AcDbEntity
  8
1
  6
Continuous
 62
     7
370
     9
100
AcDbCircle
 10
135.8324009867355
 20
47.19063542562048
 30
0.0
 40
16.75
100
AcDbArc
 50
330.1942615943645
 51
333.80533442785
  0
LINE
  5
1C6
330
1F
100
AcDbEntity
  8
1
  6
Continuous
 62
     7
370
     9
100
AcDbLine
 10
149.6868771040106
 20
37.77702870365397
 30
0.0
 11
149.594162442697
 21
38.1786200223263
 31
0.0
  0
LINE
  5
1C7
330
1F
100
AcDbEntity
  8
1
  6
Continuous
 62
     7
370
     9
100
AcDbLine
 10
149.0664691766017
 20
36.92311677961982
 30
0.0
 11
148.6558799557975
 21
36.88719487743356
 31
0.0
  0
LINE
  5
1C8
330
1F
100
AcDbEntity
  8
1
  6
Continuous
 62
     7
370
     9
100
AcDbLine
 10
148.2419254561011
 20
35.9404708737477
 30
0.0
 11
148.2060037966363
 21
36.35105732023226
 31
0.0
  0
ARC
  5
1C9
330
1F
100
AcDbEntity
  8
1
  6
Continuous
 62
     7
370
     9
100
AcDbCircle
 10
135.8324009867355
 20
47.19063542562048
 30
0.0
 40
16.75
100
AcDbArc
 50
322.1942615943647
 51
325.8053344278504
  0
LINE
  5
1CA
330
1F
100
AcDbEntity
  8
1
  6
Continuous
 62
     7
370
     9
100
AcDbLine
 10
150.3666385438377
 20
38.86486587357797
 30
0.0
 11
149.9650445116255
 21
38.77215058579441
 31
0.0
  0
LINE
  5
1CB
330
1F
100
AcDbEntity
  8
1
  6
Continuous
 62
     7
370
     9
100
AcDbLine
 10
147.5087137255793
 20
35.18121325697678
 30
0.0
 11
147.0971209683278
 21
35.20278391935324
 31
0.0
  0
ARC
  5
1CC
330
1F
100
AcDbEntity
  8
1
  6
Continuous
 62
     7
370
     9
100
AcDbCircle
 10
135.8324009867355
 20
47.19063542562048
 30
0.0
 40
16.75
100
AcDbArc
 50
314.1942615943706
 51
317.8053344278539
  0
ARC
  5
1CD
330
1F
100
AcDbEntity
  8
1
  6
Continuous
 62
     7
370
     9
100
AcDbCircle
 10
135.8324009867355
 20
47.19063542562048
 30
0.0
 40
16.75
100
AcDbArc
 50
50.19426159436746
 51
69.80533442785406
  0
LINE
  5
1CE
330
1F
100
AcDbEntity
  8
1
  6
Continuous
 62
     7
370
     9
100
AcDbLine
 10
138.1072988730693
 20
63.78543399646048
 30
0.0
 11
138.343702763317
 21
63.44781425181714
 31
0.0
  0
ARC
  5
1CF
330
1F
100
AcDbEntity
  8
1
  6
Continuous
 62
     7
370
     9
100
AcDbCircle
 10
135.8324009867355
 20
47.19063542562048
 30
0.0
 40
16.75
100
AcDbArc
 50
82.19426159436847
 51
85.80533442785256
  0
LINE
  5
1D0
330
1F
100
AcDbEntity
  8
1
  6
Continuous
 62
     7
370
     9
100
AcDbLine
 10
135.7756101463081
 20
63.94053915073016
 30
0.0
 11
136.056700956954
 21
63.63910616071803
 31
0.0
  0
LINE
  5
1D1
330
1F
100
AcDbEntity
  8
1
  6
Continuous
 62
     7
370
     9
100
AcDbLine
 10
137.0575854905569
 20
63.89576706028879
 30
0.0
 11
136.7561545373042
 21
63.61467814895173
 31
0.0
  0
LINE
  5
1D2
330
1F
100
AcDbEntity
  8
1
  6
Continuous
 62
     7
370
     9
100
AcDbLine
 10
134.7207571076439
 20
63.90370659420228
 30
0.0
 11
134.4613796751437
 21
63.58340214033831
 31
0.0
  0
ARC
  5
1D3
330
1F
100
AcDbEntity
  8
1
  6
Continuous
 62
     7
370
     9
100
AcDbCircle
 10
135.8324009867355
 20
47.19063542562048
 30
0.0
 40
16.75
100
AcDbArc
 50
90.19426159436745
 51
93.80533442785188
  0
LINE
  5
1D4
330
1F
100
AcDbEntity
  8
1
  6
Continuous
 62
     7
370
     9
100
AcDbLine
 10
140.3947093001311
 20
63.307329964313
 30
0.0
 11
140.5818249371623
 21
62.94009484933122
 31
0.0
  0
LINE
  5
1D5
330
1F
100
AcDbEntity
  8
1
  6
Continuous
 62
     7
370
     9
100
AcDbLine
 10
139.3705670507297
 20
63.5626811409121
 30
0.0
 11
139.0329495873569
 21
63.3262788480273
 31
0.0
  0
ARC
  5
1D6
330
1F
100
AcDbEntity
  8
1
  6
Continuous
 62
     7
370
     9
100
AcDbCircle
 10
135.8324009867355
 20
47.19063542562048
 30
0.0
 40
16.75
100
AcDbArc
 50
74.19426159436794
 51
77.80533442785193
  0
LINE
  5
1D7
330
1F
100
AcDbEntity
  8
1
  6
Continuous
 62
     7
370
     9
100
AcDbLine
 10
141.6146822330711
 20
62.91093197461328
 30
0.0
 11
141.2474495994686
 21
62.72381760190797
 31
0.0
  0
LINE
  5
1D8
330
1F
100
AcDbEntity
  8
1
  6
Continuous
 62
     7
370
     9
100
AcDbLine
 10
146.5555272569489
 20
60.05831054558905
 30
0.0
 11
146.5770979193255
 21
59.64671778833747
 31
0.0
  0
LINE
  5
1D9
330
1F
100
AcDbEntity
  8
1
  6
Continuous
 62
     7
370
     9
100
AcDbLine
 10
150.862219265103
 20
54.58435319946386
 30
0.0
 11
150.7145151893367
 21
54.19957092687423
 31
0.0
  0
ARC
  5
1DA
330
1F
100
AcDbEntity
  8
1
  6
Continuous
 62
     7
370
     9
100
AcDbCircle
 10
135.8324009867355
 20
47.19063542562048
 30
0.0
 40
16.75
100
AcDbArc
 50
26.19426159436701
 51
29.8053344278533
  0
ARC
  5
1DB
330
1F
100
AcDbEntity
  8
1
  6
Continuous
 62
     7
370
     9
100
AcDbCircle
 10
135.8324009867355
 20
47.19063542562048
 30
0.0
 40
16.75
100
AcDbArc
 50
42.19426159436544
 51
45.80533442784952
  0
LINE
  5
1DC
330
1F
100
AcDbEntity
  8
1
  6
Continuous
 62
     7
370
     9
100
AcDbLine
 10
149.6869434765819
 20
56.60414446301127
 30
0.0
 11
149.5942281887983
 21
56.20255043079908
 31
0.0
  0
LINE
  5
1DD
330
1F
100
AcDbEntity
  8
1
  6
Continuous
 62
     7
370
     9
100
AcDbLine
 10
149.0665415699014
 20
57.45806076136068
 30
0.0
 11
148.6559551234169
 21
57.49398242082543
 31
0.0
  0
ARC
  5
1DE
330
1F
100
AcDbEntity
  8
1
  6
Continuous
 62
     7
370
     9
100
AcDbCircle
 10
135.8324009867355
 20
47.19063542562048
 30
0.0
 40
16.75
100
AcDbArc
 50
34.19426159436619
 51
37.80533442784905
  0
LINE
  5
1DF
330
1F
100
AcDbEntity
  8
1
  6
Continuous
 62
     7
370
     9
100
AcDbLine
 10
148.2420047778045
 20
58.44071248085368
 30
0.0
 11
148.2060828756182
 21
58.03012326004955
 31
0.0
  0
LINE
  5
1E0
330
1F
100
AcDbEntity
  8
1
  6
Continuous
 62
     7
370
     9
100
AcDbLine
 10
147.5087984006308
 20
59.19997526729287
 30
0.0
 11
147.0972084244798
 21
59.1784047506676
 31
0.0
  0
LINE
  5
1E1
330
1F
100
AcDbEntity
  8
1
  6
Continuous
 62
     7
370
     9
100
AcDbLine
 10
150.3666972463326
 20
55.51630250029154
 30
0.0
 11
149.9651059276602
 21
55.60901716160515
 31
0.0
  0
LINE
  5
1E2
330
1F
100
AcDbEntity
  8
1
  6
Continuous
 62
     7
370
     9
100
AcDbLine
 10
153.1324009867354
 20
49.19063542562048
 30
0.0
 11
156.8324009867355
 21
49.19063542562048
 31
0.0
  0
LINE
  5
1E3
330
1F
100
AcDbEntity
  8
1
  6
Continuous
 62
     7
370
     9
100
AcDbLine
 10
153.1324009867354
 20
45.19063542562048
 30
0.0
 11
156.8324009867355
 21
45.19063542562048
 31
0.0
  0
LINE
  5
1E4
330
1F
100
AcDbEntity
  8
1
  6
Continuous
 62
     7
370
     9
100
AcDbLine
 10
156.8324009867355
 20
45.22101991959607
 30
0.0
 11
153.1324009867354
 21
45.22101991959607
 31
0.0
  0
LINE
  5
1E5
330
1F
100
AcDbEntity
  8
1
  6
Continuous
 62
     7
370
     9
100
AcDbLine
 10
156.8324009867355
 20
45.28852239303023
 30
0.0
 11
153.1324009867354
 21
45.28852239303023
 31
0.0
  0
LINE
  5
1E6
330
1F
100
AcDbEntity
  8
1
  6
Continuous
 62
     7
370
     9
100
AcDbLine
 10
156.8324009867355
 20
45.3930473330222
 30
0.0
 11
153.1324009867354
 21
45.3930473330222
 31
0.0
  0
LINE
  5
1E7
330
1F
100
AcDbEntity
  8
1
  6
Continuous
 62
     7
370
     9
100
AcDbLine
 10
156.8324009867355
 20
45.53256028051044
 30
0.0
 11
153.1324009867354
 21
45.53256028051044
 31
0.0
  0
LINE
  5
1E8
330
1F
100
AcDbEntity
  8
1
  6
Continuous
 62
     7
370
     9
100
AcDbLine
 10
156.8324009867355
 20
45.70434577466574
 30
0.0
 11
153.1324009867354
 21
45.70434577466574
 31
0.0
  0
LINE
  5
1E9
330
1F
100
AcDbEntity
  8
1
  6
Continuous
 62
     7
370
     9
100
AcDbLine
 10
156.8324009867355
 20
45.90506020624741
 30
0.0
 11
153.1324009867354
 21
45.90506020624741
 31
0.0
  0
LINE
  5
1EA
330
1F
100
AcDbEntity
  8
1
  6
Continuous
 62
     7
370
     9
100
AcDbLine
 10
156.8324009867355
 20
46.13079689715414
 30
0.0
 11
153.1324009867354
 21
46.13079689715414
 31
0.0
  0
LINE
  5
1EB
330
1F
100
AcDbEntity
  8
1
  6
Continuous
 62
     7
370
     9
100
AcDbLine
 10
156.8324009867355
 20
46.37716213946896
 30
0.0
 11
153.1324009867354
 21
46.37716213946896
 31
0.0
  0
LINE
  5
1EC
330
1F
100
AcDbEntity
  8
1
  6
Continuous
 62
     7
370
     9
100
AcDbLine
 10
156.8324009867355
 20
46.63936071398655
 30
0.0
 11
153.1324009867354
 21
46.63936071398655
 31
0.0
  0
LINE
  5
1ED
330
1F
100
AcDbEntity
  8
1
  6
Continuous
 62
     7
370
     9
100
AcDbLine
 10
156.8324009867355
 20
46.91228922370044
 30
0.0
 11
153.1324009867354
 21
46.91228922370033
 31
0.0
  0
LINE
  5
1EE
330
1F
100
AcDbEntity
  8
1
  6
Continuous
 62
     7
370
     9
100
AcDbLine
 10
156.8324009867355
 20
49.16025093164501
 30
0.0
 11
153.1324009867354
 21
49.1602509316449
 31
0.0
  0
LINE
  5
1EF
330
1F
100
AcDbEntity
  8
1
  6
Continuous
 62
     7
370
     9
100
AcDbLine
 10
156.8324009867355
 20
49.09274845821085
 30
0.0
 11
153.1324009867354
 21
49.09274845821085
 31
0.0
  0
LINE
  5
1F0
330
1F
100
AcDbEntity
  8
1
  6
Continuous
 62
     7
370
     9
100
AcDbLine
 10
156.8324009867355
 20
48.98822351821889
 30
0.0
 11
153.1324009867354
 21
48.98822351821889
 31
0.0
  0
LINE
  5
1F1
330
1F
100
AcDbEntity
  8
1
  6
Continuous
 62
     7
370
     9
100
AcDbLine
 10
156.8324009867355
 20
48.84871057073065
 30
0.0
 11
153.1324009867354
 21
48.84871057073065
 31
0.0
  0
LINE
  5
1F2
330
1F
100
AcDbEntity
  8
1
  6
Continuous
 62
     7
370
     9
100
AcDbLine
 10
156.8324009867355
 20
48.67692507657534
 30
0.0
 11
153.1324009867354
 21
48.67692507657534
 31
0.0
  0
LINE
  5
1F3
330
1F
100
AcDbEntity
  8
1
  6
Continuous
 62
     7
370
     9
100
AcDbLine
 10
156.8324009867355
 20
48.47621064499367
 30
0.0
 11
153.1324009867354
 21
48.47621064499367
 31
0.0
  0
LINE
  5
1F4
330
1F
100
AcDbEntity
  8
1
  6
Continuous
 62
     7
370
     9
100
AcDbLine
 10
156.8324009867355
 20
48.25047395408694
 30
0.0
 11
153.1324009867354
 21
48.25047395408694
 31
0.0
  0
LINE
  5
1F5
330
1F
100
AcDbEntity
  8
1
  6
Continuous
 62
     7
370
     9
100
AcDbLine
 10
156.8324009867355
 20
48.00410871177212
 30
0.0
 11
153.1324009867354
 21
48.00410871177212
 31
0.0
  0
LINE
  5
1F6
330
1F
100
AcDbEntity
  8
1
  6
Continuous
 62
     7
370
     9
100
AcDbLine
 10
156.8324009867355
 20
47.74191013725454
 30
0.0
 11
153.1324009867354
 21
47.74191013725454
 31
0.0
  0
LINE
  5
1F7
330
1F
100
AcDbEntity
  8
1
  6
Continuous
 62
     7
370
     9
100
AcDbLine
 10
156.8324009867355
 20
47.46898162754064
 30
0.0
 11
153.1324009867354
 21
47.46898162754064
 31
0.0
  0
LINE
  5
1F8
330
1F
100
AcDbEntity
  8
1
  6
Continuous
 62
     7
370
     9
100
AcDbLine
 10
153.1324009867354
 20
47.19063542562048
 30
0.0
 11
156.8324009867355
 21
47.19063542562048
 31
0.0
  0
LINE
  5
1F9
330
1F
100
AcDbEntity
  8
1
  6
Continuous
 62
     7
370
     9
100
AcDbLine
 10
152.0985281163807
 20
51.18758528798037
 30
0.0
 11
151.7380493884096
 21
51.38740190975091
 31
0.0
  0
ARC
  5
1FA
330
1F
100
AcDbEntity
  8
1
  6
Continuous
 62
     7
370
     9
100
AcDbCircle
 10
135.8324009867355
 20
47.19063542562048
 30
0.0
 40
16.75
100
AcDbArc
 50
10.19426159436833
 51
13.80533442785031
  0
LINE
  5
1FB
330
1F
100
AcDbEntity
  8
1
  6
Continuous
 62
     7
370
     9
100
AcDbLine
 10
152.4964951920407
 20
48.88487989343309
 30
0.0
 11
152.1673337171455
 21
49.13292085597823
 31
0.0
  0
LINE
  5
1FC
330
1F
100
AcDbEntity
  8
1
  6
Continuous
 62
     7
370
     9
100
AcDbLine
 10
152.3179744114832
 20
50.15515374353527
 30
0.0
 11
152.0699317729331
 21
49.8259900445064
 31
0.0
  0
LINE
  5
1FD
330
1F
100
AcDbEntity
  8
1
  6
Continuous
 62
     7
370
     9
100
AcDbLine
 10
153.1324009867354
 20
48.04063542562051
 30
0.0
 11
152.5608199197966
 21
48.04063542562051
 31
0.0
  0
LINE
  5
1FE
330
1F
100
AcDbEntity
  8
1
  6
Continuous
 62
     7
370
     9
100
AcDbLine
 10
152.3179535090185
 20
44.22600087224851
 30
0.0
 11
152.0699125464734
 21
44.55516234714366
 31
0.0
  0
LINE
  5
1FF
330
1F
100
AcDbEntity
  8
1
  6
Continuous
 62
     7
370
     9
100
AcDbLine
 10
152.4964832459452
 20
45.49627346361501
 30
0.0
 11
152.1673195469163
 21
45.24823082506498
 31
0.0
  0
LINE
  5
200
330
1F
100
AcDbEntity
  8
1
  6
Continuous
 62
     7
370
     9
100
AcDbLine
 10
153.1324009867354
 20
46.34063542562058
 30
0.0
 11
152.5608199197966
 21
46.34063542562058
 31
0.0
  0
LINE
  5
201
330
1F
100
AcDbEntity
  8
1
  6
Continuous
 62
     7
370
     9
100
AcDbLine
 10
152.567399462317
 20
46.48188580672513
 30
0.0
 11
153.1324009867354
 21
46.34063542562058
 31
0.0
  0
LINE
  5
202
330
1F
100
AcDbEntity
  8
1
  6
Continuous
 62
     7
370
     9
100
AcDbLine
 10
152.567399462317
 20
47.89938504451584
 30
0.0
 11
153.1324009867354
 21
48.04063542562051
 31
0.0
  0
LINE
  5
203
330
1F
100
AcDbEntity
  8
1
  6
Continuous
 62
     7
370
     9
100
AcDbLine
 10
153.1324009867354
 20
49.19063542562048
 30
0.0
 11
153.1324009867354
 21
45.19063542562048
 31
0.0
  0
ARC
  5
204
330
1F
100
AcDbEntity
  8
1
  6
Continuous
 62
     7
370
     9
100
AcDbCircle
 10
135.8324009867355
 20
47.19063542562048
 30
0.0
 40
16.75
100
AcDbArc
 50
354.1942615943685
 51
5.805334427854888
  0
LINE
  5
205
330
1F
100
AcDbEntity
  8
1
  6
Continuous
 62
     7
370
     9
100
AcDbLine
 10
152.0984999345126
 20
43.19357087508831
 30
0.0
 11
151.7380187707981
 21
42.99375290316311
 31
0.0
  0
LINE
  5
206
330
1F
100
AcDbEntity
  8
1
  6
Continuous
 62
     7
370
     9
100
AcDbLine
 10
151.7449198611082
 20
41.96050702636205
 30
0.0
 11
151.5451032393377
 21
42.32098575433315
 31
0.0
  0
ARC
  5
207
330
1F
100
AcDbEntity
  8
1
  6
Continuous
 62
     7
370
     9
100
AcDbCircle
 10
135.8324009867355
 20
47.19063542562048
 30
0.0
 40
16.75
100
AcDbArc
 50
338.1942615943653
 51
341.8053344278517
  0
ARC
  5
208
330
1F
100
AcDbEntity
  8
1
  6
Continuous
 62
     7
370
     9
100
AcDbCircle
 10
135.8324009867355
 20
47.19063542562048
 30
0.0
 40
16.75
100
AcDbArc
 50
346.1942615943645
 51
349.8053344278534
  0
LINE
  5
209
330
1F
100
AcDbEntity
  8
1
  6
Continuous
 62
     7
370
     9
100
AcDbLine
 10
157.1324009867354
 20
48.89063542562053
 30
0.0
 11
156.8324009867355
 21
49.19063542562048
 31
0.0
  0
LINE
  5
20A
330
1F
100
AcDbEntity
  8
1
  6
Continuous
 62
     7
370
     9
100
AcDbLine
 10
157.1324009867354
 20
45.49063542562055
 30
0.0
 11
156.8324009867355
 21
45.19063542562048
 31
0.0
  0
LINE
  5
20B
330
1F
100
AcDbEntity
  8
1
  6
Continuous
 62
     7
370
     9
100
AcDbLine
 10
157.1324009867354
 20
48.89063542562053
 30
0.0
 11
157.1324009867354
 21
45.49063542562055
 31
0.0
  0
LINE
  5
20C
330
1F
100
AcDbEntity
  8
1
  6
Continuous
 62
     7
370
     9
100
AcDbLine
 10
156.8324009867355
 20
49.19063542562048
 30
0.0
 11
156.8324009867355
 21
45.19063542562048
 31
0.0
  0
LINE
  5
20D
330
1F
100
AcDbEntity
  8
1
  6
Continuous
 62
     7
370
     9
100
AcDbLine
 10
151.7449567370006
 20
52.42065162967788
 30
0.0
 11
151.5451387650754
 21
52.06017046596344
 31
0.0
  0
ARC
  5
20E
330
1F
100
AcDbEntity
  8
1
  6
Continuous
 62
     7
370
     9
100
AcDbCircle
 10
135.8324009867355
 20
47.19063542562048
 30
0.0
 40
16.75
100
AcDbArc
 50
18.19426159436513
 51
21.80533442785025
  0
LINE
  5
20F
330
1F
100
AcDbEntity
  8
1
  6
Continuous
 62
     7
370
     9
100
AcDbLine
 10
185.7480307113735
 20
61.69063542562048
 30
0.0
 11
186.5480307113735
 21
61.18154451652958
 31
0.0
  0
LINE
  5
210
330
1F
100
AcDbEntity
  8
1
  6
Continuous
 62
     7
370
     9
100
AcDbLine
 10
185.7480307113735
 20
32.69063542562048
 30
0.0
 11
186.5480307113735
 21
33.19972633471139
 31
0.0
  0
LINE
  5
211
330
1F
100
AcDbEntity
  8
1
  6
Continuous
 62
     7
370
     9
100
AcDbLine
 10
185.7480307113735
 20
47.19063542562048
 30
0.0
 11
185.7480307113735
 21
62.99063542562044
 31
0.0
  0
LINE
  5
212
330
1F
100
AcDbEntity
  8
1
  6
Continuous
 62
     7
370
     9
100
AcDbLine
 10
180.3480307113735
 20
62.99063542562044
 30
0.0
 11
180.3480307113735
 21
47.19063542562048
 31
0.0
  0
LINE
  5
213
330
1F
100
AcDbEntity
  8
1
  6
Continuous
 62
     7
370
     9
100
AcDbLine
 10
185.7480307113735
 20
47.19063542562048
 30
0.0
 11
185.7480307113735
 21
31.39063542562053
 31
0.0
  0
LINE
  5
214
330
1F
100
AcDbEntity
  8
1
  6
Continuous
 62
     7
370
     9
100
AcDbLine
 10
180.3480307113735
 20
31.39063542562053
 30
0.0
 11
180.3480307113735
 21
47.19063542562048
 31
0.0
  0
LINE
  5
215
330
1F
100
AcDbEntity
  8
1
  6
Continuous
 62
     7
370
     9
100
AcDbLine
 10
180.5480307113735
 20
31.19063542562048
 30
0.0
 11
185.5480307113735
 21
31.19063542562048
 31
0.0
  0
LINE
  5
216
330
1F
100
AcDbEntity
  8
1
  6
Continuous
 62
     7
370
     9
100
AcDbLine
 10
180.5480307113735
 20
31.19063542562048
 30
0.0
 11
180.3480307113735
 21
31.39063542562053
 31
0.0
  0
LINE
  5
217
330
1F
100
AcDbEntity
  8
1
  6
Continuous
 62
     7
370
     9
100
AcDbLine
 10
185.5480307113735
 20
31.19063542562048
 30
0.0
 11
185.7480307113735
 21
31.39063542562053
 31
0.0
  0
LINE
  5
218
330
1F
100
AcDbEntity
  8
1
  6
Continuous
 62
     7
370
     9
100
AcDbLine
 10
180.5480307113735
 20
63.19063542562048
 30
0.0
 11
185.5480307113735
 21
63.19063542562048
 31
0.0
  0
LINE
  5
219
330
1F
100
AcDbEntity
  8
1
  6
Continuous
 62
     7
370
     9
100
AcDbLine
 10
180.5480307113735
 20
63.19063542562048
 30
0.0
 11
180.3480307113735
 21
62.99063542562044
 31
0.0
  0
LINE
  5
21A
330
1F
100
AcDbEntity
  8
1
  6
Continuous
 62
     7
370
     9
100
AcDbLine
 10
185.5480307113735
 20
63.19063542562048
 30
0.0
 11
185.7480307113735
 21
62.99063542562044
 31
0.0
  0
ARC
  5
21B
330
1F
100
AcDbEntity
  8
1
  6
Continuous
 62
     7
370
     9
100
AcDbCircle
 10
197.5980307113736
 20
51.67563542562038
 30
0.0
 40
0.1500000000000057
100
AcDbArc
 50
269.9999999999998
 51
0.0
  0
ARC
  5
21C
330
1F
100
AcDbEntity
  8
1
  6
Continuous
 62
     7
370
     9
100
AcDbCircle
 10
196.3980307113737
 20
51.67563542562038
 30
0.0
 40
0.1500000000000057
100
AcDbArc
 50
179.9999999999998
 51
269.9999999999998
  0
LINE
  5
21D
330
1F
100
AcDbEntity
  8
1
  6
Continuous
 62
     7
370
     9
100
AcDbLine
 10
193.9480307113735
 20
63.64063542562053
 30
0.0
 11
193.9480307113735
 21
47.19063542562048
 31
0.0
  0
LINE
  5
21E
330
1F
100
AcDbEntity
  8
1
  6
Continuous
 62
     7
370
     9
100
AcDbLine
 10
195.2480307113736
 20
47.19063542562048
 30
0.0
 11
195.2480307113736
 21
63.79063542562051
 31
0.0
  0
LINE
  5
21F
330
1F
100
AcDbEntity
  8
1
  6
Continuous
 62
     7
370
     9
100
AcDbLine
 10
194.4480307113735
 20
47.19063542562048
 30
0.0
 11
194.4480307113735
 21
63.49063542562044
 31
0.0
  0
LINE
  5
220
330
1F
100
AcDbEntity
  8
1
  6
Continuous
 62
     7
370
     9
100
AcDbLine
 10
186.5480307113735
 20
63.64063542562053
 30
0.0
 11
186.5480307113735
 21
47.19063542562048
 31
0.0
  0
LINE
  5
221
330
1F
100
AcDbEntity
  8
1
  6
Continuous
 62
     7
370
     9
100
AcDbLine
 10
193.9480307113734
 20
31.39063573177214
 30
0.0
 11
194.4480307113735
 21
31.39063573177214
 31
0.0
  0
LINE
  5
222
330
1F
100
AcDbEntity
  8
1
  6
Continuous
 62
     7
370
     9
100
AcDbLine
 10
193.6480307113735
 20
31.47033887662769
 30
0.0
 11
193.6480307113735
 21
34.32296030565192
 31
0.0
  0
LINE
  5
223
330
1F
100
AcDbEntity
  8
1
  6
Continuous
 62
     7
370
     9
100
AcDbLine
 10
186.8480307113734
 20
31.47033887662769
 30
0.0
 11
186.8480307113734
 21
34.32296030565203
 31
0.0
  0
LINE
  5
224
330
1F
100
AcDbEntity
  8
1
  6
Continuous
 62
     7
370
     9
100
AcDbLine
 10
193.9480307113734
 20
30.74063542562044
 30
0.0
 11
193.9480307113735
 21
47.19063542562048
 31
0.0
  0
LINE
  5
225
330
1F
100
AcDbEntity
  8
1
  6
Continuous
 62
     7
370
     9
100
AcDbLine
 10
186.5480307113735
 20
30.74063542562055
 30
0.0
 11
186.5480307113735
 21
47.19063542562048
 31
0.0
  0
LINE
  5
226
330
1F
100
AcDbEntity
  8
1
  6
Continuous
 62
     7
370
     9
100
AcDbLine
 10
186.8480307113734
 20
30.44063542562048
 30
0.0
 11
193.6480307113735
 21
30.44063542562048
 31
0.0
  0
LINE
  5
227
330
1F
100
AcDbEntity
  8
1
  6
Continuous
 62
     7
370
     9
100
AcDbLine
 10
186.8480307113734
 20
31.47033887662769
 30
0.0
 11
193.6480307113735
 21
31.47033887662769
 31
0.0
  0
LINE
  5
228
330
1F
100
AcDbEntity
  8
1
  6
Continuous
 62
     7
370
     9
100
AcDbLine
 10
186.5480307113735
 20
31.44117600190975
 30
0.0
 11
193.9480307113734
 21
31.44117600190975
 31
0.0
  0
LINE
  5
229
330
1F
100
AcDbEntity
  8
1
  6
Continuous
 62
     7
370
     9
100
AcDbLine
 10
186.8480307113734
 20
31.07394088692797
 30
0.0
 11
193.6480307113735
 21
31.07394088692797
 31
0.0
  0
LINE
  5
22A
330
1F
100
AcDbEntity
  8
1
  6
Continuous
 62
     7
370
     9
100
AcDbLine
 10
186.8480307113734
 20
30.81858971032887
 30
0.0
 11
193.6480307113735
 21
30.81858971032887
 31
0.0
  0
LINE
  5
22B
330
1F
100
AcDbEntity
  8
1
  6
Continuous
 62
     7
370
     9
100
AcDbLine
 10
186.8480307113734
 20
30.59583685478049
 30
0.0
 11
193.6480307113735
 21
30.59583685478049
 31
0.0
  0
LINE
  5
22C
330
1F
100
AcDbEntity
  8
1
  6
Continuous
 62
     7
370
     9
100
AcDbLine
 10
186.8480307113734
 20
30.48550379095218
 30
0.0
 11
193.6480307113735
 21
30.48550379095218
 31
0.0
  0
LINE
  5
22D
330
1F
100
AcDbEntity
  8
1
  6
Continuous
 62
     7
370
     9
100
AcDbLine
 10
188.7981362172284
 20
30.81743034486362
 30
0.0
 11
189.0979252055185
 21
30.81743034486362
 31
0.0
  0
LINE
  5
22E
330
1F
100
AcDbEntity
  8
1
  6
Continuous
 62
     7
370
     9
100
AcDbLine
 10
186.8480307113734
 20
30.44063542562048
 30
0.0
 11
186.5480307113735
 21
30.74063542562055
 31
0.0
  0
LINE
  5
22F
330
1F
100
AcDbEntity
  8
1
  6
Continuous
 62
     7
370
     9
100
AcDbLine
 10
186.8480307113734
 20
30.81858971032887
 30
0.0
 11
186.8480307113734
 21
31.07394088692797
 31
0.0
  0
LINE
  5
230
330
1F
100
AcDbEntity
  8
1
  6
Continuous
 62
     7
370
     9
100
AcDbLine
 10
186.5480307113735
 20
30.93345659942383
 30
0.0
 11
186.7022619613839
 21
30.93345659942383
 31
0.0
  0
LINE
  5
231
330
1F
100
AcDbEntity
  8
1
  6
Continuous
 62
     7
370
     9
100
AcDbLine
 10
186.5480307113735
 20
30.93345659942383
 30
0.0
 11
186.8480307113734
 21
30.59583685478049
 31
0.0
  0
LINE
  5
232
330
1F
100
AcDbEntity
  8
1
  6
Continuous
 62
     7
370
     9
100
AcDbLine
 10
186.8480307113734
 20
30.81858971032887
 30
0.0
 11
186.5480307113735
 21
31.05499200321367
 31
0.0
  0
LINE
  5
233
330
1F
100
AcDbEntity
  8
1
  6
Continuous
 62
     7
370
     9
100
AcDbLine
 10
186.5480307113735
 20
31.44117600190975
 30
0.0
 11
186.8480307113734
 21
31.07394088692797
 31
0.0
  0
LINE
  5
234
330
1F
100
AcDbEntity
  8
1
  6
Continuous
 62
     7
370
     9
100
AcDbLine
 10
186.5480307113735
 20
30.76659270228924
 30
0.0
 11
186.8480307113734
 21
30.48550379095218
 31
0.0
  0
LINE
  5
235
330
1F
100
AcDbEntity
  8
1
  6
Continuous
 62
     7
370
     9
100
AcDbLine
 10
186.8480307113734
 20
30.48550379095218
 30
0.0
 11
186.8480307113734
 21
30.59583685478049
 31
0.0
  0
LINE
  5
236
330
1F
100
AcDbEntity
  8
1
  6
Continuous
 62
     7
370
     9
100
AcDbLine
 10
186.8480307113734
 20
31.47033887662769
 30
0.0
 11
186.5480307113735
 21
31.657453249333
 31
0.0
  0
LINE
  5
237
330
1F
100
AcDbEntity
  8
1
  6
Continuous
 62
     7
370
     9
100
AcDbLine
 10
193.6480307113735
 20
30.44063542562048
 30
0.0
 11
193.9480307113734
 21
30.74063542562044
 31
0.0
  0
LINE
  5
238
330
1F
100
AcDbEntity
  8
1
  6
Continuous
 62
     7
370
     9
100
AcDbLine
 10
193.6480307113735
 20
30.81858971032887
 30
0.0
 11
193.6480307113735
 21
31.07394088692797
 31
0.0
  0
LINE
  5
239
330
1F
100
AcDbEntity
  8
1
  6
Continuous
 62
     7
370
     9
100
AcDbLine
 10
193.9480307113734
 20
30.93345659942383
 30
0.0
 11
193.793799461363
 21
30.93345659942383
 31
0.0
  0
LINE
  5
23A
330
1F
100
AcDbEntity
  8
1
  6
Continuous
 62
     7
370
     9
100
AcDbLine
 10
193.9480307113734
 20
30.93345659942383
 30
0.0
 11
193.6480307113735
 21
30.59583685478049
 31
0.0
  0
LINE
  5
23B
330
1F
100
AcDbEntity
  8
1
  6
Continuous
 62
     7
370
     9
100
AcDbLine
 10
193.6480307113735
 20
30.81858971032887
 30
0.0
 11
193.9480307113734
 21
31.05499200321367
 31
0.0
  0
LINE
  5
23C
330
1F
100
AcDbEntity
  8
1
  6
Continuous
 62
     7
370
     9
100
AcDbLine
 10
193.9480307113734
 20
31.44117600190975
 30
0.0
 11
193.6480307113735
 21
31.07394088692797
 31
0.0
  0
LINE
  5
23D
330
1F
100
AcDbEntity
  8
1
  6
Continuous
 62
     7
370
     9
100
AcDbLine
 10
193.9480307113734
 20
30.76659270228924
 30
0.0
 11
193.6480307113735
 21
30.48550379095218
 31
0.0
  0
LINE
  5
23E
330
1F
100
AcDbEntity
  8
1
  6
Continuous
 62
     7
370
     9
100
AcDbLine
 10
193.6480307113735
 20
30.48550379095218
 30
0.0
 11
193.6480307113735
 21
30.59583685478049
 31
0.0
  0
LINE
  5
23F
330
1F
100
AcDbEntity
  8
1
  6
Continuous
 62
     7
370
     9
100
AcDbLine
 10
193.6480307113735
 20
31.47033887662769
 30
0.0
 11
193.9480307113734
 21
31.657453249333
 31
0.0
  0
LINE
  5
240
330
1F
100
AcDbEntity
  8
1
  6
Continuous
 62
     7
370
     9
100
AcDbLine
 10
186.8480307113735
 20
50.15515374353527
 30
0.0
 11
193.6480307113735
 21
50.15515374353527
 31
0.0
  0
LINE
  5
241
330
1F
100
AcDbEntity
  8
1
  6
Continuous
 62
     7
370
     9
100
AcDbLine
 10
186.8480307113735
 20
51.18758528798037
 30
0.0
 11
193.6480307113735
 21
51.18758528798037
 31
0.0
  0
LINE
  5
242
330
1F
100
AcDbEntity
  8
1
  6
Continuous
 62
     7
370
     9
100
AcDbLine
 10
193.9480307113735
 20
49.82599004450628
 30
0.0
 11
186.5480307113735
 21
49.82599004450628
 31
0.0
  0
LINE
  5
243
330
1F
100
AcDbEntity
  8
1
  6
Continuous
 62
     7
370
     9
100
AcDbLine
 10
193.9480307113735
 20
51.38740190975091
 30
0.0
 11
186.5480307113735
 21
51.38740190975091
 31
0.0
  0
LINE
  5
244
330
1F
100
AcDbEntity
  8
1
  6
Continuous
 62
     7
370
     9
100
AcDbLine
 10
193.6480307113735
 20
48.88487989343309
 30
0.0
 11
186.8480307113735
 21
48.88487989343309
 31
0.0
  0
LINE
  5
245
330
1F
100
AcDbEntity
  8
1
  6
Continuous
 62
     7
370
     9
100
AcDbLine
 10
186.5480307113735
 20
49.13292085597811
 30
0.0
 11
193.9480307113735
 21
49.13292085597811
 31
0.0
  0
LINE
  5
246
330
1F
100
AcDbEntity
  8
1
  6
Continuous
 62
     7
370
     9
100
AcDbLine
 10
186.8480307113735
 20
44.22611710770582
 30
0.0
 11
193.6480307113735
 21
44.2261171077057
 31
0.0
  0
LINE
  5
247
330
1F
100
AcDbEntity
  8
1
  6
Continuous
 62
     7
370
     9
100
AcDbLine
 10
186.8480307113735
 20
43.19368556326071
 30
0.0
 11
193.6480307113735
 21
43.1936855632606
 31
0.0
  0
LINE
  5
248
330
1F
100
AcDbEntity
  8
1
  6
Continuous
 62
     7
370
     9
100
AcDbLine
 10
193.6480307113735
 20
41.96061922156309
 30
0.0
 11
186.8480307113735
 21
41.96061922156309
 31
0.0
  0
LINE
  5
249
330
1F
100
AcDbEntity
  8
1
  6
Continuous
 62
     7
370
     9
100
AcDbLine
 10
193.6480307113735
 20
45.49639095780788
 30
0.0
 11
186.8480307113735
 21
45.49639095780788
 31
0.0
  0
LINE
  5
24A
330
1F
100
AcDbEntity
  8
1
  6
Continuous
 62
     7
370
     9
100
AcDbLine
 10
186.5480307113735
 20
45.24834999526286
 30
0.0
 11
193.9480307113735
 21
45.24834999526286
 31
0.0
  0
LINE
  5
24B
330
1F
100
AcDbEntity
  8
1
  6
Continuous
 62
     7
370
     9
100
AcDbLine
 10
193.9480307113735
 20
44.55528080673469
 30
0.0
 11
186.5480307113735
 21
44.55528080673469
 31
0.0
  0
LINE
  5
24C
330
1F
100
AcDbEntity
  8
1
  6
Continuous
 62
     7
370
     9
100
AcDbLine
 10
193.9480307113735
 20
42.99386894149006
 30
0.0
 11
186.5480307113735
 21
42.99386894149006
 31
0.0
  0
LINE
  5
24D
330
1F
100
AcDbEntity
  8
1
  6
Continuous
 62
     7
370
     9
100
AcDbLine
 10
186.5480307113735
 20
42.32110038527753
 30
0.0
 11
193.9480307113735
 21
42.32110038527753
 31
0.0
  0
LINE
  5
24E
330
1F
100
AcDbEntity
  8
1
  6
Continuous
 62
     7
370
     9
100
AcDbLine
 10
186.8480307113735
 20
40.96877625132117
 30
0.0
 11
193.6480307113735
 21
40.96877625132117
 31
0.0
  0
LINE
  5
24F
330
1F
100
AcDbEntity
  8
1
  6
Continuous
 62
     7
370
     9
100
AcDbLine
 10
193.9480307113735
 20
40.82107317357986
 30
0.0
 11
186.5480307113735
 21
40.82107317357986
 31
0.0
  0
LINE
  5
250
330
1F
100
AcDbEntity
  8
1
  6
Continuous
 62
     7
370
     9
100
AcDbLine
 10
186.5480307113735
 20
40.18169992436674
 30
0.0
 11
193.9480307113735
 21
40.18169992436674
 31
0.0
  0
LINE
  5
251
330
1F
100
AcDbEntity
  8
1
  6
Continuous
 62
     7
370
     9
100
AcDbLine
 10
193.6480307113735
 20
39.79691765177711
 30
0.0
 11
186.8480307113734
 21
39.79691765177711
 31
0.0
  0
LINE
  5
252
330
1F
100
AcDbEntity
  8
1
  6
Continuous
 62
     7
370
     9
100
AcDbLine
 10
186.8480307113734
 20
38.86496835094954
 30
0.0
 11
193.6480307113735
 21
38.86496835094954
 31
0.0
  0
LINE
  5
253
330
1F
100
AcDbEntity
  8
1
  6
Continuous
 62
     7
370
     9
100
AcDbLine
 10
193.9480307113735
 20
38.77225368963593
 30
0.0
 11
186.5480307113735
 21
38.77225368963593
 31
0.0
  0
LINE
  5
254
330
1F
100
AcDbEntity
  8
1
  6
Continuous
 62
     7
370
     9
100
AcDbLine
 10
186.5480307113735
 20
36.88728843041554
 30
0.0
 11
193.9480307113735
 21
36.88728843041554
 31
0.0
  0
LINE
  5
255
330
1F
100
AcDbEntity
  8
1
  6
Continuous
 62
     7
370
     9
100
AcDbLine
 10
193.6480307113735
 20
36.92321008988029
 30
0.0
 11
186.8480307113734
 21
36.9232100898804
 31
0.0
  0
LINE
  5
256
330
1F
100
AcDbEntity
  8
1
  6
Continuous
 62
     7
370
     9
100
AcDbLine
 10
193.9480307113734
 20
36.35114759119142
 30
0.0
 11
186.5480307113735
 21
36.35114759119142
 31
0.0
  0
LINE
  5
257
330
1F
100
AcDbEntity
  8
1
  6
Continuous
 62
     7
370
     9
100
AcDbLine
 10
186.8480307113734
 20
35.94055837038729
 30
0.0
 11
193.6480307113735
 21
35.94055837038729
 31
0.0
  0
LINE
  5
258
330
1F
100
AcDbEntity
  8
1
  6
Continuous
 62
     7
370
     9
100
AcDbLine
 10
186.5480307113735
 20
38.17872042044189
 30
0.0
 11
193.9480307113734
 21
38.17872042044189
 31
0.0
  0
LINE
  5
259
330
1F
100
AcDbEntity
  8
1
  6
Continuous
 62
     7
370
     9
100
AcDbLine
 10
193.6480307113735
 20
37.7771263882297
 30
0.0
 11
186.8480307113734
 21
37.7771263882297
 31
0.0
  0
LINE
  5
25A
330
1F
100
AcDbEntity
  8
1
  6
Continuous
 62
     7
370
     9
100
AcDbLine
 10
186.8480307113734
 20
35.18129558394821
 30
0.0
 11
193.6480307113735
 21
35.18129558394821
 31
0.0
  0
LINE
  5
25B
330
1F
100
AcDbEntity
  8
1
  6
Continuous
 62
     7
370
     9
100
AcDbLine
 10
186.5480307113735
 20
34.7345530629035
 30
0.0
 11
193.9480307113734
 21
34.7345530629035
 31
0.0
  0
LINE
  5
25C
330
1F
100
AcDbEntity
  8
1
  6
Continuous
 62
     7
370
     9
100
AcDbLine
 10
186.8480307113734
 20
34.32296030565203
 30
0.0
 11
193.6480307113735
 21
34.32296030565192
 31
0.0
  0
LINE
  5
25D
330
1F
100
AcDbEntity
  8
1
  6
Continuous
 62
     7
370
     9
100
AcDbLine
 10
186.8480307113735
 20
51.18758528798037
 30
0.0
 11
186.8480307113735
 21
50.15515374353527
 31
0.0
  0
LINE
  5
25E
330
1F
100
AcDbEntity
  8
1
  6
Continuous
 62
     7
370
     9
100
AcDbLine
 10
186.5480307113735
 20
51.38740190975091
 30
0.0
 11
186.8480307113735
 21
51.18758528798037
 31
0.0
  0
LINE
  5
25F
330
1F
100
AcDbEntity
  8
1
  6
Continuous
 62
     7
370
     9
100
AcDbLine
 10
186.5480307113735
 20
49.13292085597811
 30
0.0
 11
186.8480307113735
 21
48.88487989343309
 31
0.0
  0
LINE
  5
260
330
1F
100
AcDbEntity
  8
1
  6
Continuous
 62
     7
370
     9
100
AcDbLine
 10
186.8480307113735
 20
50.15515374353527
 30
0.0
 11
186.5480307113735
 21
49.82599004450628
 31
0.0
  0
LINE
  5
261
330
1F
100
AcDbEntity
  8
1
  6
Continuous
 62
     7
370
     9
100
AcDbLine
 10
186.5480307113735
 20
45.24834999526286
 30
0.0
 11
186.8480307113735
 21
45.49639095780788
 31
0.0
  0
LINE
  5
262
330
1F
100
AcDbEntity
  8
1
  6
Continuous
 62
     7
370
     9
100
AcDbLine
 10
186.8480307113735
 20
44.22611710770582
 30
0.0
 11
186.5480307113735
 21
44.55528080673469
 31
0.0
  0
LINE
  5
263
330
1F
100
AcDbEntity
  8
1
  6
Continuous
 62
     7
370
     9
100
AcDbLine
 10
186.8480307113735
 20
45.49639095780788
 30
0.0
 11
186.8480307113735
 21
47.19063542562048
 31
0.0
  0
LINE
  5
264
330
1F
100
AcDbEntity
  8
1
  6
Continuous
 62
     7
370
     9
100
AcDbLine
 10
186.8480307113735
 20
48.88487989343309
 30
0.0
 11
186.8480307113735
 21
47.19063542562048
 31
0.0
  0
LINE
  5
265
330
1F
100
AcDbEntity
  8
1
  6
Continuous
 62
     7
370
     9
100
AcDbLine
 10
186.5480307113735
 20
42.32110038527753
 30
0.0
 11
186.8480307113735
 21
41.96061922156309
 31
0.0
  0
LINE
  5
266
330
1F
100
AcDbEntity
  8
1
  6
Continuous
 62
     7
370
     9
100
AcDbLine
 10
186.5480307113735
 20
42.99386894149006
 30
0.0
 11
186.8480307113735
 21
43.19368556326071
 31
0.0
  0
LINE
  5
267
330
1F
100
AcDbEntity
  8
1
  6
Continuous
 62
     7
370
     9
100
AcDbLine
 10
186.8480307113734
 20
39.79691765177711
 30
0.0
 11
186.5480307113735
 21
40.18169992436674
 31
0.0
  0
LINE
  5
268
330
1F
100
AcDbEntity
  8
1
  6
Continuous
 62
     7
370
     9
100
AcDbLine
 10
186.8480307113735
 20
40.96877625132117
 30
0.0
 11
186.5480307113735
 21
40.82107317357986
 31
0.0
  0
LINE
  5
269
330
1F
100
AcDbEntity
  8
1
  6
Continuous
 62
     7
370
     9
100
AcDbLine
 10
186.8480307113735
 20
40.96877625132117
 30
0.0
 11
186.8480307113735
 21
41.96061922156309
 31
0.0
  0
LINE
  5
26A
330
1F
100
AcDbEntity
  8
1
  6
Continuous
 62
     7
370
     9
100
AcDbLine
 10
186.5480307113735
 20
38.17872042044189
 30
0.0
 11
186.8480307113734
 21
37.7771263882297
 31
0.0
  0
LINE
  5
26B
330
1F
100
AcDbEntity
  8
1
  6
Continuous
 62
     7
370
     9
100
AcDbLine
 10
186.5480307113735
 20
38.77225368963593
 30
0.0
 11
186.8480307113734
 21
38.86496835094954
 31
0.0
  0
LINE
  5
26C
330
1F
100
AcDbEntity
  8
1
  6
Continuous
 62
     7
370
     9
100
AcDbLine
 10
186.8480307113734
 20
35.94055837038729
 30
0.0
 11
186.5480307113735
 21
36.35114759119142
 31
0.0
  0
LINE
  5
26D
330
1F
100
AcDbEntity
  8
1
  6
Continuous
 62
     7
370
     9
100
AcDbLine
 10
186.8480307113734
 20
36.9232100898804
 30
0.0
 11
186.5480307113735
 21
36.88728843041554
 31
0.0
  0
LINE
  5
26E
330
1F
100
AcDbEntity
  8
1
  6
Continuous
 62
     7
370
     9
100
AcDbLine
 10
186.8480307113734
 20
36.9232100898804
 30
0.0
 11
186.8480307113734
 21
37.7771263882297
 31
0.0
  0
LINE
  5
26F
330
1F
100
AcDbEntity
  8
1
  6
Continuous
 62
     7
370
     9
100
AcDbLine
 10
186.8480307113734
 20
38.86496835094954
 30
0.0
 11
186.8480307113734
 21
39.79691765177711
 31
0.0
  0
LINE
  5
270
330
1F
100
AcDbEntity
  8
1
  6
Continuous
 62
     7
370
     9
100
AcDbLine
 10
186.8480307113735
 20
43.19368556326071
 30
0.0
 11
186.8480307113735
 21
44.22611710770582
 31
0.0
  0
LINE
  5
271
330
1F
100
AcDbEntity
  8
1
  6
Continuous
 62
     7
370
     9
100
AcDbLine
 10
186.8480307113734
 20
35.18129558394821
 30
0.0
 11
186.5480307113735
 21
35.20286610057337
 31
0.0
  0
LINE
  5
272
330
1F
100
AcDbEntity
  8
1
  6
Continuous
 62
     7
370
     9
100
AcDbLine
 10
186.5480307113735
 20
34.7345530629035
 30
0.0
 11
186.8480307113734
 21
34.32296030565203
 31
0.0
  0
LINE
  5
273
330
1F
100
AcDbEntity
  8
1
  6
Continuous
 62
     7
370
     9
100
AcDbLine
 10
186.8480307113734
 20
35.18129558394821
 30
0.0
 11
186.8480307113734
 21
35.94055837038729
 31
0.0
  0
LINE
  5
274
330
1F
100
AcDbEntity
  8
1
  6
Continuous
 62
     7
370
     9
100
AcDbLine
 10
193.6480307113735
 20
51.18758528798037
 30
0.0
 11
193.6480307113735
 21
50.15515374353527
 31
0.0
  0
LINE
  5
275
330
1F
100
AcDbEntity
  8
1
  6
Continuous
 62
     7
370
     9
100
AcDbLine
 10
193.9480307113735
 20
51.38740190975091
 30
0.0
 11
193.6480307113735
 21
51.18758528798037
 31
0.0
  0
LINE
  5
276
330
1F
100
AcDbEntity
  8
1
  6
Continuous
 62
     7
370
     9
100
AcDbLine
 10
193.9480307113735
 20
49.13292085597811
 30
0.0
 11
193.6480307113735
 21
48.88487989343309
 31
0.0
  0
LINE
  5
277
330
1F
100
AcDbEntity
  8
1
  6
Continuous
 62
     7
370
     9
100
AcDbLine
 10
193.6480307113735
 20
50.15515374353527
 30
0.0
 11
193.9480307113735
 21
49.82599004450628
 31
0.0
  0
CIRCLE
  5
278
330
1F
100
AcDbEntity
  8
1
  6
Continuous
 62
     7
370
     9
100
AcDbCircle
 10
192.4480307113735
 20
47.19063542562048
 30
0.0
 40
0.75
  0
LINE
  5
279
330
1F
100
AcDbEntity
  8
1
  6
Continuous
 62
     7
370
     9
100
AcDbLine
 10
193.9480307113735
 20
45.24834999526286
 30
0.0
 11
193.6480307113735
 21
45.49639095780788
 31
0.0
  0
LINE
  5
27A
330
1F
100
AcDbEntity
  8
1
  6
Continuous
 62
     7
370
     9
100
AcDbLine
 10
193.6480307113735
 20
44.2261171077057
 30
0.0
 11
193.9480307113735
 21
44.55528080673469
 31
0.0
  0
LINE
  5
27B
330
1F
100
AcDbEntity
  8
1
  6
Continuous
 62
     7
370
     9
100
AcDbLine
 10
193.6480307113735
 20
45.49639095780788
 30
0.0
 11
193.6480307113735
 21
47.19063542562048
 31
0.0
  0
LINE
  5
27C
330
1F
100
AcDbEntity
  8
1
  6
Continuous
 62
     7
370
     9
100
AcDbLine
 10
193.6480307113735
 20
48.88487989343309
 30
0.0
 11
193.6480307113735
 21
47.19063542562048
 31
0.0
  0
LINE
  5
27D
330
1F
100
AcDbEntity
  8
1
  6
Continuous
 62
     7
370
     9
100
AcDbLine
 10
193.9480307113735
 20
42.32110038527753
 30
0.0
 11
193.6480307113735
 21
41.96061922156309
 31
0.0
  0
LINE
  5
27E
330
1F
100
AcDbEntity
  8
1
  6
Continuous
 62
     7
370
     9
100
AcDbLine
 10
193.9480307113735
 20
42.99386894149006
 30
0.0
 11
193.6480307113735
 21
43.1936855632606
 31
0.0
  0
LINE
  5
27F
330
1F
100
AcDbEntity
  8
1
  6
Continuous
 62
     7
370
     9
100
AcDbLine
 10
193.6480307113735
 20
39.79691765177711
 30
0.0
 11
193.9480307113735
 21
40.18169992436674
 31
0.0
  0
LINE
  5
280
330
1F
100
AcDbEntity
  8
1
  6
Continuous
 62
     7
370
     9
100
AcDbLine
 10
193.6480307113735
 20
40.96877625132117
 30
0.0
 11
193.9480307113735
 21
40.82107317357986
 31
0.0
  0
LINE
  5
281
330
1F
100
AcDbEntity
  8
1
  6
Continuous
 62
     7
370
     9
100
AcDbLine
 10
193.6480307113735
 20
40.96877625132117
 30
0.0
 11
193.6480307113735
 21
41.96061922156309
 31
0.0
  0
LINE
  5
282
330
1F
100
AcDbEntity
  8
1
  6
Continuous
 62
     7
370
     9
100
AcDbLine
 10
193.9480307113735
 20
38.17872042044189
 30
0.0
 11
193.6480307113735
 21
37.7771263882297
 31
0.0
  0
LINE
  5
283
330
1F
100
AcDbEntity
  8
1
  6
Continuous
 62
     7
370
     9
100
AcDbLine
 10
193.9480307113735
 20
38.77225368963593
 30
0.0
 11
193.6480307113735
 21
38.86496835094954
 31
0.0
  0
LINE
  5
284
330
1F
100
AcDbEntity
  8
1
  6
Continuous
 62
     7
370
     9
100
AcDbLine
 10
193.6480307113735
 20
35.94055837038729
 30
0.0
 11
193.9480307113734
 21
36.35114759119142
 31
0.0
  0
LINE
  5
285
330
1F
100
AcDbEntity
  8
1
  6
Continuous
 62
     7
370
     9
100
AcDbLine
 10
193.6480307113735
 20
36.92321008988029
 30
0.0
 11
193.9480307113735
 21
36.88728843041554
 31
0.0
  0
LINE
  5
286
330
1F
100
AcDbEntity
  8
1
  6
Continuous
 62
     7
370
     9
100
AcDbLine
 10
193.6480307113735
 20
36.92321008988029
 30
0.0
 11
193.6480307113735
 21
37.7771263882297
 31
0.0
  0
LINE
  5
287
330
1F
100
AcDbEntity
  8
1
  6
Continuous
 62
     7
370
     9
100
AcDbLine
 10
193.6480307113735
 20
38.86496835094954
 30
0.0
 11
193.6480307113735
 21
39.79691765177711
 31
0.0
  0
LINE
  5
288
330
1F
100
AcDbEntity
  8
1
  6
Continuous
 62
     7
370
     9
100
AcDbLine
 10
193.6480307113735
 20
43.1936855632606
 30
0.0
 11
193.6480307113735
 21
44.2261171077057
 31
0.0
  0
LINE
  5
289
330
1F
100
AcDbEntity
  8
1
  6
Continuous
 62
     7
370
     9
100
AcDbLine
 10
193.6480307113735
 20
35.18129558394821
 30
0.0
 11
193.9480307113734
 21
35.20286610057337
 31
0.0
  0
LINE
  5
28A
330
1F
100
AcDbEntity
  8
1
  6
Continuous
 62
     7
370
     9
100
AcDbLine
 10
193.6480307113735
 20
35.18129558394821
 30
0.0
 11
193.9480307113734
 21
35.20286610057337
 31
0.0
  0
LINE
  5
28B
330
1F
100
AcDbEntity
  8
1
  6
Continuous
 62
     7
370
     9
100
AcDbLine
 10
193.9480307113734
 20
34.7345530629035
 30
0.0
 11
193.6480307113735
 21
34.32296030565192
 31
0.0
  0
LINE
  5
28C
330
1F
100
AcDbEntity
  8
1
  6
Continuous
 62
     7
370
     9
100
AcDbLine
 10
193.6480307113735
 20
35.18129558394821
 30
0.0
 11
193.6480307113735
 21
35.94055837038729
 31
0.0
  0
LINE
  5
28D
330
1F
100
AcDbEntity
  8
1
  6
Continuous
 62
     7
370
     9
100
AcDbLine
 10
199.8696845094533
 20
33.19866400889123
 30
0.0
 11
199.8696845094533
 21
29.99437001488889
 31
0.0
  0
LINE
  5
28E
330
1F
100
AcDbEntity
  8
1
  6
Continuous
 62
     7
370
     9
100
AcDbLine
 10
199.5967559997395
 20
33.16965763608812
 30
0.0
 11
199.5967559997395
 21
29.96536364208566
 31
0.0
  0
LINE
  5
28F
330
1F
100
AcDbEntity
  8
1
  6
Continuous
 62
     7
370
     9
100
AcDbLine
 10
199.3345574252218
 20
33.1219413977924
 30
0.0
 11
199.3345574252218
 21
29.91764740378994
 31
0.0
  0
LINE
  5
290
330
1F
100
AcDbEntity
  8
1
  6
Continuous
 62
     7
370
     9
100
AcDbLine
 10
199.088192182907
 20
33.05644403630617
 30
0.0
 11
199.088192182907
 21
29.85215004230383
 31
0.0
  0
LINE
  5
291
330
1F
100
AcDbEntity
  8
1
  6
Continuous
 62
     7
370
     9
100
AcDbLine
 10
198.8624554920004
 20
32.97444038326876
 30
0.0
 11
198.8624554920004
 21
29.7701463892663
 31
0.0
  0
LINE
  5
292
330
1F
100
AcDbEntity
  8
1
  6
Continuous
 62
     7
370
     9
100
AcDbLine
 10
198.6617410604187
 20
32.87752654650876
 30
0.0
 11
198.6617410604187
 21
29.67323255250619
 31
0.0
  0
LINE
  5
293
330
1F
100
AcDbEntity
  8
1
  6
Continuous
 62
     7
370
     9
100
AcDbLine
 10
198.4899555662634
 20
32.76758884362062
 30
0.0
 11
198.4899555662634
 21
29.56329484961805
 31
0.0
  0
LINE
  5
294
330
1F
100
AcDbEntity
  8
1
  6
Continuous
 62
     7
370
     9
100
AcDbLine
 10
200.1480307113735
 20
30.00410194614722
 30
0.0
 11
200.1480307113735
 21
33.20839594014979
 31
0.0
  0
LINE
  5
295
330
1F
100
AcDbEntity
  8
1
  6
Continuous
 62
     7
370
     9
100
AcDbLine
 10
200.4263769132936
 20
33.19866400889123
 30
0.0
 11
200.4263769132936
 21
29.99437001488889
 31
0.0
  0
LINE
  5
296
330
1F
100
AcDbEntity
  8
1
  6
Continuous
 62
     7
370
     9
100
AcDbLine
 10
200.6993054230075
 20
33.16965763608812
 30
0.0
 11
200.6993054230075
 21
29.96536364208566
 31
0.0
  0
LINE
  5
297
330
1F
100
AcDbEntity
  8
1
  6
Continuous
 62
     7
370
     9
100
AcDbLine
 10
200.9615039975251
 20
33.1219413977924
 30
0.0
 11
200.9615039975251
 21
29.91764740378994
 31
0.0
  0
LINE
  5
298
330
1F
100
AcDbEntity
  8
1
  6
Continuous
 62
     7
370
     9
100
AcDbLine
 10
201.2078692398399
 20
33.05644403630617
 30
0.0
 11
201.2078692398399
 21
29.85215004230383
 31
0.0
  0
LINE
  5
299
330
1F
100
AcDbEntity
  8
1
  6
Continuous
 62
     7
370
     9
100
AcDbLine
 10
201.4336059307466
 20
32.97444038326876
 30
0.0
 11
201.4336059307466
 21
29.7701463892663
 31
0.0
  0
LINE
  5
29A
330
1F
100
AcDbEntity
  8
1
  6
Continuous
 62
     7
370
     9
100
AcDbLine
 10
201.6343203623283
 20
32.87752654650876
 30
0.0
 11
201.6343203623283
 21
29.67323255250619
 31
0.0
  0
LINE
  5
29B
330
1F
100
AcDbEntity
  8
1
  6
Continuous
 62
     7
370
     9
100
AcDbLine
 10
201.8061058564836
 20
32.76758884362062
 30
0.0
 11
201.8061058564836
 21
29.56329484961805
 31
0.0
  0
LINE
  5
29C
330
1F
100
AcDbEntity
  8
1
  6
Continuous
 62
     7
370
     9
100
AcDbLine
 10
195.2480307113736
 20
47.19063542562048
 30
0.0
 11
195.2480307113736
 21
30.59063542562046
 31
0.0
  0
LINE
  5
29D
330
1F
100
AcDbEntity
  8
1
  6
Continuous
 62
     7
370
     9
100
AcDbLine
 10
194.4480307113735
 20
47.19063542562048
 30
0.0
 11
194.4480307113735
 21
30.89063542562053
 31
0.0
  0
LINE
  5
29E
330
1F
100
AcDbEntity
  8
1
  6
Continuous
 62
     7
370
     9
100
AcDbLine
 10
198.1480307113735
 20
32.20839594014967
 30
0.0
 11
198.1480307113735
 21
29.00410194614722
 31
0.0
  0
LINE
  5
29F
330
1F
100
AcDbEntity
  8
1
  6
Continuous
 62
     7
370
     9
100
AcDbLine
 10
198.3504426187751
 20
32.64676708693878
 30
0.0
 11
198.3504426187751
 21
29.44247309293632
 31
0.0
  0
LINE
  5
2A0
330
1F
100
AcDbEntity
  8
1
  6
Continuous
 62
     7
370
     9
100
AcDbLine
 10
198.2459176787832
 20
32.5174129345246
 30
0.0
 11
198.2459176787832
 21
29.31311894052226
 31
0.0
  0
LINE
  5
2A1
330
1F
100
AcDbEntity
  8
1
  6
Continuous
 62
     7
370
     9
100
AcDbLine
 10
198.178415205349
 20
32.38204411781658
 30
0.0
 11
198.178415205349
 21
29.17775012381435
 31
0.0
  0
LINE
  5
2A2
330
1F
100
AcDbEntity
  8
1
  6
Continuous
 62
     7
370
     9
100
AcDbLine
 10
195.2480307113736
 20
30.59063542562046
 30
0.0
 11
194.7480307113735
 21
30.59063542562046
 31
0.0
  0
LINE
  5
2A3
330
1F
100
AcDbEntity
  8
1
  6
Continuous
 62
     7
370
     9
100
AcDbLine
 10
194.7480307113735
 20
30.59063542562046
 30
0.0
 11
194.4480307113735
 21
30.89063542562053
 31
0.0
  0
LINE
  5
2A4
330
1F
100
AcDbEntity
  8
1
  6
Continuous
 62
     7
370
     9
100
AcDbLine
 10
195.2480307113736
 20
30.59063542562046
 30
0.0
 11
198.1480307113735
 21
30.59063542562046
 31
0.0
  0
LINE
  5
2A5
330
1F
100
AcDbEntity
  8
1
  6
Continuous
 62
     7
370
     9
100
AcDbLine
 10
202.1480307113735
 20
32.20839594014967
 30
0.0
 11
202.1480307113735
 21
29.00410194614722
 31
0.0
  0
LINE
  5
2A6
330
1F
100
AcDbEntity
  8
1
  6
Continuous
 62
     7
370
     9
100
AcDbLine
 10
201.9456188039718
 20
32.64676708693878
 30
0.0
 11
201.9456188039718
 21
29.44247309293632
 31
0.0
  0
LINE
  5
2A7
330
1F
100
AcDbEntity
  8
1
  6
Continuous
 62
     7
370
     9
100
AcDbLine
 10
202.0501437439638
 20
32.5174129345246
 30
0.0
 11
202.0501437439638
 21
29.31311894052226
 31
0.0
  0
LINE
  5
2A8
330
1F
100
AcDbEntity
  8
1
  6
Continuous
 62
     7
370
     9
100
AcDbLine
 10
202.1176462173979
 20
32.38204411781658
 30
0.0
 11
202.1176462173979
 21
29.17775012381435
 31
0.0
  0
LINE
  5
2A9
330
1F
100
AcDbEntity
  8
1
  6
Continuous
 62
     7
370
     9
100
AcDbLine
 10
197.5980307113736
 20
51.52563542562041
 30
0.0
 11
196.3980307113737
 21
51.52563542562041
 31
0.0
  0
LINE
  5
2AA
330
1F
100
AcDbEntity
  8
1
  6
Continuous
 62
     7
370
     9
100
AcDbLine
 10
193.9480307113735
 20
62.99063542562044
 30
0.0
 11
194.4480307113735
 21
62.99063542562044
 31
0.0
  0
LINE
  5
2AB
330
1F
100
AcDbEntity
  8
1
  6
Continuous
 62
     7
370
     9
100
AcDbLine
 10
186.8480307113735
 20
63.94063542562048
 30
0.0
 11
193.6480307113735
 21
63.94063542562048
 31
0.0
  0
LINE
  5
2AC
330
1F
100
AcDbEntity
  8
1
  6
Continuous
 62
     7
370
     9
100
AcDbLine
 10
186.8480307113735
 20
62.91093197461328
 30
0.0
 11
193.6480307113735
 21
62.91093197461328
 31
0.0
  0
LINE
  5
2AD
330
1F
100
AcDbEntity
  8
1
  6
Continuous
 62
     7
370
     9
100
AcDbLine
 10
186.5480307113735
 20
62.94009484933122
 30
0.0
 11
193.9480307113735
 21
62.94009484933122
 31
0.0
  0
LINE
  5
2AE
330
1F
100
AcDbEntity
  8
1
  6
Continuous
 62
     7
370
     9
100
AcDbLine
 10
186.8480307113735
 20
63.307329964313
 30
0.0
 11
193.6480307113735
 21
63.307329964313
 31
0.0
  0
LINE
  5
2AF
330
1F
100
AcDbEntity
  8
1
  6
Continuous
 62
     7
370
     9
100
AcDbLine
 10
186.8480307113735
 20
63.5626811409121
 30
0.0
 11
193.6480307113735
 21
63.5626811409121
 31
0.0
  0
LINE
  5
2B0
330
1F
100
AcDbEntity
  8
1
  6
Continuous
 62
     7
370
     9
100
AcDbLine
 10
186.8480307113735
 20
63.78543399646048
 30
0.0
 11
193.6480307113735
 21
63.78543399646048
 31
0.0
  0
LINE
  5
2B1
330
1F
100
AcDbEntity
  8
1
  6
Continuous
 62
     7
370
     9
100
AcDbLine
 10
186.8480307113735
 20
63.89576706028879
 30
0.0
 11
193.6480307113735
 21
63.89576706028879
 31
0.0
  0
LINE
  5
2B2
330
1F
100
AcDbEntity
  8
1
  6
Continuous
 62
     7
370
     9
100
AcDbLine
 10
186.5480307113735
 20
56.20255043079908
 30
0.0
 11
193.9480307113735
 21
56.20255043079908
 31
0.0
  0
LINE
  5
2B3
330
1F
100
AcDbEntity
  8
1
  6
Continuous
 62
     7
370
     9
100
AcDbLine
 10
193.6480307113735
 20
56.60414446301127
 30
0.0
 11
186.8480307113735
 21
56.60414446301127
 31
0.0
  0
LINE
  5
2B4
330
1F
100
AcDbEntity
  8
1
  6
Continuous
 62
     7
370
     9
100
AcDbLine
 10
193.6480307113735
 20
52.42065162967788
 30
0.0
 11
186.8480307113735
 21
52.42065162967788
 31
0.0
  0
LINE
  5
2B5
330
1F
100
AcDbEntity
  8
1
  6
Continuous
 62
     7
370
     9
100
AcDbLine
 10
186.5480307113735
 20
52.06017046596344
 30
0.0
 11
193.9480307113735
 21
52.06017046596344
 31
0.0
  0
LINE
  5
2B6
330
1F
100
AcDbEntity
  8
1
  6
Continuous
 62
     7
370
     9
100
AcDbLine
 10
186.8480307113735
 20
53.4124945999198
 30
0.0
 11
193.6480307113735
 21
53.4124945999198
 31
0.0
  0
LINE
  5
2B7
330
1F
100
AcDbEntity
  8
1
  6
Continuous
 62
     7
370
     9
100
AcDbLine
 10
193.9480307113735
 20
53.56019767766111
 30
0.0
 11
186.5480307113735
 21
53.56019767766111
 31
0.0
  0
LINE
  5
2B8
330
1F
100
AcDbEntity
  8
1
  6
Continuous
 62
     7
370
     9
100
AcDbLine
 10
186.5480307113735
 20
54.19957092687423
 30
0.0
 11
193.9480307113735
 21
54.19957092687423
 31
0.0
  0
LINE
  5
2B9
330
1F
100
AcDbEntity
  8
1
  6
Continuous
 62
     7
370
     9
100
AcDbLine
 10
193.6480307113735
 20
54.58435319946386
 30
0.0
 11
186.8480307113735
 21
54.58435319946386
 31
0.0
  0
LINE
  5
2BA
330
1F
100
AcDbEntity
  8
1
  6
Continuous
 62
     7
370
     9
100
AcDbLine
 10
186.8480307113735
 20
55.51630250029154
 30
0.0
 11
193.6480307113735
 21
55.51630250029143
 31
0.0
  0
LINE
  5
2BB
330
1F
100
AcDbEntity
  8
1
  6
Continuous
 62
     7
370
     9
100
AcDbLine
 10
193.9480307113735
 20
55.60901716160504
 30
0.0
 11
186.5480307113735
 21
55.60901716160504
 31
0.0
  0
LINE
  5
2BC
330
1F
100
AcDbEntity
  8
1
  6
Continuous
 62
     7
370
     9
100
AcDbLine
 10
186.5480307113735
 20
57.49398242082543
 30
0.0
 11
193.9480307113735
 21
57.49398242082543
 31
0.0
  0
LINE
  5
2BD
330
1F
100
AcDbEntity
  8
1
  6
Continuous
 62
     7
370
     9
100
AcDbLine
 10
193.6480307113735
 20
57.45806076136068
 30
0.0
 11
186.8480307113735
 21
57.45806076136068
 31
0.0
  0
LINE
  5
2BE
330
1F
100
AcDbEntity
  8
1
  6
Continuous
 62
     7
370
     9
100
AcDbLine
 10
193.9480307113735
 20
58.03012326004955
 30
0.0
 11
186.5480307113735
 21
58.03012326004955
 31
0.0
  0
LINE
  5
2BF
330
1F
100
AcDbEntity
  8
1
  6
Continuous
 62
     7
370
     9
100
AcDbLine
 10
186.8480307113735
 20
58.44071248085368
 30
0.0
 11
193.6480307113735
 21
58.44071248085368
 31
0.0
  0
LINE
  5
2C0
330
1F
100
AcDbEntity
  8
1
  6
Continuous
 62
     7
370
     9
100
AcDbLine
 10
186.8480307113735
 20
59.19997526729287
 30
0.0
 11
193.6480307113735
 21
59.19997526729276
 31
0.0
  0
LINE
  5
2C1
330
1F
100
AcDbEntity
  8
1
  6
Continuous
 62
     7
370
     9
100
AcDbLine
 10
186.5480307113735
 20
59.64671778833758
 30
0.0
 11
193.9480307113735
 21
59.64671778833747
 31
0.0
  0
LINE
  5
2C2
330
1F
100
AcDbEntity
  8
1
  6
Continuous
 62
     7
370
     9
100
AcDbLine
 10
186.8480307113735
 20
60.05831054558905
 30
0.0
 11
193.6480307113735
 21
60.05831054558905
 31
0.0
  0
LINE
  5
2C3
330
1F
100
AcDbEntity
  8
1
  6
Continuous
 62
     7
370
     9
100
AcDbLine
 10
186.8480307113735
 20
63.94063542562048
 30
0.0
 11
186.5480307113735
 21
63.64063542562053
 31
0.0
  0
LINE
  5
2C4
330
1F
100
AcDbEntity
  8
1
  6
Continuous
 62
     7
370
     9
100
AcDbLine
 10
186.8480307113735
 20
63.5626811409121
 30
0.0
 11
186.8480307113735
 21
63.307329964313
 31
0.0
  0
LINE
  5
2C5
330
1F
100
AcDbEntity
  8
1
  6
Continuous
 62
     7
370
     9
100
AcDbLine
 10
186.5480307113735
 20
63.44781425181725
 30
0.0
 11
186.702261961384
 21
63.44781425181725
 31
0.0
  0
LINE
  5
2C6
330
1F
100
AcDbEntity
  8
1
  6
Continuous
 62
     7
370
     9
100
AcDbLine
 10
186.5480307113735
 20
63.44781425181725
 30
0.0
 11
186.8480307113735
 21
63.78543399646048
 31
0.0
  0
LINE
  5
2C7
330
1F
100
AcDbEntity
  8
1
  6
Continuous
 62
     7
370
     9
100
AcDbLine
 10
186.8480307113735
 20
63.5626811409121
 30
0.0
 11
186.5480307113735
 21
63.3262788480273
 31
0.0
  0
LINE
  5
2C8
330
1F
100
AcDbEntity
  8
1
  6
Continuous
 62
     7
370
     9
100
AcDbLine
 10
186.5480307113735
 20
62.94009484933122
 30
0.0
 11
186.8480307113735
 21
63.307329964313
 31
0.0
  0
LINE
  5
2C9
330
1F
100
AcDbEntity
  8
1
  6
Continuous
 62
     7
370
     9
100
AcDbLine
 10
186.8480307113735
 20
62.91093197461328
 30
0.0
 11
186.5480307113735
 21
62.72381760190797
 31
0.0
  0
LINE
  5
2CA
330
1F
100
AcDbEntity
  8
1
  6
Continuous
 62
     7
370
     9
100
AcDbLine
 10
186.5480307113735
 20
63.61467814895184
 30
0.0
 11
186.8480307113735
 21
63.89576706028879
 31
0.0
  0
LINE
  5
2CB
330
1F
100
AcDbEntity
  8
1
  6
Continuous
 62
     7
370
     9
100
AcDbLine
 10
186.8480307113735
 20
63.89576706028879
 30
0.0
 11
186.8480307113735
 21
63.78543399646048
 31
0.0
  0
LINE
  5
2CC
330
1F
100
AcDbEntity
  8
1
  6
Continuous
 62
     7
370
     9
100
AcDbLine
 10
186.8480307113735
 20
59.19997526729287
 30
0.0
 11
186.8480307113735
 21
58.44071248085368
 31
0.0
  0
LINE
  5
2CD
330
1F
100
AcDbEntity
  8
1
  6
Continuous
 62
     7
370
     9
100
AcDbLine
 10
186.8480307113735
 20
59.19997526729287
 30
0.0
 11
186.5480307113735
 21
59.1784047506676
 31
0.0
  0
LINE
  5
2CE
330
1F
100
AcDbEntity
  8
1
  6
Continuous
 62
     7
370
     9
100
AcDbLine
 10
186.5480307113735
 20
59.64671778833758
 30
0.0
 11
186.8480307113735
 21
60.05831054558905
 31
0.0
  0
LINE
  5
2CF
330
1F
100
AcDbEntity
  8
1
  6
Continuous
 62
     7
370
     9
100
AcDbLine
 10
186.8480307113735
 20
57.45806076136068
 30
0.0
 11
186.8480307113735
 21
56.60414446301127
 31
0.0
  0
LINE
  5
2D0
330
1F
100
AcDbEntity
  8
1
  6
Continuous
 62
     7
370
     9
100
AcDbLine
 10
186.8480307113735
 20
57.45806076136068
 30
0.0
 11
186.5480307113735
 21
57.49398242082543
 31
0.0
  0
LINE
  5
2D1
330
1F
100
AcDbEntity
  8
1
  6
Continuous
 62
     7
370
     9
100
AcDbLine
 10
186.5480307113735
 20
56.20255043079908
 30
0.0
 11
186.8480307113735
 21
56.60414446301127
 31
0.0
  0
LINE
  5
2D2
330
1F
100
AcDbEntity
  8
1
  6
Continuous
 62
     7
370
     9
100
AcDbLine
 10
186.8480307113735
 20
58.44071248085368
 30
0.0
 11
186.5480307113735
 21
58.03012326004955
 31
0.0
  0
LINE
  5
2D3
330
1F
100
AcDbEntity
  8
1
  6
Continuous
 62
     7
370
     9
100
AcDbLine
 10
186.8480307113735
 20
55.51630250029154
 30
0.0
 11
186.8480307113735
 21
54.58435319946386
 31
0.0
  0
LINE
  5
2D4
330
1F
100
AcDbEntity
  8
1
  6
Continuous
 62
     7
370
     9
100
AcDbLine
 10
186.8480307113735
 20
54.58435319946386
 30
0.0
 11
186.5480307113735
 21
54.19957092687423
 31
0.0
  0
LINE
  5
2D5
330
1F
100
AcDbEntity
  8
1
  6
Continuous
 62
     7
370
     9
100
AcDbLine
 10
186.5480307113735
 20
55.60901716160504
 30
0.0
 11
186.8480307113735
 21
55.51630250029154
 31
0.0
  0
LINE
  5
2D6
330
1F
100
AcDbEntity
  8
1
  6
Continuous
 62
     7
370
     9
100
AcDbLine
 10
186.8480307113735
 20
53.4124945999198
 30
0.0
 11
186.8480307113735
 21
52.42065162967788
 31
0.0
  0
LINE
  5
2D7
330
1F
100
AcDbEntity
  8
1
  6
Continuous
 62
     7
370
     9
100
AcDbLine
 10
186.5480307113735
 20
52.06017046596344
 30
0.0
 11
186.8480307113735
 21
52.42065162967788
 31
0.0
  0
LINE
  5
2D8
330
1F
100
AcDbEntity
  8
1
  6
Continuous
 62
     7
370
     9
100
AcDbLine
 10
186.8480307113735
 20
53.4124945999198
 30
0.0
 11
186.5480307113735
 21
53.56019767766111
 31
0.0
  0
LINE
  5
2D9
330
1F
100
AcDbEntity
  8
1
  6
Continuous
 62
     7
370
     9
100
AcDbLine
 10
186.8480307113735
 20
62.91093197461328
 30
0.0
 11
186.8480307113735
 21
60.05831054558905
 31
0.0
  0
LINE
  5
2DA
330
1F
100
AcDbEntity
  8
1
  6
Continuous
 62
     7
370
     9
100
AcDbLine
 10
193.6480307113735
 20
63.94063542562048
 30
0.0
 11
193.9480307113735
 21
63.64063542562053
 31
0.0
  0
LINE
  5
2DB
330
1F
100
AcDbEntity
  8
1
  6
Continuous
 62
     7
370
     9
100
AcDbLine
 10
193.6480307113735
 20
63.5626811409121
 30
0.0
 11
193.6480307113735
 21
63.307329964313
 31
0.0
  0
LINE
  5
2DC
330
1F
100
AcDbEntity
  8
1
  6
Continuous
 62
     7
370
     9
100
AcDbLine
 10
193.9480307113735
 20
63.44781425181714
 30
0.0
 11
193.7937994613631
 21
63.44781425181714
 31
0.0
  0
LINE
  5
2DD
330
1F
100
AcDbEntity
  8
1
  6
Continuous
 62
     7
370
     9
100
AcDbLine
 10
193.9480307113735
 20
63.44781425181714
 30
0.0
 11
193.6480307113735
 21
63.78543399646048
 31
0.0
  0
LINE
  5
2DE
330
1F
100
AcDbEntity
  8
1
  6
Continuous
 62
     7
370
     9
100
AcDbLine
 10
193.6480307113735
 20
63.5626811409121
 30
0.0
 11
193.9480307113735
 21
63.3262788480273
 31
0.0
  0
LINE
  5
2DF
330
1F
100
AcDbEntity
  8
1
  6
Continuous
 62
     7
370
     9
100
AcDbLine
 10
193.9480307113735
 20
62.94009484933122
 30
0.0
 11
193.6480307113735
 21
63.307329964313
 31
0.0
  0
LINE
  5
2E0
330
1F
100
AcDbEntity
  8
1
  6
Continuous
 62
     7
370
     9
100
AcDbLine
 10
193.6480307113735
 20
62.91093197461328
 30
0.0
 11
193.9480307113735
 21
62.72381760190797
 31
0.0
  0
LINE
  5
2E1
330
1F
100
AcDbEntity
  8
1
  6
Continuous
 62
     7
370
     9
100
AcDbLine
 10
193.9480307113735
 20
63.61467814895173
 30
0.0
 11
193.6480307113735
 21
63.89576706028879
 31
0.0
  0
LINE
  5
2E2
330
1F
100
AcDbEntity
  8
1
  6
Continuous
 62
     7
370
     9
100
AcDbLine
 10
193.6480307113735
 20
63.89576706028879
 30
0.0
 11
193.6480307113735
 21
63.78543399646048
 31
0.0
  0
LINE
  5
2E3
330
1F
100
AcDbEntity
  8
1
  6
Continuous
 62
     7
370
     9
100
AcDbLine
 10
193.6480307113735
 20
59.19997526729276
 30
0.0
 11
193.9480307113735
 21
59.1784047506676
 31
0.0
  0
LINE
  5
2E4
330
1F
100
AcDbEntity
  8
1
  6
Continuous
 62
     7
370
     9
100
AcDbLine
 10
193.6480307113735
 20
59.19997526729276
 30
0.0
 11
193.9480307113735
 21
59.1784047506676
 31
0.0
  0
LINE
  5
2E5
330
1F
100
AcDbEntity
  8
1
  6
Continuous
 62
     7
370
     9
100
AcDbLine
 10
193.6480307113735
 20
59.19997526729276
 30
0.0
 11
193.6480307113735
 21
58.44071248085368
 31
0.0
  0
LINE
  5
2E6
330
1F
100
AcDbEntity
  8
1
  6
Continuous
 62
     7
370
     9
100
AcDbLine
 10
193.9480307113735
 20
59.64671778833747
 30
0.0
 11
193.6480307113735
 21
60.05831054558905
 31
0.0
  0
LINE
  5
2E7
330
1F
100
AcDbEntity
  8
1
  6
Continuous
 62
     7
370
     9
100
AcDbLine
 10
193.6480307113735
 20
57.45806076136068
 30
0.0
 11
193.9480307113735
 21
57.49398242082543
 31
0.0
  0
LINE
  5
2E8
330
1F
100
AcDbEntity
  8
1
  6
Continuous
 62
     7
370
     9
100
AcDbLine
 10
193.9480307113735
 20
56.20255043079908
 30
0.0
 11
193.6480307113735
 21
56.60414446301127
 31
0.0
  0
LINE
  5
2E9
330
1F
100
AcDbEntity
  8
1
  6
Continuous
 62
     7
370
     9
100
AcDbLine
 10
193.6480307113735
 20
57.45806076136068
 30
0.0
 11
193.6480307113735
 21
56.60414446301127
 31
0.0
  0
LINE
  5
2EA
330
1F
100
AcDbEntity
  8
1
  6
Continuous
 62
     7
370
     9
100
AcDbLine
 10
193.6480307113735
 20
58.44071248085368
 30
0.0
 11
193.9480307113735
 21
58.03012326004955
 31
0.0
  0
LINE
  5
2EB
330
1F
100
AcDbEntity
  8
1
  6
Continuous
 62
     7
370
     9
100
AcDbLine
 10
193.6480307113735
 20
55.51630250029143
 30
0.0
 11
193.6480307113735
 21
54.58435319946386
 31
0.0
  0
LINE
  5
2EC
330
1F
100
AcDbEntity
  8
1
  6
Continuous
 62
     7
370
     9
100
AcDbLine
 10
193.6480307113735
 20
54.58435319946386
 30
0.0
 11
193.9480307113735
 21
54.19957092687423
 31
0.0
  0
LINE
  5
2ED
330
1F
100
AcDbEntity
  8
1
  6
Continuous
 62
     7
370
     9
100
AcDbLine
 10
193.9480307113735
 20
55.60901716160504
 30
0.0
 11
193.6480307113735
 21
55.51630250029143
 31
0.0
  0
LINE
  5
2EE
330
1F
100
AcDbEntity
  8
1
  6
Continuous
 62
     7
370
     9
100
AcDbLine
 10
193.6480307113735
 20
53.4124945999198
 30
0.0
 11
193.6480307113735
 21
52.42065162967788
 31
0.0
  0
LINE
  5
2EF
330
1F
100
AcDbEntity
  8
1
  6
Continuous
 62
     7
370
     9
100
AcDbLine
 10
193.9480307113735
 20
52.06017046596344
 30
0.0
 11
193.6480307113735
 21
52.42065162967788
 31
0.0
  0
LINE
  5
2F0
330
1F
100
AcDbEntity
  8
1
  6
Continuous
 62
     7
370
     9
100
AcDbLine
 10
193.6480307113735
 20
53.4124945999198
 30
0.0
 11
193.9480307113735
 21
53.56019767766111
 31
0.0
  0
LINE
  5
2F1
330
1F
100
AcDbEntity
  8
1
  6
Continuous
 62
     7
370
     9
100
AcDbLine
 10
193.6480307113735
 20
62.91093197461328
 30
0.0
 11
193.6480307113735
 21
60.05831054558905
 31
0.0
  0
LINE
  5
2F2
330
1F
100
AcDbEntity
  8
1
  6
Continuous
 62
     7
370
     9
100
AcDbLine
 10
195.2480307113736
 20
63.79063542562051
 30
0.0
 11
194.7480307113735
 21
63.79063542562051
 31
0.0
  0
LINE
  5
2F3
330
1F
100
AcDbEntity
  8
1
  6
Continuous
 62
     7
370
     9
100
AcDbLine
 10
194.7480307113735
 20
63.79063542562051
 30
0.0
 11
194.4480307113735
 21
63.49063542562044
 31
0.0
  0
LINE
  5
2F4
330
1F
100
AcDbEntity
  8
1
  6
Continuous
 62
     7
370
     9
100
AcDbLine
 10
197.7480307113736
 20
56.67563542562038
 30
0.0
 11
197.7480307113736
 21
56.22563542562045
 31
0.0
  0
ARC
  5
2F5
330
1F
100
AcDbEntity
  8
1
  6
Continuous
 62
     7
370
     9
100
AcDbCircle
 10
197.5980307113736
 20
56.67563542562038
 30
0.0
 40
0.1500000000000057
100
AcDbArc
 50
0.0
 51
89.99999999998914
  0
ARC
  5
2F6
330
1F
100
AcDbEntity
  8
1
  6
Continuous
 62
     7
370
     9
100
AcDbCircle
 10
197.5980307113736
 20
52.12563542562032
 30
0.0
 40
0.1500000000000057
100
AcDbArc
 50
0.0000000000271407
 51
89.99999999999991
  0
ARC
  5
2F7
330
1F
100
AcDbEntity
  8
1
  6
Continuous
 62
     7
370
     9
100
AcDbCircle
 10
197.5980307113736
 20
56.22563542562045
 30
0.0
 40
0.1500000000000057
100
AcDbArc
 50
270.0000000000105
 51
0.0000000000189985
  0
LINE
  5
2F8
330
1F
100
AcDbEntity
  8
1
  6
Continuous
 62
     7
370
     9
100
AcDbLine
 10
196.2480307113736
 20
56.22563542562045
 30
0.0
 11
196.2480307113736
 21
56.67563542562038
 31
0.0
  0
ARC
  5
2F9
330
1F
100
AcDbEntity
  8
1
  6
Continuous
 62
     7
370
     9
100
AcDbCircle
 10
196.3980307113736
 20
56.67563542562038
 30
0.0
 40
0.1500000000000057
100
AcDbArc
 50
89.99999999998914
 51
179.9999999999998
  0
ARC
  5
2FA
330
1F
100
AcDbEntity
  8
1
  6
Continuous
 62
     7
370
     9
100
AcDbCircle
 10
196.3980307113737
 20
52.12563542562032
 30
0.0
 40
0.1500000000000057
100
AcDbArc
 50
89.99999999999991
 51
179.999999999981
  0
ARC
  5
2FB
330
1F
100
AcDbEntity
  8
1
  6
Continuous
 62
     7
370
     9
100
AcDbCircle
 10
196.3980307113736
 20
56.22563542562045
 30
0.0
 40
0.1500000000000057
100
AcDbArc
 50
179.999999999981
 51
270.0000000000105
  0
LINE
  5
2FC
330
1F
100
AcDbEntity
  8
1
  6
Continuous
 62
     7
370
     9
100
AcDbLine
 10
197.5980307113736
 20
56.07563542562048
 30
0.0
 11
196.3980307113737
 21
56.07563542562048
 31
0.0
  0
LINE
  5
2FD
330
1F
100
AcDbEntity
  8
1
  6
Continuous
 62
     7
370
     9
100
AcDbLine
 10
197.5980307113736
 20
56.82563542562048
 30
0.0
 11
196.3980307113737
 21
56.82563542562048
 31
0.0
  0
LINE
  5
2FE
330
1F
100
AcDbEntity
  8
1
  6
Continuous
 62
     7
370
     9
100
AcDbLine
 10
197.5980307113736
 20
52.27563542562041
 30
0.0
 11
196.3980307113737
 21
52.27563542562041
 31
0.0
  0
LINE
  5
2FF
330
1F
100
AcDbEntity
  8
1
  6
Continuous
 62
     7
370
     9
100
AcDbLine
 10
197.7480307113736
 20
52.12563542562043
 30
0.0
 11
197.7480307113736
 21
51.67563542562038
 31
0.0
  0
LINE
  5
300
330
1F
100
AcDbEntity
  8
1
  6
Continuous
 62
     7
370
     9
100
AcDbLine
 10
196.2480307113736
 20
51.67563542562038
 30
0.0
 11
196.2480307113736
 21
52.12563542562043
 31
0.0
  0
LINE
  5
301
330
1F
100
AcDbEntity
  8
1
  6
Continuous
 62
     7
370
     9
100
AcDbLine
 10
219.7480307113735
 20
59.89063542562053
 30
0.0
 11
222.0480307113735
 21
59.89063542562053
 31
0.0
  0
LINE
  5
302
330
1F
100
AcDbEntity
  8
1
  6
Continuous
 62
     7
370
     9
100
AcDbLine
 10
219.7480307113735
 20
59.39063542562053
 30
0.0
 11
222.5480307113735
 21
59.39063542562053
 31
0.0
  0
LINE
  5
303
330
1F
100
AcDbEntity
  8
1
  6
Continuous
 62
     7
370
     9
100
AcDbLine
 10
219.7480307113735
 20
34.49063542562044
 30
0.0
 11
222.0480307113735
 21
34.49063542562044
 31
0.0
  0
LINE
  5
304
330
1F
100
AcDbEntity
  8
1
  6
Continuous
 62
     7
370
     9
100
AcDbLine
 10
219.7480307113735
 20
34.99063542562044
 30
0.0
 11
222.5480307113735
 21
34.99063542562044
 31
0.0
  0
LINE
  5
305
330
1F
100
AcDbEntity
  8
1
  6
Continuous
 62
     7
370
     9
100
AcDbLine
 10
215.2480307113734
 20
63.64063542562053
 30
0.0
 11
215.2480307113735
 21
47.19063542562048
 31
0.0
  0
LINE
  5
306
330
1F
100
AcDbEntity
  8
1
  6
Continuous
 62
     7
370
     9
100
AcDbLine
 10
215.2480307113735
 20
47.19063542562048
 30
0.0
 11
215.2480307113735
 21
63.64063542562053
 31
0.0
  0
LINE
  5
307
330
1F
100
AcDbEntity
  8
1
  6
Continuous
 62
     7
370
     9
100
AcDbLine
 10
215.4480307113735
 20
47.19063542562048
 30
0.0
 11
215.4480307113735
 21
63.19063542562048
 31
0.0
  0
LINE
  5
308
330
1F
100
AcDbEntity
  8
1
  6
Continuous
 62
     7
370
     9
100
AcDbLine
 10
219.7480307113735
 20
59.89063542562053
 30
0.0
 11
219.7480307113735
 21
47.19063542562048
 31
0.0
  0
LINE
  5
309
330
1F
100
AcDbEntity
  8
1
  6
Continuous
 62
     7
370
     9
100
AcDbLine
 10
218.5480307113735
 20
47.19063542562048
 30
0.0
 11
218.5480307113735
 21
62.89063542562053
 31
0.0
  0
LINE
  5
30A
330
1F
100
AcDbEntity
  8
1
  6
Continuous
 62
     7
370
     9
100
AcDbLine
 10
214.9480307113735
 20
52.31251658903943
 30
0.0
 11
214.9480307113735
 21
51.29802228990059
 31
0.0
  0
LINE
  5
30B
330
1F
100
AcDbEntity
  8
1
  6
Continuous
 62
     7
370
     9
100
AcDbLine
 10
205.9480307113734
 20
63.64063542562053
 30
0.0
 11
205.9480307113735
 21
47.19063542562048
 31
0.0
  0
LINE
  5
30C
330
1F
100
AcDbEntity
  8
1
  6
Continuous
 62
     7
370
     9
100
AcDbLine
 10
205.1480307113735
 20
47.19063542562048
 30
0.0
 11
205.1480307113735
 21
63.79063542562051
 31
0.0
  0
LINE
  5
30D
330
1F
100
AcDbEntity
  8
1
  6
Continuous
 62
     7
370
     9
100
AcDbLine
 10
205.7480307113735
 20
47.19063542562048
 30
0.0
 11
205.7480307113735
 21
63.49063542562044
 31
0.0
  0
LINE
  5
30E
330
1F
100
AcDbEntity
  8
1
  6
Continuous
 62
     7
370
     9
100
AcDbLine
 10
206.2480307113735
 20
52.31251658903943
 30
0.0
 11
206.2480307113735
 21
51.29802228990059
 31
0.0
  0
CIRCLE
  5
30F
330
1F
100
AcDbEntity
  8
1
  6
Continuous
 62
     7
370
     9
100
AcDbCircle
 10
213.0480307113735
 20
47.19063542562048
 30
0.0
 40
1.700000000000045
  0
CIRCLE
  5
310
330
1F
100
AcDbEntity
  8
1
  6
Continuous
 62
     7
370
     9
100
AcDbCircle
 10
213.0480307113735
 20
47.19063542562048
 30
0.0
 40
2.000000000000028
  0
LINE
  5
311
330
1F
100
AcDbEntity
  8
1
  6
Continuous
 62
     7
370
     9
100
AcDbLine
 10
206.2480307113735
 20
50.04318124896395
 30
0.0
 11
214.9480307113735
 21
50.04318124896395
 31
0.0
  0
LINE
  5
312
330
1F
100
AcDbEntity
  8
1
  6
Continuous
 62
     7
370
     9
100
AcDbLine
 10
215.2480307113735
 20
50.26765685240969
 30
0.0
 11
205.9480307113735
 21
50.26765685240969
 31
0.0
  0
LINE
  5
313
330
1F
100
AcDbEntity
  8
1
  6
Continuous
 62
     7
370
     9
100
AcDbLine
 10
215.2480307113735
 20
50.95236017292336
 30
0.0
 11
205.9480307113735
 21
50.95236017292336
 31
0.0
  0
LINE
  5
314
330
1F
100
AcDbEntity
  8
1
  6
Continuous
 62
     7
370
     9
100
AcDbLine
 10
206.2480307113735
 20
51.29802228990059
 30
0.0
 11
214.9480307113735
 21
51.29802228990059
 31
0.0
  0
LINE
  5
315
330
1F
100
AcDbEntity
  8
1
  6
Continuous
 62
     7
370
     9
100
AcDbLine
 10
206.2480307113735
 20
44.33808960227702
 30
0.0
 11
214.9480307113735
 21
44.33808960227702
 31
0.0
  0
LINE
  5
316
330
1F
100
AcDbEntity
  8
1
  6
Continuous
 62
     7
370
     9
100
AcDbLine
 10
215.2480307113735
 20
44.11361399883128
 30
0.0
 11
205.9480307113735
 21
44.11361399883128
 31
0.0
  0
LINE
  5
317
330
1F
100
AcDbEntity
  8
1
  6
Continuous
 62
     7
370
     9
100
AcDbLine
 10
214.9480307113735
 20
42.06875426220165
 30
0.0
 11
206.2480307113735
 21
42.06875426220165
 31
0.0
  0
LINE
  5
318
330
1F
100
AcDbEntity
  8
1
  6
Continuous
 62
     7
370
     9
100
AcDbLine
 10
205.9480307113735
 20
41.89457010860201
 30
0.0
 11
215.2480307113735
 21
41.89457010860201
 31
0.0
  0
LINE
  5
319
330
1F
100
AcDbEntity
  8
1
  6
Continuous
 62
     7
370
     9
100
AcDbLine
 10
215.2480307113735
 20
43.42891067831761
 30
0.0
 11
205.9480307113735
 21
43.42891067831761
 31
0.0
  0
LINE
  5
31A
330
1F
100
AcDbEntity
  8
1
  6
Continuous
 62
     7
370
     9
100
AcDbLine
 10
206.2480307113735
 20
43.0832485613405
 30
0.0
 11
214.9480307113735
 21
43.0832485613405
 31
0.0
  0
LINE
  5
31B
330
1F
100
AcDbEntity
  8
1
  6
Continuous
 62
     7
370
     9
100
AcDbLine
 10
206.2480307113735
 20
36.83352037698921
 30
0.0
 11
214.9480307113735
 21
36.83352037698921
 31
0.0
  0
LINE
  5
31C
330
1F
100
AcDbEntity
  8
1
  6
Continuous
 62
     7
370
     9
100
AcDbLine
 10
215.2480307113735
 20
37.24060088723081
 30
0.0
 11
205.9480307113735
 21
37.24060088723081
 31
0.0
  0
LINE
  5
31D
330
1F
100
AcDbEntity
  8
1
  6
Continuous
 62
     7
370
     9
100
AcDbLine
 10
215.2480307113735
 20
37.80691278329323
 30
0.0
 11
205.9480307113735
 21
37.80691278329323
 31
0.0
  0
LINE
  5
31E
330
1F
100
AcDbEntity
  8
1
  6
Continuous
 62
     7
370
     9
100
AcDbLine
 10
206.2480307113735
 20
37.87138800207481
 30
0.0
 11
214.9480307113735
 21
37.87138800207481
 31
0.0
  0
LINE
  5
31F
330
1F
100
AcDbEntity
  8
1
  6
Continuous
 62
     7
370
     9
100
AcDbLine
 10
214.9480307113735
 20
38.76639917601585
 30
0.0
 11
206.2480307113735
 21
38.76639917601585
 31
0.0
  0
LINE
  5
320
330
1F
100
AcDbEntity
  8
1
  6
Continuous
 62
     7
370
     9
100
AcDbLine
 10
205.9480307113735
 20
39.16054479058209
 30
0.0
 11
215.2480307113735
 21
39.16054479058209
 31
0.0
  0
LINE
  5
321
330
1F
100
AcDbEntity
  8
1
  6
Continuous
 62
     7
370
     9
100
AcDbLine
 10
215.2480307113735
 20
39.77860810558343
 30
0.0
 11
205.9480307113735
 21
39.77860810558343
 31
0.0
  0
LINE
  5
322
330
1F
100
AcDbEntity
  8
1
  6
Continuous
 62
     7
370
     9
100
AcDbLine
 10
206.2480307113735
 20
39.8991105129187
 30
0.0
 11
214.9480307113735
 21
39.8991105129187
 31
0.0
  0
LINE
  5
323
330
1F
100
AcDbEntity
  8
1
  6
Continuous
 62
     7
370
     9
100
AcDbLine
 10
214.9480307113735
 20
40.8632461512143
 30
0.0
 11
206.2480307113735
 21
40.8632461512143
 31
0.0
  0
LINE
  5
324
330
1F
100
AcDbEntity
  8
1
  6
Continuous
 62
     7
370
     9
100
AcDbLine
 10
205.9480307113735
 20
41.23678527405184
 30
0.0
 11
215.2480307113735
 21
41.23678527405184
 31
0.0
  0
LINE
  5
325
330
1F
100
AcDbEntity
  8
1
  6
Continuous
 62
     7
370
     9
100
AcDbLine
 10
205.9480307113735
 20
36.02505404184353
 30
0.0
 11
215.2480307113735
 21
36.02505404184353
 31
0.0
  0
LINE
  5
326
330
1F
100
AcDbEntity
  8
1
  6
Continuous
 62
     7
370
     9
100
AcDbLine
 10
214.9480307113735
 20
30.44063542562048
 30
0.0
 11
206.2480307113735
 21
30.44063542562048
 31
0.0
  0
LINE
  5
327
330
1F
100
AcDbEntity
  8
1
  6
Continuous
 62
     7
370
     9
100
AcDbLine
 10
215.2480307113735
 20
35.51432308817255
 30
0.0
 11
205.9480307113735
 21
35.51432308817255
 31
0.0
  0
LINE
  5
328
330
1F
100
AcDbEntity
  8
1
  6
Continuous
 62
     7
370
     9
100
AcDbLine
 10
214.9480307113735
 20
35.10223104134036
 30
0.0
 11
206.2480307113735
 21
35.10223104134036
 31
0.0
  0
LINE
  5
329
330
1F
100
AcDbEntity
  8
1
  6
Continuous
 62
     7
370
     9
100
AcDbLine
 10
214.9480307113735
 20
34.39604542258678
 30
0.0
 11
206.2480307113735
 21
34.39604542258678
 31
0.0
  0
LINE
  5
32A
330
1F
100
AcDbEntity
  8
1
  6
Continuous
 62
     7
370
     9
100
AcDbLine
 10
215.2480307113735
 20
34.01531142715442
 30
0.0
 11
205.9480307113735
 21
34.01531142715442
 31
0.0
  0
LINE
  5
32B
330
1F
100
AcDbEntity
  8
1
  6
Continuous
 62
     7
370
     9
100
AcDbLine
 10
214.9480307113735
 20
33.60622874667547
 30
0.0
 11
206.2480307113735
 21
33.60622874667547
 31
0.0
  0
LINE
  5
32C
330
1F
100
AcDbEntity
  8
1
  6
Continuous
 62
     7
370
     9
100
AcDbLine
 10
215.2480307113735
 20
32.77274246105742
 30
0.0
 11
205.9480307113735
 21
32.77274246105742
 31
0.0
  0
LINE
  5
32D
330
1F
100
AcDbEntity
  8
1
  6
Continuous
 62
     7
370
     9
100
AcDbLine
 10
215.2480307113735
 20
31.81080138140555
 30
0.0
 11
205.9480307113735
 21
31.81080138140555
 31
0.0
  0
LINE
  5
32E
330
1F
100
AcDbEntity
  8
1
  6
Continuous
 62
     7
370
     9
100
AcDbLine
 10
214.9480307113735
 20
31.10528117898048
 30
0.0
 11
206.2480307113735
 21
31.10528117898048
 31
0.0
  0
LINE
  5
32F
330
1F
100
AcDbEntity
  8
1
  6
Continuous
 62
     7
370
     9
100
AcDbLine
 10
214.9480307113735
 20
30.7949256425851
 30
0.0
 11
206.2480307113735
 21
30.7949256425851
 31
0.0
  0
LINE
  5
330
330
1F
100
AcDbEntity
  8
1
  6
Continuous
 62
     7
370
     9
100
AcDbLine
 10
214.9480307113735
 20
31.4314108692148
 30
0.0
 11
206.2480307113735
 21
31.4314108692148
 31
0.0
  0
LINE
  5
331
330
1F
100
AcDbEntity
  8
1
  6
Continuous
 62
     7
370
     9
100
AcDbLine
 10
214.9480307113735
 20
31.91198427886286
 30
0.0
 11
206.2480307113735
 21
31.91198427886286
 31
0.0
  0
LINE
  5
332
330
1F
100
AcDbEntity
  8
1
  6
Continuous
 62
     7
370
     9
100
AcDbLine
 10
214.9480307113735
 20
32.3746314759826
 30
0.0
 11
206.2480307113735
 21
32.3746314759826
 31
0.0
  0
LINE
  5
333
330
1F
100
AcDbEntity
  8
1
  6
Continuous
 62
     7
370
     9
100
AcDbLine
 10
206.2480307113735
 20
33.01606894410872
 30
0.0
 11
214.9480307113735
 21
33.01606894410872
 31
0.0
  0
LINE
  5
334
330
1F
100
AcDbEntity
  8
1
  6
Continuous
 62
     7
370
     9
100
AcDbLine
 10
214.9480307113735
 20
30.61166120268979
 30
0.0
 11
206.2480307113735
 21
30.61166120268979
 31
0.0
  0
LINE
  5
335
330
1F
100
AcDbEntity
  8
1
  6
Continuous
 62
     7
370
     9
100
AcDbLine
 10
214.9480307113735
 20
30.47756425703881
 30
0.0
 11
206.2480307113735
 21
30.47756425703881
 31
0.0
  0
LINE
  5
336
330
1F
100
AcDbEntity
  8
1
  6
Continuous
 62
     7
370
     9
100
AcDbLine
 10
205.9480307113735
 20
32.77274246105742
 30
0.0
 11
206.2480307113735
 21
32.3746314759826
 31
0.0
  0
LINE
  5
337
330
1F
100
AcDbEntity
  8
1
  6
Continuous
 62
     7
370
     9
100
AcDbLine
 10
205.1480307113735
 20
47.19063542562048
 30
0.0
 11
205.1480307113735
 21
30.59063542562046
 31
0.0
  0
LINE
  5
338
330
1F
100
AcDbEntity
  8
1
  6
Continuous
 62
     7
370
     9
100
AcDbLine
 10
205.7480307113735
 20
47.19063542562048
 30
0.0
 11
205.7480307113735
 21
30.89063542562053
 31
0.0
  0
LINE
  5
339
330
1F
100
AcDbEntity
  8
1
  6
Continuous
 62
     7
370
     9
100
AcDbLine
 10
205.9480307113735
 20
30.74063542562055
 30
0.0
 11
205.9480307113735
 21
47.19063542562048
 31
0.0
  0
LINE
  5
33A
330
1F
100
AcDbEntity
  8
1
  6
Continuous
 62
     7
370
     9
100
AcDbLine
 10
206.2480307113735
 20
31.91198427886286
 30
0.0
 11
206.2480307113735
 21
32.3746314759826
 31
0.0
  0
LINE
  5
33B
330
1F
100
AcDbEntity
  8
1
  6
Continuous
 62
     7
370
     9
100
AcDbLine
 10
205.9480307113735
 20
31.69063542562048
 30
0.0
 11
205.7480307113735
 21
31.69063542562048
 31
0.0
  0
LINE
  5
33C
330
1F
100
AcDbEntity
  8
1
  6
Continuous
 62
     7
370
     9
100
AcDbLine
 10
206.2480307113735
 20
31.91198427886286
 30
0.0
 11
205.9480307113735
 21
32.07302599679667
 31
0.0
  0
LINE
  5
33D
330
1F
100
AcDbEntity
  8
1
  6
Continuous
 62
     7
370
     9
100
AcDbLine
 10
206.2480307113735
 20
31.10528117898048
 30
0.0
 11
206.2480307113735
 21
31.4314108692148
 31
0.0
  0
LINE
  5
33E
330
1F
100
AcDbEntity
  8
1
  6
Continuous
 62
     7
370
     9
100
AcDbLine
 10
206.2480307113735
 20
30.44063542562048
 30
0.0
 11
206.2480307113735
 21
30.47756425703881
 31
0.0
  0
LINE
  5
33F
330
1F
100
AcDbEntity
  8
1
  6
Continuous
 62
     7
370
     9
100
AcDbLine
 10
206.2480307113735
 20
30.61166120268979
 30
0.0
 11
206.2480307113735
 21
30.7949256425851
 31
0.0
  0
LINE
  5
340
330
1F
100
AcDbEntity
  8
1
  6
Continuous
 62
     7
370
     9
100
AcDbLine
 10
205.1480307113735
 20
30.59063542562046
 30
0.0
 11
205.4480307113735
 21
30.59063542562046
 31
0.0
  0
LINE
  5
341
330
1F
100
AcDbEntity
  8
1
  6
Continuous
 62
     7
370
     9
100
AcDbLine
 10
205.4480307113735
 20
30.59063542562046
 30
0.0
 11
205.7480307113735
 21
30.89063542562053
 31
0.0
  0
LINE
  5
342
330
1F
100
AcDbEntity
  8
1
  6
Continuous
 62
     7
370
     9
100
AcDbLine
 10
206.2480307113735
 20
30.44063542562048
 30
0.0
 11
205.9480307113735
 21
30.74063542562055
 31
0.0
  0
LINE
  5
343
330
1F
100
AcDbEntity
  8
1
  6
Continuous
 62
     7
370
     9
100
AcDbLine
 10
205.9480307113735
 20
31.31755660404212
 30
0.0
 11
206.2480307113735
 21
31.10528117898048
 31
0.0
  0
LINE
  5
344
330
1F
100
AcDbEntity
  8
1
  6
Continuous
 62
     7
370
     9
100
AcDbLine
 10
206.2480307113735
 20
30.7949256425851
 30
0.0
 11
205.9480307113735
 21
31.1482112771223
 31
0.0
  0
LINE
  5
345
330
1F
100
AcDbEntity
  8
1
  6
Continuous
 62
     7
370
     9
100
AcDbLine
 10
206.2480307113735
 20
30.61166120268979
 30
0.0
 11
205.9480307113735
 21
30.87103863519008
 31
0.0
  0
LINE
  5
346
330
1F
100
AcDbEntity
  8
1
  6
Continuous
 62
     7
370
     9
100
AcDbLine
 10
206.2480307113735
 20
30.47756425703881
 30
0.0
 11
205.9480307113735
 21
30.74063542562055
 31
0.0
  0
LINE
  5
347
330
1F
100
AcDbEntity
  8
1
  6
Continuous
 62
     7
370
     9
100
AcDbLine
 10
205.9480307113735
 20
31.81080138140555
 30
0.0
 11
206.2480307113735
 21
31.4314108692148
 31
0.0
  0
CIRCLE
  5
348
330
1F
100
AcDbEntity
  8
1
  6
Continuous
 62
     7
370
     9
100
AcDbCircle
 10
207.5480307113735
 20
47.19063542562048
 30
0.0
 40
0.75
  0
LINE
  5
349
330
1F
100
AcDbEntity
  8
1
  6
Continuous
 62
     7
370
     9
100
AcDbLine
 10
206.2480307113735
 20
50.04318124896395
 30
0.0
 11
205.9480307113735
 21
50.26765685240969
 31
0.0
  0
LINE
  5
34A
330
1F
100
AcDbEntity
  8
1
  6
Continuous
 62
     7
370
     9
100
AcDbLine
 10
205.9480307113735
 20
50.95236017292336
 30
0.0
 11
206.2480307113735
 21
51.29802228990059
 31
0.0
  0
LINE
  5
34B
330
1F
100
AcDbEntity
  8
1
  6
Continuous
 62
     7
370
     9
100
AcDbLine
 10
206.2480307113735
 20
44.33808960227702
 30
0.0
 11
206.2480307113735
 21
47.19063542562048
 31
0.0
  0
LINE
  5
34C
330
1F
100
AcDbEntity
  8
1
  6
Continuous
 62
     7
370
     9
100
AcDbLine
 10
206.2480307113735
 20
44.33808960227702
 30
0.0
 11
205.9480307113735
 21
44.11361399883128
 31
0.0
  0
LINE
  5
34D
330
1F
100
AcDbEntity
  8
1
  6
Continuous
 62
     7
370
     9
100
AcDbLine
 10
206.2480307113735
 20
50.04318124896395
 30
0.0
 11
206.2480307113735
 21
47.19063542562048
 31
0.0
  0
LINE
  5
34E
330
1F
100
AcDbEntity
  8
1
  6
Continuous
 62
     7
370
     9
100
AcDbLine
 10
206.2480307113735
 20
42.06875426220165
 30
0.0
 11
206.2480307113735
 21
43.0832485613405
 31
0.0
  0
LINE
  5
34F
330
1F
100
AcDbEntity
  8
1
  6
Continuous
 62
     7
370
     9
100
AcDbLine
 10
206.2480307113735
 20
39.8991105129187
 30
0.0
 11
206.2480307113735
 21
40.8632461512143
 31
0.0
  0
LINE
  5
350
330
1F
100
AcDbEntity
  8
1
  6
Continuous
 62
     7
370
     9
100
AcDbLine
 10
205.9480307113735
 20
43.42891067831761
 30
0.0
 11
206.2480307113735
 21
43.0832485613405
 31
0.0
  0
LINE
  5
351
330
1F
100
AcDbEntity
  8
1
  6
Continuous
 62
     7
370
     9
100
AcDbLine
 10
206.2480307113735
 20
42.06875426220165
 30
0.0
 11
205.9480307113735
 21
41.89457010860201
 31
0.0
  0
LINE
  5
352
330
1F
100
AcDbEntity
  8
1
  6
Continuous
 62
     7
370
     9
100
AcDbLine
 10
205.9480307113735
 20
41.23678527405184
 30
0.0
 11
206.2480307113735
 21
40.8632461512143
 31
0.0
  0
LINE
  5
353
330
1F
100
AcDbEntity
  8
1
  6
Continuous
 62
     7
370
     9
100
AcDbLine
 10
206.2480307113735
 20
39.8991105129187
 30
0.0
 11
205.9480307113735
 21
39.77860810558343
 31
0.0
  0
LINE
  5
354
330
1F
100
AcDbEntity
  8
1
  6
Continuous
 62
     7
370
     9
100
AcDbLine
 10
206.2480307113735
 20
37.87138800207481
 30
0.0
 11
206.2480307113735
 21
38.76639917601585
 31
0.0
  0
LINE
  5
355
330
1F
100
AcDbEntity
  8
1
  6
Continuous
 62
     7
370
     9
100
AcDbLine
 10
206.2480307113735
 20
36.02505404184353
 30
0.0
 11
206.2480307113735
 21
36.83352037698921
 31
0.0
  0
LINE
  5
356
330
1F
100
AcDbEntity
  8
1
  6
Continuous
 62
     7
370
     9
100
AcDbLine
 10
206.2480307113735
 20
36.83352037698921
 30
0.0
 11
205.9480307113735
 21
37.24060088723081
 31
0.0
  0
LINE
  5
357
330
1F
100
AcDbEntity
  8
1
  6
Continuous
 62
     7
370
     9
100
AcDbLine
 10
206.2480307113735
 20
37.87138800207481
 30
0.0
 11
205.9480307113735
 21
37.80691278329323
 31
0.0
  0
LINE
  5
358
330
1F
100
AcDbEntity
  8
1
  6
Continuous
 62
     7
370
     9
100
AcDbLine
 10
206.2480307113735
 20
38.76639917601585
 30
0.0
 11
205.9480307113735
 21
39.16054479058209
 31
0.0
  0
LINE
  5
359
330
1F
100
AcDbEntity
  8
1
  6
Continuous
 62
     7
370
     9
100
AcDbLine
 10
206.2480307113735
 20
34.39604542258678
 30
0.0
 11
206.2480307113735
 21
35.10223104134036
 31
0.0
  0
LINE
  5
35A
330
1F
100
AcDbEntity
  8
1
  6
Continuous
 62
     7
370
     9
100
AcDbLine
 10
206.2480307113735
 20
33.01606894410872
 30
0.0
 11
206.2480307113735
 21
33.60622874667547
 31
0.0
  0
LINE
  5
35B
330
1F
100
AcDbEntity
  8
1
  6
Continuous
 62
     7
370
     9
100
AcDbLine
 10
206.2480307113735
 20
34.39604542258678
 30
0.0
 11
205.9480307113735
 21
34.44627445988237
 31
0.0
  0
LINE
  5
35C
330
1F
100
AcDbEntity
  8
1
  6
Continuous
 62
     7
370
     9
100
AcDbLine
 10
206.2480307113735
 20
33.60622874667547
 30
0.0
 11
205.9480307113735
 21
34.01531142715442
 31
0.0
  0
LINE
  5
35D
330
1F
100
AcDbEntity
  8
1
  6
Continuous
 62
     7
370
     9
100
AcDbLine
 10
206.2480307113735
 20
35.10223104134036
 30
0.0
 11
205.9480307113735
 21
35.51432308817255
 31
0.0
  0
LINE
  5
35E
330
1F
100
AcDbEntity
  8
1
  6
Continuous
 62
     7
370
     9
100
AcDbLine
 10
206.2480307113735
 20
33.01606894410872
 30
0.0
 11
205.9480307113735
 21
33.12274246105744
 31
0.0
  0
LINE
  5
35F
330
1F
100
AcDbEntity
  8
1
  6
Continuous
 62
     7
370
     9
100
AcDbLine
 10
215.2480307113735
 20
32.77274246105742
 30
0.0
 11
214.9480307113735
 21
32.3746314759826
 31
0.0
  0
LINE
  5
360
330
1F
100
AcDbEntity
  8
1
  6
Continuous
 62
     7
370
     9
100
AcDbLine
 10
215.4480307113735
 20
47.19063542562048
 30
0.0
 11
215.4480307113735
 21
31.19063542562048
 31
0.0
  0
LINE
  5
361
330
1F
100
AcDbEntity
  8
1
  6
Continuous
 62
     7
370
     9
100
AcDbLine
 10
218.5480307113735
 20
47.19063542562048
 30
0.0
 11
218.5480307113735
 21
31.49063542562044
 31
0.0
  0
LINE
  5
362
330
1F
100
AcDbEntity
  8
1
  6
Continuous
 62
     7
370
     9
100
AcDbLine
 10
215.2480307113735
 20
30.74063542562055
 30
0.0
 11
215.2480307113735
 21
47.19063542562048
 31
0.0
  0
LINE
  5
363
330
1F
100
AcDbEntity
  8
1
  6
Continuous
 62
     7
370
     9
100
AcDbLine
 10
215.4480307113735
 20
31.19063542562048
 30
0.0
 11
218.2480307113735
 21
31.19063542562048
 31
0.0
  0
LINE
  5
364
330
1F
100
AcDbEntity
  8
1
  6
Continuous
 62
     7
370
     9
100
AcDbLine
 10
215.4480307113735
 20
31.94063542562048
 30
0.0
 11
215.2480307113735
 21
31.94063542562048
 31
0.0
  0
LINE
  5
365
330
1F
100
AcDbEntity
  8
1
  6
Continuous
 62
     7
370
     9
100
AcDbLine
 10
214.9480307113735
 20
31.91198427886286
 30
0.0
 11
215.2480307113735
 21
32.07302599679667
 31
0.0
  0
LINE
  5
366
330
1F
100
AcDbEntity
  8
1
  6
Continuous
 62
     7
370
     9
100
AcDbLine
 10
214.9480307113735
 20
31.91198427886286
 30
0.0
 11
214.9480307113735
 21
32.3746314759826
 31
0.0
  0
LINE
  5
367
330
1F
100
AcDbEntity
  8
1
  6
Continuous
 62
     7
370
     9
100
AcDbLine
 10
214.9480307113735
 20
30.44063542562048
 30
0.0
 11
215.2480307113735
 21
30.74063542562055
 31
0.0
  0
LINE
  5
368
330
1F
100
AcDbEntity
  8
1
  6
Continuous
 62
     7
370
     9
100
AcDbLine
 10
215.2480307113735
 20
31.31755660404212
 30
0.0
 11
214.9480307113735
 21
31.10528117898048
 31
0.0
  0
LINE
  5
369
330
1F
100
AcDbEntity
  8
1
  6
Continuous
 62
     7
370
     9
100
AcDbLine
 10
214.9480307113735
 20
30.61166120268979
 30
0.0
 11
215.2480307113735
 21
30.87103863519008
 31
0.0
  0
LINE
  5
36A
330
1F
100
AcDbEntity
  8
1
  6
Continuous
 62
     7
370
     9
100
AcDbLine
 10
214.9480307113735
 20
30.7949256425851
 30
0.0
 11
215.2480307113735
 21
31.1482112771223
 31
0.0
  0
LINE
  5
36B
330
1F
100
AcDbEntity
  8
1
  6
Continuous
 62
     7
370
     9
100
AcDbLine
 10
214.9480307113735
 20
31.10528117898048
 30
0.0
 11
214.9480307113735
 21
31.4314108692148
 31
0.0
  0
LINE
  5
36C
330
1F
100
AcDbEntity
  8
1
  6
Continuous
 62
     7
370
     9
100
AcDbLine
 10
214.9480307113735
 20
30.7949256425851
 30
0.0
 11
214.9480307113735
 21
30.61166120268979
 31
0.0
  0
LINE
  5
36D
330
1F
100
AcDbEntity
  8
1
  6
Continuous
 62
     7
370
     9
100
AcDbLine
 10
214.9480307113735
 20
30.47756425703881
 30
0.0
 11
215.2480307113735
 21
30.74063542562055
 31
0.0
  0
LINE
  5
36E
330
1F
100
AcDbEntity
  8
1
  6
Continuous
 62
     7
370
     9
100
AcDbLine
 10
214.9480307113735
 20
30.44063542562048
 30
0.0
 11
214.9480307113735
 21
30.47756425703881
 31
0.0
  0
LINE
  5
36F
330
1F
100
AcDbEntity
  8
1
  6
Continuous
 62
     7
370
     9
100
AcDbLine
 10
215.2480307113735
 20
31.81080138140555
 30
0.0
 11
214.9480307113735
 21
31.4314108692148
 31
0.0
  0
LINE
  5
370
330
1F
100
AcDbEntity
  8
1
  6
Continuous
 62
     7
370
     9
100
AcDbLine
 10
218.2480307113735
 20
31.19063542562048
 30
0.0
 11
218.5480307113735
 21
31.49063542562044
 31
0.0
  0
LINE
  5
371
330
1F
100
AcDbEntity
  8
1
  6
Continuous
 62
     7
370
     9
100
AcDbLine
 10
214.9480307113735
 20
50.04318124896395
 30
0.0
 11
215.2480307113735
 21
50.26765685240969
 31
0.0
  0
LINE
  5
372
330
1F
100
AcDbEntity
  8
1
  6
Continuous
 62
     7
370
     9
100
AcDbLine
 10
215.2480307113735
 20
50.95236017292336
 30
0.0
 11
214.9480307113735
 21
51.29802228990059
 31
0.0
  0
LINE
  5
373
330
1F
100
AcDbEntity
  8
1
  6
Continuous
 62
     7
370
     9
100
AcDbLine
 10
214.9480307113735
 20
44.33808960227702
 30
0.0
 11
215.2480307113735
 21
44.11361399883128
 31
0.0
  0
LINE
  5
374
330
1F
100
AcDbEntity
  8
1
  6
Continuous
 62
     7
370
     9
100
AcDbLine
 10
214.9480307113735
 20
44.33808960227702
 30
0.0
 11
214.9480307113735
 21
46.56613562578059
 31
0.0
  0
LINE
  5
375
330
1F
100
AcDbEntity
  8
1
  6
Continuous
 62
     7
370
     9
100
AcDbLine
 10
214.9480307113735
 20
50.04318124896395
 30
0.0
 11
214.9480307113735
 21
47.81513522546038
 31
0.0
  0
LINE
  5
376
330
1F
100
AcDbEntity
  8
1
  6
Continuous
 62
     7
370
     9
100
AcDbLine
 10
215.2480307113735
 20
43.42891067831761
 30
0.0
 11
214.9480307113735
 21
43.0832485613405
 31
0.0
  0
LINE
  5
377
330
1F
100
AcDbEntity
  8
1
  6
Continuous
 62
     7
370
     9
100
AcDbLine
 10
214.9480307113735
 20
42.06875426220165
 30
0.0
 11
215.2480307113735
 21
41.89457010860201
 31
0.0
  0
LINE
  5
378
330
1F
100
AcDbEntity
  8
1
  6
Continuous
 62
     7
370
     9
100
AcDbLine
 10
214.9480307113735
 20
42.06875426220165
 30
0.0
 11
214.9480307113735
 21
43.0832485613405
 31
0.0
  0
LINE
  5
379
330
1F
100
AcDbEntity
  8
1
  6
Continuous
 62
     7
370
     9
100
AcDbLine
 10
215.2480307113735
 20
41.23678527405184
 30
0.0
 11
214.9480307113735
 21
40.8632461512143
 31
0.0
  0
LINE
  5
37A
330
1F
100
AcDbEntity
  8
1
  6
Continuous
 62
     7
370
     9
100
AcDbLine
 10
214.9480307113735
 20
39.8991105129187
 30
0.0
 11
215.2480307113735
 21
39.77860810558343
 31
0.0
  0
LINE
  5
37B
330
1F
100
AcDbEntity
  8
1
  6
Continuous
 62
     7
370
     9
100
AcDbLine
 10
214.9480307113735
 20
39.8991105129187
 30
0.0
 11
214.9480307113735
 21
40.8632461512143
 31
0.0
  0
LINE
  5
37C
330
1F
100
AcDbEntity
  8
1
  6
Continuous
 62
     7
370
     9
100
AcDbLine
 10
214.9480307113735
 20
37.87138800207481
 30
0.0
 11
215.2480307113735
 21
37.80691278329323
 31
0.0
  0
LINE
  5
37D
330
1F
100
AcDbEntity
  8
1
  6
Continuous
 62
     7
370
     9
100
AcDbLine
 10
214.9480307113735
 20
38.76639917601585
 30
0.0
 11
215.2480307113735
 21
39.16054479058209
 31
0.0
  0
LINE
  5
37E
330
1F
100
AcDbEntity
  8
1
  6
Continuous
 62
     7
370
     9
100
AcDbLine
 10
214.9480307113735
 20
37.87138800207481
 30
0.0
 11
214.9480307113735
 21
38.76639917601585
 31
0.0
  0
LINE
  5
37F
330
1F
100
AcDbEntity
  8
1
  6
Continuous
 62
     7
370
     9
100
AcDbLine
 10
214.9480307113735
 20
36.83352037698921
 30
0.0
 11
215.2480307113735
 21
37.24060088723081
 31
0.0
  0
LINE
  5
380
330
1F
100
AcDbEntity
  8
1
  6
Continuous
 62
     7
370
     9
100
AcDbLine
 10
214.9480307113735
 20
36.02505404184353
 30
0.0
 11
214.9480307113735
 21
36.83352037698921
 31
0.0
  0
LINE
  5
381
330
1F
100
AcDbEntity
  8
1
  6
Continuous
 62
     7
370
     9
100
AcDbLine
 10
214.9480307113735
 20
34.39604542258678
 30
0.0
 11
215.2480307113735
 21
34.44627445988237
 31
0.0
  0
LINE
  5
382
330
1F
100
AcDbEntity
  8
1
  6
Continuous
 62
     7
370
     9
100
AcDbLine
 10
214.9480307113735
 20
33.60622874667547
 30
0.0
 11
215.2480307113735
 21
34.01531142715442
 31
0.0
  0
LINE
  5
383
330
1F
100
AcDbEntity
  8
1
  6
Continuous
 62
     7
370
     9
100
AcDbLine
 10
214.9480307113735
 20
35.10223104134036
 30
0.0
 11
215.2480307113735
 21
35.51432308817255
 31
0.0
  0
LINE
  5
384
330
1F
100
AcDbEntity
  8
1
  6
Continuous
 62
     7
370
     9
100
AcDbLine
 10
214.9480307113735
 20
34.39604542258678
 30
0.0
 11
214.9480307113735
 21
35.10223104134036
 31
0.0
  0
LINE
  5
385
330
1F
100
AcDbEntity
  8
1
  6
Continuous
 62
     7
370
     9
100
AcDbLine
 10
214.9480307113735
 20
33.01606894410872
 30
0.0
 11
215.2480307113735
 21
33.12274246105744
 31
0.0
  0
LINE
  5
386
330
1F
100
AcDbEntity
  8
1
  6
Continuous
 62
     7
370
     9
100
AcDbLine
 10
214.9480307113735
 20
33.01606894410872
 30
0.0
 11
214.9480307113735
 21
33.60622874667547
 31
0.0
  0
LINE
  5
387
330
1F
100
AcDbEntity
  8
1
  6
Continuous
 62
     7
370
     9
100
AcDbLine
 10
218.5480307113735
 20
34.99063542562044
 30
0.0
 11
219.7480307113735
 21
34.99063542562044
 31
0.0
  0
LINE
  5
388
330
1F
100
AcDbEntity
  8
1
  6
Continuous
 62
     7
370
     9
100
AcDbLine
 10
219.7480307113735
 20
34.49063542562044
 30
0.0
 11
219.7480307113735
 21
47.19063542562048
 31
0.0
  0
LINE
  5
389
330
1F
100
AcDbEntity
  8
1
  6
Continuous
 62
     7
370
     9
100
AcDbLine
 10
214.9480307113735
 20
63.94063542562048
 30
0.0
 11
206.2480307113734
 21
63.94063542562048
 31
0.0
  0
LINE
  5
38A
330
1F
100
AcDbEntity
  8
1
  6
Continuous
 62
     7
370
     9
100
AcDbLine
 10
206.2480307113735
 20
63.94063542562048
 30
0.0
 11
214.9480307113735
 21
63.94063542562048
 31
0.0
  0
LINE
  5
38B
330
1F
100
AcDbEntity
  8
1
  6
Continuous
 62
     7
370
     9
100
AcDbLine
 10
214.9480307113735
 20
63.58634520865587
 30
0.0
 11
206.2480307113734
 21
63.58634520865587
 31
0.0
  0
LINE
  5
38C
330
1F
100
AcDbEntity
  8
1
  6
Continuous
 62
     7
370
     9
100
AcDbLine
 10
214.9480307113735
 20
63.90370659420228
 30
0.0
 11
206.2480307113734
 21
63.90370659420228
 31
0.0
  0
LINE
  5
38D
330
1F
100
AcDbEntity
  8
1
  6
Continuous
 62
     7
370
     9
100
AcDbLine
 10
214.9480307113735
 20
63.76960964855118
 30
0.0
 11
206.2480307113734
 21
63.76960964855118
 31
0.0
  0
LINE
  5
38E
330
1F
100
AcDbEntity
  8
1
  6
Continuous
 62
     7
370
     9
100
AcDbLine
 10
215.2480307113734
 20
58.86694776306842
 30
0.0
 11
205.9480307113735
 21
58.86694776306842
 31
0.0
  0
LINE
  5
38F
330
1F
100
AcDbEntity
  8
1
  6
Continuous
 62
     7
370
     9
100
AcDbLine
 10
214.9480307113735
 20
59.27903980990061
 30
0.0
 11
206.2480307113734
 21
59.27903980990061
 31
0.0
  0
LINE
  5
390
330
1F
100
AcDbEntity
  8
1
  6
Continuous
 62
     7
370
     9
100
AcDbLine
 10
214.9480307113735
 20
59.98522542865419
 30
0.0
 11
206.2480307113734
 21
59.98522542865419
 31
0.0
  0
LINE
  5
391
330
1F
100
AcDbEntity
  8
1
  6
Continuous
 62
     7
370
     9
100
AcDbLine
 10
215.2480307113734
 20
60.36595942408667
 30
0.0
 11
205.9480307113735
 21
60.36595942408667
 31
0.0
  0
LINE
  5
392
330
1F
100
AcDbEntity
  8
1
  6
Continuous
 62
     7
370
     9
100
AcDbLine
 10
214.9480307113735
 20
60.7750421045655
 30
0.0
 11
206.2480307113734
 21
60.7750421045655
 31
0.0
  0
LINE
  5
393
330
1F
100
AcDbEntity
  8
1
  6
Continuous
 62
     7
370
     9
100
AcDbLine
 10
215.2480307113734
 20
61.60852839018355
 30
0.0
 11
205.9480307113735
 21
61.60852839018355
 31
0.0
  0
LINE
  5
394
330
1F
100
AcDbEntity
  8
1
  6
Continuous
 62
     7
370
     9
100
AcDbLine
 10
215.2480307113734
 20
62.57046946983542
 30
0.0
 11
205.9480307113735
 21
62.57046946983542
 31
0.0
  0
LINE
  5
395
330
1F
100
AcDbEntity
  8
1
  6
Continuous
 62
     7
370
     9
100
AcDbLine
 10
214.9480307113735
 20
63.27598967226049
 30
0.0
 11
206.2480307113734
 21
63.27598967226049
 31
0.0
  0
LINE
  5
396
330
1F
100
AcDbEntity
  8
1
  6
Continuous
 62
     7
370
     9
100
AcDbLine
 10
214.9480307113735
 20
62.94985998202628
 30
0.0
 11
206.2480307113734
 21
62.94985998202628
 31
0.0
  0
LINE
  5
397
330
1F
100
AcDbEntity
  8
1
  6
Continuous
 62
     7
370
     9
100
AcDbLine
 10
214.9480307113735
 20
62.46928657237822
 30
0.0
 11
206.2480307113734
 21
62.46928657237822
 31
0.0
  0
LINE
  5
398
330
1F
100
AcDbEntity
  8
1
  6
Continuous
 62
     7
370
     9
100
AcDbLine
 10
214.9480307113735
 20
62.00663937525837
 30
0.0
 11
206.2480307113734
 21
62.00663937525837
 31
0.0
  0
LINE
  5
399
330
1F
100
AcDbEntity
  8
1
  6
Continuous
 62
     7
370
     9
100
AcDbLine
 10
206.2480307113734
 20
61.36520190713236
 30
0.0
 11
214.9480307113735
 21
61.36520190713236
 31
0.0
  0
LINE
  5
39A
330
1F
100
AcDbEntity
  8
1
  6
Continuous
 62
     7
370
     9
100
AcDbLine
 10
214.9480307113735
 20
52.31251658903943
 30
0.0
 11
206.2480307113735
 21
52.31251658903943
 31
0.0
  0
LINE
  5
39B
330
1F
100
AcDbEntity
  8
1
  6
Continuous
 62
     7
370
     9
100
AcDbLine
 10
205.9480307113735
 20
52.48670074263907
 30
0.0
 11
215.2480307113735
 21
52.48670074263907
 31
0.0
  0
LINE
  5
39C
330
1F
100
AcDbEntity
  8
1
  6
Continuous
 62
     7
370
     9
100
AcDbLine
 10
206.2480307113734
 20
57.54775047425187
 30
0.0
 11
214.9480307113735
 21
57.54775047425187
 31
0.0
  0
LINE
  5
39D
330
1F
100
AcDbEntity
  8
1
  6
Continuous
 62
     7
370
     9
100
AcDbLine
 10
215.2480307113734
 20
57.14066996401027
 30
0.0
 11
205.9480307113735
 21
57.14066996401027
 31
0.0
  0
LINE
  5
39E
330
1F
100
AcDbEntity
  8
1
  6
Continuous
 62
     7
370
     9
100
AcDbLine
 10
215.2480307113734
 20
56.57435806794786
 30
0.0
 11
205.9480307113735
 21
56.57435806794786
 31
0.0
  0
LINE
  5
39F
330
1F
100
AcDbEntity
  8
1
  6
Continuous
 62
     7
370
     9
100
AcDbLine
 10
206.2480307113734
 20
56.50988284916616
 30
0.0
 11
214.9480307113735
 21
56.50988284916616
 31
0.0
  0
LINE
  5
3A0
330
1F
100
AcDbEntity
  8
1
  6
Continuous
 62
     7
370
     9
100
AcDbLine
 10
214.9480307113735
 20
55.61487167522523
 30
0.0
 11
206.2480307113735
 21
55.61487167522523
 31
0.0
  0
LINE
  5
3A1
330
1F
100
AcDbEntity
  8
1
  6
Continuous
 62
     7
370
     9
100
AcDbLine
 10
205.9480307113735
 20
55.22072606065888
 30
0.0
 11
215.2480307113735
 21
55.22072606065888
 31
0.0
  0
LINE
  5
3A2
330
1F
100
AcDbEntity
  8
1
  6
Continuous
 62
     7
370
     9
100
AcDbLine
 10
215.2480307113735
 20
54.60266274565765
 30
0.0
 11
205.9480307113735
 21
54.60266274565765
 31
0.0
  0
LINE
  5
3A3
330
1F
100
AcDbEntity
  8
1
  6
Continuous
 62
     7
370
     9
100
AcDbLine
 10
206.2480307113735
 20
54.48216033832227
 30
0.0
 11
214.9480307113735
 21
54.48216033832227
 31
0.0
  0
LINE
  5
3A4
330
1F
100
AcDbEntity
  8
1
  6
Continuous
 62
     7
370
     9
100
AcDbLine
 10
214.9480307113735
 20
53.51802470002679
 30
0.0
 11
206.2480307113735
 21
53.51802470002679
 31
0.0
  0
LINE
  5
3A5
330
1F
100
AcDbEntity
  8
1
  6
Continuous
 62
     7
370
     9
100
AcDbLine
 10
205.9480307113735
 20
53.14448557718913
 30
0.0
 11
215.2480307113735
 21
53.14448557718913
 31
0.0
  0
LINE
  5
3A6
330
1F
100
AcDbEntity
  8
1
  6
Continuous
 62
     7
370
     9
100
AcDbLine
 10
205.9480307113734
 20
58.35621680939755
 30
0.0
 11
215.2480307113734
 21
58.35621680939755
 31
0.0
  0
LINE
  5
3A7
330
1F
100
AcDbEntity
  8
1
  6
Continuous
 62
     7
370
     9
100
AcDbLine
 10
206.2480307113734
 20
63.94063542562048
 30
0.0
 11
206.2480307113734
 21
63.90370659420228
 31
0.0
  0
LINE
  5
3A8
330
1F
100
AcDbEntity
  8
1
  6
Continuous
 62
     7
370
     9
100
AcDbLine
 10
206.2480307113734
 20
63.76960964855118
 30
0.0
 11
206.2480307113734
 21
63.58634520865587
 31
0.0
  0
LINE
  5
3A9
330
1F
100
AcDbEntity
  8
1
  6
Continuous
 62
     7
370
     9
100
AcDbLine
 10
206.2480307113734
 20
63.27598967226049
 30
0.0
 11
206.2480307113734
 21
62.94985998202628
 31
0.0
  0
LINE
  5
3AA
330
1F
100
AcDbEntity
  8
1
  6
Continuous
 62
     7
370
     9
100
AcDbLine
 10
206.2480307113734
 20
61.36520190713236
 30
0.0
 11
206.2480307113734
 21
60.7750421045655
 31
0.0
  0
LINE
  5
3AB
330
1F
100
AcDbEntity
  8
1
  6
Continuous
 62
     7
370
     9
100
AcDbLine
 10
206.2480307113734
 20
62.46928657237822
 30
0.0
 11
206.2480307113734
 21
62.00663937525837
 31
0.0
  0
LINE
  5
3AC
330
1F
100
AcDbEntity
  8
1
  6
Continuous
 62
     7
370
     9
100
AcDbLine
 10
205.9480307113735
 20
62.69063542562048
 30
0.0
 11
205.7480307113735
 21
62.69063542562048
 31
0.0
  0
LINE
  5
3AD
330
1F
100
AcDbEntity
  8
1
  6
Continuous
 62
     7
370
     9
100
AcDbLine
 10
205.1480307113735
 20
63.79063542562051
 30
0.0
 11
205.4480307113735
 21
63.79063542562051
 31
0.0
  0
LINE
  5
3AE
330
1F
100
AcDbEntity
  8
1
  6
Continuous
 62
     7
370
     9
100
AcDbLine
 10
205.4480307113735
 20
63.79063542562051
 30
0.0
 11
205.7480307113735
 21
63.49063542562044
 31
0.0
  0
LINE
  5
3AF
330
1F
100
AcDbEntity
  8
1
  6
Continuous
 62
     7
370
     9
100
AcDbLine
 10
206.2480307113734
 20
63.94063542562048
 30
0.0
 11
205.9480307113734
 21
63.64063542562053
 31
0.0
  0
LINE
  5
3B0
330
1F
100
AcDbEntity
  8
1
  6
Continuous
 62
     7
370
     9
100
AcDbLine
 10
206.2480307113735
 20
63.94063542562048
 30
0.0
 11
205.9480307113735
 21
63.64063542562053
 31
0.0
  0
LINE
  5
3B1
330
1F
100
AcDbEntity
  8
1
  6
Continuous
 62
     7
370
     9
100
AcDbLine
 10
206.2480307113734
 20
63.76960964855118
 30
0.0
 11
205.9480307113734
 21
63.51023221605101
 31
0.0
  0
LINE
  5
3B2
330
1F
100
AcDbEntity
  8
1
  6
Continuous
 62
     7
370
     9
100
AcDbLine
 10
206.2480307113734
 20
63.58634520865587
 30
0.0
 11
205.9480307113734
 21
63.23305957411867
 31
0.0
  0
LINE
  5
3B3
330
1F
100
AcDbEntity
  8
1
  6
Continuous
 62
     7
370
     9
100
AcDbLine
 10
206.2480307113734
 20
63.90370659420228
 30
0.0
 11
205.9480307113734
 21
63.64063542562053
 31
0.0
  0
LINE
  5
3B4
330
1F
100
AcDbEntity
  8
1
  6
Continuous
 62
     7
370
     9
100
AcDbLine
 10
206.2480307113734
 20
60.7750421045655
 30
0.0
 11
205.9480307113734
 21
60.36595942408667
 31
0.0
  0
LINE
  5
3B5
330
1F
100
AcDbEntity
  8
1
  6
Continuous
 62
     7
370
     9
100
AcDbLine
 10
206.2480307113734
 20
61.36520190713236
 30
0.0
 11
205.9480307113734
 21
61.25852839018353
 31
0.0
  0
LINE
  5
3B6
330
1F
100
AcDbEntity
  8
1
  6
Continuous
 62
     7
370
     9
100
AcDbLine
 10
205.9480307113734
 20
61.60852839018355
 30
0.0
 11
206.2480307113734
 21
62.00663937525837
 31
0.0
  0
LINE
  5
3B7
330
1F
100
AcDbEntity
  8
1
  6
Continuous
 62
     7
370
     9
100
AcDbLine
 10
206.2480307113734
 20
62.46928657237822
 30
0.0
 11
205.9480307113734
 21
62.3082448544443
 31
0.0
  0
LINE
  5
3B8
330
1F
100
AcDbEntity
  8
1
  6
Continuous
 62
     7
370
     9
100
AcDbLine
 10
205.9480307113734
 20
62.57046946983542
 30
0.0
 11
206.2480307113734
 21
62.94985998202628
 31
0.0
  0
LINE
  5
3B9
330
1F
100
AcDbEntity
  8
1
  6
Continuous
 62
     7
370
     9
100
AcDbLine
 10
205.9480307113734
 20
63.06371424719885
 30
0.0
 11
206.2480307113734
 21
63.27598967226049
 31
0.0
  0
LINE
  5
3BA
330
1F
100
AcDbEntity
  8
1
  6
Continuous
 62
     7
370
     9
100
AcDbLine
 10
206.2480307113734
 20
59.98522542865419
 30
0.0
 11
206.2480307113734
 21
59.27903980990061
 31
0.0
  0
LINE
  5
3BB
330
1F
100
AcDbEntity
  8
1
  6
Continuous
 62
     7
370
     9
100
AcDbLine
 10
206.2480307113734
 20
58.35621680939755
 30
0.0
 11
206.2480307113734
 21
57.54775047425187
 31
0.0
  0
LINE
  5
3BC
330
1F
100
AcDbEntity
  8
1
  6
Continuous
 62
     7
370
     9
100
AcDbLine
 10
206.2480307113734
 20
59.98522542865419
 30
0.0
 11
205.9480307113735
 21
59.93499639135871
 31
0.0
  0
LINE
  5
3BD
330
1F
100
AcDbEntity
  8
1
  6
Continuous
 62
     7
370
     9
100
AcDbLine
 10
206.2480307113734
 20
59.27903980990061
 30
0.0
 11
205.9480307113734
 21
58.86694776306842
 31
0.0
  0
LINE
  5
3BE
330
1F
100
AcDbEntity
  8
1
  6
Continuous
 62
     7
370
     9
100
AcDbLine
 10
206.2480307113734
 20
57.54775047425187
 30
0.0
 11
205.9480307113734
 21
57.14066996401027
 31
0.0
  0
LINE
  5
3BF
330
1F
100
AcDbEntity
  8
1
  6
Continuous
 62
     7
370
     9
100
AcDbLine
 10
206.2480307113734
 20
56.50988284916616
 30
0.0
 11
205.9480307113734
 21
56.57435806794786
 31
0.0
  0
LINE
  5
3C0
330
1F
100
AcDbEntity
  8
1
  6
Continuous
 62
     7
370
     9
100
AcDbLine
 10
206.2480307113735
 20
54.48216033832227
 30
0.0
 11
206.2480307113735
 21
53.51802470002679
 31
0.0
  0
LINE
  5
3C1
330
1F
100
AcDbEntity
  8
1
  6
Continuous
 62
     7
370
     9
100
AcDbLine
 10
206.2480307113735
 20
55.61487167522523
 30
0.0
 11
205.9480307113735
 21
55.22072606065888
 31
0.0
  0
LINE
  5
3C2
330
1F
100
AcDbEntity
  8
1
  6
Continuous
 62
     7
370
     9
100
AcDbLine
 10
206.2480307113735
 20
52.31251658903943
 30
0.0
 11
205.9480307113735
 21
52.48670074263907
 31
0.0
  0
LINE
  5
3C3
330
1F
100
AcDbEntity
  8
1
  6
Continuous
 62
     7
370
     9
100
AcDbLine
 10
205.9480307113735
 20
53.14448557718913
 30
0.0
 11
206.2480307113735
 21
53.51802470002679
 31
0.0
  0
LINE
  5
3C4
330
1F
100
AcDbEntity
  8
1
  6
Continuous
 62
     7
370
     9
100
AcDbLine
 10
206.2480307113735
 20
54.48216033832227
 30
0.0
 11
205.9480307113735
 21
54.60266274565765
 31
0.0
  0
LINE
  5
3C5
330
1F
100
AcDbEntity
  8
1
  6
Continuous
 62
     7
370
     9
100
AcDbLine
 10
206.2480307113734
 20
56.50988284916616
 30
0.0
 11
206.2480307113735
 21
55.61487167522523
 31
0.0
  0
LINE
  5
3C6
330
1F
100
AcDbEntity
  8
1
  6
Continuous
 62
     7
370
     9
100
AcDbLine
 10
215.4480307113735
 20
63.19063542562048
 30
0.0
 11
218.2480307113735
 21
63.19063542562048
 31
0.0
  0
LINE
  5
3C7
330
1F
100
AcDbEntity
  8
1
  6
Continuous
 62
     7
370
     9
100
AcDbLine
 10
214.9480307113735
 20
63.94063542562048
 30
0.0
 11
215.2480307113734
 21
63.64063542562053
 31
0.0
  0
LINE
  5
3C8
330
1F
100
AcDbEntity
  8
1
  6
Continuous
 62
     7
370
     9
100
AcDbLine
 10
215.4480307113735
 20
62.44063542562048
 30
0.0
 11
215.2480307113735
 21
62.44063542562048
 31
0.0
  0
LINE
  5
3C9
330
1F
100
AcDbEntity
  8
1
  6
Continuous
 62
     7
370
     9
100
AcDbLine
 10
214.9480307113735
 20
63.94063542562048
 30
0.0
 11
215.2480307113735
 21
63.64063542562053
 31
0.0
  0
LINE
  5
3CA
330
1F
100
AcDbEntity
  8
1
  6
Continuous
 62
     7
370
     9
100
AcDbLine
 10
214.9480307113735
 20
63.76960964855118
 30
0.0
 11
215.2480307113734
 21
63.51023221605101
 31
0.0
  0
LINE
  5
3CB
330
1F
100
AcDbEntity
  8
1
  6
Continuous
 62
     7
370
     9
100
AcDbLine
 10
214.9480307113735
 20
63.58634520865587
 30
0.0
 11
215.2480307113734
 21
63.23305957411867
 31
0.0
  0
LINE
  5
3CC
330
1F
100
AcDbEntity
  8
1
  6
Continuous
 62
     7
370
     9
100
AcDbLine
 10
214.9480307113735
 20
63.90370659420228
 30
0.0
 11
215.2480307113734
 21
63.64063542562053
 31
0.0
  0
LINE
  5
3CD
330
1F
100
AcDbEntity
  8
1
  6
Continuous
 62
     7
370
     9
100
AcDbLine
 10
214.9480307113735
 20
63.58634520865587
 30
0.0
 11
214.9480307113735
 21
63.76960964855118
 31
0.0
  0
LINE
  5
3CE
330
1F
100
AcDbEntity
  8
1
  6
Continuous
 62
     7
370
     9
100
AcDbLine
 10
214.9480307113735
 20
63.94063542562048
 30
0.0
 11
214.9480307113735
 21
63.90370659420228
 31
0.0
  0
LINE
  5
3CF
330
1F
100
AcDbEntity
  8
1
  6
Continuous
 62
     7
370
     9
100
AcDbLine
 10
215.2480307113734
 20
62.57046946983542
 30
0.0
 11
214.9480307113735
 21
62.94985998202628
 31
0.0
  0
LINE
  5
3D0
330
1F
100
AcDbEntity
  8
1
  6
Continuous
 62
     7
370
     9
100
AcDbLine
 10
215.2480307113734
 20
63.06371424719885
 30
0.0
 11
214.9480307113735
 21
63.27598967226049
 31
0.0
  0
LINE
  5
3D1
330
1F
100
AcDbEntity
  8
1
  6
Continuous
 62
     7
370
     9
100
AcDbLine
 10
214.9480307113735
 20
63.27598967226049
 30
0.0
 11
214.9480307113735
 21
62.94985998202628
 31
0.0
  0
LINE
  5
3D2
330
1F
100
AcDbEntity
  8
1
  6
Continuous
 62
     7
370
     9
100
AcDbLine
 10
214.9480307113735
 20
60.7750421045655
 30
0.0
 11
215.2480307113734
 21
60.36595942408667
 31
0.0
  0
LINE
  5
3D3
330
1F
100
AcDbEntity
  8
1
  6
Continuous
 62
     7
370
     9
100
AcDbLine
 10
214.9480307113735
 20
61.36520190713236
 30
0.0
 11
215.2480307113734
 21
61.25852839018353
 31
0.0
  0
LINE
  5
3D4
330
1F
100
AcDbEntity
  8
1
  6
Continuous
 62
     7
370
     9
100
AcDbLine
 10
215.2480307113734
 20
61.60852839018355
 30
0.0
 11
214.9480307113735
 21
62.00663937525837
 31
0.0
  0
LINE
  5
3D5
330
1F
100
AcDbEntity
  8
1
  6
Continuous
 62
     7
370
     9
100
AcDbLine
 10
214.9480307113735
 20
61.36520190713236
 30
0.0
 11
214.9480307113735
 21
60.7750421045655
 31
0.0
  0
LINE
  5
3D6
330
1F
100
AcDbEntity
  8
1
  6
Continuous
 62
     7
370
     9
100
AcDbLine
 10
214.9480307113735
 20
62.46928657237822
 30
0.0
 11
215.2480307113734
 21
62.3082448544443
 31
0.0
  0
LINE
  5
3D7
330
1F
100
AcDbEntity
  8
1
  6
Continuous
 62
     7
370
     9
100
AcDbLine
 10
214.9480307113735
 20
62.46928657237822
 30
0.0
 11
214.9480307113735
 21
62.00663937525837
 31
0.0
  0
LINE
  5
3D8
330
1F
100
AcDbEntity
  8
1
  6
Continuous
 62
     7
370
     9
100
AcDbLine
 10
214.9480307113735
 20
59.98522542865419
 30
0.0
 11
215.2480307113734
 21
59.93499639135871
 31
0.0
  0
LINE
  5
3D9
330
1F
100
AcDbEntity
  8
1
  6
Continuous
 62
     7
370
     9
100
AcDbLine
 10
214.9480307113735
 20
59.27903980990061
 30
0.0
 11
215.2480307113734
 21
58.86694776306842
 31
0.0
  0
LINE
  5
3DA
330
1F
100
AcDbEntity
  8
1
  6
Continuous
 62
     7
370
     9
100
AcDbLine
 10
214.9480307113735
 20
59.98522542865419
 30
0.0
 11
214.9480307113735
 21
59.27903980990061
 31
0.0
  0
LINE
  5
3DB
330
1F
100
AcDbEntity
  8
1
  6
Continuous
 62
     7
370
     9
100
AcDbLine
 10
214.9480307113735
 20
57.54775047425187
 30
0.0
 11
215.2480307113734
 21
57.14066996401027
 31
0.0
  0
LINE
  5
3DC
330
1F
100
AcDbEntity
  8
1
  6
Continuous
 62
     7
370
     9
100
AcDbLine
 10
214.9480307113735
 20
56.50988284916616
 30
0.0
 11
215.2480307113734
 21
56.57435806794786
 31
0.0
  0
LINE
  5
3DD
330
1F
100
AcDbEntity
  8
1
  6
Continuous
 62
     7
370
     9
100
AcDbLine
 10
214.9480307113735
 20
58.35621680939755
 30
0.0
 11
214.9480307113735
 21
57.54775047425187
 31
0.0
  0
LINE
  5
3DE
330
1F
100
AcDbEntity
  8
1
  6
Continuous
 62
     7
370
     9
100
AcDbLine
 10
214.9480307113735
 20
55.61487167522523
 30
0.0
 11
215.2480307113735
 21
55.22072606065888
 31
0.0
  0
LINE
  5
3DF
330
1F
100
AcDbEntity
  8
1
  6
Continuous
 62
     7
370
     9
100
AcDbLine
 10
214.9480307113735
 20
54.48216033832227
 30
0.0
 11
215.2480307113735
 21
54.60266274565765
 31
0.0
  0
LINE
  5
3E0
330
1F
100
AcDbEntity
  8
1
  6
Continuous
 62
     7
370
     9
100
AcDbLine
 10
214.9480307113735
 20
52.31251658903943
 30
0.0
 11
215.2480307113735
 21
52.48670074263907
 31
0.0
  0
LINE
  5
3E1
330
1F
100
AcDbEntity
  8
1
  6
Continuous
 62
     7
370
     9
100
AcDbLine
 10
215.2480307113735
 20
53.14448557718913
 30
0.0
 11
214.9480307113735
 21
53.51802470002679
 31
0.0
  0
LINE
  5
3E2
330
1F
100
AcDbEntity
  8
1
  6
Continuous
 62
     7
370
     9
100
AcDbLine
 10
214.9480307113735
 20
54.48216033832227
 30
0.0
 11
214.9480307113735
 21
53.51802470002679
 31
0.0
  0
LINE
  5
3E3
330
1F
100
AcDbEntity
  8
1
  6
Continuous
 62
     7
370
     9
100
AcDbLine
 10
214.9480307113735
 20
56.50988284916616
 30
0.0
 11
214.9480307113735
 21
55.61487167522523
 31
0.0
  0
LINE
  5
3E4
330
1F
100
AcDbEntity
  8
1
  6
Continuous
 62
     7
370
     9
100
AcDbLine
 10
218.2480307113735
 20
63.19063542562048
 30
0.0
 11
218.5480307113735
 21
62.89063542562053
 31
0.0
  0
LINE
  5
3E5
330
1F
100
AcDbEntity
  8
1
  6
Continuous
 62
     7
370
     9
100
AcDbLine
 10
218.5480307113735
 20
59.39063542562053
 30
0.0
 11
219.7480307113735
 21
59.39063542562053
 31
0.0
  0
LINE
  5
3E6
330
1F
100
AcDbEntity
  8
1
  6
Continuous
 62
     7
370
     9
100
AcDbLine
 10
222.0480307113735
 20
47.19063542562048
 30
0.0
 11
222.0480307113735
 21
59.89063542562053
 31
0.0
  0
LINE
  5
3E7
330
1F
100
AcDbEntity
  8
1
  6
Continuous
 62
     7
370
     9
100
AcDbLine
 10
222.5480307113735
 20
47.19063542562048
 30
0.0
 11
222.5480307113735
 21
59.39063542562053
 31
0.0
  0
LINE
  5
3E8
330
1F
100
AcDbEntity
  8
1
  6
Continuous
 62
     7
370
     9
100
AcDbLine
 10
222.0480307113735
 20
34.49063542562044
 30
0.0
 11
222.5480307113735
 21
34.99063542562044
 31
0.0
  0
LINE
  5
3E9
330
1F
100
AcDbEntity
  8
1
  6
Continuous
 62
     7
370
     9
100
AcDbLine
 10
222.0480307113735
 20
47.19063542562048
 30
0.0
 11
222.0480307113735
 21
34.49063542562044
 31
0.0
  0
LINE
  5
3EA
330
1F
100
AcDbEntity
  8
1
  6
Continuous
 62
     7
370
     9
100
AcDbLine
 10
222.5480307113735
 20
47.19063542562048
 30
0.0
 11
222.5480307113735
 21
34.99063542562044
 31
0.0
  0
LINE
  5
3EB
330
1F
100
AcDbEntity
  8
1
  6
Continuous
 62
     7
370
     9
100
AcDbLine
 10
222.0480307113735
 20
59.89063542562053
 30
0.0
 11
222.5480307113735
 21
59.39063542562053
 31
0.0
  0
MTEXT
  5
3EC
330
1F
100
AcDbEntity
  8
1
  6
Continuous
 62
     7
370
     9
100
AcDbMText
 10
203.9074639584723
 20
40.09649763404093
 30
0.0
 40
2.200000000000003
 41
0.3623840000000004
 46
2.200000000000003
 71
     1
 72
     1
  1
{\fＭＳ ゴシック;\T0.750000;.}
 11
-1.608122649676637E-16
 21
-1.0
 31
0.0
 73
     1
 44
1.0
1001
ACAD
1000
ACAD_MTEXT_DEFINED_HEIGHT_BEGIN
1070
    46
1040
2.200000000000003
1000
ACAD_MTEXT_DEFINED_HEIGHT_END
  0
MTEXT
  5
3ED
330
1F
100
AcDbEntity
  8
1
  6
Continuous
 62
     7
370
     9
100
AcDbMText
 10
203.9074639584723
 20
44.85206541846435
 30
0.0
 40
2.200000000000003
 41
1.758812000000002
 46
2.200000000000003
 71
     1
 72
     1
  1
{\fＭＳ ゴシック;\T0.750000;4}
 11
-1.608122649676637E-16
 21
-1.0
 31
0.0
 73
     1
 44
1.0
1001
ACAD
1000
ACAD_MTEXT_DEFINED_HEIGHT_BEGIN
1070
    46
1040
2.200000000000003
1000
ACAD_MTEXT_DEFINED_HEIGHT_END
  0
MTEXT
  5
3EE
330
1F
100
AcDbEntity
  8
1
  6
Continuous
 62
     7
370
     9
100
AcDbMText
 10
203.9074639584723
 20
40.95380501475552
 30
0.0
 40
2.200000000000003
 41
0.8403560000000011
 46
2.200000000000003
 71
     1
 72
     1
  1
{\fＭＳ ゴシック;\T0.750000;1}
 11
-1.608122649676637E-16
 21
-1.0
 31
0.0
 73
     1
 44
1.0
1001
ACAD
1000
ACAD_MTEXT_DEFINED_HEIGHT_BEGIN
1070
    46
1040
2.200000000000003
1000
ACAD_MTEXT_DEFINED_HEIGHT_END
  0
MTEXT
  5
3EF
330
1F
100
AcDbEntity
  8
1
  6
Continuous
 62
     7
370
     9
100
AcDbMText
 10
203.9074639584723
 20
39.58285495874668
 30
0.0
 40
2.200000000000003
 41
1.758812000000002
 46
2.200000000000003
 71
     1
 72
     1
  1
{\fＭＳ ゴシック;\T0.750000;4}
 11
-1.608122649676637E-16
 21
-1.0
 31
0.0
 73
     1
 44
1.0
1001
ACAD
1000
ACAD_MTEXT_DEFINED_HEIGHT_BEGIN
1070
    46
1040
2.200000000000003
1000
ACAD_MTEXT_DEFINED_HEIGHT_END
  0
MTEXT
  5
3F0
330
1F
100
AcDbEntity
  8
1
  6
Continuous
 62
     7
370
     9
100
AcDbMText
 10
203.9074639584723
 20
51.19169746925286
 30
0.0
 40
2.200000000000003
 41
0.8403560000000011
 46
2.200000000000003
 71
     1
 72
     1
  1
{\fＭＳ ゴシック;\T0.750000;1}
 11
-1.608122649676637E-16
 21
-1.0
 31
0.0
 73
     1
 44
1.0
1001
ACAD
1000
ACAD_MTEXT_DEFINED_HEIGHT_BEGIN
1070
    46
1040
2.200000000000003
1000
ACAD_MTEXT_DEFINED_HEIGHT_END
  0
MTEXT
  5
3F1
330
1F
100
AcDbEntity
  8
1
  6
Continuous
 62
     7
370
     9
100
AcDbMText
 10
203.9074639584723
 20
47.77109049037722
 30
0.0
 40
2.200000000000003
 41
1.649472000000002
 46
2.200000000000003
 71
     1
 72
     1
  1
{\fＭＳ ゴシック;\T0.750000;8}
 11
-1.608122649676637E-16
 21
-1.0
 31
0.0
 73
     1
 44
1.0
1001
ACAD
1000
ACAD_MTEXT_DEFINED_HEIGHT_BEGIN
1070
    46
1040
2.200000000000003
1000
ACAD_MTEXT_DEFINED_HEIGHT_END
  0
MTEXT
  5
3F2
330
1F
100
AcDbEntity
  8
1
  6
Continuous
 62
     7
370
     9
100
AcDbMText
 10
203.9074639584723
 20
50.22493830266626
 30
0.0
 40
2.200000000000003
 41
1.583868000000002
 46
2.200000000000003
 71
     1
 72
     1
  1
{\fＭＳ ゴシック;\T0.750000;6}
 11
-1.608122649676637E-16
 21
-1.0
 31
0.0
 73
     1
 44
1.0
1001
ACAD
1000
ACAD_MTEXT_DEFINED_HEIGHT_BEGIN
1070
    46
1040
2.200000000000003
1000
ACAD_MTEXT_DEFINED_HEIGHT_END
  0
MTEXT
  5
3F3
330
1F
100
AcDbEntity
  8
1
  6
Continuous
 62
     7
370
     9
100
AcDbMText
 10
203.9074639584723
 20
55.52478645710744
 30
0.0
 40
2.200000000000003
 41
1.743192000000002
 46
2.200000000000003
 71
     1
 72
     1
  1
{\fＭＳ ゴシック;\T0.750000;C}
 11
-1.608122649676637E-16
 21
-1.0
 31
0.0
 73
     1
 44
1.0
1001
ACAD
1000
ACAD_MTEXT_DEFINED_HEIGHT_BEGIN
1070
    46
1040
2.200000000000003
1000
ACAD_MTEXT_DEFINED_HEIGHT_END
  0
MTEXT
  5
3F4
330
1F
100
AcDbEntity
  8
25
  6
Continuous
 62
     7
370
     9
100
AcDbMText
 10
173.9925453957861
 20
68.69941683546244
 30
0.0
 40
1.5
 41
11.69384870595
 46
1.5
 71
     9
 72
     1
  1
{\fＭＳ ゴシック;\T0.764137;M30.5 P=0.5}
 73
     1
 44
1.0
1001
ACAD
1000
ACAD_MTEXT_DEFINED_HEIGHT_BEGIN
1070
    46
1040
1.5
1000
ACAD_MTEXT_DEFINED_HEIGHT_END
  0
INSERT
  5
3F5
330
1F
100
AcDbEntity
  8
25
  6
Continuous
 62
     7
370
     9
100
AcDbBlockReference
  2
MARK_OPEN
 10
181.8440470422568
 20
62.44063542562048
 30
0.0
 50
316.1794809424779
  0
POLYLINE
  5
3F6
330
1F
100
AcDbEntity
  8
25
  6
Continuous
 62
     7
370
     9
100
AcDb2dPolyline
 66
     1
 10
0.0
 20
0.0
 30
0.0
  0
VERTEX
  5
3F7
330
3F6
100
AcDbEntity
  8
25
  6
Continuous
 62
     7
370
     9
100
AcDbVertex
100
AcDb2dVertex
 10
181.8440470422568
 20
62.44063542562048
 30
0.0
  0
VERTEX
  5
3F8
330
3F6
100
AcDbEntity
  8
25
  6
Continuous
 62
     7
370
     9
100
AcDbVertex
100
AcDb2dVertex
 10
175.6477656324149
 20
68.38691683546244
 30
0.0
  0
VERTEX
  5
3F9
330
3F6
100
AcDbEntity
  8
25
  6
Continuous
 62
     7
370
     9
100
AcDbVertex
100
AcDb2dVertex
 10
163.6660733048421
 20
68.38691683546244
 30
0.0
  0
SEQEND
  5
3FA
330
3F6
100
AcDbEntity
  8
25
  6
Continuous
 62
     7
370
     9
  0
INSERT
  5
3FB
330
1F
100
AcDbEntity
  8
25
  6
Continuous
 62
     7
370
     9
100
AcDbBlockReference
  2
MARK_OPEN
 10
201.9334720611203
 20
63.79063542562051
 30
0.0
 50
312.3382688001407
  0
POLYLINE
  5
3FC
330
1F
100
AcDbEntity
  8
25
  6
Continuous
 62
     7
370
     9
100
AcDb2dPolyline
 66
     1
 10
0.0
 20
0.0
 30
0.0
  0
VERTEX
  5
3FD
330
3FC
100
AcDbEntity
  8
25
  6
Continuous
 62
     7
370
     9
100
AcDbVertex
100
AcDb2dVertex
 10
201.9334720611203
 20
63.79063542562051
 30
0.0
  0
VERTEX
  5
3FE
330
3FC
100
AcDbEntity
  8
25
  6
Continuous
 62
     7
370
     9
100
AcDbVertex
100
AcDb2dVertex
 10
190.1953777516133
 20
76.6733362680693
 30
0.0
  0
VERTEX
  5
3FF
330
3FC
100
AcDbEntity
  8
25
  6
Continuous
 62
     7
370
     9
100
AcDbVertex
100
AcDb2dVertex
 10
176.2562961266311
 20
76.6733362680693
 30
0.0
  0
SEQEND
  5
400
330
3FC
100
AcDbEntity
  8
25
  6
Continuous
 62
     7
370
     9
  0
INSERT
  5
401
330
1F
100
AcDbEntity
  8
25
  6
Continuous
 62
     7
370
     9
100
AcDbBlockReference
  2
MARK_OPEN
 10
191.7506584974687
 20
63.94063542562048
 30
0.0
 50
313.5445872475237
  0
POLYLINE
  5
402
330
1F
100
AcDbEntity
  8
25
  6
Continuous
 62
     7
370
     9
100
AcDb2dPolyline
 66
     1
 10
0.0
 20
0.0
 30
0.0
  0
VERTEX
  5
403
330
402
100
AcDbEntity
  8
25
  6
Continuous
 62
     7
370
     9
100
AcDbVertex
100
AcDb2dVertex
 10
191.7506584974687
 20
63.94063542562048
 30
0.0
  0
VERTEX
  5
404
330
402
100
AcDbEntity
  8
25
  6
Continuous
 62
     7
370
     9
100
AcDbVertex
100
AcDb2dVertex
 10
184.1132424422325
 20
71.97625969835622
 30
0.0
  0
VERTEX
  5
405
330
402
100
AcDbEntity
  8
25
  6
Continuous
 62
     7
370
     9
100
AcDbVertex
100
AcDb2dVertex
 10
173.1608725828398
 20
72.08475989290457
 30
0.0
  0
SEQEND
  5
406
330
402
100
AcDbEntity
  8
25
  6
Continuous
 62
     7
370
     9
  0
INSERT
  5
407
330
1F
100
AcDbEntity
  8
25
  6
Continuous
 62
     7
370
     9
100
AcDbBlockReference
  2
MARK_OPEN
 10
220.8980307113735
 20
59.89063542562042
 30
0.0
 50
230.0000000000001
  0
POLYLINE
  5
408
330
1F
100
AcDbEntity
  8
25
  6
Continuous
 62
     7
370
     9
100
AcDb2dPolyline
 66
     1
 10
0.0
 20
0.0
 30
0.0
  0
VERTEX
  5
409
330
408
100
AcDbEntity
  8
25
  6
Continuous
 62
     7
370
     9
100
AcDbVertex
100
AcDb2dVertex
 10
220.8980307113735
 20
59.89063542562042
 30
0.0
  0
VERTEX
  5
40A
330
408
100
AcDbEntity
  8
25
  6
Continuous
 62
     7
370
     9
100
AcDbVertex
100
AcDb2dVertex
 10
230.0108576377851
 20
70.7508796538608
 30
0.0
  0
VERTEX
  5
40B
330
408
100
AcDbEntity
  8
25
  6
Continuous
 62
     7
370
     9
100
AcDbVertex
100
AcDb2dVertex
 10
242.0463794243734
 20
70.7508796538608
 30
0.0
  0
SEQEND
  5
40C
330
408
100
AcDbEntity
  8
25
  6
Continuous
 62
     7
370
     9
  0
INSERT
  5
40D
330
1F
100
AcDbEntity
  8
25
  6
Continuous
 62
     7
370
     9
100
AcDbBlockReference
  2
MARK_OPEN
 10
210.5980307113735
 20
63.94063542562048
 30
0.0
 50
229.9999999999999
  0
POLYLINE
  5
40E
330
1F
100
AcDbEntity
  8
25
  6
Continuous
 62
     7
370
     9
100
AcDb2dPolyline
 66
     1
 10
0.0
 20
0.0
 30
0.0
  0
VERTEX
  5
40F
330
40E
100
AcDbEntity
  8
25
  6
Continuous
 62
     7
370
     9
100
AcDbVertex
100
AcDb2dVertex
 10
210.5980307113735
 20
63.94063542562048
 30
0.0
  0
VERTEX
  5
410
330
40E
100
AcDbEntity
  8
25
  6
Continuous
 62
     7
370
     9
100
AcDbVertex
100
AcDb2dVertex
 10
219.7108576377851
 20
74.80087965386082
 30
0.0
  0
VERTEX
  5
411
330
40E
100
AcDbEntity
  8
25
  6
Continuous
 62
     7
370
     9
100
AcDbVertex
100
AcDb2dVertex
 10
233.2825973280348
 20
74.80087965386082
 30
0.0
  0
SEQEND
  5
412
330
40E
100
AcDbEntity
  8
25
  6
Continuous
 62
     7
370
     9
  0
MTEXT
  5
413
330
1F
100
AcDbEntity
  8
25
  6
Continuous
 62
     7
370
     9
100
AcDbMText
 10
224.3642697106683
 20
13.30661528163341
 30
0.0
 40
1.25
 41
7.097318799424426
 46
1.25
 71
     1
 72
     1
  1
{\fＭＳ 明朝;\T0.761675;(IN AIR)}
 73
     1
 44
1.0
1001
ACAD
1000
ACAD_MTEXT_DEFINED_HEIGHT_BEGIN
1070
    46
1040
1.25
1000
ACAD_MTEXT_DEFINED_HEIGHT_END
  0
LINE
  5
414
330
1F
100
AcDbEntity
  8
25
  6
Continuous
 62
     7
370
     9
100
AcDbLine
 10
236.4088719884911
 20
46.85579414850281
 30
0.0
 11
235.7391894342558
 21
47.52547670273816
 31
0.0
  0
LINE
  5
415
330
1F
100
AcDbEntity
  8
25
  6
Continuous
 62
     7
370
     9
100
AcDbLine
 10
236.4088719884911
 20
47.52547670273816
 30
0.0
 11
235.7391894342558
 21
46.85579414850281
 31
0.0
  0
LINE
  5
416
330
1F
100
AcDbEntity
  8
25
  6
DASHDOT
 62
     7
370
     9
100
AcDbLine
 10
213.0480307113735
 20
49.7010792657145
 30
0.0
 11
213.0480307113735
 21
44.74528300468342
 31
0.0
  0
LINE
  5
417
330
1F
100
AcDbEntity
  8
25
  6
DASHDOT
 62
     7
370
     9
100
AcDbLine
 10
236.0740307113735
 20
47.19063542562048
 30
0.0
 11
177.6508713398345
 21
47.19063542562048
 31
0.0
  0
LINE
  5
418
330
1F
100
AcDbEntity
  8
25
  6
DASHDOT
 62
     7
370
     9
100
AcDbLine
 10
200.1480307113735
 20
60.52476197337432
 30
0.0
 11
200.1480307113735
 21
62.60855228351022
 31
0.0
  0
LINE
  5
419
330
1F
100
AcDbEntity
  8
25
  6
DASHDOT
 62
     7
370
     9
100
AcDbLine
 10
202.3819349460379
 20
61.56665712844222
 30
0.0
 11
197.914126476709
 21
61.56665712844222
 31
0.0
  0
LINE
  5
41A
330
1F
100
AcDbEntity
  8
25
  6
DASHDOT
 62
     7
370
     9
100
AcDbLine
 10
190.0733563583526
 20
61.69656124516143
 30
0.0
 11
187.838597402927
 21
61.69656124516143
 31
0.0
  0
LINE
  5
41B
330
1F
100
AcDbEntity
  8
25
  6
DASHDOT
 62
     7
370
     9
100
AcDbLine
 10
188.9480307113735
 20
62.72381790805957
 30
0.0
 11
188.9480307113735
 21
60.64923957472968
 31
0.0
  0
LINE
  5
41C
330
1F
100
AcDbEntity
  8
25
  6
DASHDOT
 62
     7
370
     9
100
AcDbLine
 10
135.8324009867355
 20
27.50281999711979
 30
0.0
 11
135.8324009867355
 21
66.62230631868852
 31
0.0
  0
LINE
  5
41D
330
1F
100
AcDbEntity
  8
25
  6
DASHDOT
 62
     7
370
     9
100
AcDbLine
 10
158.9132671946067
 20
47.19063542562048
 30
0.0
 11
114.1861368810516
 21
47.19063542562048
 31
0.0
  0
LINE
  5
41E
330
1F
100
AcDbEntity
  8
25
  6
DASHDOT
 62
     7
370
     9
100
AcDbLine
 10
190.0733563583526
 20
32.68470991223114
 30
0.0
 11
187.838597402927
 21
32.68470991223114
 31
0.0
  0
LINE
  5
41F
330
1F
100
AcDbEntity
  8
25
  6
DASHDOT
 62
     7
370
     9
100
AcDbLine
 10
188.9480307113734
 20
31.657453249333
 30
0.0
 11
188.9480307113734
 21
33.7320315826629
 31
0.0
  0
DIMENSION
  5
42A
330
1F
100
AcDbEntity
  8
25
  6
Continuous
 62
     7
370
     9
100
AcDbDimension
280
     0
  2
Dim1
 10
215.2480307113743
 20
20.90121412709357
 30
0.0
 11
216.8980307113735
 21
22.40121412709357
 31
0.0
 70
   160
  1
<>
 71
     5
 42
-1.0
 73
     0
 74
     0
 75
     0
  3
Standard
100
AcDbAlignedDimension
 13
218.5480307113735
 23
31.49063542562044
 33
0.0
 14
215.2480307113735
 24
30.87103863519008
 34
0.0
 50
179.9999999999998
100
AcDbRotatedDimension
1001
ACAD
1000
DSTYLE
1002
{
1070
   279
1070
     2
1070
   340
1005
420
1070
   140
1040
2.0
1070
    40
1040
1.0
1070
   147
1040
0.0
1070
    76
1070
     0
1070
    75
1070
     0
1070
   344
1005
51
1070
   343
1005
51
1070
   173
1070
     1
1070
   289
1070
     2
1070
   288
1070
     1
1070
    77
1070
     1
1070
   172
1070
     1
1070
   174
1070
     0
1070
    74
1070
     0
1070
    73
1070
     0
1070
   284
1070
     8
1070
    78
1070
     8
1070
    42
1040
2.0
1070
    44
1040
1.0
1070
    43
1040
10.0
1070
   271
1070
     2
1070
    41
1040
1.0
1002
}
  0
DIMENSION
  5
434
330
1F
100
AcDbEntity
  8
25
  6
Continuous
 62
     7
370
     9
100
AcDbDimension
280
     0
  2
Dim2
 10
205.9480307113743
 20
20.90121412709357
 30
0.0
 11
210.5980307113735
 21
22.40121412709357
 31
0.0
 70
   160
  1
<>
 71
     5
 42
-1.0
 73
     0
 74
     0
 75
     0
  3
Standard
100
AcDbAlignedDimension
 13
215.2480307113735
 23
30.87103863519008
 33
0.0
 14
205.9480307113735
 24
30.74063542562055
 34
0.0
 50
179.9999999999998
100
AcDbRotatedDimension
1001
ACAD
1000
DSTYLE
1002
{
1070
   279
1070
     2
1070
   340
1005
420
1070
   140
1040
2.0
1070
    40
1040
1.0
1070
   147
1040
0.0
1070
    76
1070
     0
1070
    75
1070
     0
1070
   344
1005
51
1070
   343
1005
51
1070
   173
1070
     1
1070
   289
1070
     2
1070
   288
1070
     1
1070
    77
1070
     1
1070
   172
1070
     1
1070
   174
1070
     0
1070
    74
1070
     0
1070
    73
1070
     0
1070
   284
1070
     8
1070
    78
1070
     8
1070
    42
1040
2.0
1070
    44
1040
1.0
1070
    43
1040
10.0
1070
   271
1070
     2
1070
    41
1040
1.0
1002
}
  0
DIMENSION
  5
43E
330
1F
100
AcDbEntity
  8
25
  6
Continuous
 62
     7
370
     9
100
AcDbDimension
280
     0
  2
Dim3
 10
218.5480307113743
 20
20.90121412709357
 30
0.0
 11
220.5480307113735
 21
22.40121412709357
 31
0.0
 70
   160
  1
<>
 71
     5
 42
-1.0
 73
     0
 74
     0
 75
     0
  3
Standard
100
AcDbAlignedDimension
 13
222.5480307113735
 23
34.99063542562044
 33
0.0
 14
218.5480307113735
 24
31.49063542562044
 34
0.0
 50
179.9999999999998
100
AcDbRotatedDimension
1001
ACAD
1000
DSTYLE
1002
{
1070
   279
1070
     2
1070
   340
1005
420
1070
   140
1040
2.0
1070
    40
1040
1.0
1070
   147
1040
0.0
1070
    76
1070
     0
1070
    75
1070
     0
1070
   344
1005
51
1070
   343
1005
51
1070
   173
1070
     1
1070
   289
1070
     2
1070
   288
1070
     1
1070
    77
1070
     1
1070
   172
1070
     1
1070
   174
1070
     0
1070
    74
1070
     0
1070
    73
1070
     0
1070
   284
1070
     8
1070
    78
1070
     8
1070
    42
1040
2.0
1070
    44
1040
1.0
1070
    43
1040
10.0
1070
   271
1070
     2
1070
    41
1040
1.0
1002
}
  0
DIMENSION
  5
448
330
1F
100
AcDbEntity
  8
25
  6
Continuous
 62
     7
370
     9
100
AcDbDimension
280
     0
  2
Dim4
 10
218.5480307113743
 20
13.75203173155023
 30
0.0
 11
227.3110307113735
 21
15.25203173155023
 31
0.0
 70
   160
  1
<>
 71
     5
 42
-1.0
 73
     0
 74
     0
 75
     0
  3
Standard
100
AcDbAlignedDimension
 13
236.0740307113735
 23
47.19063542562048
 33
0.0
 14
218.5480307113735
 24
20.27621412709357
 34
0.0
 50
179.9999999999998
100
AcDbRotatedDimension
1001
ACAD
1000
DSTYLE
1002
{
1070
   279
1070
     2
1070
   340
1005
420
1070
   140
1040
2.0
1070
    40
1040
1.0
1070
   147
1040
0.0
1070
    76
1070
     0
1070
    75
1070
     0
1070
   344
1005
51
1070
   343
1005
51
1070
   173
1070
     1
1070
   289
1070
     2
1070
   288
1070
     1
1070
    77
1070
     1
1070
   172
1070
     1
1070
   174
1070
     0
1070
    74
1070
     0
1070
    73
1070
     0
1070
   284
1070
     8
1070
    78
1070
     8
1070
    42
1040
2.0
1070
    44
1040
1.0
1070
    43
1040
10.0
1070
   271
1070
     2
1070
    41
1040
1.0
1002
}
  0
DIMENSION
  5
452
330
1F
100
AcDbEntity
  8
25
  6
Continuous
 62
     7
370
     9
100
AcDbDimension
280
     0
  2
Dim5
 10
186.5480307113743
 20
20.90121412709351
 30
0.0
 11
190.2480307113734
 21
22.40121412709354
 31
0.0
 70
   160
  1
<>
 71
     5
 42
-1.0
 73
     0
 74
     0
 75
     0
  3
Standard
100
AcDbAlignedDimension
 13
193.9480307113734
 23
30.74063542562044
 33
0.0
 14
186.5480307113735
 24
30.74063542562055
 34
0.0
 50
-179.9999999999996
100
AcDbRotatedDimension
1001
ACAD
1000
DSTYLE
1002
{
1070
   279
1070
     2
1070
   340
1005
420
1070
   140
1040
2.0
1070
    40
1040
1.0
1070
   147
1040
0.0
1070
    76
1070
     0
1070
    75
1070
     0
1070
   344
1005
51
1070
   343
1005
51
1070
   173
1070
     1
1070
   289
1070
     2
1070
   288
1070
     1
1070
    77
1070
     1
1070
   172
1070
     1
1070
   174
1070
     0
1070
    74
1070
     0
1070
    73
1070
     0
1070
   284
1070
     8
1070
    78
1070
     8
1070
    42
1040
2.0
1070
    44
1040
1.0
1070
    43
1040
10.0
1070
   271
1070
     2
1070
    41
1040
1.0
1002
}
  0
DIMENSION
  5
45C
330
1F
100
AcDbEntity
  8
25
  6
Continuous
 62
     7
370
     9
100
AcDbDimension
280
     0
  2
Dim6
 10
180.3480307113743
 20
13.75203173155023
 30
0.0
 11
199.4480307113735
 21
15.25203173155023
 31
0.0
 70
   160
  1
<>
 71
     5
 42
-1.0
 73
     0
 74
     0
 75
     0
  3
Standard
100
AcDbAlignedDimension
 13
218.5480307113735
 23
20.27621412709357
 33
0.0
 14
180.3480307113735
 24
20.27621412709357
 34
0.0
 50
179.9999999999998
100
AcDbRotatedDimension
1001
ACAD
1000
DSTYLE
1002
{
1070
   279
1070
     2
1070
   340
1005
420
1070
   140
1040
2.0
1070
    40
1040
1.0
1070
   147
1040
0.0
1070
    76
1070
     0
1070
    75
1070
     0
1070
   344
1005
51
1070
   343
1005
51
1070
   173
1070
     1
1070
   289
1070
     2
1070
   288
1070
     1
1070
    77
1070
     1
1070
   172
1070
     1
1070
   174
1070
     0
1070
    74
1070
     0
1070
    73
1070
     0
1070
   284
1070
     8
1070
    78
1070
     8
1070
    42
1040
2.0
1070
    44
1040
1.0
1070
    43
1040
10.0
1070
   271
1070
     2
1070
    41
1040
1.0
1002
}
  0
DIMENSION
  5
466
330
1F
100
AcDbEntity
  8
25
  6
Continuous
 62
     7
370
     9
100
AcDbDimension
280
     0
  2
Dim7
 10
193.9480307113742
 20
20.90121412709357
 30
0.0
 11
199.9480307113735
 21
22.40121412709357
 31
0.0
 70
   160
  1
<>
 71
     5
 42
-1.0
 73
     0
 74
     0
 75
     0
  3
Standard
100
AcDbAlignedDimension
 13
205.9480307113735
 23
30.74063542562055
 33
0.0
 14
193.9480307113734
 24
30.74063542562044
 34
0.0
 50
179.9999999999998
100
AcDbRotatedDimension
1001
ACAD
1000
DSTYLE
1002
{
1070
   279
1070
     2
1070
   340
1005
420
1070
   140
1040
2.0
1070
    40
1040
1.0
1070
   147
1040
0.0
1070
    76
1070
     0
1070
    75
1070
     0
1070
   344
1005
51
1070
   343
1005
51
1070
   173
1070
     1
1070
   289
1070
     2
1070
   288
1070
     1
1070
    77
1070
     1
1070
   172
1070
     1
1070
   174
1070
     0
1070
    74
1070
     0
1070
    73
1070
     0
1070
   284
1070
     8
1070
    78
1070
     8
1070
    42
1040
2.0
1070
    44
1040
1.0
1070
    43
1040
10.0
1070
   271
1070
     2
1070
    41
1040
1.0
1002
}
  0
DIMENSION
  5
46E
330
1F
100
AcDbEntity
  8
25
  6
Continuous
 62
     7
370
     9
100
AcDbDimension
280
     0
  2
Dim8
 10
130.3104610077866
 20
36.53661370286761
 30
0.0
 11
143.5314846780602
 21
65.30495852112564
 31
0.0
 70
   163
  1
<>
 71
     5
 42
-1.0
 73
     0
 74
     0
 75
     0
  3
Standard
100
AcDbDiametricDimension
 15
141.3543409656843
 25
57.84465714837336
 35
0.0
 40
0.0
1001
ACAD
1000
DSTYLE
1002
{
1070
   340
1005
420
1070
   140
1040
2.0
1070
    40
1040
1.0
1070
   147
1040
0.0
1070
    76
1070
     1
1070
    75
1070
     1
1070
   344
1005
51
1070
   343
1005
51
1070
   173
1070
     1
1070
   289
1070
     2
1070
   288
1070
     1
1070
    77
1070
     1
1070
   172
1070
     1
1070
   174
1070
     0
1070
    74
1070
     0
1070
    73
1070
     0
1070
   284
1070
     8
1070
    78
1070
     8
1070
    42
1040
0.0
1070
    44
1040
0.0
1070
    43
1040
10.0
1070
   271
1070
     2
1070
    41
1040
1.0
1002
}
  0
DIMENSION
  5
478
330
1F
100
AcDbEntity
  8
25
  6
Continuous
 62
     7
370
     9
100
AcDbDimension
280
     0
  2
Dim9
 10
165.0980307113734
 20
63.94063542562056
 30
0.0
 11
163.5980307113734
 21
47.56520208421347
 31
0.0
 70
   160
  1
φ<>
 71
     5
 42
-1.0
 73
     0
 74
     0
 75
     0
  3
Standard
100
AcDbAlignedDimension
 13
186.8480307113734
 23
30.44063542562048
 33
0.0
 14
186.5980307113735
 24
63.94063542562048
 34
0.0
 50
89.99999999999991
100
AcDbRotatedDimension
1001
ACAD
1000
DSTYLE
1002
{
1070
   279
1070
     2
1070
   340
1005
420
1070
   140
1040
2.0
1070
    40
1040
1.0
1070
   147
1040
0.0
1070
    76
1070
     0
1070
    75
1070
     0
1070
   344
1005
51
1070
   343
1005
51
1070
   173
1070
     1
1070
   289
1070
     2
1070
   288
1070
     1
1070
    77
1070
     1
1070
   172
1070
     1
1070
   174
1070
     0
1070
    74
1070
     0
1070
    73
1070
     0
1070
   284
1070
     8
1070
    78
1070
     8
1070
    42
1040
2.0
1070
    44
1040
1.0
1070
    43
1040
10.0
1070
   271
1070
     2
1070
    41
1040
1.0
1002
}
  0
DIMENSION
  5
482
330
1F
100
AcDbEntity
  8
25
  6
Continuous
 62
     7
370
     9
100
AcDbDimension
280
     0
  2
Dim10
 10
169.5768358134222
 20
63.19063542562053
 30
0.0
 11
168.0768358134222
 21
47.34213491057596
 31
0.0
 70
   160
  1
φ<>
 71
     5
 42
-1.0
 73
     0
 74
     0
 75
     0
  3
Standard
100
AcDbAlignedDimension
 13
180.5480307113735
 23
31.19063542562048
 33
0.0
 14
180.5480307113735
 24
63.19063542562048
 34
0.0
 50
89.99999999999991
100
AcDbRotatedDimension
1001
ACAD
1000
DSTYLE
1002
{
1070
   279
1070
     2
1070
   340
1005
420
1070
   140
1040
2.0
1070
    40
1040
1.0
1070
   147
1040
0.0
1070
    76
1070
     0
1070
    75
1070
     0
1070
   344
1005
51
1070
   343
1005
51
1070
   173
1070
     1
1070
   289
1070
     2
1070
   288
1070
     1
1070
    77
1070
     1
1070
   172
1070
     1
1070
   174
1070
     0
1070
    74
1070
     0
1070
    73
1070
     0
1070
   284
1070
     8
1070
    78
1070
     8
1070
    42
1040
2.0
1070
    44
1040
1.0
1070
    43
1040
10.0
1070
   271
1070
     2
1070
    41
1040
1.0
1002
}
  0
DIMENSION
  5
48C
330
1F
100
AcDbEntity
  8
25
  6
Continuous
 62
     7
370
     9
100
AcDbDimension
280
     0
  2
Dim11
 10
180.3480307113742
 20
20.90121412709359
 30
0.0
 11
183.4070005789482
 21
22.40121412709358
 31
0.0
 70
   160
  1
(<>
 71
     5
 42
-1.0
 73
     0
 74
     0
 75
     0
  3
Standard
100
AcDbAlignedDimension
 13
186.5480307113735
 23
30.74063542562055
 33
0.0
 14
180.3480307113735
 24
31.39063542562053
 34
0.0
 50
179.9999999999999
100
AcDbRotatedDimension
1001
ACAD
1000
DSTYLE
1002
{
1070
   279
1070
     2
1070
   340
1005
420
1070
   140
1040
2.0
1070
    40
1040
1.0
1070
   147
1040
0.0
1070
    76
1070
     0
1070
    75
1070
     0
1070
   344
1005
51
1070
   343
1005
51
1070
   173
1070
     1
1070
   289
1070
     2
1070
   288
1070
     1
1070
    77
1070
     1
1070
   172
1070
     1
1070
   174
1070
     0
1070
    74
1070
     0
1070
    73
1070
     0
1070
   284
1070
     8
1070
    78
1070
     8
1070
    42
1040
2.0
1070
    44
1040
1.0
1070
    43
1040
10.0
1070
   271
1070
     2
1070
    41
1040
1.0
1002
}
  0
DIMENSION
  5
496
330
1F
100
AcDbEntity
  8
25
  6
Continuous
 62
     7
370
     9
100
AcDbDimension
280
     0
  2
Dim12
 10
243.6150169972497
 20
63.1906354256203
 30
0.0
 11
242.1150169972497
 21
46.93317842557386
 31
0.0
 70
   160
  1
φ<>
 71
     5
 42
-1.0
 73
     0
 74
     0
 75
     0
  3
Standard
100
AcDbAlignedDimension
 13
218.2480307113735
 23
31.19063542562048
 33
0.0
 14
218.2480307113735
 24
63.19063542562048
 34
0.0
 50
89.99999999999991
100
AcDbRotatedDimension
1001
ACAD
1000
DSTYLE
1002
{
1070
   279
1070
     2
1070
   340
1005
420
1070
   140
1040
2.0
1070
    40
1040
1.0
1070
   147
1040
0.0
1070
    76
1070
     0
1070
    75
1070
     0
1070
   344
1005
51
1070
   343
1005
51
1070
   173
1070
     1
1070
   289
1070
     2
1070
   288
1070
     1
1070
    77
1070
     1
1070
   172
1070
     1
1070
   174
1070
     0
1070
    74
1070
     0
1070
    73
1070
     0
1070
   284
1070
     8
1070
    78
1070
     8
1070
    42
1040
2.0
1070
    44
1040
1.0
1070
    43
1040
10.0
1070
   271
1070
     2
1070
    41
1040
1.0
1002
}
  0
MTEXT
  5
497
330
1F
100
AcDbEntity
  8
25
  6
Continuous
 62
     7
370
     9
100
AcDbMText
 10
189.9640961568821
 20
77.28325916625266
 30
0.0
 40
1.5
 41
21.79416
 46
1.5
 71
     9
 72
     1
  1
{\fＭＳ ゴシック;\T0.750000;インデックスリング}
 73
     1
 44
1.0
1001
ACAD
1000
ACAD_MTEXT_DEFINED_HEIGHT_BEGIN
1070
    46
1040
1.5
1000
ACAD_MTEXT_DEFINED_HEIGHT_END
  0
MTEXT
  5
498
330
1F
100
AcDbEntity
  8
25
  6
Continuous
 62
     7
370
     9
100
AcDbMText
 10
184.3534528688241
 20
72.47161561745041
 30
0.0
 40
1.5
 41
19.17718875
 46
1.5
 71
     9
 72
     1
  1
{\fＭＳ ゴシック;\T0.750000;フォーカスリング}
 73
     1
 44
1.0
1001
ACAD
1000
ACAD_MTEXT_DEFINED_HEIGHT_BEGIN
1070
    46
1040
1.5
1000
ACAD_MTEXT_DEFINED_HEIGHT_END
  0
MTEXT
  5
499
330
1F
100
AcDbEntity
  8
25
  6
Continuous
 62
     7
370
     9
100
AcDbMText
 10
220.6045773522233
 20
75.33644682749832
 30
0.0
 40
1.5
 41
16.9372275
 46
1.5
 71
     7
 72
     1
  1
{\fＭＳ ゴシック;\T0.750000;アイリスリング}
 73
     1
 44
1.0
1001
ACAD
1000
ACAD_MTEXT_DEFINED_HEIGHT_BEGIN
1070
    46
1040
1.5
1000
ACAD_MTEXT_DEFINED_HEIGHT_END
  0
MTEXT
  5
49A
330
1F
100
AcDbEntity
  8
25
  6
Continuous
 62
     7
370
     9
100
AcDbMText
 10
233.7300948849652
 20
71.21209110295248
 30
0.0
 40
1.5
 41
7.4245522677
 46
1.5
 71
     7
 72
     1
  1
{\fＭＳ ゴシック;\T0.772570;1-32UNF}
 73
     1
 44
1.0
1001
ACAD
1000
ACAD_MTEXT_DEFINED_HEIGHT_BEGIN
1070
    46
1040
1.5
1000
ACAD_MTEXT_DEFINED_HEIGHT_END
  0
LINE
  5
49B
330
1F
100
AcDbEntity
  8
1
  6
Continuous
 62
     7
370
     9
100
AcDbLine
 10
173.8828927176258
 20
72.07760716467334
 30
0.0
 11
172.3290685888443
 21
72.07760716467334
 31
0.0
  0
INSERT
  5
4A4
330
1F
100
AcDbEntity
  8
0
100
AcDbBlockReference
  2
*G28
 10
0.0
 20
0.0
 30
0.0
  0
MTEXT
  5
4A5
330
1F
100
AcDbEntity
  8
1
  6
Continuous
 62
     7
370
     9
100
AcDbMText
 10
195.3278055829646
 20
48.90163492998197
 30
0.0
 40
3.5
 41
5.850570570570571
 46
3.5
 71
     7
 72
     1
  1
{\fＭＳ 明朝;\T0.750000;∞}
 11
1.615544574432587E-15
 21
-1.0
 31
0.0
 73
     1
 44
1.0
1001
ACAD
1000
ACAD_MTEXT_DEFINED_HEIGHT_BEGIN
1070
    46
1040
3.5
1000
ACAD_MTEXT_DEFINED_HEIGHT_END
  0
HATCH
  5
4A6
330
1F
100
AcDbEntity
  8
1
  6
Continuous
 62
     7
370
     9
100
AcDbHatch
 10
0.0
 20
0.0
 30
0.0
210
0.0
220
0.0
230
1.0
  2
SOLID
 70
     1
 71
     0
 91
        1
 92
        0
 93
        8
 72
     2
 10
197.5980307113736
 20
56.67563542562038
 40
0.1500000000000057
 50
0.0
 51
89.99999999999991
 73
     1
 72
     1
 10
197.5980307113736
 20
56.82563542562048
 11
196.3980307113736
 21
56.82563542562048
 72
     2
 10
196.3980307113736
 20
56.67563542562038
 40
0.1500000000000057
 50
89.99999999999991
 51
179.9999999999998
 73
     1
 72
     1
 10
196.2480307113736
 20
56.67563542562038
 11
196.2480307113736
 21
56.22563542562045
 72
     2
 10
196.3980307113736
 20
56.22563542562045
 40
0.1500000000000057
 50
179.999999999981
 51
270.0000000000001
 73
     1
 72
     1
 10
196.3980307113736
 20
56.07563542562048
 11
197.5980307113736
 21
56.07563542562048
 72
     2
 10
197.5980307113736
 20
56.22563542562045
 40
0.1500000000000057
 50
270.0000000000109
 51
360.0
 73
     1
 72
     1
 10
197.7480307113736
 20
56.22563542562045
 11
197.7480307113736
 21
56.67563542562038
 97
        0
 75
     0
 76
     1
 98
        0
  0
HATCH
  5
4A7
330
1F
100
AcDbEntity
  8
1
  6
Continuous
 62
     7
370
     9
100
AcDbHatch
 10
0.0
 20
0.0
 30
0.0
210
0.0
220
0.0
230
1.0
  2
SOLID
 70
     1
 71
     0
 91
        1
 92
        0
 93
        8
 72
     2
 10
197.5980307113736
 20
52.12563542562032
 40
0.1500000000000057
 50
0.0
 51
89.99999999999991
 73
     1
 72
     1
 10
197.5980307113736
 20
52.27563542562041
 11
196.3980307113737
 21
52.27563542562041
 72
     2
 10
196.3980307113737
 20
52.12563542562032
 40
0.1500000000000057
 50
89.99999999999991
 51
179.9999999999998
 73
     1
 72
     1
 10
196.2480307113736
 20
52.12563542562032
 11
196.2480307113736
 21
51.67563542562038
 72
     2
 10
196.3980307113737
 20
51.67563542562038
 40
0.1500000000000057
 50
179.9999999999998
 51
270.0000000000001
 73
     1
 72
     1
 10
196.3980307113737
 20
51.52563542562041
 11
197.5980307113736
 21
51.52563542562041
 72
     2
 10
197.5980307113736
 20
51.67563542562038
 40
0.1500000000000057
 50
270.0000000000001
 51
360.0
 73
     1
 72
     1
 10
197.7480307113736
 20
51.67563542562038
 11
197.7480307113736
 21
52.12563542562032
 97
        0
 75
     0
 76
     1
 98
        0
  0
HATCH
  5
4A8
330
1F
100
AcDbEntity
  8
1
  6
Continuous
 62
     7
370
     9
100
AcDbHatch
 10
0.0
 20
0.0
 30
0.0
210
0.0
220
0.0
230
1.0
  2
SOLID
 70
     1
 71
     0
 91
        1
 92
        0
 93
        1
 72
     2
 10
202.8980307113736
 20
48.5106354256211
 40
0.25
 50
0.0
 51
360.0
 73
     1
 97
        0
 75
     0
 76
     1
 98
        0
  0
HATCH
  5
4A9
330
1F
100
AcDbEntity
  8
1
  6
Continuous
 62
     7
370
     9
100
AcDbHatch
 10
0.0
 20
0.0
 30
0.0
210
0.0
220
0.0
230
1.0
  2
SOLID
 70
     1
 71
     0
 91
        1
 92
        0
 93
        1
 72
     2
 10
202.8980307113737
 20
45.56063542562094
 40
0.25
 50
0.0
 51
360.0
 73
     1
 97
        0
 75
     0
 76
     1
 98
        0
  0
HATCH
  5
4AA
330
1F
100
AcDbEntity
  8
1
  6
Continuous
 62
     7
370
     9
100
AcDbHatch
 10
0.0
 20
0.0
 30
0.0
210
0.0
220
0.0
230
1.0
  2
SOLID
 70
     1
 71
     0
 91
        1
 92
        0
 93
        1
 72
     2
 10
207.5480307113735
 20
47.19063542562048
 40
0.75
 50
0.0
 51
360.0
 73
     1
 97
        0
 75
     0
 76
     1
 98
        0
  0
HATCH
  5
4AB
330
1F
100
AcDbEntity
  8
1
  6
Continuous
 62
     7
370
     9
100
AcDbHatch
 10
0.0
 20
0.0
 30
0.0
210
0.0
220
0.0
230
1.0
  2
SOLID
 70
     1
 71
     0
 91
        1
 92
        0
 93
        1
 72
     2
 10
202.8980307113737
 20
42.69063542562117
 40
0.25
 50
0.0
 51
360.0
 73
     1
 97
        0
 75
     0
 76
     1
 98
        0
  0
HATCH
  5
4AC
330
1F
100
AcDbEntity
  8
1
  6
Continuous
 62
     7
370
     9
100
AcDbHatch
 10
0.0
 20
0.0
 30
0.0
210
0.0
220
0.0
230
1.0
  2
SOLID
 70
     1
 71
     0
 91
        1
 92
        0
 93
        1
 72
     2
 10
202.8980307113737
 20
41.250635425621
 40
0.25
 50
0.0
 51
360.0
 73
     1
 97
        0
 75
     0
 76
     1
 98
        0
  0
HATCH
  5
4AD
330
1F
100
AcDbEntity
  8
1
  6
Continuous
 62
     7
370
     9
100
AcDbHatch
 10
0.0
 20
0.0
 30
0.0
210
0.0
220
0.0
230
1.0
  2
SOLID
 70
     1
 71
     0
 91
        1
 92
        0
 93
        1
 72
     2
 10
192.4480307113735
 20
47.19063542562048
 40
0.75
 50
0.0
 51
360.0
 73
     1
 97
        0
 75
     0
 76
     1
 98
        0
  0
VIEWPORT
  5
3F
330
1B
100
AcDbEntity
 67
     1
  8
0
100
AcDbViewport
 10
210.0
 20
148.5
 30
0.0
 40
420.0
 41
297.0
 68
     1
 69
     1
 12
210.0
 22
148.5
 13
0.0
 23
0.0
 14
0.5
 24
0.5
 15
0.5
 25
0.5
 16
0.0
 26
0.0
 36
1.0
 17
0.0
 27
0.0
 37
0.0
 42
50.0
 43
0.0
 44
0.0
 45
9.0
 50
0.0
 51
0.0
 72
   100
 90
   557152
  1

281
     0
 71
     1
 74
     0
110
0.0
120
0.0
130
0.0
111
1.0
121
0.0
131
0.0
112
0.0
122
1.0
132
0.0
 79
     0
146
0.0
170
     0
 61
     5
292
     1
282
     1
141
0.0
142
0.0
 63
   256
  0
ENDSEC
  0
SECTION
  2
OBJECTS
  0
DICTIONARY
  5
C
330
0
100
AcDbDictionary
281
     1
  3
ACAD_GROUP
350
D
  3
ACAD_LAYOUT
350
1A
  3
ACAD_MATERIAL
350
3B
  3
ACAD_MLEADERSTYLE
350
4AF
  3
ACAD_MLINESTYLE
350
17
  3
ACAD_PLOTSETTINGS
350
19
  3
ACAD_PLOTSTYLENAME
350
E
  3
ACAD_TABLESTYLE
350
4AE
  3
ACAD_VISUALSTYLE
350
2A
  0
DICTIONARY
  5
D
102
{ACAD_REACTORS
330
C
102
}
330
C
100
AcDbDictionary
281
     1
  0
DICTIONARY
  5
1A
102
{ACAD_REACTORS
330
C
102
}
330
C
100
AcDbDictionary
281
     1
  3
Layout1
350
1E
  3
Layout2
350
26
  3
Model
350
22
  0
DICTIONARY
  5
3B
102
{ACAD_REACTORS
330
C
102
}
330
C
100
AcDbDictionary
281
     1
  3
ByBlock
350
3D
  3
ByLayer
350
3C
  3
Global
350
3E
  0
DICTIONARY
  5
4AF
102
{ACAD_REACTORS
330
C
102
}
330
C
100
AcDbDictionary
281
     1
  0
DICTIONARY
  5
17
102
{ACAD_REACTORS
330
C
102
}
330
C
100
AcDbDictionary
281
     1
  3
Standard
350
18
  0
DICTIONARY
  5
19
102
{ACAD_REACTORS
330
C
102
}
330
C
100
AcDbDictionary
281
     1
  0
ACDBDICTIONARYWDFLT
  5
E
102
{ACAD_REACTORS
330
C
102
}
330
C
100
AcDbDictionary
281
     1
  3
Normal
350
F
100
AcDbDictionaryWithDefault
340
F
  0
DICTIONARY
  5
4AE
102
{ACAD_REACTORS
330
C
102
}
330
C
100
AcDbDictionary
281
     1
  0
DICTIONARY
  5
2A
102
{ACAD_REACTORS
330
C
102
}
330
C
100
AcDbDictionary
281
     1
  3
2dWireframe
350
2F
  3
3D Hidden
350
31
  3
3dWireframe
350
30
  3
Basic
350
32
  3
Brighten
350
36
  3
ColorChange
350
3A
  3
Conceptual
350
34
  3
Dim
350
35
  3
Facepattern
350
39
  3
Flat
350
2B
  3
FlatWithEdges
350
2C
  3
Gouraud
350
2D
  3
GouraudWithEdges
350
2E
  3
Linepattern
350
38
  3
Realistic
350
33
  3
Thicken
350
37
  0
LAYOUT
  5
1E
102
{ACAD_REACTORS
330
1A
102
}
330
1A
100
AcDbPlotSettings
  1

  2
none_device
  4

  6

 40
0.0
 41
0.0
 42
0.0
 43
0.0
 44
0.0
 45
0.0
 46
0.0
 47
0.0
 48
0.0
 49
0.0
140
0.0
141
0.0
142
1.0
143
1.0
 70
   688
 72
     0
 73
     0
 74
     5
  7

 75
    16
 76
     0
 77
     2
 78
   300
147
1.0
148
0.0
149
0.0
100
AcDbLayout
  1
Layout1
 70
     1
 71
     1
 10
0.0
 20
0.0
 11
420.0
 21
297.0
 12
0.0
 22
0.0
 32
0.0
 14
0.0
 24
0.0
 34
0.0
 15
420.0
 25
297.0
 35
0.0
146
0.0
 13
0.0
 23
0.0
 33
0.0
 16
1.0
 26
0.0
 36
0.0
 17
0.0
 27
1.0
 37
0.0
 76
     0
330
1B
331
3F
  0
LAYOUT
  5
26
102
{ACAD_REACTORS
330
1A
102
}
330
1A
100
AcDbPlotSettings
  1

  2
none_device
  4

  6

 40
0.0
 41
0.0
 42
0.0
 43
0.0
 44
0.0
 45
0.0
 46
0.0
 47
0.0
 48
0.0
 49
0.0
140
0.0
141
0.0
142
1.0
143
1.0
 70
   688
 72
     0
 73
     0
 74
     5
  7

 75
    16
 76
     0
 77
     2
 78
   300
147
1.0
148
0.0
149
0.0
100
AcDbLayout
  1
Layout2
 70
     1
 71
     2
 10
0.0
 20
0.0
 11
0.0
 21
0.0
 12
0.0
 22
0.0
 32
0.0
 14
0.0
 24
0.0
 34
0.0
 15
0.0
 25
0.0
 35
0.0
146
0.0
 13
0.0
 23
0.0
 33
0.0
 16
1.0
 26
0.0
 36
0.0
 17
0.0
 27
1.0
 37
0.0
 76
     0
330
23
  0
LAYOUT
  5
22
102
{ACAD_REACTORS
330
1A
102
}
330
1A
100
AcDbPlotSettings
  1

  2
none_device
  4

  6

 40
0.0
 41
0.0
 42
0.0
 43
0.0
 44
0.0
 45
0.0
 46
0.0
 47
0.0
 48
0.0
 49
0.0
140
0.0
141
0.0
142
1.0
143
1.0
 70
  1712
 72
     0
 73
     0
 74
     0
  7

 75
     0
 76
     0
 77
     2
 78
   300
147
1.0
148
0.0
149
0.0
100
AcDbLayout
  1
Model
 70
     1
 71
     0
 10
0.0
 20
0.0
 11
420.0
 21
297.0
 12
0.0
 22
0.0
 32
0.0
 14
114.1861368810516
 24
12.05661528163341
 34
0.0
 15
244.6150169972497
 25
78.78325916625266
 35
0.0
146
0.0
 13
0.0
 23
0.0
 33
0.0
 16
1.0
 26
0.0
 36
0.0
 17
0.0
 27
1.0
 37
0.0
 76
     0
330
1F
331
29
  0
MATERIAL
  5
3D
102
{ACAD_REACTORS
330
3B
102
}
330
3B
100
AcDbMaterial
  1
ByBlock
 72
     1
 94
      127
  0
MATERIAL
  5
3C
102
{ACAD_REACTORS
330
3B
102
}
330
3B
100
AcDbMaterial
  1
ByLayer
 72
     1
 94
      127
  0
MATERIAL
  5
3E
102
{ACAD_REACTORS
330
3B
102
}
330
3B
100
AcDbMaterial
  1
Global
 72
     1
 94
      127
  0
MLINESTYLE
  5
18
102
{ACAD_REACTORS
330
17
102
}
330
17
100
AcDbMlineStyle
  2
Standard
 70
     0
  3

 62
   256
 51
90.0
 52
90.0
 71
     2
 49
0.5
 62
   256
  6
BYLAYER
 49
-0.5
 62
   256
  6
BYLAYER
  0
ACDBPLACEHOLDER
  5
F
102
{ACAD_REACTORS
330
E
102
}
330
E
  0
VISUALSTYLE
  5
2F
102
{ACAD_REACTORS
330
2A
102
}
330
2A
100
AcDbVisualStyle
  2
2dWireframe
 70
     4
177
     2
291
     0
 71
     0
176
     1
 72
     2
176
     1
 73
     0
176
     1
 90
        0
176
     1
 40
-0.6
176
     1
 41
-30.0
176
     1
 62
     5
 63
     7
421
 16777215
176
     1
 74
     1
176
     1
 91
        4
176
     1
 64
     7
176
     1
 65
   257
176
     1
 75
     1
176
     1
175
     1
176
     1
 42
1.0
176
     1
 92
        0
176
     1
 66
   257
176
     1
 43
1.0
176
     1
 76
     1
176
     1
 77
     6
176
     1
 78
     2
176
     1
 67
     7
176
     1
 79
     5
176
     1
170
     0
176
     1
171
     0
176
     1
290
     0
176
     1
 93
        1
176
     1
 44
0.0
176
     1
173
     0
176
     1
  0
VISUALSTYLE
  5
31
102
{ACAD_REACTORS
330
2A
102
}
330
2A
100
AcDbVisualStyle
  2
3D Hidden
 70
     6
177
     2
291
     0
 71
     1
176
     1
 72
     2
176
     1
 73
     2
176
     1
 90
        0
176
     1
 40
-0.6
176
     1
 41
-30.0
176
     1
 62
     5
 63
     7
421
 16777215
176
     1
 74
     2
176
     1
 91
        2
176
     1
 64
     7
176
     1
 65
   257
176
     1
 75
     2
176
     1
175
     1
176
     1
 42
40.0
176
     1
 92
        0
176
     1
 66
   257
176
     1
 43
1.0
176
     1
 76
     1
176
     1
 77
     6
176
     1
 78
     2
176
     1
 67
     7
176
     1
 79
     3
176
     1
170
     0
176
     1
171
     0
176
     1
290
     0
176
     1
 93
        1
176
     1
 44
0.0
176
     1
173
     0
176
     1
  0
VISUALSTYLE
  5
30
102
{ACAD_REACTORS
330
2A
102
}
330
2A
100
AcDbVisualStyle
  2
3dWireframe
 70
     5
177
     2
291
     0
 71
     0
176
     1
 72
     2
176
     1
 73
     0
176
     1
 90
        0
176
     1
 40
-0.6
176
     1
 41
-30.0
176
     1
 62
     5
 63
     7
421
 16777215
176
     1
 74
     1
176
     1
 91
        4
176
     1
 64
     7
176
     1
 65
   257
176
     1
 75
     1
176
     1
175
     1
176
     1
 42
1.0
176
     1
 92
        0
176
     1
 66
   257
176
     1
 43
1.0
176
     1
 76
     1
176
     1
 77
     6
176
     1
 78
     2
176
     1
 67
     7
176
     1
 79
     5
176
     1
170
     0
176
     1
171
     0
176
     1
290
     0
176
     1
 93
        1
176
     1
 44
0.0
176
     1
173
     0
176
     1
  0
VISUALSTYLE
  5
32
102
{ACAD_REACTORS
330
2A
102
}
330
2A
100
AcDbVisualStyle
  2
Basic
 70
     7
177
     2
291
     1
 71
     1
176
     1
 72
     0
176
     1
 73
     1
176
     1
 90
        0
176
     1
 40
-0.6
176
     1
 41
-30.0
176
     1
 62
     5
 63
     7
421
 16777215
176
     1
 74
     0
176
     1
 91
        4
176
     1
 64
     7
176
     1
 65
   257
176
     1
 75
     1
176
     1
175
     1
176
     1
 42
1.0
176
     1
 92
        8
176
     1
 66
     7
176
     1
 43
1.0
176
     1
 76
     1
176
     1
 77
     6
176
     1
 78
     2
176
     1
 67
     7
176
     1
 79
     5
176
     1
170
     0
176
     1
171
     0
176
     1
290
     0
176
     1
 93
        1
176
     1
 44
0.0
176
     1
173
     0
176
     1
  0
VISUALSTYLE
  5
36
102
{ACAD_REACTORS
330
2A
102
}
330
2A
100
AcDbVisualStyle
  2
Brighten
 70
    12
177
     2
291
     1
 71
     2
176
     1
 72
     2
176
     1
 73
     0
176
     1
 90
        0
176
     1
 40
-0.6
176
     1
 41
-30.0
176
     1
 62
     5
 63
     7
421
 16777215
176
     1
 74
     1
176
     1
 91
        4
176
     1
 64
     7
176
     1
 65
   257
176
     1
 75
     1
176
     1
175
     1
176
     1
 42
1.0
176
     1
 92
        8
176
     1
 66
     7
176
     1
 43
1.0
176
     1
 76
     1
176
     1
 77
     6
176
     1
 78
     2
176
     1
 67
     7
176
     1
 79
     5
176
     1
170
     0
176
     1
171
     0
176
     1
290
     0
176
     1
 93
        1
176
     1
 44
50.0
176
     1
173
     0
176
     1
  0
VISUALSTYLE
  5
3A
102
{ACAD_REACTORS
330
2A
102
}
330
2A
100
AcDbVisualStyle
  2
ColorChange
 70
    16
177
     2
291
     1
 71
     2
176
     1
 72
     2
176
     1
 73
     3
176
     1
 90
        0
176
     1
 40
-0.6
176
     1
 41
-30.0
176
     1
 62
     5
 63
     8
421
  8421504
176
     1
 74
     1
176
     1
 91
        4
176
     1
 64
     7
176
     1
 65
   257
176
     1
 75
     1
176
     1
175
     1
176
     1
 42
1.0
176
     1
 92
        8
176
     1
 66
     8
424
  8421504
176
     1
 43
1.0
176
     1
 76
     1
176
     1
 77
     6
176
     1
 78
     2
176
     1
 67
     7
176
     1
 79
     5
176
     1
170
     0
176
     1
171
     0
176
     1
290
     0
176
     1
 93
        1
176
     1
 44
0.0
176
     1
173
     0
176
     1
  0
VISUALSTYLE
  5
34
102
{ACAD_REACTORS
330
2A
102
}
330
2A
100
AcDbVisualStyle
  2
Conceptual
 70
     9
177
     2
291
     0
 71
     3
176
     1
 72
     2
176
     1
 73
     0
176
     1
 90
        0
176
     1
 40
-0.6
176
     1
 41
-30.0
176
     1
 62
     5
 63
     7
421
 16777215
176
     1
 74
     2
176
     1
 91
        2
176
     1
 64
     7
176
     1
 65
   257
176
     1
 75
     1
176
     1
175
     1
176
     1
 42
40.0
176
     1
 92
        8
176
     1
 66
     7
176
     1
 43
1.0
176
     1
 76
     1
176
     1
 77
     6
176
     1
 78
     2
176
     1
 67
     7
176
     1
 79
     3
176
     1
170
     0
176
     1
171
     0
176
     1
290
     0
176
     1
 93
        1
176
     1
 44
0.0
176
     1
173
     0
176
     1
  0
VISUALSTYLE
  5
35
102
{ACAD_REACTORS
330
2A
102
}
330
2A
100
AcDbVisualStyle
  2
Dim
 70
    11
177
     2
291
     1
 71
     2
176
     1
 72
     2
176
     1
 73
     0
176
     1
 90
        0
176
     1
 40
-0.6
176
     1
 41
-30.0
176
     1
 62
     5
 63
     7
421
 16777215
176
     1
 74
     1
176
     1
 91
        4
176
     1
 64
     7
176
     1
 65
   257
176
     1
 75
     1
176
     1
175
     1
176
     1
 42
1.0
176
     1
 92
        8
176
     1
 66
     7
176
     1
 43
1.0
176
     1
 76
     1
176
     1
 77
     6
176
     1
 78
     2
176
     1
 67
     7
176
     1
 79
     5
176
     1
170
     0
176
     1
171
     0
176
     1
290
     0
176
     1
 93
        1
176
     1
 44
-50.0
176
     1
173
     0
176
     1
  0
VISUALSTYLE
  5
39
102
{ACAD_REACTORS
330
2A
102
}
330
2A
100
AcDbVisualStyle
  2
Facepattern
 70
    15
177
     2
291
     1
 71
     2
176
     1
 72
     2
176
     1
 73
     0
176
     1
 90
        0
176
     1
 40
-0.6
176
     1
 41
-30.0
176
     1
 62
     5
 63
     7
421
 16777215
176
     1
 74
     1
176
     1
 91
        4
176
     1
 64
     7
176
     1
 65
   257
176
     1
 75
     1
176
     1
175
     1
176
     1
 42
1.0
176
     1
 92
        8
176
     1
 66
     7
176
     1
 43
1.0
176
     1
 76
     1
176
     1
 77
     6
176
     1
 78
     2
176
     1
 67
     7
176
     1
 79
     5
176
     1
170
     0
176
     1
171
     0
176
     1
290
     0
176
     1
 93
        1
176
     1
 44
0.0
176
     1
173
     0
176
     1
  0
VISUALSTYLE
  5
2B
102
{ACAD_REACTORS
330
2A
102
}
330
2A
100
AcDbVisualStyle
  2
Flat
 70
     0
177
     2
291
     1
 71
     2
176
     1
 72
     1
176
     1
 73
     1
176
     1
 90
        2
176
     1
 40
-0.6
176
     1
 41
30.0
176
     1
 62
     5
 63
     7
421
 16777215
176
     1
 74
     0
176
     1
 91
        4
176
     1
 64
     7
176
     1
 65
   257
176
     1
 75
     1
176
     1
175
     1
176
     1
 42
1.0
176
     1
 92
        8
176
     1
 66
     7
176
     1
 43
1.0
176
     1
 76
     1
176
     1
 77
     6
176
     1
 78
     2
176
     1
 67
     7
176
     1
 79
     5
176
     1
170
     0
176
     1
171
     0
176
     1
290
     0
176
     1
 93
       13
176
     1
 44
0.0
176
     1
173
     0
176
     1
  0
VISUALSTYLE
  5
2C
102
{ACAD_REACTORS
330
2A
102
}
330
2A
100
AcDbVisualStyle
  2
FlatWithEdges
 70
     1
177
     2
291
     1
 71
     2
176
     1
 72
     1
176
     1
 73
     1
176
     1
 90
        2
176
     1
 40
-0.6
176
     1
 41
30.0
176
     1
 62
     5
 63
     7
421
 16777215
176
     1
 74
     1
176
     1
 91
        4
176
     1
 64
     7
176
     1
 65
   257
176
     1
 75
     1
176
     1
175
     1
176
     1
 42
1.0
176
     1
 92
        0
176
     1
 66
   257
176
     1
 43
1.0
176
     1
 76
     1
176
     1
 77
     6
176
     1
 78
     2
176
     1
 67
     7
176
     1
 79
     5
176
     1
170
     0
176
     1
171
     0
176
     1
290
     0
176
     1
 93
       13
176
     1
 44
0.0
176
     1
173
     0
176
     1
  0
VISUALSTYLE
  5
2D
102
{ACAD_REACTORS
330
2A
102
}
330
2A
100
AcDbVisualStyle
  2
Gouraud
 70
     2
177
     2
291
     1
 71
     2
176
     1
 72
     2
176
     1
 73
     1
176
     1
 90
        2
176
     1
 40
-0.6
176
     1
 41
30.0
176
     1
 62
     5
 63
     7
421
 16777215
176
     1
 74
     0
176
     1
 91
        4
176
     1
 64
     7
176
     1
 65
   257
176
     1
 75
     1
176
     1
175
     1
176
     1
 42
1.0
176
     1
 92
        0
176
     1
 66
     7
176
     1
 43
1.0
176
     1
 76
     1
176
     1
 77
     6
176
     1
 78
     2
176
     1
 67
     7
176
     1
 79
     5
176
     1
170
     0
176
     1
171
     0
176
     1
290
     0
176
     1
 93
       13
176
     1
 44
0.0
176
     1
173
     0
176
     1
  0
VISUALSTYLE
  5
2E
102
{ACAD_REACTORS
330
2A
102
}
330
2A
100
AcDbVisualStyle
  2
GouraudWithEdges
 70
     3
177
     2
291
     1
 71
     2
176
     1
 72
     2
176
     1
 73
     1
176
     1
 90
        2
176
     1
 40
-0.6
176
     1
 41
30.0
176
     1
 62
     5
 63
     7
421
 16777215
176
     1
 74
     1
176
     1
 91
        4
176
     1
 64
     7
176
     1
 65
   257
176
     1
 75
     1
176
     1
175
     1
176
     1
 42
1.0
176
     1
 92
        0
176
     1
 66
   257
176
     1
 43
1.0
176
     1
 76
     1
176
     1
 77
     6
176
     1
 78
     2
176
     1
 67
     7
176
     1
 79
     5
176
     1
170
     0
176
     1
171
     0
176
     1
290
     0
176
     1
 93
       13
176
     1
 44
0.0
176
     1
173
     0
176
     1
  0
VISUALSTYLE
  5
38
102
{ACAD_REACTORS
330
2A
102
}
330
2A
100
AcDbVisualStyle
  2
Linepattern
 70
    14
177
     2
291
     1
 71
     2
176
     1
 72
     2
176
     1
 73
     0
176
     1
 90
        0
176
     1
 40
-0.6
176
     1
 41
-30.0
176
     1
 62
     5
 63
     7
421
 16777215
176
     1
 74
     1
176
     1
 91
        4
176
     1
 64
     7
176
     1
 65
   257
176
     1
 75
     7
176
     1
175
     7
176
     1
 42
1.0
176
     1
 92
        8
176
     1
 66
     7
176
     1
 43
1.0
176
     1
 76
     1
176
     1
 77
     6
176
     1
 78
     2
176
     1
 67
     7
176
     1
 79
     5
176
     1
170
     0
176
     1
171
     0
176
     1
290
     0
176
     1
 93
        1
176
     1
 44
0.0
176
     1
173
     0
176
     1
  0
VISUALSTYLE
  5
33
102
{ACAD_REACTORS
330
2A
102
}
330
2A
100
AcDbVisualStyle
  2
Realistic
 70
     8
177
     2
291
     0
 71
     2
176
     1
 72
     2
176
     1
 73
     0
176
     1
 90
        0
176
     1
 40
-0.6
176
     1
 41
-30.0
176
     1
 62
     5
 63
     7
421
 16777215
176
     1
 74
     1
176
     1
 91
        0
176
     1
 64
     7
176
     1
 65
   257
176
     1
 75
     1
176
     1
175
     1
176
     1
 42
1.0
176
     1
 92
        8
176
     1
 66
     8
424
  7895160
176
     1
 43
1.0
176
     1
 76
     1
176
     1
 77
     6
176
     1
 78
     2
176
     1
 67
     7
176
     1
 79
     5
176
     1
170
     0
176
     1
171
     0
176
     1
290
     0
176
     1
 93
       13
176
     1
 44
0.0
176
     1
173
     0
176
     1
  0
VISUALSTYLE
  5
37
102
{ACAD_REACTORS
330
2A
102
}
330
2A
100
AcDbVisualStyle
  2
Thicken
 70
    13
177
     2
291
     1
 71
     2
176
     1
 72
     2
176
     1
 73
     0
176
     1
 90
        0
176
     1
 40
-0.6
176
     1
 41
-30.0
176
     1
 62
     5
 63
     7
421
 16777215
176
     1
 74
     1
176
     1
 91
        4
176
     1
 64
     7
176
     1
 65
   257
176
     1
 75
     1
176
     1
175
     1
176
     1
 42
1.0
176
     1
 92
       12
176
     1
 66
     7
176
     1
 43
1.0
176
     1
 76
     1
176
     1
 77
     6
176
     1
 78
     2
176
     1
 67
     7
176
     1
 79
     5
176
     1
170
     0
176
     1
171
     0
176
     1
290
     0
176
     1
 93
        1
176
     1
 44
0.0
176
     1
173
     0
176
     1
  0
ENDSEC
  0
EOF
