  0
SECTION
  2
HEADER
  9
$ACADVER
  1
AC1015
  9
$ACADMAINTVER
 70
    20
  9
$DWGCODEPAGE
  3
ANSI_932
  9
$INSBASE
 10
0.0
 20
0.0
 30
0.0
  9
$EXTMIN
 10
123.8766748109333
 20
26.61288306229144
 30
0.0
  9
$EXTMAX
 10
265.0528392101136
 20
99.49941012225123
 30
0.0
  9
$LIMMIN
 10
0.0
 20
0.0
  9
$LIMMAX
 10
420.0
 20
297.0
  9
$ORTHOMODE
 70
     0
  9
$REGENMODE
 70
     1
  9
$FILLMODE
 70
     1
  9
$QTEXTMODE
 70
     0
  9
$MIRRTEXT
 70
     1
  9
$LTSCALE
 40
0.25
  9
$ATTMODE
 70
     1
  9
$TEXTSIZE
 40
5.0
  9
$TRACEWID
 40
0.05
  9
$TEXTSTYLE
  7
Standard
  9
$CLAYER
  8
0
  9
$CELTYPE
  6
ByLayer
  9
$CECOLOR
 62
   256
  9
$CELTSCALE
 40
1.0
  9
$DISPSILH
 70
     0
  9
$DIMSCALE
 40
1.0
  9
$DIMASZ
 40
4.0
  9
$DIMEXO
 40
2.0
  9
$DIMDLI
 40
10.0
  9
$DIMRND
 40
0.0
  9
$DIMDLE
 40
0.0
  9
$DIMEXE
 40
2.0
  9
$DIMTP
 40
0.0
  9
$DIMTM
 40
0.0
  9
$DIMTXT
 40
3.5
  9
$DIMCEN
 40
0.09
  9
$DIMTSZ
 40
0.0
  9
$DIMTOL
 70
     0
  9
$DIMLIM
 70
     0
  9
$DIMTIH
 70
     0
  9
$DIMTOH
 70
     0
  9
$DIMSE1
 70
     0
  9
$DIMSE2
 70
     0
  9
$DIMTAD
 70
     3
  9
$DIMZIN
 70
     8
  9
$DIMBLK
  1

  9
$DIMASO
 70
     1
  9
$DIMSHO
 70
     1
  9
$DIMPOST
  1

  9
$DIMAPOST
  1

  9
$DIMALT
 70
     0
  9
$DIMALTD
 70
     2
  9
$DIMALTF
 40
25.4
  9
$DIMLFAC
 40
1.0
  9
$DIMTOFL
 70
     1
  9
$DIMTVP
 40
0.7
  9
$DIMTIX
 70
     0
  9
$DIMSOXD
 70
     0
  9
$DIMSAH
 70
     0
  9
$DIMBLK1
  1

  9
$DIMBLK2
  1

  9
$DIMSTYLE
  2
Standard
  9
$DIMCLRD
 70
     0
  9
$DIMCLRE
 70
     0
  9
$DIMCLRT
 70
     0
  9
$DIMTFAC
 40
0.5
  9
$DIMGAP
 40
0.09
  9
$DIMJUST
 70
     0
  9
$DIMSD1
 70
     0
  9
$DIMSD2
 70
     0
  9
$DIMTOLJ
 70
     1
  9
$DIMTZIN
 70
     8
  9
$DIMALTZ
 70
     0
  9
$DIMALTTZ
 70
     0
  9
$DIMUPT
 70
     1
  9
$DIMDEC
 70
     2
  9
$DIMTDEC
 70
     4
  9
$DIMALTU
 70
     2
  9
$DIMALTTD
 70
     2
  9
$DIMTXSTY
  7
Standard
  9
$DIMAUNIT
 70
     0
  9
$DIMADEC
 70
     0
  9
$DIMALTRND
 40
0.0
  9
$DIMAZIN
 70
     0
  9
$DIMDSEP
 70
    46
  9
$DIMATFIT
 70
     2
  9
$DIMFRAC
 70
     0
  9
$DIMLDRBLK
  1

  9
$DIMLUNIT
 70
     2
  9
$DIMLWD
 70
    -2
  9
$DIMLWE
 70
    -2
  9
$DIMTMOVE
 70
     2
  9
$LUNITS
 70
     2
  9
$LUPREC
 70
     4
  9
$SKETCHINC
 40
0.1
  9
$FILLETRAD
 40
0.5
  9
$AUNITS
 70
     0
  9
$AUPREC
 70
     0
  9
$MENU
  1
.
  9
$ELEVATION
 40
0.0
  9
$PELEVATION
 40
0.0
  9
$THICKNESS
 40
0.0
  9
$LIMCHECK
 70
     0
  9
$CHAMFERA
 40
0.5
  9
$CHAMFERB
 40
0.5
  9
$CHAMFERC
 40
1.0
  9
$CHAMFERD
 40
0.0
  9
$SKPOLY
 70
     0
  9
$TDCREATE
 40
2457120.779965278
  9
$TDUCREATE
 40
2457120.404965278
  9
$TDUPDATE
 40
2457120.572521378
  9
$TDUUPDATE
 40
2457120.197521377
  9
$TDINDWG
 40
0.0015266204
  9
$TDUSRTIMER
 40
0.0015264352
  9
$USRTIMER
 70
     1
  9
$ANGBASE
 50
0.0
  9
$ANGDIR
 70
     0
  9
$PDMODE
 70
     0
  9
$PDSIZE
 40
0.0
  9
$PLINEWID
 40
0.0
  9
$SPLFRAME
 70
     0
  9
$SPLINETYPE
 70
     6
  9
$SPLINESEGS
 70
     8
  9
$HANDSEED
  5
425
  9
$SURFTAB1
 70
     6
  9
$SURFTAB2
 70
     6
  9
$SURFTYPE
 70
     6
  9
$SURFU
 70
     6
  9
$SURFV
 70
     6
  9
$UCSBASE
  2

  9
$UCSNAME
  2

  9
$UCSORG
 10
0.0
 20
0.0
 30
0.0
  9
$UCSXDIR
 10
1.0
 20
0.0
 30
0.0
  9
$UCSYDIR
 10
0.0
 20
1.0
 30
0.0
  9
$UCSORTHOREF
  2

  9
$UCSORTHOVIEW
 70
     0
  9
$UCSORGTOP
 10
0.0
 20
0.0
 30
0.0
  9
$UCSORGBOTTOM
 10
0.0
 20
0.0
 30
0.0
  9
$UCSORGLEFT
 10
0.0
 20
0.0
 30
0.0
  9
$UCSORGRIGHT
 10
0.0
 20
0.0
 30
0.0
  9
$UCSORGFRONT
 10
0.0
 20
0.0
 30
0.0
  9
$UCSORGBACK
 10
0.0
 20
0.0
 30
0.0
  9
$PUCSBASE
  2

  9
$PUCSNAME
  2

  9
$PUCSORG
 10
0.0
 20
0.0
 30
0.0
  9
$PUCSXDIR
 10
1.0
 20
0.0
 30
0.0
  9
$PUCSYDIR
 10
0.0
 20
1.0
 30
0.0
  9
$PUCSORTHOREF
  2

  9
$PUCSORTHOVIEW
 70
     0
  9
$PUCSORGTOP
 10
0.0
 20
0.0
 30
0.0
  9
$PUCSORGBOTTOM
 10
0.0
 20
0.0
 30
0.0
  9
$PUCSORGLEFT
 10
0.0
 20
0.0
 30
0.0
  9
$PUCSORGRIGHT
 10
0.0
 20
0.0
 30
0.0
  9
$PUCSORGFRONT
 10
0.0
 20
0.0
 30
0.0
  9
$PUCSORGBACK
 10
0.0
 20
0.0
 30
0.0
  9
$USERI1
 70
     0
  9
$USERI2
 70
     0
  9
$USERI3
 70
     0
  9
$USERI4
 70
     0
  9
$USERI5
 70
     0
  9
$USERR1
 40
0.0
  9
$USERR2
 40
0.0
  9
$USERR3
 40
0.0
  9
$USERR4
 40
0.0
  9
$USERR5
 40
0.0
  9
$WORLDVIEW
 70
     1
  9
$SHADEDGE
 70
     3
  9
$SHADEDIF
 70
    70
  9
$TILEMODE
 70
     1
  9
$MAXACTVP
 70
    64
  9
$PINSBASE
 10
0.0
 20
0.0
 30
0.0
  9
$PLIMCHECK
 70
     0
  9
$PEXTMIN
 10
0.0
 20
0.0
 30
0.0
  9
$PEXTMAX
 10
420.0
 20
297.0
 30
0.0
  9
$PLIMMIN
 10
0.0
 20
0.0
  9
$PLIMMAX
 10
420.0
 20
297.0
  9
$UNITMODE
 70
     0
  9
$VISRETAIN
 70
     1
  9
$PLINEGEN
 70
     0
  9
$PSLTSCALE
 70
     1
  9
$TREEDEPTH
 70
  3020
  9
$CMLSTYLE
  2
Standard
  9
$CMLJUST
 70
     0
  9
$CMLSCALE
 40
1.0
  9
$PROXYGRAPHICS
 70
     1
  9
$MEASUREMENT
 70
     1
  9
$CELWEIGHT
370
    -1
  9
$ENDCAPS
280
     0
  9
$JOINSTYLE
280
     0
  9
$LWDISPLAY
290
     0
  9
$INSUNITS
 70
     4
  9
$HYPERLINKBASE
  1

  9
$STYLESHEET
  1

  9
$XEDIT
290
     1
  9
$CEPSNTYPE
380
     0
  9
$PSTYLEMODE
290
     1
  9
$FINGERPRINTGUID
  2
{5ECBD828-8962-4780-AAEB-37D297AD094F}
  9
$VERSIONGUID
  2
{DE6DCF69-F95D-4A81-AAD9-2AE038805048}
  9
$EXTNAMES
290
     1
  9
$PSVPSCALE
 40
0.0
  9
$OLESTARTUP
290
     0
  0
ENDSEC
  0
SECTION
  2
CLASSES
  0
CLASS
  1
ACDBDICTIONARYWDFLT
  2
AcDbDictionaryWithDefault
  3
ObjectDBX Classes
 90
        0
280
     0
281
     0
  0
CLASS
  1
VISUALSTYLE
  2
AcDbVisualStyle
  3
ObjectDBX Classes
 90
     4095
280
     0
281
     0
  0
CLASS
  1
MATERIAL
  2
AcDbMaterial
  3
ObjectDBX Classes
 90
        0
280
     0
281
     0
  0
CLASS
  1
DICTIONARYVAR
  2
AcDbDictionaryVar
  3
ObjectDBX Classes
 90
        0
280
     0
281
     0
  0
CLASS
  1
ACDBPLACEHOLDER
  2
AcDbPlaceHolder
  3
ObjectDBX Classes
 90
        0
280
     0
281
     0
  0
CLASS
  1
LAYOUT
  2
AcDbLayout
  3
ObjectDBX Classes
 90
        0
280
     0
281
     0
  0
ENDSEC
  0
SECTION
  2
TABLES
  0
TABLE
  2
VPORT
  5
8
330
0
100
AcDbSymbolTable
 70
     2
  0
VPORT
  5
41B
330
8
100
AcDbSymbolTableRecord
100
AcDbViewportTableRecord
  2
*Active
 70
     0
 10
0.0
 20
0.0
 11
1.0
 21
1.0
 12
194.4749460281746
 22
63.05177366332122
 13
0.0
 23
0.0
 14
0.5
 24
0.5
 15
0.5
 25
0.5
 16
0.0
 26
0.0
 36
1.0
 17
0.0
 27
0.0
 37
0.0
 40
75.26644858057057
 41
1.882476390346274
 42
50.0
 43
0.0
 44
0.0
 50
0.0
 51
0.0
 71
     0
 72
   100
 73
     1
 74
     3
 75
     0
 76
     0
 77
     0
 78
     0
281
     0
 65
     1
110
0.0
120
0.0
130
0.0
111
1.0
121
0.0
131
0.0
112
0.0
122
1.0
132
0.0
 79
     0
146
0.0
  0
ENDTAB
  0
TABLE
  2
LTYPE
  5
5
330
0
100
AcDbSymbolTable
 70
     9
  0
LTYPE
  5
14
330
5
100
AcDbSymbolTableRecord
100
AcDbLinetypeTableRecord
  2
ByBlock
 70
     0
  3

 72
    65
 73
     0
 40
0.0
  0
LTYPE
  5
15
330
5
100
AcDbSymbolTableRecord
100
AcDbLinetypeTableRecord
  2
ByLayer
 70
     0
  3

 72
    65
 73
     0
 40
0.0
  0
LTYPE
  5
16
330
5
100
AcDbSymbolTableRecord
100
AcDbLinetypeTableRecord
  2
Continuous
 70
     0
  3
Solid line
 72
    65
 73
     0
 40
0.0
  0
LTYPE
  5
8E
330
5
100
AcDbSymbolTableRecord
100
AcDbLinetypeTableRecord
  2
DOT
 70
     0
  3
DOT
 72
    65
 73
     2
 40
4.0
 49
6.0
 74
     0
 49
-2.0
 74
     0
  0
LTYPE
  5
8F
330
5
100
AcDbSymbolTableRecord
100
AcDbLinetypeTableRecord
  2
HIDDEN
 70
     0
  3
HIDDEN
 72
    65
 73
     2
 40
4.2
 49
8.4
 74
     0
 49
-4.2
 74
     0
  0
LTYPE
  5
90
330
5
100
AcDbSymbolTableRecord
100
AcDbLinetypeTableRecord
  2
DASHDOT
 70
     0
  3
DASHDOT
 72
    65
 73
     4
 40
14.5
 49
30.0
 74
     0
 49
-9.0
 74
     0
 49
2.5
 74
     0
 49
-9.0
 74
     0
  0
LTYPE
  5
91
330
5
100
AcDbSymbolTableRecord
100
AcDbLinetypeTableRecord
  2
PHANTOM
 70
     0
  3
PHANTOM
 72
    65
 73
     6
 40
12.0
 49
30.0
 74
     0
 49
-9.0
 74
     0
 49
2.5
 74
     0
 49
-5.0
 74
     0
 49
2.5
 74
     0
 49
-9.0
 74
     0
  0
LTYPE
  5
92
330
5
100
AcDbSymbolTableRecord
100
AcDbLinetypeTableRecord
  2
ACAD_ISO14W100
 70
     0
  3
ACAD_ISO14W100
 72
    65
 73
     8
 40
1.5
 49
12.0
 74
     0
 49
-3.0
 74
     0
 49
0.5
 74
     0
 49
-3.0
 74
     0
 49
0.5
 74
     0
 49
-3.0
 74
     0
 49
0.5
 74
     0
 49
-3.0
 74
     0
  0
LTYPE
  5
93
330
5
100
AcDbSymbolTableRecord
100
AcDbLinetypeTableRecord
  2
ACAD_ISO06W100
 70
     0
  3
ACAD_ISO06W100
 72
    65
 73
     8
 40
13.5
 49
24.0
 74
     0
 49
-3.0
 74
     0
 49
0.5
 74
     0
 49
-3.0
 74
     0
 49
0.5
 74
     0
 49
-3.0
 74
     0
 49
0.5
 74
     0
 49
-3.0
 74
     0
  0
LTYPE
  5
94
330
5
100
AcDbSymbolTableRecord
100
AcDbLinetypeTableRecord
  2
ACAD_ISO11W100
 70
     0
  3
ACAD_ISO11W100
 72
    65
 73
     6
 40
15.5
 49
12.0
 74
     0
 49
-3.0
 74
     0
 49
12.0
 74
     0
 49
-3.0
 74
     0
 49
0.5
 74
     0
 49
-3.0
 74
     0
  0
LTYPE
  5
95
330
5
100
AcDbSymbolTableRecord
100
AcDbLinetypeTableRecord
  2
ACAD_ISO13W100
 70
     0
  3
ACAD_ISO13W100
 72
    65
 73
     8
 40
13.0
 49
12.0
 74
     0
 49
-3.0
 74
     0
 49
12.0
 74
     0
 49
-3.0
 74
     0
 49
0.5
 74
     0
 49
-3.0
 74
     0
 49
0.5
 74
     0
 49
-3.0
 74
     0
  0
ENDTAB
  0
TABLE
  2
LAYER
  5
2
330
0
100
AcDbSymbolTable
 70
    31
  0
LAYER
  5
10
330
2
100
AcDbSymbolTableRecord
100
AcDbLayerTableRecord
  2
0
 70
     0
 62
     7
  6
Continuous
370
    -3
390
F
  0
LAYER
  5
96
330
2
100
AcDbSymbolTableRecord
100
AcDbLayerTableRecord
  2
1
 70
     0
 62
     7
  6
Continuous
370
     9
390
F
  0
LAYER
  5
97
330
2
100
AcDbSymbolTableRecord
100
AcDbLayerTableRecord
  2
2
 70
     0
 62
   134
  6
Continuous
370
     9
390
F
  0
LAYER
  5
98
330
2
100
AcDbSymbolTableRecord
100
AcDbLayerTableRecord
  2
3
 70
     0
 62
   214
  6
Continuous
370
     9
390
F
  0
LAYER
  5
99
330
2
100
AcDbSymbolTableRecord
100
AcDbLayerTableRecord
  2
4
 70
     0
 62
    54
  6
Continuous
370
     9
390
F
  0
LAYER
  5
9A
330
2
100
AcDbSymbolTableRecord
100
AcDbLayerTableRecord
  2
5
 70
     0
 62
    94
  6
Continuous
370
     9
390
F
  0
LAYER
  5
9B
330
2
100
AcDbSymbolTableRecord
100
AcDbLayerTableRecord
  2
6
 70
     0
 62
    14
  6
Continuous
370
     9
390
F
  0
LAYER
  5
9C
330
2
100
AcDbSymbolTableRecord
100
AcDbLayerTableRecord
  2
7
 70
     0
 62
     4
  6
Continuous
370
     9
390
F
  0
LAYER
  5
9D
330
2
100
AcDbSymbolTableRecord
100
AcDbLayerTableRecord
  2
8
 70
     0
 62
     6
  6
Continuous
370
     9
390
F
  0
LAYER
  5
9E
330
2
100
AcDbSymbolTableRecord
100
AcDbLayerTableRecord
  2
9
 70
     0
 62
     2
  6
Continuous
370
     9
390
F
  0
LAYER
  5
9F
330
2
100
AcDbSymbolTableRecord
100
AcDbLayerTableRecord
  2
10
 70
     0
 62
     3
  6
Continuous
370
     9
390
F
  0
LAYER
  5
A0
330
2
100
AcDbSymbolTableRecord
100
AcDbLayerTableRecord
  2
11
 70
     0
 62
   251
  6
Continuous
370
     9
390
F
  0
LAYER
  5
A1
330
2
100
AcDbSymbolTableRecord
100
AcDbLayerTableRecord
  2
12
 70
     0
 62
   136
  6
Continuous
370
     9
390
F
  0
LAYER
  5
A2
330
2
100
AcDbSymbolTableRecord
100
AcDbLayerTableRecord
  2
13
 70
     0
 62
   216
  6
Continuous
370
     9
390
F
  0
LAYER
  5
A3
330
2
100
AcDbSymbolTableRecord
100
AcDbLayerTableRecord
  2
14
 70
     0
 62
    56
  6
Continuous
370
     9
390
F
  0
LAYER
  5
A4
330
2
100
AcDbSymbolTableRecord
100
AcDbLayerTableRecord
  2
15
 70
     0
 62
    96
  6
Continuous
370
     9
390
F
  0
LAYER
  5
A5
330
2
100
AcDbSymbolTableRecord
100
AcDbLayerTableRecord
  2
16
 70
     0
 62
    16
  6
Continuous
370
     9
390
F
  0
LAYER
  5
A6
330
2
100
AcDbSymbolTableRecord
100
AcDbLayerTableRecord
  2
17
 70
     0
 62
   132
  6
Continuous
370
     9
390
F
  0
LAYER
  5
A7
330
2
100
AcDbSymbolTableRecord
100
AcDbLayerTableRecord
  2
18
 70
     0
 62
   212
  6
Continuous
370
     9
390
F
  0
LAYER
  5
A8
330
2
100
AcDbSymbolTableRecord
100
AcDbLayerTableRecord
  2
19
 70
     0
 62
    52
  6
Continuous
370
     9
390
F
  0
LAYER
  5
A9
330
2
100
AcDbSymbolTableRecord
100
AcDbLayerTableRecord
  2
20
 70
     0
 62
   250
  6
Continuous
370
     9
390
F
  0
LAYER
  5
AA
330
2
100
AcDbSymbolTableRecord
100
AcDbLayerTableRecord
  2
21
 70
     0
 62
     7
  6
Continuous
370
     9
390
F
  0
LAYER
  5
AB
330
2
100
AcDbSymbolTableRecord
100
AcDbLayerTableRecord
  2
22
 70
     0
 62
     7
  6
Continuous
370
     9
390
F
  0
LAYER
  5
AC
330
2
100
AcDbSymbolTableRecord
100
AcDbLayerTableRecord
  2
23
 70
     0
 62
     5
  6
Continuous
370
     9
390
F
  0
LAYER
  5
AD
330
2
100
AcDbSymbolTableRecord
100
AcDbLayerTableRecord
  2
24
 70
     0
 62
   104
  6
Continuous
370
     9
390
F
  0
LAYER
  5
AE
330
2
100
AcDbSymbolTableRecord
100
AcDbLayerTableRecord
  2
25
 70
     0
 62
     7
  6
Continuous
370
     9
390
F
  0
LAYER
  5
AF
330
2
100
AcDbSymbolTableRecord
100
AcDbLayerTableRecord
  2
26
 70
     0
 62
     1
  6
Continuous
370
     9
390
F
  0
LAYER
  5
B0
330
2
100
AcDbSymbolTableRecord
100
AcDbLayerTableRecord
  2
27
 70
     0
 62
    12
  6
Continuous
370
     9
390
F
  0
LAYER
  5
B1
330
2
100
AcDbSymbolTableRecord
100
AcDbLayerTableRecord
  2
28
 70
     0
 62
   104
  6
Continuous
370
     9
390
F
  0
LAYER
  5
B2
330
2
100
AcDbSymbolTableRecord
100
AcDbLayerTableRecord
  2
29
 70
     0
 62
     1
  6
Continuous
370
     9
390
F
  0
LAYER
  5
B3
330
2
100
AcDbSymbolTableRecord
100
AcDbLayerTableRecord
  2
30
 70
     0
 62
   104
  6
Continuous
370
     9
390
F
  0
ENDTAB
  0
TABLE
  2
STYLE
  5
3
330
0
100
AcDbSymbolTable
 70
     3
  0
STYLE
  5
11
330
3
100
AcDbSymbolTableRecord
100
AcDbTextStyleTableRecord
  2
Standard
 70
     0
 40
0.0
 41
1.0
 50
0.0
 71
     0
 42
5.0
  3
txt
  4
bigfont
  0
STYLE
  5
41
330
3
100
AcDbSymbolTableRecord
100
AcDbTextStyleTableRecord
  2
T_STANDARD
 70
     4
 40
10.0
 41
1.0
 50
0.0
 71
     0
 42
10.0
  3
txt
  4
bigfont
  0
STYLE
  5
2BD
330
3
100
AcDbSymbolTableRecord
100
AcDbTextStyleTableRecord
  2
ＭＳ ゴシック
 70
     0
 40
0.0
 41
1.0
 50
0.0
 71
     0
 42
0.0
  3
MSGOTHIC.TTC
  4

  0
ENDTAB
  0
TABLE
  2
VIEW
  5
6
330
0
100
AcDbSymbolTable
 70
     0
  0
ENDTAB
  0
TABLE
  2
UCS
  5
7
330
0
100
AcDbSymbolTable
 70
     0
  0
ENDTAB
  0
TABLE
  2
APPID
  5
9
330
0
100
AcDbSymbolTable
 70
     2
  0
APPID
  5
12
330
9
100
AcDbSymbolTableRecord
100
AcDbRegAppTableRecord
  2
ACAD
 70
     0
  0
APPID
  5
40
330
9
100
AcDbSymbolTableRecord
100
AcDbRegAppTableRecord
  2
ODA
 70
     0
  0
ENDTAB
  0
TABLE
  2
DIMSTYLE
  5
A
330
0
100
AcDbSymbolTable
 70
     1
100
AcDbDimStyleTable
 71
     0
  0
DIMSTYLE
105
27
102
{ACAD_REACTORS
330
2C7
330
2D1
330
2DB
330
2E5
330
2EF
330
2F9
330
303
330
30D
330
317
330
321
330
32B
330
333
330
3D9
102
}
330
A
100
AcDbSymbolTableRecord
100
AcDbDimStyleTableRecord
  2
Standard
 70
     0
340
11
  0
ENDTAB
  0
TABLE
  2
BLOCK_RECORD
  5
1
330
0
100
AcDbSymbolTable
 70
    30
  0
BLOCK_RECORD
  5
1F
330
1
100
AcDbSymbolTableRecord
100
AcDbBlockTableRecord
  2
*Model_Space
340
22
  0
BLOCK_RECORD
  5
1B
330
1
100
AcDbSymbolTableRecord
100
AcDbBlockTableRecord
  2
*Paper_Space
340
1E
  0
BLOCK_RECORD
  5
23
330
1
100
AcDbSymbolTableRecord
100
AcDbBlockTableRecord
  2
*Paper_Space0
340
26
  0
BLOCK_RECORD
  5
42
330
1
100
AcDbSymbolTableRecord
100
AcDbBlockTableRecord
  2
_ORIGIN
340
0
  0
BLOCK_RECORD
  5
47
330
1
100
AcDbSymbolTableRecord
100
AcDbBlockTableRecord
  2
_DOTBLANK
340
0
  0
BLOCK_RECORD
  5
4C
330
1
100
AcDbSymbolTableRecord
100
AcDbBlockTableRecord
  2
_DOT
340
0
  0
BLOCK_RECORD
  5
51
330
1
100
AcDbSymbolTableRecord
100
AcDbBlockTableRecord
  2
_OPEN
340
0
102
{BLKREFS
331
2C5
331
2C6
331
2CF
331
2D0
331
2D9
331
2DA
331
2E3
331
2E4
331
2ED
331
2EE
331
2F7
331
2F8
331
301
331
302
331
30B
331
30C
331
315
331
316
331
31F
331
320
331
329
331
32A
331
331
331
332
331
3D7
331
3D8
102
}
  0
BLOCK_RECORD
  5
57
330
1
100
AcDbSymbolTableRecord
100
AcDbBlockTableRecord
  2
_CLOSED
340
0
  0
BLOCK_RECORD
  5
5E
330
1
100
AcDbSymbolTableRecord
100
AcDbBlockTableRecord
  2
_CLOSEDBLANK
340
0
  0
BLOCK_RECORD
  5
64
330
1
100
AcDbSymbolTableRecord
100
AcDbBlockTableRecord
  2
_ARROWFILLED
340
0
  0
BLOCK_RECORD
  5
68
330
1
100
AcDbSymbolTableRecord
100
AcDbBlockTableRecord
  2
_BOXBLANK
340
0
  0
BLOCK_RECORD
  5
70
330
1
100
AcDbSymbolTableRecord
100
AcDbBlockTableRecord
  2
_BOXFILLED
340
0
  0
BLOCK_RECORD
  5
75
330
1
100
AcDbSymbolTableRecord
100
AcDbBlockTableRecord
  2
_INTEGRAL
340
0
  0
BLOCK_RECORD
  5
7A
330
1
100
AcDbSymbolTableRecord
100
AcDbBlockTableRecord
  2
_OBLIQUE
340
0
  0
BLOCK_RECORD
  5
7E
330
1
100
AcDbSymbolTableRecord
100
AcDbBlockTableRecord
  2
_NONE
340
0
  0
BLOCK_RECORD
  5
81
330
1
100
AcDbSymbolTableRecord
100
AcDbBlockTableRecord
  2
MARK_OPEN
340
0
102
{BLKREFS
331
334
331
33A
331
340
331
346
331
3C8
102
}
  0
BLOCK_RECORD
  5
86
330
1
100
AcDbSymbolTableRecord
100
AcDbBlockTableRecord
  2
MARK_ORIGIN
340
0
  0
BLOCK_RECORD
  5
8A
330
1
100
AcDbSymbolTableRecord
100
AcDbBlockTableRecord
  2
MARK_DOT
340
0
  0
BLOCK_RECORD
  5
2BE
330
1
100
AcDbSymbolTableRecord
100
AcDbBlockTableRecord
  2
Dim1
340
0
  0
BLOCK_RECORD
  5
2C8
330
1
100
AcDbSymbolTableRecord
100
AcDbBlockTableRecord
  2
Dim2
340
0
  0
BLOCK_RECORD
  5
2D2
330
1
100
AcDbSymbolTableRecord
100
AcDbBlockTableRecord
  2
Dim3
340
0
  0
BLOCK_RECORD
  5
2DC
330
1
100
AcDbSymbolTableRecord
100
AcDbBlockTableRecord
  2
Dim4
340
0
  0
BLOCK_RECORD
  5
2E6
330
1
100
AcDbSymbolTableRecord
100
AcDbBlockTableRecord
  2
Dim5
340
0
  0
BLOCK_RECORD
  5
2F0
330
1
100
AcDbSymbolTableRecord
100
AcDbBlockTableRecord
  2
Dim6
340
0
  0
BLOCK_RECORD
  5
2FA
330
1
100
AcDbSymbolTableRecord
100
AcDbBlockTableRecord
  2
Dim7
340
0
  0
BLOCK_RECORD
  5
304
330
1
100
AcDbSymbolTableRecord
100
AcDbBlockTableRecord
  2
Dim8
340
0
  0
BLOCK_RECORD
  5
30E
330
1
100
AcDbSymbolTableRecord
100
AcDbBlockTableRecord
  2
Dim9
340
0
  0
BLOCK_RECORD
  5
318
330
1
100
AcDbSymbolTableRecord
100
AcDbBlockTableRecord
  2
Dim10
340
0
  0
BLOCK_RECORD
  5
322
330
1
100
AcDbSymbolTableRecord
100
AcDbBlockTableRecord
  2
Dim11
340
0
  0
BLOCK_RECORD
  5
32C
330
1
100
AcDbSymbolTableRecord
100
AcDbBlockTableRecord
  2
Dim12
340
0
  0
BLOCK_RECORD
  5
3BE
330
1
100
AcDbSymbolTableRecord
100
AcDbBlockTableRecord
  2
*G2828
340
0
102
{BLKREFS
331
3C7
102
}
  0
BLOCK_RECORD
  5
3D0
330
1
100
AcDbSymbolTableRecord
100
AcDbBlockTableRecord
  2
Dim13
340
0
  0
ENDTAB
  0
ENDSEC
  0
SECTION
  2
BLOCKS
  0
BLOCK
  5
20
330
1F
100
AcDbEntity
  8
0
100
AcDbBlockBegin
  2
*Model_Space
 70
     0
 10
0.0
 20
0.0
 30
0.0
  3
*Model_Space
  1

  0
ENDBLK
  5
21
330
1F
100
AcDbEntity
  8
0
100
AcDbBlockEnd
  0
BLOCK
  5
1C
330
1B
100
AcDbEntity
 67
     1
  8
0
100
AcDbBlockBegin
  2
*Paper_Space
 70
     0
 10
0.0
 20
0.0
 30
0.0
  3
*Paper_Space
  1

  0
ENDBLK
  5
1D
330
1B
100
AcDbEntity
 67
     1
  8
0
100
AcDbBlockEnd
  0
BLOCK
  5
24
330
23
100
AcDbEntity
 67
     1
  8
0
100
AcDbBlockBegin
  2
*Paper_Space0
 70
     0
 10
0.0
 20
0.0
 30
0.0
  3
*Paper_Space0
  1

  0
ENDBLK
  5
25
330
23
100
AcDbEntity
 67
     1
  8
0
100
AcDbBlockEnd
  0
BLOCK
  5
45
330
42
100
AcDbEntity
  8
0
100
AcDbBlockBegin
  2
_ORIGIN
 70
     0
 10
0.0
 20
0.0
 30
0.0
  3
_ORIGIN
  1

  0
CIRCLE
  5
43
330
42
100
AcDbEntity
  8
0
100
AcDbCircle
 10
0.0
 20
0.0
 30
0.0
 40
0.5
  0
LINE
  5
44
330
42
100
AcDbEntity
  8
0
100
AcDbLine
 10
0.0
 20
0.0
 30
0.0
 11
-1.0
 21
0.0
 31
0.0
  0
ENDBLK
  5
46
330
42
100
AcDbEntity
  8
0
100
AcDbBlockEnd
  0
BLOCK
  5
4A
330
47
100
AcDbEntity
  8
0
100
AcDbBlockBegin
  2
_DOTBLANK
 70
     0
 10
0.0
 20
0.0
 30
0.0
  3
_DOTBLANK
  1

  0
CIRCLE
  5
48
330
47
100
AcDbEntity
  8
0
100
AcDbCircle
 10
0.0
 20
0.0
 30
0.0
 40
0.5
  0
LINE
  5
49
330
47
100
AcDbEntity
  8
0
100
AcDbLine
 10
-0.5
 20
0.0
 30
0.0
 11
-1.0
 21
0.0
 31
0.0
  0
ENDBLK
  5
4B
330
47
100
AcDbEntity
  8
0
100
AcDbBlockEnd
  0
BLOCK
  5
4F
330
4C
100
AcDbEntity
  8
0
100
AcDbBlockBegin
  2
_DOT
 70
     0
 10
0.0
 20
0.0
 30
0.0
  3
_DOT
  1

  0
LWPOLYLINE
  5
4D
330
4C
100
AcDbEntity
  8
0
100
AcDbPolyline
 90
        2
 70
     1
 43
0.5
 10
-0.25
 20
0.0
 42
1.0
 10
0.25
 20
0.0
 42
1.0
  0
LINE
  5
4E
330
4C
100
AcDbEntity
  8
0
100
AcDbLine
 10
-0.5
 20
0.0
 30
0.0
 11
-1.0
 21
0.0
 31
0.0
  0
ENDBLK
  5
50
330
4C
100
AcDbEntity
  8
0
100
AcDbBlockEnd
  0
BLOCK
  5
55
330
51
100
AcDbEntity
  8
0
100
AcDbBlockBegin
  2
_OPEN
 70
     0
 10
0.0
 20
0.0
 30
0.0
  3
_OPEN
  1

  0
LINE
  5
52
330
51
100
AcDbEntity
  8
0
100
AcDbLine
 10
0.0
 20
0.0
 30
0.0
 11
-1.0
 21
0.1666666666666667
 31
0.0
  0
LINE
  5
53
330
51
100
AcDbEntity
  8
0
100
AcDbLine
 10
0.0
 20
0.0
 30
0.0
 11
-1.0
 21
-0.1666666666666667
 31
0.0
  0
LINE
  5
54
330
51
100
AcDbEntity
  8
0
100
AcDbLine
 10
0.0
 20
0.0
 30
0.0
 11
-1.0
 21
0.0
 31
0.0
  0
ENDBLK
  5
56
330
51
100
AcDbEntity
  8
0
100
AcDbBlockEnd
  0
BLOCK
  5
5C
330
57
100
AcDbEntity
  8
0
100
AcDbBlockBegin
  2
_CLOSED
 70
     0
 10
0.0
 20
0.0
 30
0.0
  3
_CLOSED
  1

  0
LINE
  5
58
330
57
100
AcDbEntity
  8
0
100
AcDbLine
 10
0.0
 20
0.0
 30
0.0
 11
-1.0
 21
0.1666666666666667
 31
0.0
  0
LINE
  5
59
330
57
100
AcDbEntity
  8
0
100
AcDbLine
 10
0.0
 20
0.0
 30
0.0
 11
-1.0
 21
-0.1666666666666667
 31
0.0
  0
LINE
  5
5A
330
57
100
AcDbEntity
  8
0
100
AcDbLine
 10
-1.0
 20
0.1666666666666667
 30
0.0
 11
-1.0
 21
-0.1666666666666667
 31
0.0
  0
LINE
  5
5B
330
57
100
AcDbEntity
  8
0
100
AcDbLine
 10
0.0
 20
0.0
 30
0.0
 11
-1.0
 21
0.0
 31
0.0
  0
ENDBLK
  5
5D
330
57
100
AcDbEntity
  8
0
100
AcDbBlockEnd
  0
BLOCK
  5
62
330
5E
100
AcDbEntity
  8
0
100
AcDbBlockBegin
  2
_CLOSEDBLANK
 70
     0
 10
0.0
 20
0.0
 30
0.0
  3
_CLOSEDBLANK
  1

  0
LINE
  5
5F
330
5E
100
AcDbEntity
  8
0
100
AcDbLine
 10
0.0
 20
0.0
 30
0.0
 11
-1.0
 21
0.1666666666666667
 31
0.0
  0
LINE
  5
60
330
5E
100
AcDbEntity
  8
0
100
AcDbLine
 10
0.0
 20
0.0
 30
0.0
 11
-1.0
 21
-0.1666666666666667
 31
0.0
  0
LINE
  5
61
330
5E
100
AcDbEntity
  8
0
100
AcDbLine
 10
-1.0
 20
0.1666666666666667
 30
0.0
 11
-1.0
 21
-0.1666666666666667
 31
0.0
  0
ENDBLK
  5
63
330
5E
100
AcDbEntity
  8
0
100
AcDbBlockEnd
  0
BLOCK
  5
66
330
64
100
AcDbEntity
  8
0
100
AcDbBlockBegin
  2
_ARROWFILLED
 70
     0
 10
0.0
 20
0.0
 30
0.0
  3
_ARROWFILLED
  1

  0
SOLID
  5
65
330
64
100
AcDbEntity
  8
0
100
AcDbTrace
 10
0.0
 20
0.0
 30
0.0
 11
-1.0
 21
-0.1666666666666667
 31
0.0
 12
-1.0
 22
0.1666666666666667
 32
0.0
 13
0.0
 23
0.0
 33
0.0
  0
ENDBLK
  5
67
330
64
100
AcDbEntity
  8
0
100
AcDbBlockEnd
  0
BLOCK
  5
6E
330
68
100
AcDbEntity
  8
0
100
AcDbBlockBegin
  2
_BOXBLANK
 70
     0
 10
0.0
 20
0.0
 30
0.0
  3
_BOXBLANK
  1

  0
LINE
  5
69
330
68
100
AcDbEntity
  8
0
100
AcDbLine
 10
-0.5
 20
-0.5
 30
0.0
 11
0.5
 21
-0.5
 31
0.0
  0
LINE
  5
6A
330
68
100
AcDbEntity
  8
0
100
AcDbLine
 10
0.5
 20
-0.5
 30
0.0
 11
0.5
 21
0.5
 31
0.0
  0
LINE
  5
6B
330
68
100
AcDbEntity
  8
0
100
AcDbLine
 10
0.5
 20
0.5
 30
0.0
 11
-0.5
 21
0.5
 31
0.0
  0
LINE
  5
6C
330
68
100
AcDbEntity
  8
0
100
AcDbLine
 10
-0.5
 20
0.5
 30
0.0
 11
-0.5
 21
-0.5
 31
0.0
  0
LINE
  5
6D
330
68
100
AcDbEntity
  8
0
100
AcDbLine
 10
-0.5
 20
0.0
 30
0.0
 11
-1.0
 21
0.0
 31
0.0
  0
ENDBLK
  5
6F
330
68
100
AcDbEntity
  8
0
100
AcDbBlockEnd
  0
BLOCK
  5
73
330
70
100
AcDbEntity
  8
0
100
AcDbBlockBegin
  2
_BOXFILLED
 70
     0
 10
0.0
 20
0.0
 30
0.0
  3
_BOXFILLED
  1

  0
SOLID
  5
71
330
70
100
AcDbEntity
  8
0
100
AcDbTrace
 10
-0.5
 20
0.5
 30
0.0
 11
0.5
 21
0.5
 31
0.0
 12
-0.5
 22
-0.5
 32
0.0
 13
0.5
 23
-0.5
 33
0.0
  0
LINE
  5
72
330
70
100
AcDbEntity
  8
0
100
AcDbLine
 10
-0.5
 20
0.0
 30
0.0
 11
-1.0
 21
0.0
 31
0.0
  0
ENDBLK
  5
74
330
70
100
AcDbEntity
  8
0
100
AcDbBlockEnd
  0
BLOCK
  5
78
330
75
100
AcDbEntity
  8
0
100
AcDbBlockBegin
  2
_INTEGRAL
 70
     0
 10
0.0
 20
0.0
 30
0.0
  3
_INTEGRAL
  1

  0
ARC
  5
76
330
75
100
AcDbEntity
  8
0
100
AcDbCircle
 10
0.444888
 20
-0.0913346
 30
0.0
 40
0.4541666000000001
100
AcDbArc
 50
101.9999999999999
 51
167.9999999999998
  0
ARC
  5
77
330
75
100
AcDbEntity
  8
0
100
AcDbCircle
 10
-0.444888
 20
0.0913346
 30
0.0
 40
0.4541666000000001
100
AcDbArc
 50
281.9999999999997
 51
347.9999999999997
  0
ENDBLK
  5
79
330
75
100
AcDbEntity
  8
0
100
AcDbBlockEnd
  0
BLOCK
  5
7C
330
7A
100
AcDbEntity
  8
0
100
AcDbBlockBegin
  2
_OBLIQUE
 70
     0
 10
0.0
 20
0.0
 30
0.0
  3
_OBLIQUE
  1

  0
LINE
  5
7B
330
7A
100
AcDbEntity
  8
0
100
AcDbLine
 10
-0.5
 20
-0.5
 30
0.0
 11
0.5
 21
0.5
 31
0.0
  0
ENDBLK
  5
7D
330
7A
100
AcDbEntity
  8
0
100
AcDbBlockEnd
  0
BLOCK
  5
7F
330
7E
100
AcDbEntity
  8
0
100
AcDbBlockBegin
  2
_NONE
 70
     0
 10
0.0
 20
0.0
 30
0.0
  3
_NONE
  1

  0
ENDBLK
  5
80
330
7E
100
AcDbEntity
  8
0
100
AcDbBlockEnd
  0
BLOCK
  5
84
330
81
100
AcDbEntity
  8
0
100
AcDbBlockBegin
  2
MARK_OPEN
 70
     0
 10
0.0
 20
0.0
 30
0.0
  3
MARK_OPEN
  1

  0
LINE
  5
82
330
81
100
AcDbEntity
  8
0
100
AcDbLine
 10
0.0
 20
0.0
 30
0.0
 11
-1.0
 21
0.1666666666666667
 31
0.0
  0
LINE
  5
83
330
81
100
AcDbEntity
  8
0
100
AcDbLine
 10
0.0
 20
0.0
 30
0.0
 11
-1.0
 21
-0.1666666666666667
 31
0.0
  0
ENDBLK
  5
85
330
81
100
AcDbEntity
  8
0
100
AcDbBlockEnd
  0
BLOCK
  5
88
330
86
100
AcDbEntity
  8
0
100
AcDbBlockBegin
  2
MARK_ORIGIN
 70
     0
 10
0.0
 20
0.0
 30
0.0
  3
MARK_ORIGIN
  1

  0
CIRCLE
  5
87
330
86
100
AcDbEntity
  8
0
100
AcDbCircle
 10
0.0
 20
0.0
 30
0.0
 40
0.5
  0
ENDBLK
  5
89
330
86
100
AcDbEntity
  8
0
100
AcDbBlockEnd
  0
BLOCK
  5
8C
330
8A
100
AcDbEntity
  8
0
100
AcDbBlockBegin
  2
MARK_DOT
 70
     0
 10
0.0
 20
0.0
 30
0.0
  3
MARK_DOT
  1

  0
LWPOLYLINE
  5
8B
330
8A
100
AcDbEntity
  8
0
100
AcDbPolyline
 90
        2
 70
     1
 43
0.5
 10
-0.25
 20
0.0
 42
1.0
 10
0.25
 20
0.0
 42
1.0
  0
ENDBLK
  5
8D
330
8A
100
AcDbEntity
  8
0
100
AcDbBlockEnd
  0
BLOCK
  5
2BF
330
2BE
100
AcDbEntity
  8
0
100
AcDbBlockBegin
  2
Dim1
 70
     0
 10
0.0
 20
0.0
 30
0.0
  3
Dim1
  1

  0
LINE
  5
2C1
330
2BE
100
AcDbEntity
  8
25
  6
Continuous
 62
     7
370
     9
100
AcDbLine
 10
200.8171331662503
 20
43.05882746321919
 30
0.0
 11
200.817133166251
 21
34.04923512991849
 31
0.0
  0
LINE
  5
2C2
330
2BE
100
AcDbEntity
  8
25
  6
Continuous
 62
     7
370
     9
100
AcDbLine
 10
189.8171331662503
 20
37.25882746321923
 30
0.0
 11
189.8171331662506
 21
34.04923512991849
 31
0.0
  0
LINE
  5
2C3
330
2BE
100
AcDbEntity
  8
25
  6
Continuous
 62
     7
370
     9
100
AcDbLine
 10
200.8171331662509
 20
35.04923512991849
 30
0.0
 11
189.8171331662505
 21
35.04923512991849
 31
0.0
  0
MTEXT
  5
2C4
330
2BE
100
AcDbEntity
  8
25
  6
Continuous
 62
     7
370
     9
100
AcDbMText
 10
196.0499970394056
 20
35.54923512991849
 30
0.0
 40
2.0
 41
23.56
 71
     8
 72
     1
  1
(11)
  7
ＭＳ ゴシック
 73
     1
 44
1.0
1001
ACAD
1000
ACAD_MTEXT_DEFINED_HEIGHT_BEGIN
1070
    46
1040
2.0
1000
ACAD_MTEXT_DEFINED_HEIGHT_END
1000
MTEXTBEGIN
1070
    73
1070
     1
1070
    44
1040
1.0
1070
    74
1070
     0
1000
MTEXTEND
  0
INSERT
  5
2C5
330
2BE
100
AcDbEntity
  8
25
  6
Continuous
 62
     7
370
     9
100
AcDbBlockReference
  2
_OPEN
 10
200.8171331662509
 20
35.04923512991849
 30
0.0
 50
359.9999999999997
  0
INSERT
  5
2C6
330
2BE
100
AcDbEntity
  8
25
  6
Continuous
 62
     7
370
     9
100
AcDbBlockReference
  2
_OPEN
 10
189.8171331662505
 20
35.04923512991849
 30
0.0
 50
179.9999999999998
  0
ENDBLK
  5
2C0
330
2BE
100
AcDbEntity
  8
0
100
AcDbBlockEnd
  0
BLOCK
  5
2C9
330
2C8
100
AcDbEntity
  8
0
100
AcDbBlockBegin
  2
Dim2
 70
     0
 10
0.0
 20
0.0
 30
0.0
  3
Dim2
  1

  0
LINE
  5
2CB
330
2C8
100
AcDbEntity
  8
25
  6
Continuous
 62
     7
370
     9
100
AcDbLine
 10
242.3388154730186
 20
49.70882746322264
 30
0.0
 11
242.3388154730192
 21
34.04923512991843
 31
0.0
  0
LINE
  5
2CC
330
2C8
100
AcDbEntity
  8
25
  6
Continuous
 62
     7
370
     9
100
AcDbLine
 10
239.3171331662502
 20
47.30882746321919
 30
0.0
 11
239.3171331662508
 21
34.04923512991843
 31
0.0
  0
LINE
  5
2CD
330
2C8
100
AcDbEntity
  8
25
  6
Continuous
 62
     7
370
     9
100
AcDbLine
 10
250.3388154730192
 20
35.04923512991843
 30
0.0
 11
231.3171331662508
 21
35.04923512991843
 31
0.0
  0
MTEXT
  5
2CE
330
2C8
100
AcDbEntity
  8
25
  6
Continuous
 62
     7
370
     9
100
AcDbMText
 10
244.3067916037542
 20
35.54923512991843
 30
0.0
 40
2.0
 41
20.22
 71
     7
 72
     1
  1
(3)
  7
ＭＳ ゴシック
 73
     1
 44
1.0
1001
ACAD
1000
ACAD_MTEXT_DEFINED_HEIGHT_BEGIN
1070
    46
1040
2.0
1000
ACAD_MTEXT_DEFINED_HEIGHT_END
1000
MTEXTBEGIN
1070
    73
1070
     1
1070
    44
1040
1.0
1070
    74
1070
     0
1000
MTEXTEND
  0
INSERT
  5
2CF
330
2C8
100
AcDbEntity
  8
25
  6
Continuous
 62
     7
370
     9
100
AcDbBlockReference
  2
_OPEN
 10
242.3388154730192
 20
35.04923512991843
 30
0.0
 50
179.9999999999995
  0
INSERT
  5
2D0
330
2C8
100
AcDbEntity
  8
25
  6
Continuous
 62
     7
370
     9
100
AcDbBlockReference
  2
_OPEN
 10
239.3171331662508
 20
35.04923512991843
 30
0.0
 50
359.9999999999997
  0
ENDBLK
  5
2CA
330
2C8
100
AcDbEntity
  8
0
100
AcDbBlockEnd
  0
BLOCK
  5
2D3
330
2D2
100
AcDbEntity
  8
0
100
AcDbBlockBegin
  2
Dim3
 70
     0
 10
0.0
 20
0.0
 30
0.0
  3
Dim3
  1

  0
LINE
  5
2D5
330
2D2
100
AcDbEntity
  8
25
  6
Continuous
 62
     7
370
     9
100
AcDbLine
 10
244.1388154730185
 20
51.50882746322267
 30
0.0
 11
259.4253412085149
 21
51.50882746322253
 31
0.0
  0
LINE
  5
2D6
330
2D2
100
AcDbEntity
  8
25
  6
Continuous
 62
     7
370
     9
100
AcDbLine
 10
244.1388154730185
 20
71.5088274632157
 30
0.0
 11
259.4253412085149
 21
71.50882746321555
 31
0.0
  0
LINE
  5
2D7
330
2D2
100
AcDbEntity
  8
25
  6
Continuous
 62
     7
370
     9
100
AcDbLine
 10
258.4253412085149
 20
51.50882746322254
 30
0.0
 11
258.4253412085149
 21
71.50882746321555
 31
0.0
  0
MTEXT
  5
2D8
330
2D2
100
AcDbEntity
  8
25
  6
Continuous
 62
     7
370
     9
100
AcDbMText
 10
257.9253412085149
 20
61.41682949936347
 30
0.0
 40
2.0
 41
22.85
 71
     8
 72
     1
  1
φ20
  7
ＭＳ ゴシック
 11
0.0000000000000016
 21
1.0
 31
0.0
 73
     1
 44
1.0
1001
ACAD
1000
ACAD_MTEXT_DEFINED_HEIGHT_BEGIN
1070
    46
1040
2.0
1000
ACAD_MTEXT_DEFINED_HEIGHT_END
1000
MTEXTBEGIN
1070
    73
1070
     1
1070
    44
1040
1.0
1070
    74
1070
     0
1000
MTEXTEND
  0
INSERT
  5
2D9
330
2D2
100
AcDbEntity
  8
25
  6
Continuous
 62
     7
370
     9
100
AcDbBlockReference
  2
_OPEN
 10
258.4253412085149
 20
51.50882746322254
 30
0.0
 50
269.9999999999998
  0
INSERT
  5
2DA
330
2D2
100
AcDbEntity
  8
25
  6
Continuous
 62
     7
370
     9
100
AcDbBlockReference
  2
_OPEN
 10
258.4253412085149
 20
71.50882746321555
 30
0.0
 50
89.99999999999991
  0
ENDBLK
  5
2D4
330
2D2
100
AcDbEntity
  8
0
100
AcDbBlockEnd
  0
BLOCK
  5
2DD
330
2DC
100
AcDbEntity
  8
0
100
AcDbBlockBegin
  2
Dim4
 70
     0
 10
0.0
 20
0.0
 30
0.0
  3
Dim4
  1

  0
LINE
  5
2DF
330
2DC
100
AcDbEntity
  8
25
  6
Continuous
 62
     7
370
     9
100
AcDbLine
 10
237.0171331662502
 20
45.50882746321915
 30
0.0
 11
265.0528392101136
 21
45.50882746321896
 31
0.0
  0
LINE
  5
2E0
330
2DC
100
AcDbEntity
  8
25
  6
Continuous
 62
     7
370
     9
100
AcDbLine
 10
237.0171331662502
 20
77.50882746321916
 30
0.0
 11
265.0528392101136
 21
77.50882746321895
 31
0.0
  0
LINE
  5
2E1
330
2DC
100
AcDbEntity
  8
25
  6
Continuous
 62
     7
370
     9
100
AcDbLine
 10
264.0528392101136
 20
45.50882746321896
 30
0.0
 11
264.0528392101136
 21
77.50882746321895
 31
0.0
  0
MTEXT
  5
2E2
330
2DC
100
AcDbEntity
  8
25
  6
Continuous
 62
     7
370
     9
100
AcDbMText
 10
263.5528392101136
 20
61.41682949936347
 30
0.0
 40
2.0
 41
24.51
 71
     8
 72
     1
  1
φ32
  7
ＭＳ ゴシック
 11
0.0000000000000016
 21
1.0
 31
0.0
 73
     1
 44
1.0
1001
ACAD
1000
ACAD_MTEXT_DEFINED_HEIGHT_BEGIN
1070
    46
1040
2.0
1000
ACAD_MTEXT_DEFINED_HEIGHT_END
1000
MTEXTBEGIN
1070
    73
1070
     1
1070
    44
1040
1.0
1070
    74
1070
     0
1000
MTEXTEND
  0
INSERT
  5
2E3
330
2DC
100
AcDbEntity
  8
25
  6
Continuous
 62
     7
370
     9
100
AcDbBlockReference
  2
_OPEN
 10
264.0528392101136
 20
45.50882746321896
 30
0.0
 50
269.9999999999998
  0
INSERT
  5
2E4
330
2DC
100
AcDbEntity
  8
25
  6
Continuous
 62
     7
370
     9
100
AcDbBlockReference
  2
_OPEN
 10
264.0528392101136
 20
77.50882746321895
 30
0.0
 50
89.99999999999991
  0
ENDBLK
  5
2DE
330
2DC
100
AcDbEntity
  8
0
100
AcDbBlockEnd
  0
BLOCK
  5
2E7
330
2E6
100
AcDbEntity
  8
0
100
AcDbBlockBegin
  2
Dim5
 70
     0
 10
0.0
 20
0.0
 30
0.0
  3
Dim5
  1

  0
LINE
  5
2E9
330
2E6
100
AcDbEntity
  8
25
  6
Continuous
 62
     7
370
     9
100
AcDbLine
 10
187.8171331662502
 20
39.25882746321924
 30
0.0
 11
181.5453065519388
 21
39.25882746321926
 31
0.0
  0
LINE
  5
2EA
330
2E6
100
AcDbEntity
  8
25
  6
Continuous
 62
     7
370
     9
100
AcDbLine
 10
187.8171331662502
 20
83.75882746321913
 30
0.0
 11
181.5453065519388
 21
83.75882746321916
 31
0.0
  0
LINE
  5
2EB
330
2E6
100
AcDbEntity
  8
25
  6
Continuous
 62
     7
370
     9
100
AcDbLine
 10
182.5453065519388
 20
39.25882746321926
 30
0.0
 11
182.5453065519388
 21
83.75882746321916
 31
0.0
  0
MTEXT
  5
2EC
330
2E6
100
AcDbEntity
  8
25
  6
Continuous
 62
     7
370
     9
100
AcDbMText
 10
182.0453065519388
 20
61.73337626195342
 30
0.0
 40
2.0
 41
37.84000000000001
 71
     8
 72
     1
  1
φ44.5
  7
ＭＳ ゴシック
 11
0.0000000000000016
 21
1.0
 31
0.0
 73
     1
 44
1.0
1001
ACAD
1000
ACAD_MTEXT_DEFINED_HEIGHT_BEGIN
1070
    46
1040
2.0
1000
ACAD_MTEXT_DEFINED_HEIGHT_END
1000
MTEXTBEGIN
1070
    73
1070
     1
1070
    44
1040
1.0
1070
    74
1070
     0
1000
MTEXTEND
  0
INSERT
  5
2ED
330
2E6
100
AcDbEntity
  8
25
  6
Continuous
 62
     7
370
     9
100
AcDbBlockReference
  2
_OPEN
 10
182.5453065519388
 20
39.25882746321926
 30
0.0
 50
269.9999999999998
  0
INSERT
  5
2EE
330
2E6
100
AcDbEntity
  8
25
  6
Continuous
 62
     7
370
     9
100
AcDbBlockReference
  2
_OPEN
 10
182.5453065519388
 20
83.75882746321916
 30
0.0
 50
89.99999999999991
  0
ENDBLK
  5
2E8
330
2E6
100
AcDbEntity
  8
0
100
AcDbBlockEnd
  0
BLOCK
  5
2F1
330
2F0
100
AcDbEntity
  8
0
100
AcDbBlockBegin
  2
Dim6
 70
     0
 10
0.0
 20
0.0
 30
0.0
  3
Dim6
  1

  0
LINE
  5
2F3
330
2F0
100
AcDbEntity
  8
25
  6
Continuous
 62
     7
370
     9
100
AcDbLine
 10
239.3171331662503
 20
47.30882746321919
 30
0.0
 11
239.317133166251
 21
34.04923512991843
 31
0.0
  0
LINE
  5
2F4
330
2F0
100
AcDbEntity
  8
25
  6
Continuous
 62
     7
370
     9
100
AcDbLine
 10
235.3171331662503
 20
43.80882746321918
 30
0.0
 11
235.317133166251
 21
34.04923512991849
 31
0.0
  0
LINE
  5
2F5
330
2F0
100
AcDbEntity
  8
25
  6
Continuous
 62
     7
370
     9
100
AcDbLine
 10
239.317133166251
 20
35.04923512991843
 30
0.0
 11
235.317133166251
 21
35.04923512991849
 31
0.0
  0
MTEXT
  5
2F6
330
2F0
100
AcDbEntity
  8
25
  6
Continuous
 62
     7
370
     9
100
AcDbMText
 10
237.3171331662502
 20
35.54923512991846
 30
0.0
 40
2.0
 41
6.889999999999999
 71
     8
 72
     1
  1
4
  7
ＭＳ ゴシック
 73
     1
 44
1.0
1001
ACAD
1000
ACAD_MTEXT_DEFINED_HEIGHT_BEGIN
1070
    46
1040
2.0
1000
ACAD_MTEXT_DEFINED_HEIGHT_END
1000
MTEXTBEGIN
1070
    73
1070
     1
1070
    44
1040
1.0
1070
    74
1070
     0
1000
MTEXTEND
  0
INSERT
  5
2F7
330
2F0
100
AcDbEntity
  8
25
  6
Continuous
 62
     7
370
     9
100
AcDbBlockReference
  2
_OPEN
 10
239.317133166251
 20
35.04923512991843
 30
0.0
 50
359.999999999999
  0
INSERT
  5
2F8
330
2F0
100
AcDbEntity
  8
25
  6
Continuous
 62
     7
370
     9
100
AcDbBlockReference
  2
_OPEN
 10
235.317133166251
 20
35.04923512991849
 30
0.0
 50
179.999999999999
  0
ENDBLK
  5
2F2
330
2F0
100
AcDbEntity
  8
0
100
AcDbBlockEnd
  0
BLOCK
  5
2FB
330
2FA
100
AcDbEntity
  8
0
100
AcDbBlockBegin
  2
Dim7
 70
     0
 10
0.0
 20
0.0
 30
0.0
  3
Dim7
  1

  0
LINE
  5
2FD
330
2FA
100
AcDbEntity
  8
25
  6
Continuous
 62
     7
370
     9
100
AcDbLine
 10
229.5171331662504
 20
43.05882746321919
 30
0.0
 11
229.5171331662511
 21
34.04923512991849
 31
0.0
  0
LINE
  5
2FE
330
2FA
100
AcDbEntity
  8
25
  6
Continuous
 62
     7
370
     9
100
AcDbLine
 10
220.2171331662504
 20
43.05882746321919
 30
0.0
 11
220.2171331662511
 21
34.04923512991849
 31
0.0
  0
LINE
  5
2FF
330
2FA
100
AcDbEntity
  8
25
  6
Continuous
 62
     7
370
     9
100
AcDbLine
 10
229.517133166251
 20
35.04923512991849
 30
0.0
 11
220.217133166251
 21
35.04923512991849
 31
0.0
  0
MTEXT
  5
300
330
2FA
100
AcDbEntity
  8
25
  6
Continuous
 62
     7
370
     9
100
AcDbMText
 10
224.8671331662502
 20
35.54923512991849
 30
0.0
 40
2.0
 41
20.21
 71
     8
 72
     1
  1
9.3
  7
ＭＳ ゴシック
 73
     1
 44
1.0
1001
ACAD
1000
ACAD_MTEXT_DEFINED_HEIGHT_BEGIN
1070
    46
1040
2.0
1000
ACAD_MTEXT_DEFINED_HEIGHT_END
1000
MTEXTBEGIN
1070
    73
1070
     1
1070
    44
1040
1.0
1070
    74
1070
     0
1000
MTEXTEND
  0
INSERT
  5
301
330
2FA
100
AcDbEntity
  8
25
  6
Continuous
 62
     7
370
     9
100
AcDbBlockReference
  2
_OPEN
 10
229.517133166251
 20
35.04923512991849
 30
0.0
 50
359.9999999999997
  0
INSERT
  5
302
330
2FA
100
AcDbEntity
  8
25
  6
Continuous
 62
     7
370
     9
100
AcDbBlockReference
  2
_OPEN
 10
220.217133166251
 20
35.04923512991849
 30
0.0
 50
179.9999999999998
  0
ENDBLK
  5
2FC
330
2FA
100
AcDbEntity
  8
0
100
AcDbBlockEnd
  0
BLOCK
  5
305
330
304
100
AcDbEntity
  8
0
100
AcDbBlockBegin
  2
Dim8
 70
     0
 10
0.0
 20
0.0
 30
0.0
  3
Dim8
  1

  0
LINE
  5
307
330
304
100
AcDbEntity
  8
25
  6
Continuous
 62
     7
370
     9
100
AcDbLine
 10
235.3171331662503
 20
43.80882746321918
 30
0.0
 11
235.317133166251
 21
34.04923512991849
 31
0.0
  0
LINE
  5
308
330
304
100
AcDbEntity
  8
25
  6
Continuous
 62
     7
370
     9
100
AcDbLine
 10
229.5171331662504
 20
43.05882746321919
 30
0.0
 11
229.5171331662511
 21
34.04923512991849
 31
0.0
  0
LINE
  5
309
330
304
100
AcDbEntity
  8
25
  6
Continuous
 62
     7
370
     9
100
AcDbLine
 10
235.317133166251
 20
35.04923512991849
 30
0.0
 11
229.517133166251
 21
35.04923512991849
 31
0.0
  0
MTEXT
  5
30A
330
304
100
AcDbEntity
  8
25
  6
Continuous
 62
     7
370
     9
100
AcDbMText
 10
232.4171331662502
 20
35.54923512991849
 30
0.0
 40
2.0
 41
20.21
 71
     8
 72
     1
  1
5.8
  7
ＭＳ ゴシック
 73
     1
 44
1.0
1001
ACAD
1000
ACAD_MTEXT_DEFINED_HEIGHT_BEGIN
1070
    46
1040
2.0
1000
ACAD_MTEXT_DEFINED_HEIGHT_END
1000
MTEXTBEGIN
1070
    73
1070
     1
1070
    44
1040
1.0
1070
    74
1070
     0
1000
MTEXTEND
  0
INSERT
  5
30B
330
304
100
AcDbEntity
  8
25
  6
Continuous
 62
     7
370
     9
100
AcDbBlockReference
  2
_OPEN
 10
235.317133166251
 20
35.04923512991849
 30
0.0
 50
359.9999999999997
  0
INSERT
  5
30C
330
304
100
AcDbEntity
  8
25
  6
Continuous
 62
     7
370
     9
100
AcDbBlockReference
  2
_OPEN
 10
229.517133166251
 20
35.04923512991849
 30
0.0
 50
179.9999999999998
  0
ENDBLK
  5
306
330
304
100
AcDbEntity
  8
0
100
AcDbBlockEnd
  0
BLOCK
  5
30F
330
30E
100
AcDbEntity
  8
0
100
AcDbBlockBegin
  2
Dim9
 70
     0
 10
0.0
 20
0.0
 30
0.0
  3
Dim9
  1

  0
LINE
  5
311
330
30E
100
AcDbEntity
  8
25
  6
Continuous
 62
     7
370
     9
100
AcDbLine
 10
252.8431331662502
 20
59.50882746321918
 30
0.0
 11
252.843133166251
 21
27.78687094077957
 31
0.0
  0
LINE
  5
312
330
30E
100
AcDbEntity
  8
25
  6
Continuous
 62
     7
370
     9
100
AcDbLine
 10
235.3171331662504
 20
32.42423512991843
 30
0.0
 11
235.3171331662511
 21
27.78687094077975
 31
0.0
  0
LINE
  5
313
330
30E
100
AcDbEntity
  8
25
  6
Continuous
 62
     7
370
     9
100
AcDbLine
 10
252.843133166251
 20
28.78687094077958
 30
0.0
 11
235.317133166251
 21
28.78687094077975
 31
0.0
  0
MTEXT
  5
314
330
30E
100
AcDbEntity
  8
25
  6
Continuous
 62
     7
370
     9
100
AcDbMText
 10
244.0801331662502
 20
29.28687094077966
 30
0.0
 40
2.0
 41
46.85000000000001
 71
     8
 72
     1
  1
17.526
  7
ＭＳ ゴシック
 73
     1
 44
1.0
1001
ACAD
1000
ACAD_MTEXT_DEFINED_HEIGHT_BEGIN
1070
    46
1040
2.0
1000
ACAD_MTEXT_DEFINED_HEIGHT_END
1000
MTEXTBEGIN
1070
    73
1070
     1
1070
    44
1040
1.0
1070
    74
1070
     0
1000
MTEXTEND
  0
INSERT
  5
315
330
30E
100
AcDbEntity
  8
25
  6
Continuous
 62
     7
370
     9
100
AcDbBlockReference
  2
_OPEN
 10
252.843133166251
 20
28.78687094077958
 30
0.0
 50
359.9999999999993
  0
INSERT
  5
316
330
30E
100
AcDbEntity
  8
25
  6
Continuous
 62
     7
370
     9
100
AcDbBlockReference
  2
_OPEN
 10
235.317133166251
 20
28.78687094077975
 30
0.0
 50
179.9999999999993
  0
ENDBLK
  5
310
330
30E
100
AcDbEntity
  8
0
100
AcDbBlockEnd
  0
BLOCK
  5
319
330
318
100
AcDbEntity
  8
0
100
AcDbBlockBegin
  2
Dim10
 70
     0
 10
0.0
 20
0.0
 30
0.0
  3
Dim10
  1

  0
LINE
  5
31B
330
318
100
AcDbEntity
  8
25
  6
Continuous
 62
     7
370
     9
100
AcDbLine
 10
208.2171331662503
 20
43.05882746321919
 30
0.0
 11
208.217133166251
 21
34.04923512991849
 31
0.0
  0
LINE
  5
31C
330
318
100
AcDbEntity
  8
25
  6
Continuous
 62
     7
370
     9
100
AcDbLine
 10
200.8171331662503
 20
43.05882746321919
 30
0.0
 11
200.817133166251
 21
34.04923512991843
 31
0.0
  0
LINE
  5
31D
330
318
100
AcDbEntity
  8
25
  6
Continuous
 62
     7
370
     9
100
AcDbLine
 10
208.217133166251
 20
35.04923512991849
 30
0.0
 11
200.817133166251
 21
35.04923512991843
 31
0.0
  0
MTEXT
  5
31E
330
318
100
AcDbEntity
  8
25
  6
Continuous
 62
     7
370
     9
100
AcDbMText
 10
204.5171331662501
 20
35.54923512991846
 30
0.0
 40
2.0
 41
19.99
 71
     8
 72
     1
  1
7.4
  7
ＭＳ ゴシック
 73
     1
 44
1.0
1001
ACAD
1000
ACAD_MTEXT_DEFINED_HEIGHT_BEGIN
1070
    46
1040
2.0
1000
ACAD_MTEXT_DEFINED_HEIGHT_END
1000
MTEXTBEGIN
1070
    73
1070
     1
1070
    44
1040
1.0
1070
    74
1070
     0
1000
MTEXTEND
  0
INSERT
  5
31F
330
318
100
AcDbEntity
  8
25
  6
Continuous
 62
     7
370
     9
100
AcDbBlockReference
  2
_OPEN
 10
208.217133166251
 20
35.04923512991849
 30
0.0
 50
0.0000000000002544
  0
INSERT
  5
320
330
318
100
AcDbEntity
  8
25
  6
Continuous
 62
     7
370
     9
100
AcDbBlockReference
  2
_OPEN
 10
200.817133166251
 20
35.04923512991843
 30
0.0
 50
180.0000000000002
  0
ENDBLK
  5
31A
330
318
100
AcDbEntity
  8
0
100
AcDbBlockEnd
  0
BLOCK
  5
323
330
322
100
AcDbEntity
  8
0
100
AcDbBlockBegin
  2
Dim11
 70
     0
 10
0.0
 20
0.0
 30
0.0
  3
Dim11
  1

  0
LINE
  5
325
330
322
100
AcDbEntity
  8
25
  6
Continuous
 62
     7
370
     9
100
AcDbLine
 10
220.2171331662504
 20
43.05882746321919
 30
0.0
 11
220.2171331662511
 21
34.04923512991849
 31
0.0
  0
LINE
  5
326
330
322
100
AcDbEntity
  8
25
  6
Continuous
 62
     7
370
     9
100
AcDbLine
 10
208.2171331662503
 20
43.05882746321919
 30
0.0
 11
208.217133166251
 21
34.04923512991849
 31
0.0
  0
LINE
  5
327
330
322
100
AcDbEntity
  8
25
  6
Continuous
 62
     7
370
     9
100
AcDbLine
 10
220.217133166251
 20
35.04923512991849
 30
0.0
 11
208.217133166251
 21
35.04923512991849
 31
0.0
  0
MTEXT
  5
328
330
322
100
AcDbEntity
  8
25
  6
Continuous
 62
     7
370
     9
100
AcDbMText
 10
214.2171331662502
 20
35.54923512991849
 30
0.0
 40
2.0
 41
13.52
 71
     8
 72
     1
  1
12
  7
ＭＳ ゴシック
 73
     1
 44
1.0
1001
ACAD
1000
ACAD_MTEXT_DEFINED_HEIGHT_BEGIN
1070
    46
1040
2.0
1000
ACAD_MTEXT_DEFINED_HEIGHT_END
1000
MTEXTBEGIN
1070
    73
1070
     1
1070
    44
1040
1.0
1070
    74
1070
     0
1000
MTEXTEND
  0
INSERT
  5
329
330
322
100
AcDbEntity
  8
25
  6
Continuous
 62
     7
370
     9
100
AcDbBlockReference
  2
_OPEN
 10
220.217133166251
 20
35.04923512991849
 30
0.0
 50
359.9999999999997
  0
INSERT
  5
32A
330
322
100
AcDbEntity
  8
25
  6
Continuous
 62
     7
370
     9
100
AcDbBlockReference
  2
_OPEN
 10
208.217133166251
 20
35.04923512991849
 30
0.0
 50
179.9999999999998
  0
ENDBLK
  5
324
330
322
100
AcDbEntity
  8
0
100
AcDbBlockEnd
  0
BLOCK
  5
32D
330
32C
100
AcDbEntity
  8
0
100
AcDbBlockBegin
  2
Dim12
 70
     0
 10
0.0
 20
0.0
 30
0.0
  3
Dim12
  1

  0
LINE
  5
32F
330
32C
100
AcDbEntity
  8
25
  6
Continuous
 62
     7
370
     9
100
AcDbLine
 10
142.6927169945181
 20
48.6769820316636
 30
0.0
 11
158.8208164346775
 21
87.40638393879335
 31
0.0
  0
MTEXT
  5
330
330
32C
100
AcDbEntity
  8
25
  6
Continuous
 62
     7
370
     9
100
AcDbMText
 10
156.5142393562637
 20
81.86745785322981
 30
0.0
 40
2.0
 41
37.84000000000001
 71
     7
 72
     1
  1
φ27.8
  7
ＭＳ ゴシック
 11
0.3844295130689658
 21
0.923154347593921
 31
0.0
 73
     1
 44
1.0
1001
ACAD
1000
ACAD_MTEXT_DEFINED_HEIGHT_BEGIN
1070
    46
1040
2.0
1000
ACAD_MTEXT_DEFINED_HEIGHT_END
1000
MTEXTBEGIN
1070
    73
1070
     1
1070
    44
1040
1.0
1070
    74
1070
     0
1000
MTEXTEND
  0
INSERT
  5
331
330
32C
100
AcDbEntity
  8
25
  6
Continuous
 62
     7
370
     9
100
AcDbBlockReference
  2
_OPEN
 10
142.6927169945181
 20
48.6769820316636
 30
0.0
 41
2.0
 42
2.0
 43
2.0
 50
247.3916716944966
  0
INSERT
  5
332
330
32C
100
AcDbEntity
  8
25
  6
Continuous
 62
     7
370
     9
100
AcDbBlockReference
  2
_OPEN
 10
153.3798574578355
 20
74.34067289477479
 30
0.0
 41
2.0
 42
2.0
 43
2.0
 50
67.39167169449661
  0
ENDBLK
  5
32E
330
32C
100
AcDbEntity
  8
0
100
AcDbBlockEnd
  0
BLOCK
  5
3BF
330
3BE
100
AcDbEntity
  8
0
100
AcDbBlockBegin
  2
*G2828
 70
     1
 10
0.0
 20
0.0
 30
0.0
  3
*G2828
  1

  0
LINE
  5
3C1
330
3BE
100
AcDbEntity
  8
1
  6
Continuous
 62
     7
370
     9
100
AcDbLine
 10
192.5620872183584
 20
82.70882746321914
 30
0.0
 11
193.3131642470224
 21
83.45990449188311
 31
0.0
  0
LINE
  5
3C2
330
3BE
100
AcDbEntity
  8
1
  6
Continuous
 62
     7
370
     9
100
AcDbLine
 10
191.8549804371719
 20
82.70882746321914
 30
0.0
 11
192.9049804371719
 21
83.75882746321913
 31
0.0
  0
LINE
  5
3C3
330
3BE
100
AcDbEntity
  8
1
  6
Continuous
 62
     7
370
     9
100
AcDbLine
 10
191.1478736559853
 20
82.70882746321914
 30
0.0
 11
192.1978736559853
 21
83.75882746321913
 31
0.0
  0
LINE
  5
3C4
330
3BE
100
AcDbEntity
  8
1
  6
Continuous
 62
     7
370
     9
100
AcDbLine
 10
190.4407668747988
 20
82.70882746321914
 30
0.0
 11
191.4907668747988
 21
83.75882746321913
 31
0.0
  0
LINE
  5
3C5
330
3BE
100
AcDbEntity
  8
1
  6
Continuous
 62
     7
370
     9
100
AcDbLine
 10
189.9253966299312
 20
82.90056399953815
 30
0.0
 11
190.7836600936122
 21
83.75882746321913
 31
0.0
  0
LINE
  5
3C6
330
3BE
100
AcDbEntity
  8
1
  6
Continuous
 62
     7
370
     9
100
AcDbLine
 10
189.8171331662502
 20
83.49940731704366
 30
0.0
 11
190.0765533124257
 21
83.75882746321913
 31
0.0
  0
ENDBLK
  5
3C0
330
3BE
100
AcDbEntity
  8
0
100
AcDbBlockEnd
  0
BLOCK
  5
3D1
330
3D0
100
AcDbEntity
  8
0
100
AcDbBlockBegin
  2
Dim13
 70
     0
 10
0.0
 20
0.0
 30
0.0
  3
Dim13
  1

  0
LINE
  5
3D3
330
3D0
100
AcDbEntity
  8
25
  6
Continuous
 62
     7
370
     9
100
AcDbLine
 10
235.3171331662504
 20
32.42423512991843
 30
0.0
 11
235.3171331662511
 21
27.78687094077961
 31
0.0
  0
LINE
  5
3D4
330
3D0
100
AcDbEntity
  8
25
  6
Continuous
 62
     7
370
     9
100
AcDbLine
 10
189.8171331662505
 20
32.42423512991843
 30
0.0
 11
189.8171331662511
 21
27.78687094077964
 31
0.0
  0
LINE
  5
3D5
330
3D0
100
AcDbEntity
  8
25
  6
Continuous
 62
     7
370
     9
100
AcDbLine
 10
235.3171331662509
 20
28.78687094077961
 30
0.0
 11
189.817133166251
 21
28.78687094077964
 31
0.0
  0
MTEXT
  5
3D6
330
3D0
100
AcDbEntity
  8
25
  6
Continuous
 62
     7
370
     9
100
AcDbMText
 10
215.8191015089164
 20
29.36368312757218
 30
0.0
 40
2.0
 41
30.33
 71
     8
 72
     1
  1
45.5
  7
ＭＳ ゴシック
 73
     1
 44
1.0
1001
ACAD
1000
ACAD_MTEXT_DEFINED_HEIGHT_BEGIN
1070
    46
1040
2.0
1000
ACAD_MTEXT_DEFINED_HEIGHT_END
1000
MTEXTBEGIN
1070
    73
1070
     1
1070
    44
1040
1.0
1070
    74
1070
     0
1000
MTEXTEND
  0
INSERT
  5
3D7
330
3D0
100
AcDbEntity
  8
25
  6
Continuous
 62
     7
370
     9
100
AcDbBlockReference
  2
_OPEN
 10
235.3171331662509
 20
28.78687094077961
 30
0.0
 50
359.9999999999998
  0
INSERT
  5
3D8
330
3D0
100
AcDbEntity
  8
25
  6
Continuous
 62
     7
370
     9
100
AcDbBlockReference
  2
_OPEN
 10
189.817133166251
 20
28.78687094077964
 30
0.0
 50
179.9999999999998
  0
ENDBLK
  5
3D2
330
3D0
100
AcDbEntity
  8
0
100
AcDbBlockEnd
  0
ENDSEC
  0
SECTION
  2
ENTITIES
  0
LINE
  5
B4
330
1F
100
AcDbEntity
  8
1
  6
Continuous
 62
     7
370
     9
100
AcDbLine
 10
140.4967726037166
 20
55.37503908782229
 30
0.0
 11
141.9840538519756
 21
56.86232033608132
 31
0.0
  0
LINE
  5
B5
330
1F
100
AcDbEntity
  8
1
  6
Continuous
 62
     7
370
     9
100
AcDbLine
 10
140.2831224186104
 20
53.67410765445715
 30
0.0
 11
143.6712372457315
 21
57.24315019742032
 31
0.0
  0
LINE
  5
B6
330
1F
100
AcDbEntity
  8
1
  6
Continuous
 62
     7
370
     9
100
AcDbLine
 10
142.0063140040888
 20
53.8654976874501
 30
0.0
 11
143.4935952523478
 21
55.35277893570913
 31
0.0
  0
LINE
  5
B7
330
1F
100
AcDbEntity
  8
1
  6
Continuous
 62
     7
370
     9
100
AcDbLine
 10
140.4967726037166
 20
66.94337230575325
 30
0.0
 11
141.9840538519756
 21
68.43065355401228
 31
0.0
  0
LINE
  5
B8
330
1F
100
AcDbEntity
  8
1
  6
Continuous
 62
     7
370
     9
100
AcDbLine
 10
140.2831224186104
 20
65.2424408723881
 30
0.0
 11
143.6712372457315
 21
68.81148341535129
 31
0.0
  0
LINE
  5
B9
330
1F
100
AcDbEntity
  8
1
  6
Continuous
 62
     7
370
     9
100
AcDbLine
 10
142.0063140040888
 20
65.43383090538092
 30
0.0
 11
143.4935952523478
 21
66.92111215364008
 31
0.0
  0
LINE
  5
BA
330
1F
100
AcDbEntity
  8
1
  6
Continuous
 62
     7
370
     9
100
AcDbLine
 10
151.8514556365414
 20
65.2424408723881
 30
0.0
 11
155.2395704636625
 21
68.81148341535129
 31
0.0
  0
LINE
  5
BB
330
1F
100
AcDbEntity
  8
1
  6
Continuous
 62
     7
370
     9
100
AcDbLine
 10
153.5746472220196
 20
65.43383090538092
 30
0.0
 11
155.0619284702787
 21
66.92111215364008
 31
0.0
  0
LINE
  5
BC
330
1F
100
AcDbEntity
  8
1
  6
Continuous
 62
     7
370
     9
100
AcDbLine
 10
151.8514556365414
 20
53.67410765445715
 30
0.0
 11
155.2395704636625
 21
57.24315019742032
 31
0.0
  0
LINE
  5
BD
330
1F
100
AcDbEntity
  8
1
  6
Continuous
 62
     7
370
     9
100
AcDbLine
 10
153.5746472220196
 20
53.8654976874501
 30
0.0
 11
155.0619284702787
 21
55.35277893570913
 31
0.0
  0
LINE
  5
BE
330
1F
100
AcDbEntity
  8
1
  6
Continuous
 62
     7
370
     9
100
AcDbLine
 10
152.0651058216474
 20
55.37503908782229
 30
0.0
 11
153.5523870699065
 21
56.86232033608132
 31
0.0
  0
LINE
  5
BF
330
1F
100
AcDbEntity
  8
1
  6
Continuous
 62
     7
370
     9
100
AcDbLine
 10
152.0651058216474
 20
66.94337230575325
 30
0.0
 11
153.5523870699065
 21
68.43065355401228
 31
0.0
  0
ELLIPSE
  5
C0
330
1F
100
AcDbEntity
  8
1
  6
Continuous
 62
     7
370
     9
100
AcDbEllipse
 10
214.4171331662502
 20
75.88484916604091
 30
0.0
 11
1.25
 21
0.0
 31
0.0
210
0.0
220
0.0
230
1.0
 40
0.467039104197238
 41
0.0
 42
6.283185307179585
  0
ELLIPSE
  5
C1
330
1F
100
AcDbEntity
  8
1
  6
Continuous
 62
     7
370
     9
100
AcDbEllipse
 10
203.2171331662502
 20
76.01475328276013
 30
0.0
 11
-0.8499999999999943
 21
0.0000000000000027
 31
0.0
210
0.0
220
0.0
230
1.0
 40
0.5219879437762298
 41
0.0
 42
6.283185307179585
  0
ELLIPSE
  5
C2
330
1F
100
AcDbEntity
  8
1
  6
Continuous
 62
     7
370
     9
100
AcDbEllipse
 10
214.4171331662502
 20
43.06248636261063
 30
0.0
 11
1.700000000000017
 21
0.0
 31
0.0
210
0.0
220
0.0
230
1.0
 40
0.5000000000000334
 41
0.0
 42
6.283185307179585
  0
ELLIPSE
  5
C3
330
1F
100
AcDbEntity
  8
1
  6
Continuous
 62
     7
370
     9
100
AcDbEllipse
 10
214.4171331662502
 20
46.52658797774836
 30
0.0
 11
2.0
 21
0.0
 31
0.0
210
0.0
220
0.0
230
1.0
 40
0.5000000000000321
 41
0.0
 42
3.14159265358979
  0
ELLIPSE
  5
C4
330
1F
100
AcDbEntity
  8
1
  6
Continuous
 62
     7
370
     9
100
AcDbEllipse
 10
203.2171331662502
 20
47.00290194982982
 30
0.0
 11
-0.8499999999999943
 21
0.0000000000000027
 31
0.0
210
0.0
220
0.0
230
1.0
 40
0.5219879437762298
 41
0.0
 42
6.283185307179585
  0
CIRCLE
  5
C5
330
1F
100
AcDbEntity
  8
1
  6
Continuous
 62
     7
370
     9
100
AcDbCircle
 10
148.0362872261769
 20
61.50882746321918
 30
0.0
 40
21.50001955846452
  0
CIRCLE
  5
C6
330
1F
100
AcDbEntity
  8
1
  6
Continuous
 62
     7
370
     9
100
AcDbCircle
 10
148.0362872261769
 20
61.50882746321918
 30
0.0
 40
13.90000000000009
  0
CIRCLE
  5
C7
330
1F
100
AcDbEntity
  8
1
  6
Continuous
 62
     7
370
     9
100
AcDbCircle
 10
148.0362872261769
 20
61.50882746321918
 30
0.0
 40
14.8000000000001
  0
CIRCLE
  5
C8
330
1F
100
AcDbEntity
  8
1
  6
Continuous
 62
     7
370
     9
100
AcDbCircle
 10
148.0362872261769
 20
61.50882746321918
 30
0.0
 40
19.00000000000009
  0
CIRCLE
  5
C9
330
1F
100
AcDbEntity
  8
1
  6
Continuous
 62
     7
370
     9
100
AcDbCircle
 10
148.0362872261769
 20
61.50882746321918
 30
0.0
 40
21.0000200241418
  0
CIRCLE
  5
CA
330
1F
100
AcDbEntity
  8
1
  6
Continuous
 62
     7
370
     9
100
AcDbCircle
 10
148.0362872261769
 20
61.50882746321918
 30
0.0
 40
22.25006929558815
  0
LINE
  5
CB
330
1F
100
AcDbEntity
  8
1
  6
Continuous
 62
     7
370
     9
100
AcDbLine
 10
209.5171331662503
 20
78.1088274632192
 30
0.0
 11
219.4171331662502
 21
78.1088274632192
 31
0.0
  0
LINE
  5
CC
330
1F
100
AcDbEntity
  8
1
  6
Continuous
 62
     7
370
     9
100
AcDbLine
 10
207.9171331662502
 20
77.22912401221197
 30
0.0
 11
207.9171331662502
 21
74.37650258318768
 31
0.0
  0
LINE
  5
CD
330
1F
100
AcDbEntity
  8
1
  6
Continuous
 62
     7
370
     9
100
AcDbLine
 10
201.1171331662502
 20
77.22912401221197
 30
0.0
 11
201.1171331662502
 21
74.37650258318768
 31
0.0
  0
LINE
  5
CE
330
1F
100
AcDbEntity
  8
1
  6
Continuous
 62
     7
370
     9
100
AcDbLine
 10
198.2771331662502
 20
61.50882746321918
 30
0.0
 11
198.2771331662502
 21
77.50882746321913
 31
0.0
  0
LINE
  5
CF
330
1F
100
AcDbEntity
  8
1
  6
Continuous
 62
     7
370
     9
100
AcDbLine
 10
200.2771331662502
 20
61.50882746321918
 30
0.0
 11
200.2771331662502
 21
77.50882746321913
 31
0.0
  0
LINE
  5
D0
330
1F
100
AcDbEntity
  8
1
  6
Continuous
 62
     7
370
     9
100
AcDbLine
 10
208.2171331662502
 20
77.95882746321918
 30
0.0
 11
208.2171331662502
 21
61.50882746321918
 31
0.0
  0
LINE
  5
D1
330
1F
100
AcDbEntity
  8
1
  6
Continuous
 62
     7
370
     9
100
AcDbLine
 10
200.8171331662502
 20
77.95882746321918
 30
0.0
 11
200.8171331662502
 21
61.50882746321918
 31
0.0
  0
LINE
  5
D2
330
1F
100
AcDbEntity
  8
1
  6
Continuous
 62
     7
370
     9
100
AcDbLine
 10
209.5171331662503
 20
61.50882746321918
 30
0.0
 11
209.5171331662503
 21
78.1088274632192
 31
0.0
  0
LINE
  5
D3
330
1F
100
AcDbEntity
  8
1
  6
Continuous
 62
     7
370
     9
100
AcDbLine
 10
208.7171331662502
 20
61.50882746321918
 30
0.0
 11
208.7171331662502
 21
77.80882746321919
 31
0.0
  0
LINE
  5
D4
330
1F
100
AcDbEntity
  8
1
  6
Continuous
 62
     7
370
     9
100
AcDbLine
 10
196.3771331662502
 20
39.25882746321923
 30
0.0
 11
198.2771331662502
 21
45.50882746321922
 31
0.0
  0
LINE
  5
D5
330
1F
100
AcDbEntity
  8
1
  6
Continuous
 62
     7
370
     9
100
AcDbLine
 10
196.3771331662502
 20
39.25882746321923
 30
0.0
 11
196.3771331662502
 21
61.50882746321918
 31
0.0
  0
LINE
  5
D6
330
1F
100
AcDbEntity
  8
1
  6
Continuous
 62
     7
370
     9
100
AcDbLine
 10
189.8171331662502
 20
39.25882746321923
 30
0.0
 11
189.8171331662502
 21
61.50882746321918
 31
0.0
  0
LINE
  5
D7
330
1F
100
AcDbEntity
  8
1
  6
Continuous
 62
     7
370
     9
100
AcDbLine
 10
189.8171331662502
 20
39.25882746321923
 30
0.0
 11
196.3771331662502
 21
39.25882746321923
 31
0.0
  0
LINE
  5
D8
330
1F
100
AcDbEntity
  8
1
  6
Continuous
 62
     7
370
     9
100
AcDbLine
 10
200.8171331662502
 20
73.96490982593622
 30
0.0
 11
208.2171331662502
 21
73.96490982593616
 31
0.0
  0
LINE
  5
D9
330
1F
100
AcDbEntity
  8
1
  6
Continuous
 62
     7
370
     9
100
AcDbLine
 10
201.1171331662502
 20
74.37650258318768
 30
0.0
 11
207.9171331662502
 21
74.37650258318768
 31
0.0
  0
LINE
  5
DA
330
1F
100
AcDbEntity
  8
1
  6
Continuous
 62
     7
370
     9
100
AcDbLine
 10
207.6171331662502
 20
70.92233650060994
 30
0.0
 11
201.1171331662502
 21
70.92233650060994
 31
0.0
  0
LINE
  5
DB
330
1F
100
AcDbEntity
  8
1
  6
Continuous
 62
     7
370
     9
100
AcDbLine
 10
200.8171331662502
 20
71.81217445842412
 30
0.0
 11
208.2171331662502
 21
71.81217445842406
 31
0.0
  0
LINE
  5
DC
330
1F
100
AcDbEntity
  8
1
  6
Continuous
 62
     7
370
     9
100
AcDbLine
 10
207.9171331662502
 20
71.77625279895932
 30
0.0
 11
201.1171331662502
 21
71.77625279895932
 31
0.0
  0
LINE
  5
DD
330
1F
100
AcDbEntity
  8
1
  6
Continuous
 62
     7
370
     9
100
AcDbLine
 10
208.2171331662502
 20
72.34831529764824
 30
0.0
 11
200.8171331662502
 21
72.34831529764824
 31
0.0
  0
LINE
  5
DE
330
1F
100
AcDbEntity
  8
1
  6
Continuous
 62
     7
370
     9
100
AcDbLine
 10
201.1171331662502
 20
72.75890451845238
 30
0.0
 11
207.9171331662502
 21
72.75890451845238
 31
0.0
  0
LINE
  5
DF
330
1F
100
AcDbEntity
  8
1
  6
Continuous
 62
     7
370
     9
100
AcDbLine
 10
201.1171331662502
 20
73.51816730489151
 30
0.0
 11
207.9171331662502
 21
73.51816730489151
 31
0.0
  0
LINE
  5
E0
330
1F
100
AcDbEntity
  8
1
  6
Continuous
 62
     7
370
     9
100
AcDbLine
 10
200.8171331662502
 20
70.52074246839777
 30
0.0
 11
207.9171331662502
 21
70.52074246839777
 31
0.0
  0
LINE
  5
E1
330
1F
100
AcDbEntity
  8
1
  6
Continuous
 62
     7
370
     9
100
AcDbLine
 10
200.8171331662502
 20
68.51776296447292
 30
0.0
 11
208.2171331662502
 21
68.51776296447287
 31
0.0
  0
LINE
  5
E2
330
1F
100
AcDbEntity
  8
1
  6
Continuous
 62
     7
370
     9
100
AcDbLine
 10
207.9171331662502
 20
68.9025452370625
 30
0.0
 11
201.1171331662502
 21
68.90254523706255
 31
0.0
  0
LINE
  5
E3
330
1F
100
AcDbEntity
  8
1
  6
Continuous
 62
     7
370
     9
100
AcDbLine
 10
201.1171331662502
 20
69.83449453789018
 30
0.0
 11
207.9171331662502
 21
69.83449453789018
 31
0.0
  0
LINE
  5
E4
330
1F
100
AcDbEntity
  8
1
  6
Continuous
 62
     7
370
     9
100
AcDbLine
 10
208.2171331662502
 20
69.92720919920373
 30
0.0
 11
200.8171331662502
 21
69.92720919920373
 31
0.0
  0
LINE
  5
E5
330
1F
100
AcDbEntity
  8
1
  6
Continuous
 62
     7
370
     9
100
AcDbLine
 10
201.1171331662502
 20
64.4733457811339
 30
0.0
 11
207.9171331662502
 21
64.4733457811339
 31
0.0
  0
LINE
  5
E6
330
1F
100
AcDbEntity
  8
1
  6
Continuous
 62
     7
370
     9
100
AcDbLine
 10
201.1171331662502
 20
65.50577732557901
 30
0.0
 11
207.9171331662502
 21
65.50577732557901
 31
0.0
  0
LINE
  5
E7
330
1F
100
AcDbEntity
  8
1
  6
Continuous
 62
     7
370
     9
100
AcDbLine
 10
207.9171331662502
 20
66.73884366727657
 30
0.0
 11
201.1171331662502
 21
66.73884366727657
 31
0.0
  0
LINE
  5
E8
330
1F
100
AcDbEntity
  8
1
  6
Continuous
 62
     7
370
     9
100
AcDbLine
 10
207.9171331662502
 20
63.20307193103172
 30
0.0
 11
201.1171331662502
 21
63.20307193103179
 31
0.0
  0
LINE
  5
E9
330
1F
100
AcDbEntity
  8
1
  6
Continuous
 62
     7
370
     9
100
AcDbLine
 10
200.8171331662502
 20
63.45111289357681
 30
0.0
 11
208.2171331662502
 21
63.45111289357681
 31
0.0
  0
LINE
  5
EA
330
1F
100
AcDbEntity
  8
1
  6
Continuous
 62
     7
370
     9
100
AcDbLine
 10
208.2171331662502
 20
64.14418208210498
 30
0.0
 11
200.8171331662502
 21
64.14418208210498
 31
0.0
  0
LINE
  5
EB
330
1F
100
AcDbEntity
  8
1
  6
Continuous
 62
     7
370
     9
100
AcDbLine
 10
208.2171331662502
 20
65.70559394734954
 30
0.0
 11
200.8171331662502
 21
65.70559394734954
 31
0.0
  0
LINE
  5
EC
330
1F
100
AcDbEntity
  8
1
  6
Continuous
 62
     7
370
     9
100
AcDbLine
 10
200.8171331662502
 20
66.37836250356207
 30
0.0
 11
208.2171331662502
 21
66.37836250356207
 31
0.0
  0
LINE
  5
ED
330
1F
100
AcDbEntity
  8
1
  6
Continuous
 62
     7
370
     9
100
AcDbLine
 10
201.1171331662502
 20
67.73068663751849
 30
0.0
 11
207.9171331662502
 21
67.73068663751849
 31
0.0
  0
LINE
  5
EE
330
1F
100
AcDbEntity
  8
1
  6
Continuous
 62
     7
370
     9
100
AcDbLine
 10
208.2171331662502
 20
67.8783897152598
 30
0.0
 11
200.8171331662502
 21
67.8783897152598
 31
0.0
  0
CIRCLE
  5
EF
330
1F
100
AcDbEntity
  8
1
  6
Continuous
 62
     7
370
     9
100
AcDbCircle
 10
206.7171331662502
 20
61.50882746321918
 30
0.0
 40
0.75
  0
LINE
  5
F0
330
1F
100
AcDbEntity
  8
1
  6
Continuous
 62
     7
370
     9
100
AcDbLine
 10
201.1171331662502
 20
58.54430914530445
 30
0.0
 11
207.9171331662502
 21
58.54430914530445
 31
0.0
  0
LINE
  5
F1
330
1F
100
AcDbEntity
  8
1
  6
Continuous
 62
     7
370
     9
100
AcDbLine
 10
201.1171331662502
 20
57.51187760085936
 30
0.0
 11
207.9171331662502
 21
57.51187760085929
 31
0.0
  0
LINE
  5
F2
330
1F
100
AcDbEntity
  8
1
  6
Continuous
 62
     7
370
     9
100
AcDbLine
 10
207.9171331662502
 20
56.27881125916172
 30
0.0
 11
201.1171331662502
 21
56.27881125916178
 31
0.0
  0
LINE
  5
F3
330
1F
100
AcDbEntity
  8
1
  6
Continuous
 62
     7
370
     9
100
AcDbLine
 10
207.9171331662502
 20
59.81458299540657
 30
0.0
 11
201.1171331662502
 21
59.81458299540657
 31
0.0
  0
LINE
  5
F4
330
1F
100
AcDbEntity
  8
1
  6
Continuous
 62
     7
370
     9
100
AcDbLine
 10
200.8171331662502
 20
59.56654203286155
 30
0.0
 11
208.2171331662502
 21
59.56654203286155
 31
0.0
  0
LINE
  5
F5
330
1F
100
AcDbEntity
  8
1
  6
Continuous
 62
     7
370
     9
100
AcDbLine
 10
208.2171331662502
 20
58.87347284433332
 30
0.0
 11
200.8171331662502
 21
58.87347284433339
 31
0.0
  0
LINE
  5
F6
330
1F
100
AcDbEntity
  8
1
  6
Continuous
 62
     7
370
     9
100
AcDbLine
 10
208.2171331662502
 20
57.31206097908875
 30
0.0
 11
200.8171331662502
 21
57.31206097908881
 31
0.0
  0
LINE
  5
F7
330
1F
100
AcDbEntity
  8
1
  6
Continuous
 62
     7
370
     9
100
AcDbLine
 10
200.8171331662502
 20
56.63929242287628
 30
0.0
 11
208.2171331662502
 21
56.63929242287622
 31
0.0
  0
LINE
  5
F8
330
1F
100
AcDbEntity
  8
1
  6
Continuous
 62
     7
370
     9
100
AcDbLine
 10
201.1171331662502
 20
55.28696828891987
 30
0.0
 11
207.9171331662502
 21
55.2869682889198
 31
0.0
  0
LINE
  5
F9
330
1F
100
AcDbEntity
  8
1
  6
Continuous
 62
     7
370
     9
100
AcDbLine
 10
208.2171331662502
 20
55.13926521117856
 30
0.0
 11
200.8171331662502
 21
55.13926521117856
 31
0.0
  0
LINE
  5
FA
330
1F
100
AcDbEntity
  8
1
  6
Continuous
 62
     7
370
     9
100
AcDbLine
 10
200.8171331662502
 20
54.49989196196542
 30
0.0
 11
208.2171331662502
 21
54.49989196196542
 31
0.0
  0
LINE
  5
FB
330
1F
100
AcDbEntity
  8
1
  6
Continuous
 62
     7
370
     9
100
AcDbLine
 10
207.9171331662502
 20
52.0953184258284
 30
0.0
 11
201.1171331662501
 21
52.0953184258284
 31
0.0
  0
LINE
  5
FC
330
1F
100
AcDbEntity
  8
1
  6
Continuous
 62
     7
370
     9
100
AcDbLine
 10
200.8171331662502
 20
51.20548046801423
 30
0.0
 11
208.2171331662502
 21
51.20548046801423
 31
0.0
  0
LINE
  5
FD
330
1F
100
AcDbEntity
  8
1
  6
Continuous
 62
     7
370
     9
100
AcDbLine
 10
207.9171331662502
 20
51.24140212747903
 30
0.0
 11
201.1171331662501
 21
51.24140212747903
 31
0.0
  0
LINE
  5
FE
330
1F
100
AcDbEntity
  8
1
  6
Continuous
 62
     7
370
     9
100
AcDbLine
 10
208.2171331662502
 20
50.66933962879011
 30
0.0
 11
200.8171331662502
 21
50.66933962879011
 31
0.0
  0
LINE
  5
FF
330
1F
100
AcDbEntity
  8
1
  6
Continuous
 62
     7
370
     9
100
AcDbLine
 10
201.1171331662501
 20
50.25875040798599
 30
0.0
 11
207.9171331662502
 21
50.25875040798593
 31
0.0
  0
LINE
  5
100
330
1F
100
AcDbEntity
  8
1
  6
Continuous
 62
     7
370
     9
100
AcDbLine
 10
201.1171331662501
 20
49.49948762154685
 30
0.0
 11
207.9171331662502
 21
49.49948762154685
 31
0.0
  0
LINE
  5
101
330
1F
100
AcDbEntity
  8
1
  6
Continuous
 62
     7
370
     9
100
AcDbLine
 10
200.8171331662502
 20
49.05274510050213
 30
0.0
 11
208.2171331662502
 21
49.05274510050213
 31
0.0
  0
LINE
  5
102
330
1F
100
AcDbEntity
  8
1
  6
Continuous
 62
     7
370
     9
100
AcDbLine
 10
201.1171331662501
 20
48.64115234325067
 30
0.0
 11
207.9171331662502
 21
48.64115234325061
 31
0.0
  0
LINE
  5
103
330
1F
100
AcDbEntity
  8
1
  6
Continuous
 62
     7
370
     9
100
AcDbLine
 10
200.8171331662502
 20
52.49691245804058
 30
0.0
 11
208.2171331662502
 21
52.49691245804058
 31
0.0
  0
LINE
  5
104
330
1F
100
AcDbEntity
  8
1
  6
Continuous
 62
     7
370
     9
100
AcDbLine
 10
207.9171331662502
 20
54.1151096893758
 30
0.0
 11
201.1171331662501
 21
54.1151096893758
 31
0.0
  0
LINE
  5
105
330
1F
100
AcDbEntity
  8
1
  6
Continuous
 62
     7
370
     9
100
AcDbLine
 10
201.1171331662501
 20
53.18316038854817
 30
0.0
 11
207.9171331662502
 21
53.18316038854817
 31
0.0
  0
LINE
  5
106
330
1F
100
AcDbEntity
  8
1
  6
Continuous
 62
     7
370
     9
100
AcDbLine
 10
208.2171331662502
 20
53.09044572723458
 30
0.0
 11
200.8171331662502
 21
53.09044572723462
 31
0.0
  0
LINE
  5
107
330
1F
100
AcDbEntity
  8
1
  6
Continuous
 62
     7
370
     9
100
AcDbLine
 10
201.1171331662501
 20
44.75882746321917
 30
0.0
 11
207.9171331662502
 21
44.75882746321917
 31
0.0
  0
LINE
  5
108
330
1F
100
AcDbEntity
  8
1
  6
Continuous
 62
     7
370
     9
100
AcDbLine
 10
201.1171331662501
 20
45.78853091422637
 30
0.0
 11
207.9171331662502
 21
45.78853091422637
 31
0.0
  0
LINE
  5
109
330
1F
100
AcDbEntity
  8
1
  6
Continuous
 62
     7
370
     9
100
AcDbLine
 10
200.8171331662502
 20
45.75936803950838
 30
0.0
 11
208.2171331662502
 21
45.75936803950838
 31
0.0
  0
LINE
  5
10A
330
1F
100
AcDbEntity
  8
1
  6
Continuous
 62
     7
370
     9
100
AcDbLine
 10
201.1171331662501
 20
45.39213292452665
 30
0.0
 11
207.9171331662502
 21
45.39213292452665
 31
0.0
  0
LINE
  5
10B
330
1F
100
AcDbEntity
  8
1
  6
Continuous
 62
     7
370
     9
100
AcDbLine
 10
201.1171331662501
 20
45.13678174792755
 30
0.0
 11
207.9171331662502
 21
45.1367817479275
 31
0.0
  0
LINE
  5
10C
330
1F
100
AcDbEntity
  8
1
  6
Continuous
 62
     7
370
     9
100
AcDbLine
 10
201.1171331662501
 20
44.80369582855086
 30
0.0
 11
207.9171331662502
 21
44.80369582855086
 31
0.0
  0
LINE
  5
10D
330
1F
100
AcDbEntity
  8
1
  6
Continuous
 62
     7
370
     9
100
AcDbLine
 10
201.1171331662501
 20
44.91402889237917
 30
0.0
 11
207.9171331662502
 21
44.91402889237917
 31
0.0
  0
LINE
  5
10E
330
1F
100
AcDbEntity
  8
1
  6
Continuous
 62
     7
370
     9
100
AcDbLine
 10
201.1171331662502
 20
55.28696828891987
 30
0.0
 11
201.1171331662502
 21
56.27881125916178
 31
0.0
  0
LINE
  5
10F
330
1F
100
AcDbEntity
  8
1
  6
Continuous
 62
     7
370
     9
100
AcDbLine
 10
198.2771331662502
 20
61.50882746321918
 30
0.0
 11
198.2771331662502
 21
45.50882746321922
 31
0.0
  0
LINE
  5
110
330
1F
100
AcDbEntity
  8
1
  6
Continuous
 62
     7
370
     9
100
AcDbLine
 10
200.2771331662502
 20
61.50882746321918
 30
0.0
 11
200.2771331662502
 21
45.50882746321922
 31
0.0
  0
LINE
  5
111
330
1F
100
AcDbEntity
  8
1
  6
Continuous
 62
     7
370
     9
100
AcDbLine
 10
200.8171331662502
 20
45.05882746321918
 30
0.0
 11
200.8171331662502
 21
61.50882746321918
 31
0.0
  0
LINE
  5
112
330
1F
100
AcDbEntity
  8
1
  6
Continuous
 62
     7
370
     9
100
AcDbLine
 10
201.1171331662502
 20
55.28696828891987
 30
0.0
 11
200.8171331662502
 21
55.13926521117856
 31
0.0
  0
LINE
  5
113
330
1F
100
AcDbEntity
  8
1
  6
Continuous
 62
     7
370
     9
100
AcDbLine
 10
200.8171331662502
 20
53.09044572723462
 30
0.0
 11
201.1171331662501
 21
53.18316038854817
 31
0.0
  0
LINE
  5
114
330
1F
100
AcDbEntity
  8
1
  6
Continuous
 62
     7
370
     9
100
AcDbLine
 10
201.1171331662501
 20
53.18316038854817
 30
0.0
 11
201.1171331662501
 21
54.1151096893758
 31
0.0
  0
LINE
  5
115
330
1F
100
AcDbEntity
  8
1
  6
Continuous
 62
     7
370
     9
100
AcDbLine
 10
201.1171331662501
 20
51.24140212747903
 30
0.0
 11
201.1171331662501
 21
52.0953184258284
 31
0.0
  0
LINE
  5
116
330
1F
100
AcDbEntity
  8
1
  6
Continuous
 62
     7
370
     9
100
AcDbLine
 10
201.1171331662501
 20
50.25875040798599
 30
0.0
 11
200.8171331662502
 21
50.66933962879011
 31
0.0
  0
LINE
  5
117
330
1F
100
AcDbEntity
  8
1
  6
Continuous
 62
     7
370
     9
100
AcDbLine
 10
201.1171331662501
 20
51.24140212747903
 30
0.0
 11
200.8171331662502
 21
51.20548046801423
 31
0.0
  0
LINE
  5
118
330
1F
100
AcDbEntity
  8
1
  6
Continuous
 62
     7
370
     9
100
AcDbLine
 10
200.8171331662502
 20
52.49691245804058
 30
0.0
 11
201.1171331662501
 21
52.0953184258284
 31
0.0
  0
LINE
  5
119
330
1F
100
AcDbEntity
  8
1
  6
Continuous
 62
     7
370
     9
100
AcDbLine
 10
201.1171331662501
 20
49.49948762154685
 30
0.0
 11
200.8171331662502
 21
49.52105813817212
 31
0.0
  0
LINE
  5
11A
330
1F
100
AcDbEntity
  8
1
  6
Continuous
 62
     7
370
     9
100
AcDbLine
 10
200.8171331662502
 20
49.05274510050213
 30
0.0
 11
201.1171331662501
 21
48.64115234325067
 31
0.0
  0
LINE
  5
11B
330
1F
100
AcDbEntity
  8
1
  6
Continuous
 62
     7
370
     9
100
AcDbLine
 10
200.2771331662502
 20
46.90882746321927
 30
0.0
 11
200.8171331662502
 21
47.54193091149511
 31
0.0
  0
LINE
  5
11C
330
1F
100
AcDbEntity
  8
1
  6
Continuous
 62
     7
370
     9
100
AcDbLine
 10
201.1171331662501
 20
49.49948762154685
 30
0.0
 11
201.1171331662501
 21
50.25875040798599
 31
0.0
  0
LINE
  5
11D
330
1F
100
AcDbEntity
  8
1
  6
Continuous
 62
     7
370
     9
100
AcDbLine
 10
201.1171331662501
 20
44.75882746321917
 30
0.0
 11
200.8171331662502
 21
45.05882746321918
 31
0.0
  0
LINE
  5
11E
330
1F
100
AcDbEntity
  8
1
  6
Continuous
 62
     7
370
     9
100
AcDbLine
 10
201.1171331662501
 20
45.13678174792755
 30
0.0
 11
201.1171331662501
 21
45.39213292452665
 31
0.0
  0
LINE
  5
11F
330
1F
100
AcDbEntity
  8
1
  6
Continuous
 62
     7
370
     9
100
AcDbLine
 10
200.8171331662502
 20
45.25164863702246
 30
0.0
 11
200.9713644162606
 21
45.25164863702246
 31
0.0
  0
LINE
  5
120
330
1F
100
AcDbEntity
  8
1
  6
Continuous
 62
     7
370
     9
100
AcDbLine
 10
201.1171331662501
 20
45.13678174792755
 30
0.0
 11
200.8171331662502
 21
45.37318404081235
 31
0.0
  0
LINE
  5
121
330
1F
100
AcDbEntity
  8
1
  6
Continuous
 62
     7
370
     9
100
AcDbLine
 10
200.8171331662502
 20
45.75936803950838
 30
0.0
 11
201.1171331662501
 21
45.39213292452665
 31
0.0
  0
LINE
  5
122
330
1F
100
AcDbEntity
  8
1
  6
Continuous
 62
     7
370
     9
100
AcDbLine
 10
201.1171331662501
 20
45.78853091422637
 30
0.0
 11
200.8171331662502
 21
45.97564528693168
 31
0.0
  0
LINE
  5
123
330
1F
100
AcDbEntity
  8
1
  6
Continuous
 62
     7
370
     9
100
AcDbLine
 10
200.8171331662502
 20
45.08478473988788
 30
0.0
 11
201.1171331662501
 21
44.80369582855086
 31
0.0
  0
LINE
  5
124
330
1F
100
AcDbEntity
  8
1
  6
Continuous
 62
     7
370
     9
100
AcDbLine
 10
200.8171331662502
 20
45.25164863702246
 30
0.0
 11
201.1171331662501
 21
44.91402889237917
 31
0.0
  0
LINE
  5
125
330
1F
100
AcDbEntity
  8
1
  6
Continuous
 62
     7
370
     9
100
AcDbLine
 10
201.1171331662501
 20
44.80369582855086
 30
0.0
 11
201.1171331662501
 21
44.91402889237917
 31
0.0
  0
LINE
  5
126
330
1F
100
AcDbEntity
  8
1
  6
Continuous
 62
     7
370
     9
100
AcDbLine
 10
201.1171331662501
 20
45.78853091422637
 30
0.0
 11
201.1171331662501
 21
48.64115234325067
 31
0.0
  0
LINE
  5
127
330
1F
100
AcDbEntity
  8
1
  6
Continuous
 62
     7
370
     9
100
AcDbLine
 10
198.2771331662502
 20
45.50882746321922
 30
0.0
 11
200.2771331662502
 21
45.50882746321922
 31
0.0
  0
LINE
  5
128
330
1F
100
AcDbEntity
  8
1
  6
Continuous
 62
     7
370
     9
100
AcDbLine
 10
201.1171331662501
 20
54.1151096893758
 30
0.0
 11
200.8171331662502
 21
54.49989196196542
 31
0.0
  0
LINE
  5
129
330
1F
100
AcDbEntity
  8
1
  6
Continuous
 62
     7
370
     9
100
AcDbLine
 10
200.8171331662502
 20
73.96490982593622
 30
0.0
 11
201.1171331662502
 21
74.37650258318768
 31
0.0
  0
LINE
  5
12A
330
1F
100
AcDbEntity
  8
1
  6
Continuous
 62
     7
370
     9
100
AcDbLine
 10
201.1171331662502
 20
73.51816730489151
 30
0.0
 11
201.1171331662502
 21
72.75890451845238
 31
0.0
  0
LINE
  5
12B
330
1F
100
AcDbEntity
  8
1
  6
Continuous
 62
     7
370
     9
100
AcDbLine
 10
201.1171331662502
 20
73.51816730489151
 30
0.0
 11
200.8171331662502
 21
73.49659678826623
 31
0.0
  0
LINE
  5
12C
330
1F
100
AcDbEntity
  8
1
  6
Continuous
 62
     7
370
     9
100
AcDbLine
 10
201.1171331662502
 20
71.77625279895932
 30
0.0
 11
201.1171331662502
 21
70.92233650060994
 31
0.0
  0
LINE
  5
12D
330
1F
100
AcDbEntity
  8
1
  6
Continuous
 62
     7
370
     9
100
AcDbLine
 10
201.1171331662502
 20
71.77625279895932
 30
0.0
 11
200.8171331662502
 21
71.81217445842412
 31
0.0
  0
LINE
  5
12E
330
1F
100
AcDbEntity
  8
1
  6
Continuous
 62
     7
370
     9
100
AcDbLine
 10
201.1171331662502
 20
72.75890451845238
 30
0.0
 11
200.8171331662502
 21
72.34831529764824
 31
0.0
  0
LINE
  5
12F
330
1F
100
AcDbEntity
  8
1
  6
Continuous
 62
     7
370
     9
100
AcDbLine
 10
201.1171331662502
 20
69.83449453789018
 30
0.0
 11
201.1171331662502
 21
68.90254523706255
 31
0.0
  0
LINE
  5
130
330
1F
100
AcDbEntity
  8
1
  6
Continuous
 62
     7
370
     9
100
AcDbLine
 10
200.8171331662502
 20
69.92720919920373
 30
0.0
 11
201.1171331662502
 21
69.83449453789018
 31
0.0
  0
LINE
  5
131
330
1F
100
AcDbEntity
  8
1
  6
Continuous
 62
     7
370
     9
100
AcDbLine
 10
201.1171331662502
 20
67.73068663751849
 30
0.0
 11
201.1171331662502
 21
66.73884366727657
 31
0.0
  0
LINE
  5
132
330
1F
100
AcDbEntity
  8
1
  6
Continuous
 62
     7
370
     9
100
AcDbLine
 10
201.1171331662502
 20
67.73068663751849
 30
0.0
 11
200.8171331662502
 21
67.8783897152598
 31
0.0
  0
LINE
  5
133
330
1F
100
AcDbEntity
  8
1
  6
Continuous
 62
     7
370
     9
100
AcDbLine
 10
201.1171331662502
 20
68.90254523706255
 30
0.0
 11
200.8171331662502
 21
68.51776296447292
 31
0.0
  0
LINE
  5
134
330
1F
100
AcDbEntity
  8
1
  6
Continuous
 62
     7
370
     9
100
AcDbLine
 10
201.1171331662502
 20
65.50577732557901
 30
0.0
 11
201.1171331662502
 21
64.4733457811339
 31
0.0
  0
LINE
  5
135
330
1F
100
AcDbEntity
  8
1
  6
Continuous
 62
     7
370
     9
100
AcDbLine
 10
200.8171331662502
 20
65.70559394734954
 30
0.0
 11
201.1171331662502
 21
65.50577732557901
 31
0.0
  0
LINE
  5
136
330
1F
100
AcDbEntity
  8
1
  6
Continuous
 62
     7
370
     9
100
AcDbLine
 10
200.8171331662502
 20
63.45111289357681
 30
0.0
 11
201.1171331662502
 21
63.20307193103179
 31
0.0
  0
LINE
  5
137
330
1F
100
AcDbEntity
  8
1
  6
Continuous
 62
     7
370
     9
100
AcDbLine
 10
201.1171331662502
 20
64.4733457811339
 30
0.0
 11
200.8171331662502
 21
64.14418208210498
 31
0.0
  0
LINE
  5
138
330
1F
100
AcDbEntity
  8
1
  6
Continuous
 62
     7
370
     9
100
AcDbLine
 10
200.8171331662502
 20
66.37836250356207
 30
0.0
 11
201.1171331662502
 21
66.73884366727657
 31
0.0
  0
LINE
  5
139
330
1F
100
AcDbEntity
  8
1
  6
Continuous
 62
     7
370
     9
100
AcDbLine
 10
200.8171331662502
 20
59.56654203286155
 30
0.0
 11
201.1171331662502
 21
59.81458299540657
 31
0.0
  0
LINE
  5
13A
330
1F
100
AcDbEntity
  8
1
  6
Continuous
 62
     7
370
     9
100
AcDbLine
 10
201.1171331662502
 20
58.54430914530445
 30
0.0
 11
200.8171331662502
 21
58.87347284433339
 31
0.0
  0
LINE
  5
13B
330
1F
100
AcDbEntity
  8
1
  6
Continuous
 62
     7
370
     9
100
AcDbLine
 10
201.1171331662502
 20
59.81458299540657
 30
0.0
 11
201.1171331662502
 21
61.50882746321918
 31
0.0
  0
LINE
  5
13C
330
1F
100
AcDbEntity
  8
1
  6
Continuous
 62
     7
370
     9
100
AcDbLine
 10
200.8171331662502
 20
56.63929242287628
 30
0.0
 11
201.1171331662502
 21
56.27881125916178
 31
0.0
  0
LINE
  5
13D
330
1F
100
AcDbEntity
  8
1
  6
Continuous
 62
     7
370
     9
100
AcDbLine
 10
200.8171331662502
 20
57.31206097908881
 30
0.0
 11
201.1171331662502
 21
57.51187760085936
 31
0.0
  0
LINE
  5
13E
330
1F
100
AcDbEntity
  8
1
  6
Continuous
 62
     7
370
     9
100
AcDbLine
 10
201.1171331662502
 20
57.51187760085936
 30
0.0
 11
201.1171331662502
 21
58.54430914530445
 31
0.0
  0
LINE
  5
13F
330
1F
100
AcDbEntity
  8
1
  6
Continuous
 62
     7
370
     9
100
AcDbLine
 10
201.1171331662502
 20
63.20307193103179
 30
0.0
 11
201.1171331662502
 21
61.50882746321918
 31
0.0
  0
LINE
  5
140
330
1F
100
AcDbEntity
  8
1
  6
Continuous
 62
     7
370
     9
100
AcDbLine
 10
200.8171331662502
 20
70.52074246839777
 30
0.0
 11
201.1171331662502
 21
70.92233650060994
 31
0.0
  0
LINE
  5
141
330
1F
100
AcDbEntity
  8
1
  6
Continuous
 62
     7
370
     9
100
AcDbLine
 10
207.9171331662502
 20
55.28696828891987
 30
0.0
 11
207.9171331662502
 21
56.27881125916172
 31
0.0
  0
LINE
  5
142
330
1F
100
AcDbEntity
  8
1
  6
Continuous
 62
     7
370
     9
100
AcDbLine
 10
209.5171331662503
 20
61.50882746321918
 30
0.0
 11
209.5171331662503
 21
44.90882746321914
 31
0.0
  0
LINE
  5
143
330
1F
100
AcDbEntity
  8
1
  6
Continuous
 62
     7
370
     9
100
AcDbLine
 10
208.7171331662502
 20
61.50882746321918
 30
0.0
 11
208.7171331662502
 21
45.20882746321917
 31
0.0
  0
LINE
  5
144
330
1F
100
AcDbEntity
  8
1
  6
Continuous
 62
     7
370
     9
100
AcDbLine
 10
208.2171331662502
 20
45.05882746321918
 30
0.0
 11
208.2171331662502
 21
61.50882746321918
 31
0.0
  0
LINE
  5
145
330
1F
100
AcDbEntity
  8
1
  6
Continuous
 62
     7
370
     9
100
AcDbLine
 10
209.5171331662503
 20
44.90882746321914
 30
0.0
 11
212.4475176602258
 21
44.90882746321914
 31
0.0
  0
LINE
  5
146
330
1F
100
AcDbEntity
  8
1
  6
Continuous
 62
     7
370
     9
100
AcDbLine
 10
207.9171331662502
 20
55.2869682889198
 30
0.0
 11
208.2171331662502
 21
55.13926521117856
 31
0.0
  0
LINE
  5
147
330
1F
100
AcDbEntity
  8
1
  6
Continuous
 62
     7
370
     9
100
AcDbLine
 10
208.2171331662502
 20
53.09044572723458
 30
0.0
 11
207.9171331662502
 21
53.18316038854817
 31
0.0
  0
LINE
  5
148
330
1F
100
AcDbEntity
  8
1
  6
Continuous
 62
     7
370
     9
100
AcDbLine
 10
207.9171331662502
 20
53.18316038854817
 30
0.0
 11
207.9171331662502
 21
54.1151096893758
 31
0.0
  0
LINE
  5
149
330
1F
100
AcDbEntity
  8
1
  6
Continuous
 62
     7
370
     9
100
AcDbLine
 10
207.9171331662502
 20
50.25875040798593
 30
0.0
 11
208.2171331662502
 21
50.66933962879011
 31
0.0
  0
LINE
  5
14A
330
1F
100
AcDbEntity
  8
1
  6
Continuous
 62
     7
370
     9
100
AcDbLine
 10
207.9171331662502
 20
51.24140212747903
 30
0.0
 11
208.2171331662502
 21
51.20548046801423
 31
0.0
  0
LINE
  5
14B
330
1F
100
AcDbEntity
  8
1
  6
Continuous
 62
     7
370
     9
100
AcDbLine
 10
207.9171331662502
 20
51.24140212747903
 30
0.0
 11
207.9171331662502
 21
52.0953184258284
 31
0.0
  0
LINE
  5
14C
330
1F
100
AcDbEntity
  8
1
  6
Continuous
 62
     7
370
     9
100
AcDbLine
 10
208.2171331662502
 20
52.49691245804058
 30
0.0
 11
207.9171331662502
 21
52.0953184258284
 31
0.0
  0
LINE
  5
14D
330
1F
100
AcDbEntity
  8
1
  6
Continuous
 62
     7
370
     9
100
AcDbLine
 10
207.9171331662502
 20
49.49948762154685
 30
0.0
 11
208.2171331662502
 21
49.52105813817207
 31
0.0
  0
LINE
  5
14E
330
1F
100
AcDbEntity
  8
1
  6
Continuous
 62
     7
370
     9
100
AcDbLine
 10
207.9171331662502
 20
49.49948762154685
 30
0.0
 11
208.2171331662502
 21
49.52105813817207
 31
0.0
  0
LINE
  5
14F
330
1F
100
AcDbEntity
  8
1
  6
Continuous
 62
     7
370
     9
100
AcDbLine
 10
208.2171331662502
 20
49.05274510050213
 30
0.0
 11
207.9171331662502
 21
48.64115234325061
 31
0.0
  0
LINE
  5
150
330
1F
100
AcDbEntity
  8
1
  6
Continuous
 62
     7
370
     9
100
AcDbLine
 10
207.9171331662502
 20
49.49948762154685
 30
0.0
 11
207.9171331662502
 21
50.25875040798593
 31
0.0
  0
LINE
  5
151
330
1F
100
AcDbEntity
  8
1
  6
Continuous
 62
     7
370
     9
100
AcDbLine
 10
209.5171331662503
 20
44.90882746321914
 30
0.0
 11
209.0171331662502
 21
44.90882746321914
 31
0.0
  0
LINE
  5
152
330
1F
100
AcDbEntity
  8
1
  6
Continuous
 62
     7
370
     9
100
AcDbLine
 10
208.2171331662502
 20
45.70882776937078
 30
0.0
 11
208.7171331662502
 21
45.70882776937078
 31
0.0
  0
LINE
  5
153
330
1F
100
AcDbEntity
  8
1
  6
Continuous
 62
     7
370
     9
100
AcDbLine
 10
207.9171331662502
 20
44.75882746321917
 30
0.0
 11
208.2171331662502
 21
45.05882746321918
 31
0.0
  0
LINE
  5
154
330
1F
100
AcDbEntity
  8
1
  6
Continuous
 62
     7
370
     9
100
AcDbLine
 10
207.9171331662502
 20
45.1367817479275
 30
0.0
 11
207.9171331662502
 21
45.39213292452665
 31
0.0
  0
LINE
  5
155
330
1F
100
AcDbEntity
  8
1
  6
Continuous
 62
     7
370
     9
100
AcDbLine
 10
208.2171331662502
 20
45.25164863702246
 30
0.0
 11
208.0629019162397
 21
45.25164863702246
 31
0.0
  0
LINE
  5
156
330
1F
100
AcDbEntity
  8
1
  6
Continuous
 62
     7
370
     9
100
AcDbLine
 10
208.2171331662502
 20
45.25164863702246
 30
0.0
 11
207.9171331662502
 21
44.91402889237917
 31
0.0
  0
LINE
  5
157
330
1F
100
AcDbEntity
  8
1
  6
Continuous
 62
     7
370
     9
100
AcDbLine
 10
207.9171331662502
 20
45.1367817479275
 30
0.0
 11
208.2171331662502
 21
45.37318404081235
 31
0.0
  0
LINE
  5
158
330
1F
100
AcDbEntity
  8
1
  6
Continuous
 62
     7
370
     9
100
AcDbLine
 10
208.2171331662502
 20
45.75936803950838
 30
0.0
 11
207.9171331662502
 21
45.39213292452665
 31
0.0
  0
LINE
  5
159
330
1F
100
AcDbEntity
  8
1
  6
Continuous
 62
     7
370
     9
100
AcDbLine
 10
207.9171331662502
 20
45.78853091422637
 30
0.0
 11
208.2171331662502
 21
45.97564528693164
 31
0.0
  0
LINE
  5
15A
330
1F
100
AcDbEntity
  8
1
  6
Continuous
 62
     7
370
     9
100
AcDbLine
 10
208.2171331662502
 20
45.08478473988788
 30
0.0
 11
207.9171331662502
 21
44.80369582855086
 31
0.0
  0
LINE
  5
15B
330
1F
100
AcDbEntity
  8
1
  6
Continuous
 62
     7
370
     9
100
AcDbLine
 10
207.9171331662502
 20
44.80369582855086
 30
0.0
 11
207.9171331662502
 21
44.91402889237917
 31
0.0
  0
LINE
  5
15C
330
1F
100
AcDbEntity
  8
1
  6
Continuous
 62
     7
370
     9
100
AcDbLine
 10
209.0171331662502
 20
44.90882746321914
 30
0.0
 11
208.7171331662502
 21
45.20882746321917
 31
0.0
  0
LINE
  5
15D
330
1F
100
AcDbEntity
  8
1
  6
Continuous
 62
     7
370
     9
100
AcDbLine
 10
207.9171331662502
 20
45.78853091422637
 30
0.0
 11
207.9171331662502
 21
48.64115234325061
 31
0.0
  0
LINE
  5
15E
330
1F
100
AcDbEntity
  8
1
  6
Continuous
 62
     7
370
     9
100
AcDbLine
 10
207.9171331662502
 20
54.1151096893758
 30
0.0
 11
208.2171331662502
 21
54.49989196196542
 31
0.0
  0
LINE
  5
15F
330
1F
100
AcDbEntity
  8
1
  6
Continuous
 62
     7
370
     9
100
AcDbLine
 10
212.4171331662502
 20
46.52658797774836
 30
0.0
 11
212.4171331662502
 21
43.32229398374596
 31
0.0
  0
LINE
  5
160
330
1F
100
AcDbEntity
  8
1
  6
Continuous
 62
     7
370
     9
100
AcDbLine
 10
214.13878696433
 20
47.51685604648993
 30
0.0
 11
214.13878696433
 21
44.31256205248753
 31
0.0
  0
LINE
  5
161
330
1F
100
AcDbEntity
  8
1
  6
Continuous
 62
     7
370
     9
100
AcDbLine
 10
213.8658584546162
 20
47.4878496736868
 30
0.0
 11
213.8658584546162
 21
44.2835556796843
 31
0.0
  0
LINE
  5
162
330
1F
100
AcDbEntity
  8
1
  6
Continuous
 62
     7
370
     9
100
AcDbLine
 10
213.6036598800985
 20
47.44013343539103
 30
0.0
 11
213.6036598800985
 21
44.23583944138857
 31
0.0
  0
LINE
  5
163
330
1F
100
AcDbEntity
  8
1
  6
Continuous
 62
     7
370
     9
100
AcDbLine
 10
213.3572946377837
 20
47.37463607390487
 30
0.0
 11
213.3572946377837
 21
44.17034207990247
 31
0.0
  0
LINE
  5
164
330
1F
100
AcDbEntity
  8
1
  6
Continuous
 62
     7
370
     9
100
AcDbLine
 10
213.1315579468771
 20
47.29263242086738
 30
0.0
 11
213.1315579468771
 21
44.08833842686499
 31
0.0
  0
LINE
  5
165
330
1F
100
AcDbEntity
  8
1
  6
Continuous
 62
     7
370
     9
100
AcDbLine
 10
212.9308435152954
 20
47.19571858410745
 30
0.0
 11
212.9308435152954
 21
43.99142459010488
 31
0.0
  0
LINE
  5
166
330
1F
100
AcDbEntity
  8
1
  6
Continuous
 62
     7
370
     9
100
AcDbLine
 10
212.7590580211401
 20
47.08578088121931
 30
0.0
 11
212.7590580211401
 21
43.88148688721673
 31
0.0
  0
LINE
  5
167
330
1F
100
AcDbEntity
  8
1
  6
Continuous
 62
     7
370
     9
100
AcDbLine
 10
212.6195450736518
 20
46.96495912453746
 30
0.0
 11
212.6195450736518
 21
43.76066513053502
 31
0.0
  0
LINE
  5
168
330
1F
100
AcDbEntity
  8
1
  6
Continuous
 62
     7
370
     9
100
AcDbLine
 10
212.5150201336599
 20
46.83560497212329
 30
0.0
 11
212.5150201336599
 21
43.63131097812089
 31
0.0
  0
LINE
  5
169
330
1F
100
AcDbEntity
  8
1
  6
Continuous
 62
     7
370
     9
100
AcDbLine
 10
212.4475176602258
 20
46.70023615541527
 30
0.0
 11
212.4475176602258
 21
43.49594216141297
 31
0.0
  0
LINE
  5
16A
330
1F
100
AcDbEntity
  8
1
  6
Continuous
 62
     7
370
     9
100
AcDbLine
 10
214.4171331662502
 20
44.3222939837459
 30
0.0
 11
214.4171331662502
 21
47.52658797774842
 31
0.0
  0
LINE
  5
16B
330
1F
100
AcDbEntity
  8
1
  6
Continuous
 62
     7
370
     9
100
AcDbLine
 10
214.6954793681703
 20
47.51685604648993
 30
0.0
 11
214.6954793681703
 21
44.31256205248753
 31
0.0
  0
LINE
  5
16C
330
1F
100
AcDbEntity
  8
1
  6
Continuous
 62
     7
370
     9
100
AcDbLine
 10
214.9684078778842
 20
47.4878496736868
 30
0.0
 11
214.9684078778842
 21
44.2835556796843
 31
0.0
  0
LINE
  5
16D
330
1F
100
AcDbEntity
  8
1
  6
Continuous
 62
     7
370
     9
100
AcDbLine
 10
215.2306064524018
 20
47.44013343539103
 30
0.0
 11
215.2306064524018
 21
44.23583944138857
 31
0.0
  0
LINE
  5
16E
330
1F
100
AcDbEntity
  8
1
  6
Continuous
 62
     7
370
     9
100
AcDbLine
 10
211.8671331662503
 20
67.33382746321928
 30
0.0
 11
210.6671331662504
 21
67.33382746321928
 31
0.0
  0
LINE
  5
16F
330
1F
100
AcDbEntity
  8
1
  6
Continuous
 62
     7
370
     9
100
AcDbLine
 10
211.8671331662503
 20
68.08382746321928
 30
0.0
 11
210.6671331662504
 21
68.08382746321928
 31
0.0
  0
ARC
  5
170
330
1F
100
AcDbEntity
  8
1
  6
Continuous
 62
     7
370
     9
100
AcDbCircle
 10
210.6671331662503
 20
67.48382746321931
 30
0.0
 40
0.1500000000000057
100
AcDbArc
 50
179.9999999999998
 51
269.9999999999998
  0
LINE
  5
171
330
1F
100
AcDbEntity
  8
1
  6
Continuous
 62
     7
370
     9
100
AcDbLine
 10
210.5171331662503
 20
67.48382746321931
 30
0.0
 11
210.5171331662503
 21
67.9338274632193
 31
0.0
  0
ARC
  5
172
330
1F
100
AcDbEntity
  8
1
  6
Continuous
 62
     7
370
     9
100
AcDbCircle
 10
210.6671331662503
 20
67.93382746321924
 30
0.0
 40
0.1500000000000057
100
AcDbArc
 50
89.99999999999991
 51
179.9999999999783
  0
LINE
  5
173
330
1F
100
AcDbEntity
  8
1
  6
Continuous
 62
     7
370
     9
100
AcDbLine
 10
208.2171331662502
 20
73.96490982593616
 30
0.0
 11
207.9171331662502
 21
74.37650258318768
 31
0.0
  0
LINE
  5
174
330
1F
100
AcDbEntity
  8
1
  6
Continuous
 62
     7
370
     9
100
AcDbLine
 10
207.9171331662502
 20
73.51816730489151
 30
0.0
 11
208.2171331662502
 21
73.49659678826623
 31
0.0
  0
LINE
  5
175
330
1F
100
AcDbEntity
  8
1
  6
Continuous
 62
     7
370
     9
100
AcDbLine
 10
207.9171331662502
 20
73.51816730489151
 30
0.0
 11
208.2171331662502
 21
73.49659678826623
 31
0.0
  0
LINE
  5
176
330
1F
100
AcDbEntity
  8
1
  6
Continuous
 62
     7
370
     9
100
AcDbLine
 10
207.9171331662502
 20
73.51816730489151
 30
0.0
 11
207.9171331662502
 21
72.75890451845238
 31
0.0
  0
LINE
  5
177
330
1F
100
AcDbEntity
  8
1
  6
Continuous
 62
     7
370
     9
100
AcDbLine
 10
207.9171331662502
 20
71.77625279895932
 30
0.0
 11
208.2171331662502
 21
71.81217445842406
 31
0.0
  0
LINE
  5
178
330
1F
100
AcDbEntity
  8
1
  6
Continuous
 62
     7
370
     9
100
AcDbLine
 10
207.9171331662502
 20
71.77625279895932
 30
0.0
 11
207.9171331662502
 21
70.92233650060994
 31
0.0
  0
LINE
  5
179
330
1F
100
AcDbEntity
  8
1
  6
Continuous
 62
     7
370
     9
100
AcDbLine
 10
207.9171331662502
 20
72.75890451845238
 30
0.0
 11
208.2171331662502
 21
72.34831529764824
 31
0.0
  0
LINE
  5
17A
330
1F
100
AcDbEntity
  8
1
  6
Continuous
 62
     7
370
     9
100
AcDbLine
 10
207.9171331662502
 20
69.83449453789018
 30
0.0
 11
207.9171331662502
 21
68.9025452370625
 31
0.0
  0
LINE
  5
17B
330
1F
100
AcDbEntity
  8
1
  6
Continuous
 62
     7
370
     9
100
AcDbLine
 10
208.2171331662502
 20
69.92720919920373
 30
0.0
 11
207.9171331662502
 21
69.83449453789018
 31
0.0
  0
LINE
  5
17C
330
1F
100
AcDbEntity
  8
1
  6
Continuous
 62
     7
370
     9
100
AcDbLine
 10
207.9171331662502
 20
67.73068663751849
 30
0.0
 11
207.9171331662502
 21
66.73884366727657
 31
0.0
  0
LINE
  5
17D
330
1F
100
AcDbEntity
  8
1
  6
Continuous
 62
     7
370
     9
100
AcDbLine
 10
207.9171331662502
 20
67.73068663751849
 30
0.0
 11
208.2171331662502
 21
67.8783897152598
 31
0.0
  0
LINE
  5
17E
330
1F
100
AcDbEntity
  8
1
  6
Continuous
 62
     7
370
     9
100
AcDbLine
 10
207.9171331662502
 20
68.9025452370625
 30
0.0
 11
208.2171331662502
 21
68.51776296447287
 31
0.0
  0
LINE
  5
17F
330
1F
100
AcDbEntity
  8
1
  6
Continuous
 62
     7
370
     9
100
AcDbLine
 10
207.9171331662502
 20
65.50577732557901
 30
0.0
 11
207.9171331662502
 21
64.4733457811339
 31
0.0
  0
LINE
  5
180
330
1F
100
AcDbEntity
  8
1
  6
Continuous
 62
     7
370
     9
100
AcDbLine
 10
208.2171331662502
 20
65.70559394734954
 30
0.0
 11
207.9171331662502
 21
65.50577732557901
 31
0.0
  0
LINE
  5
181
330
1F
100
AcDbEntity
  8
1
  6
Continuous
 62
     7
370
     9
100
AcDbLine
 10
208.2171331662502
 20
63.45111289357681
 30
0.0
 11
207.9171331662502
 21
63.20307193103172
 31
0.0
  0
LINE
  5
182
330
1F
100
AcDbEntity
  8
1
  6
Continuous
 62
     7
370
     9
100
AcDbLine
 10
207.9171331662502
 20
64.4733457811339
 30
0.0
 11
208.2171331662502
 21
64.14418208210498
 31
0.0
  0
LINE
  5
183
330
1F
100
AcDbEntity
  8
1
  6
Continuous
 62
     7
370
     9
100
AcDbLine
 10
208.2171331662502
 20
66.37836250356207
 30
0.0
 11
207.9171331662502
 21
66.73884366727657
 31
0.0
  0
LINE
  5
184
330
1F
100
AcDbEntity
  8
1
  6
Continuous
 62
     7
370
     9
100
AcDbLine
 10
208.2171331662502
 20
59.56654203286155
 30
0.0
 11
207.9171331662502
 21
59.81458299540657
 31
0.0
  0
LINE
  5
185
330
1F
100
AcDbEntity
  8
1
  6
Continuous
 62
     7
370
     9
100
AcDbLine
 10
207.9171331662502
 20
58.54430914530445
 30
0.0
 11
208.2171331662502
 21
58.87347284433332
 31
0.0
  0
LINE
  5
186
330
1F
100
AcDbEntity
  8
1
  6
Continuous
 62
     7
370
     9
100
AcDbLine
 10
207.9171331662502
 20
59.81458299540657
 30
0.0
 11
207.9171331662502
 21
61.50882746321918
 31
0.0
  0
LINE
  5
187
330
1F
100
AcDbEntity
  8
1
  6
Continuous
 62
     7
370
     9
100
AcDbLine
 10
208.2171331662502
 20
56.63929242287622
 30
0.0
 11
207.9171331662502
 21
56.27881125916172
 31
0.0
  0
LINE
  5
188
330
1F
100
AcDbEntity
  8
1
  6
Continuous
 62
     7
370
     9
100
AcDbLine
 10
208.2171331662502
 20
57.31206097908875
 30
0.0
 11
207.9171331662502
 21
57.51187760085929
 31
0.0
  0
LINE
  5
189
330
1F
100
AcDbEntity
  8
1
  6
Continuous
 62
     7
370
     9
100
AcDbLine
 10
207.9171331662502
 20
57.51187760085929
 30
0.0
 11
207.9171331662502
 21
58.54430914530445
 31
0.0
  0
LINE
  5
18A
330
1F
100
AcDbEntity
  8
1
  6
Continuous
 62
     7
370
     9
100
AcDbLine
 10
207.9171331662502
 20
63.20307193103172
 30
0.0
 11
207.9171331662502
 21
61.50882746321918
 31
0.0
  0
LINE
  5
18B
330
1F
100
AcDbEntity
  8
1
  6
Continuous
 62
     7
370
     9
100
AcDbLine
 10
208.2171331662502
 20
70.52074246839777
 30
0.0
 11
207.9171331662502
 21
70.92233650060994
 31
0.0
  0
LINE
  5
18C
330
1F
100
AcDbEntity
  8
1
  6
Continuous
 62
     7
370
     9
100
AcDbLine
 10
212.0171331662503
 20
67.9338274632193
 30
0.0
 11
212.0171331662503
 21
67.48382746321931
 31
0.0
  0
ARC
  5
18D
330
1F
100
AcDbEntity
  8
1
  6
Continuous
 62
     7
370
     9
100
AcDbCircle
 10
211.8671331662503
 20
67.48382746321931
 30
0.0
 40
0.1500000000000057
100
AcDbArc
 50
269.9999999999998
 51
0.0000000000054281
  0
ARC
  5
18E
330
1F
100
AcDbEntity
  8
1
  6
Continuous
 62
     7
370
     9
100
AcDbCircle
 10
211.8671331662503
 20
67.93382746321924
 30
0.0
 40
0.1500000000000057
100
AcDbArc
 50
0.0000000000271407
 51
89.99999999999991
  0
LINE
  5
18F
330
1F
100
AcDbEntity
  8
1
  6
Continuous
 62
     7
370
     9
100
AcDbLine
 10
201.1171331662502
 20
78.25882746321919
 30
0.0
 11
207.9171331662502
 21
78.25882746321919
 31
0.0
  0
LINE
  5
190
330
1F
100
AcDbEntity
  8
1
  6
Continuous
 62
     7
370
     9
100
AcDbLine
 10
201.1171331662502
 20
77.22912401221197
 30
0.0
 11
207.9171331662502
 21
77.22912401221197
 31
0.0
  0
LINE
  5
191
330
1F
100
AcDbEntity
  8
1
  6
Continuous
 62
     7
370
     9
100
AcDbLine
 10
200.8171331662502
 20
77.25828688692996
 30
0.0
 11
208.2171331662502
 21
77.25828688692991
 31
0.0
  0
LINE
  5
192
330
1F
100
AcDbEntity
  8
1
  6
Continuous
 62
     7
370
     9
100
AcDbLine
 10
201.1171331662502
 20
77.62552200191169
 30
0.0
 11
207.9171331662502
 21
77.62552200191169
 31
0.0
  0
LINE
  5
193
330
1F
100
AcDbEntity
  8
1
  6
Continuous
 62
     7
370
     9
100
AcDbLine
 10
201.1171331662502
 20
77.88087317851079
 30
0.0
 11
207.9171331662502
 21
77.88087317851079
 31
0.0
  0
LINE
  5
194
330
1F
100
AcDbEntity
  8
1
  6
Continuous
 62
     7
370
     9
100
AcDbLine
 10
201.1171331662502
 20
78.10362603405919
 30
0.0
 11
207.9171331662502
 21
78.10362603405919
 31
0.0
  0
LINE
  5
195
330
1F
100
AcDbEntity
  8
1
  6
Continuous
 62
     7
370
     9
100
AcDbLine
 10
201.1171331662502
 20
78.21395909788748
 30
0.0
 11
207.9171331662502
 21
78.21395909788748
 31
0.0
  0
LINE
  5
196
330
1F
100
AcDbEntity
  8
1
  6
Continuous
 62
     7
370
     9
100
AcDbLine
 10
201.1171331662502
 20
78.25882746321919
 30
0.0
 11
200.8171331662502
 21
77.95882746321918
 31
0.0
  0
LINE
  5
197
330
1F
100
AcDbEntity
  8
1
  6
Continuous
 62
     7
370
     9
100
AcDbLine
 10
201.1171331662502
 20
77.88087317851079
 30
0.0
 11
201.1171331662502
 21
77.62552200191169
 31
0.0
  0
LINE
  5
198
330
1F
100
AcDbEntity
  8
1
  6
Continuous
 62
     7
370
     9
100
AcDbLine
 10
200.8171331662502
 20
77.76600628941586
 30
0.0
 11
200.9713644162607
 21
77.76600628941586
 31
0.0
  0
LINE
  5
199
330
1F
100
AcDbEntity
  8
1
  6
Continuous
 62
     7
370
     9
100
AcDbLine
 10
200.8171331662502
 20
77.76600628941586
 30
0.0
 11
201.1171331662502
 21
78.10362603405919
 31
0.0
  0
LINE
  5
19A
330
1F
100
AcDbEntity
  8
1
  6
Continuous
 62
     7
370
     9
100
AcDbLine
 10
201.1171331662502
 20
77.88087317851079
 30
0.0
 11
200.8171331662502
 21
77.64447088562597
 31
0.0
  0
LINE
  5
19B
330
1F
100
AcDbEntity
  8
1
  6
Continuous
 62
     7
370
     9
100
AcDbLine
 10
200.8171331662502
 20
77.25828688692996
 30
0.0
 11
201.1171331662502
 21
77.62552200191169
 31
0.0
  0
LINE
  5
19C
330
1F
100
AcDbEntity
  8
1
  6
Continuous
 62
     7
370
     9
100
AcDbLine
 10
201.1171331662502
 20
77.22912401221197
 30
0.0
 11
200.8171331662502
 21
77.04200963950666
 31
0.0
  0
LINE
  5
19D
330
1F
100
AcDbEntity
  8
1
  6
Continuous
 62
     7
370
     9
100
AcDbLine
 10
200.8171331662502
 20
77.93287018655046
 30
0.0
 11
201.1171331662502
 21
78.21395909788748
 31
0.0
  0
LINE
  5
19E
330
1F
100
AcDbEntity
  8
1
  6
Continuous
 62
     7
370
     9
100
AcDbLine
 10
201.1171331662502
 20
78.21395909788748
 30
0.0
 11
201.1171331662502
 21
78.10362603405919
 31
0.0
  0
LINE
  5
19F
330
1F
100
AcDbEntity
  8
1
  6
Continuous
 62
     7
370
     9
100
AcDbLine
 10
200.2771331662502
 20
76.10882746321909
 30
0.0
 11
200.8171331662502
 21
75.47572401494324
 31
0.0
  0
LINE
  5
1A0
330
1F
100
AcDbEntity
  8
1
  6
Continuous
 62
     7
370
     9
100
AcDbLine
 10
200.8171331662502
 20
76.10882746321919
 30
0.0
 11
200.8171331662502
 21
77.95882746321918
 31
0.0
  0
LINE
  5
1A1
330
1F
100
AcDbEntity
  8
1
  6
Continuous
 62
     7
370
     9
100
AcDbLine
 10
198.2771331662502
 20
77.50882746321913
 30
0.0
 11
200.2771331662502
 21
77.50882746321913
 31
0.0
  0
LINE
  5
1A2
330
1F
100
AcDbEntity
  8
1
  6
Continuous
 62
     7
370
     9
100
AcDbLine
 10
209.5171331662503
 20
78.1088274632192
 30
0.0
 11
209.0171331662502
 21
78.1088274632192
 31
0.0
  0
LINE
  5
1A3
330
1F
100
AcDbEntity
  8
1
  6
Continuous
 62
     7
370
     9
100
AcDbLine
 10
208.2171331662502
 20
77.30882746321913
 30
0.0
 11
208.7171331662502
 21
77.30882746321913
 31
0.0
  0
LINE
  5
1A4
330
1F
100
AcDbEntity
  8
1
  6
Continuous
 62
     7
370
     9
100
AcDbLine
 10
207.9171331662502
 20
78.25882746321919
 30
0.0
 11
208.2171331662502
 21
77.95882746321918
 31
0.0
  0
LINE
  5
1A5
330
1F
100
AcDbEntity
  8
1
  6
Continuous
 62
     7
370
     9
100
AcDbLine
 10
207.9171331662502
 20
77.88087317851079
 30
0.0
 11
207.9171331662502
 21
77.62552200191169
 31
0.0
  0
LINE
  5
1A6
330
1F
100
AcDbEntity
  8
1
  6
Continuous
 62
     7
370
     9
100
AcDbLine
 10
208.2171331662502
 20
77.76600628941586
 30
0.0
 11
208.0629019162398
 21
77.76600628941586
 31
0.0
  0
LINE
  5
1A7
330
1F
100
AcDbEntity
  8
1
  6
Continuous
 62
     7
370
     9
100
AcDbLine
 10
208.2171331662502
 20
77.76600628941586
 30
0.0
 11
207.9171331662502
 21
78.10362603405919
 31
0.0
  0
LINE
  5
1A8
330
1F
100
AcDbEntity
  8
1
  6
Continuous
 62
     7
370
     9
100
AcDbLine
 10
207.9171331662502
 20
77.88087317851079
 30
0.0
 11
208.2171331662502
 21
77.64447088562597
 31
0.0
  0
LINE
  5
1A9
330
1F
100
AcDbEntity
  8
1
  6
Continuous
 62
     7
370
     9
100
AcDbLine
 10
208.2171331662502
 20
77.25828688692991
 30
0.0
 11
207.9171331662502
 21
77.62552200191169
 31
0.0
  0
LINE
  5
1AA
330
1F
100
AcDbEntity
  8
1
  6
Continuous
 62
     7
370
     9
100
AcDbLine
 10
207.9171331662502
 20
77.22912401221197
 30
0.0
 11
208.2171331662502
 21
77.04200963950666
 31
0.0
  0
LINE
  5
1AB
330
1F
100
AcDbEntity
  8
1
  6
Continuous
 62
     7
370
     9
100
AcDbLine
 10
208.2171331662502
 20
77.93287018655046
 30
0.0
 11
207.9171331662502
 21
78.21395909788748
 31
0.0
  0
LINE
  5
1AC
330
1F
100
AcDbEntity
  8
1
  6
Continuous
 62
     7
370
     9
100
AcDbLine
 10
207.9171331662502
 20
78.21395909788748
 30
0.0
 11
207.9171331662502
 21
78.10362603405919
 31
0.0
  0
LINE
  5
1AD
330
1F
100
AcDbEntity
  8
1
  6
Continuous
 62
     7
370
     9
100
AcDbLine
 10
209.0171331662502
 20
78.1088274632192
 30
0.0
 11
208.7171331662502
 21
77.80882746321919
 31
0.0
  0
LINE
  5
1AE
330
1F
100
AcDbEntity
  8
1
  6
Continuous
 62
     7
370
     9
100
AcDbLine
 10
235.3171331662502
 20
61.50882746321918
 30
0.0
 11
235.3171331662502
 21
77.20882746321918
 31
0.0
  0
LINE
  5
1AF
330
1F
100
AcDbEntity
  8
1
  6
Continuous
 62
     7
370
     9
100
AcDbLine
 10
229.2171331662502
 20
75.09323414216419
 30
0.0
 11
229.5171331662501
 21
74.68415146168529
 31
0.0
  0
LINE
  5
1B0
330
1F
100
AcDbEntity
  8
1
  6
Continuous
 62
     7
370
     9
100
AcDbLine
 10
220.5171331662501
 20
75.09323414216419
 30
0.0
 11
220.2171331662501
 21
74.68415146168529
 31
0.0
  0
LINE
  5
1B1
330
1F
100
AcDbEntity
  8
1
  6
Continuous
 62
     7
370
     9
100
AcDbLine
 10
229.5171331662501
 20
77.95882746321918
 30
0.0
 11
229.5171331662502
 21
61.50882746321918
 31
0.0
  0
LINE
  5
1B2
330
1F
100
AcDbEntity
  8
1
  6
Continuous
 62
     7
370
     9
100
AcDbLine
 10
220.2171331662501
 20
77.95882746321918
 30
0.0
 11
220.2171331662502
 21
61.50882746321918
 31
0.0
  0
LINE
  5
1B3
330
1F
100
AcDbEntity
  8
1
  6
Continuous
 62
     7
370
     9
100
AcDbLine
 10
219.4171331662502
 20
61.50882746321918
 30
0.0
 11
219.4171331662502
 21
78.1088274632192
 31
0.0
  0
LINE
  5
1B4
330
1F
100
AcDbEntity
  8
1
  6
Continuous
 62
     7
370
     9
100
AcDbLine
 10
220.0171331662502
 20
61.50882746321918
 30
0.0
 11
220.0171331662502
 21
77.80882746321919
 31
0.0
  0
LINE
  5
1B5
330
1F
100
AcDbEntity
  8
1
  6
Continuous
 62
     7
370
     9
100
AcDbLine
 10
229.5171331662502
 20
61.50882746321918
 30
0.0
 11
229.5171331662502
 21
77.95882746321918
 31
0.0
  0
LINE
  5
1B6
330
1F
100
AcDbEntity
  8
1
  6
Continuous
 62
     7
370
     9
100
AcDbLine
 10
229.7171331662502
 20
61.50882746321918
 30
0.0
 11
229.7171331662502
 21
77.50882746321919
 31
0.0
  0
LINE
  5
1B7
330
1F
100
AcDbEntity
  8
1
  6
Continuous
 62
     7
370
     9
100
AcDbLine
 10
229.7171331662502
 20
45.50882746321917
 30
0.0
 11
235.0171331662502
 21
45.50882746321917
 31
0.0
  0
LINE
  5
1B8
330
1F
100
AcDbEntity
  8
1
  6
Continuous
 62
     7
370
     9
100
AcDbLine
 10
229.5171331662501
 20
73.18513980066713
 30
0.0
 11
220.2171331662502
 21
73.18513980066713
 31
0.0
  0
LINE
  5
1B9
330
1F
100
AcDbEntity
  8
1
  6
Continuous
 62
     7
370
     9
100
AcDbLine
 10
229.2171331662502
 20
73.59723184749928
 30
0.0
 11
220.5171331662501
 21
73.59723184749928
 31
0.0
  0
LINE
  5
1BA
330
1F
100
AcDbEntity
  8
1
  6
Continuous
 62
     7
370
     9
100
AcDbLine
 10
229.2171331662502
 20
74.30341746625287
 30
0.0
 11
220.5171331662501
 21
74.30341746625287
 31
0.0
  0
LINE
  5
1BB
330
1F
100
AcDbEntity
  8
1
  6
Continuous
 62
     7
370
     9
100
AcDbLine
 10
229.5171331662501
 20
74.68415146168529
 30
0.0
 11
220.2171331662502
 21
74.68415146168529
 31
0.0
  0
LINE
  5
1BC
330
1F
100
AcDbEntity
  8
1
  6
Continuous
 62
     7
370
     9
100
AcDbLine
 10
220.2171331662501
 20
72.67440884699619
 30
0.0
 11
229.5171331662501
 21
72.67440884699619
 31
0.0
  0
LINE
  5
1BD
330
1F
100
AcDbEntity
  8
1
  6
Continuous
 62
     7
370
     9
100
AcDbLine
 10
220.5171331662501
 20
71.8659425118505
 30
0.0
 11
229.2171331662502
 21
71.8659425118505
 31
0.0
  0
LINE
  5
1BE
330
1F
100
AcDbEntity
  8
1
  6
Continuous
 62
     7
370
     9
100
AcDbLine
 10
229.5171331662501
 20
71.45886200160894
 30
0.0
 11
220.2171331662502
 21
71.45886200160894
 31
0.0
  0
LINE
  5
1BF
330
1F
100
AcDbEntity
  8
1
  6
Continuous
 62
     7
370
     9
100
AcDbLine
 10
229.5171331662501
 20
70.89255010554649
 30
0.0
 11
220.2171331662502
 21
70.89255010554649
 31
0.0
  0
LINE
  5
1C0
330
1F
100
AcDbEntity
  8
1
  6
Continuous
 62
     7
370
     9
100
AcDbLine
 10
220.5171331662501
 20
70.82807488676484
 30
0.0
 11
229.2171331662502
 21
70.82807488676484
 31
0.0
  0
LINE
  5
1C1
330
1F
100
AcDbEntity
  8
1
  6
Continuous
 62
     7
370
     9
100
AcDbLine
 10
220.5171331662502
 20
64.36137328656264
 30
0.0
 11
229.2171331662502
 21
64.36137328656269
 31
0.0
  0
LINE
  5
1C2
330
1F
100
AcDbEntity
  8
1
  6
Continuous
 62
     7
370
     9
100
AcDbLine
 10
229.5171331662502
 20
64.58584889000838
 30
0.0
 11
220.2171331662502
 21
64.58584889000838
 31
0.0
  0
LINE
  5
1C3
330
1F
100
AcDbEntity
  8
1
  6
Continuous
 62
     7
370
     9
100
AcDbLine
 10
229.2171331662502
 20
66.63070862663807
 30
0.0
 11
220.5171331662502
 21
66.63070862663807
 31
0.0
  0
LINE
  5
1C4
330
1F
100
AcDbEntity
  8
1
  6
Continuous
 62
     7
370
     9
100
AcDbLine
 10
220.2171331662502
 20
66.8048927802377
 30
0.0
 11
229.5171331662502
 21
66.8048927802377
 31
0.0
  0
LINE
  5
1C5
330
1F
100
AcDbEntity
  8
1
  6
Continuous
 62
     7
370
     9
100
AcDbLine
 10
229.5171331662502
 20
65.27055221052205
 30
0.0
 11
220.2171331662502
 21
65.27055221052205
 31
0.0
  0
LINE
  5
1C6
330
1F
100
AcDbEntity
  8
1
  6
Continuous
 62
     7
370
     9
100
AcDbLine
 10
220.5171331662502
 20
65.61621432749922
 30
0.0
 11
229.2171331662502
 21
65.61621432749922
 31
0.0
  0
LINE
  5
1C7
330
1F
100
AcDbEntity
  8
1
  6
Continuous
 62
     7
370
     9
100
AcDbLine
 10
229.2171331662502
 20
69.93306371282386
 30
0.0
 11
220.5171331662502
 21
69.93306371282386
 31
0.0
  0
LINE
  5
1C8
330
1F
100
AcDbEntity
  8
1
  6
Continuous
 62
     7
370
     9
100
AcDbLine
 10
220.2171331662502
 20
69.53891809825757
 30
0.0
 11
229.5171331662502
 21
69.53891809825757
 31
0.0
  0
LINE
  5
1C9
330
1F
100
AcDbEntity
  8
1
  6
Continuous
 62
     7
370
     9
100
AcDbLine
 10
229.5171331662502
 20
68.92085478325634
 30
0.0
 11
220.2171331662502
 21
68.92085478325634
 31
0.0
  0
LINE
  5
1CA
330
1F
100
AcDbEntity
  8
1
  6
Continuous
 62
     7
370
     9
100
AcDbLine
 10
220.5171331662502
 20
68.80035237592098
 30
0.0
 11
229.2171331662502
 21
68.80035237592098
 31
0.0
  0
LINE
  5
1CB
330
1F
100
AcDbEntity
  8
1
  6
Continuous
 62
     7
370
     9
100
AcDbLine
 10
229.2171331662502
 20
67.83621673762542
 30
0.0
 11
220.5171331662502
 21
67.83621673762542
 31
0.0
  0
LINE
  5
1CC
330
1F
100
AcDbEntity
  8
1
  6
Continuous
 62
     7
370
     9
100
AcDbLine
 10
220.2171331662502
 20
67.46267761478782
 30
0.0
 11
229.5171331662502
 21
67.46267761478782
 31
0.0
  0
LINE
  5
1CD
330
1F
100
AcDbEntity
  8
1
  6
Continuous
 62
     7
370
     9
100
AcDbLine
 10
220.5171331662502
 20
58.65628163987565
 30
0.0
 11
229.2171331662502
 21
58.65628163987571
 31
0.0
  0
LINE
  5
1CE
330
1F
100
AcDbEntity
  8
1
  6
Continuous
 62
     7
370
     9
100
AcDbLine
 10
229.5171331662502
 20
58.43180603642998
 30
0.0
 11
220.2171331662502
 21
58.43180603642998
 31
0.0
  0
LINE
  5
1CF
330
1F
100
AcDbEntity
  8
1
  6
Continuous
 62
     7
370
     9
100
AcDbLine
 10
229.2171331662502
 20
56.38694629980035
 30
0.0
 11
220.5171331662502
 21
56.3869462998003
 31
0.0
  0
LINE
  5
1D0
330
1F
100
AcDbEntity
  8
1
  6
Continuous
 62
     7
370
     9
100
AcDbLine
 10
220.2171331662502
 20
56.21276214620064
 30
0.0
 11
229.5171331662502
 21
56.21276214620064
 31
0.0
  0
LINE
  5
1D1
330
1F
100
AcDbEntity
  8
1
  6
Continuous
 62
     7
370
     9
100
AcDbLine
 10
229.5171331662502
 20
57.74710271591636
 30
0.0
 11
220.2171331662502
 21
57.74710271591629
 31
0.0
  0
LINE
  5
1D2
330
1F
100
AcDbEntity
  8
1
  6
Continuous
 62
     7
370
     9
100
AcDbLine
 10
220.5171331662502
 20
57.40144059893913
 30
0.0
 11
229.2171331662502
 21
57.40144059893913
 31
0.0
  0
LINE
  5
1D3
330
1F
100
AcDbEntity
  8
1
  6
Continuous
 62
     7
370
     9
100
AcDbLine
 10
220.5171331662502
 20
54.21730255051739
 30
0.0
 11
229.2171331662502
 21
54.21730255051739
 31
0.0
  0
LINE
  5
1D4
330
1F
100
AcDbEntity
  8
1
  6
Continuous
 62
     7
370
     9
100
AcDbLine
 10
229.2171331662502
 20
55.18143818881299
 30
0.0
 11
220.5171331662502
 21
55.18143818881293
 31
0.0
  0
LINE
  5
1D5
330
1F
100
AcDbEntity
  8
1
  6
Continuous
 62
     7
370
     9
100
AcDbLine
 10
220.2171331662502
 20
55.55497731165047
 30
0.0
 11
229.5171331662502
 21
55.55497731165053
 31
0.0
  0
LINE
  5
1D6
330
1F
100
AcDbEntity
  8
1
  6
Continuous
 62
     7
370
     9
100
AcDbLine
 10
229.2171331662502
 20
44.75882746321921
 30
0.0
 11
220.5171331662502
 21
44.75882746321917
 31
0.0
  0
LINE
  5
1D7
330
1F
100
AcDbEntity
  8
1
  6
Continuous
 62
     7
370
     9
100
AcDbLine
 10
220.5171331662502
 20
51.15171241458785
 30
0.0
 11
229.2171331662502
 21
51.1517124145879
 31
0.0
  0
LINE
  5
1D8
330
1F
100
AcDbEntity
  8
1
  6
Continuous
 62
     7
370
     9
100
AcDbLine
 10
229.5171331662502
 20
51.55879292482945
 30
0.0
 11
220.2171331662502
 21
51.55879292482945
 31
0.0
  0
LINE
  5
1D9
330
1F
100
AcDbEntity
  8
1
  6
Continuous
 62
     7
370
     9
100
AcDbLine
 10
229.5171331662502
 20
52.12510482089186
 30
0.0
 11
220.2171331662502
 21
52.12510482089186
 31
0.0
  0
LINE
  5
1DA
330
1F
100
AcDbEntity
  8
1
  6
Continuous
 62
     7
370
     9
100
AcDbLine
 10
220.5171331662502
 20
52.1895800396735
 30
0.0
 11
229.2171331662502
 21
52.18958003967356
 31
0.0
  0
LINE
  5
1DB
330
1F
100
AcDbEntity
  8
1
  6
Continuous
 62
     7
370
     9
100
AcDbLine
 10
229.2171331662502
 20
53.08459121361449
 30
0.0
 11
220.5171331662502
 21
53.08459121361449
 31
0.0
  0
LINE
  5
1DC
330
1F
100
AcDbEntity
  8
1
  6
Continuous
 62
     7
370
     9
100
AcDbLine
 10
220.2171331662502
 20
53.47873682818079
 30
0.0
 11
229.5171331662502
 21
53.47873682818085
 31
0.0
  0
LINE
  5
1DD
330
1F
100
AcDbEntity
  8
1
  6
Continuous
 62
     7
370
     9
100
AcDbLine
 10
229.5171331662502
 20
54.09680014318206
 30
0.0
 11
220.2171331662502
 21
54.09680014318206
 31
0.0
  0
LINE
  5
1DE
330
1F
100
AcDbEntity
  8
1
  6
Continuous
 62
     7
370
     9
100
AcDbLine
 10
229.5171331662502
 20
49.8325151257713
 30
0.0
 11
220.2171331662502
 21
49.83251512577124
 31
0.0
  0
LINE
  5
1DF
330
1F
100
AcDbEntity
  8
1
  6
Continuous
 62
     7
370
     9
100
AcDbLine
 10
229.2171331662502
 20
49.42042307893911
 30
0.0
 11
220.5171331662502
 21
49.42042307893904
 31
0.0
  0
LINE
  5
1E0
330
1F
100
AcDbEntity
  8
1
  6
Continuous
 62
     7
370
     9
100
AcDbLine
 10
229.2171331662502
 20
48.71423746018547
 30
0.0
 11
220.5171331662502
 21
48.71423746018542
 31
0.0
  0
LINE
  5
1E1
330
1F
100
AcDbEntity
  8
1
  6
Continuous
 62
     7
370
     9
100
AcDbLine
 10
229.5171331662502
 20
48.33350346475311
 30
0.0
 11
220.2171331662502
 21
48.33350346475304
 31
0.0
  0
LINE
  5
1E2
330
1F
100
AcDbEntity
  8
1
  6
Continuous
 62
     7
370
     9
100
AcDbLine
 10
229.2171331662502
 20
47.92442078427415
 30
0.0
 11
220.5171331662502
 21
47.92442078427415
 31
0.0
  0
LINE
  5
1E3
330
1F
100
AcDbEntity
  8
1
  6
Continuous
 62
     7
370
     9
100
AcDbLine
 10
229.5171331662502
 20
47.09093449865616
 30
0.0
 11
220.2171331662502
 21
47.09093449865611
 31
0.0
  0
LINE
  5
1E4
330
1F
100
AcDbEntity
  8
1
  6
Continuous
 62
     7
370
     9
100
AcDbLine
 10
229.5171331662502
 20
46.12899341900425
 30
0.0
 11
220.2171331662502
 21
46.12899341900418
 31
0.0
  0
LINE
  5
1E5
330
1F
100
AcDbEntity
  8
1
  6
Continuous
 62
     7
370
     9
100
AcDbLine
 10
229.2171331662502
 20
45.42347321657922
 30
0.0
 11
220.5171331662502
 21
45.42347321657916
 31
0.0
  0
LINE
  5
1E6
330
1F
100
AcDbEntity
  8
1
  6
Continuous
 62
     7
370
     9
100
AcDbLine
 10
229.2171331662502
 20
45.11311768018379
 30
0.0
 11
220.5171331662502
 21
45.11311768018379
 31
0.0
  0
LINE
  5
1E7
330
1F
100
AcDbEntity
  8
1
  6
Continuous
 62
     7
370
     9
100
AcDbLine
 10
229.2171331662502
 20
45.74960290681349
 30
0.0
 11
220.5171331662502
 21
45.74960290681344
 31
0.0
  0
LINE
  5
1E8
330
1F
100
AcDbEntity
  8
1
  6
Continuous
 62
     7
370
     9
100
AcDbLine
 10
229.2171331662502
 20
44.92985324028848
 30
0.0
 11
220.5171331662502
 21
44.92985324028848
 31
0.0
  0
LINE
  5
1E9
330
1F
100
AcDbEntity
  8
1
  6
Continuous
 62
     7
370
     9
100
AcDbLine
 10
229.2171331662502
 20
46.23017631646154
 30
0.0
 11
220.5171331662502
 21
46.23017631646149
 31
0.0
  0
LINE
  5
1EA
330
1F
100
AcDbEntity
  8
1
  6
Continuous
 62
     7
370
     9
100
AcDbLine
 10
229.2171331662502
 20
46.69282351358129
 30
0.0
 11
220.5171331662502
 21
46.69282351358129
 31
0.0
  0
LINE
  5
1EB
330
1F
100
AcDbEntity
  8
1
  6
Continuous
 62
     7
370
     9
100
AcDbLine
 10
220.5171331662502
 20
47.33426098170737
 30
0.0
 11
229.2171331662502
 21
47.33426098170737
 31
0.0
  0
LINE
  5
1EC
330
1F
100
AcDbEntity
  8
1
  6
Continuous
 62
     7
370
     9
100
AcDbLine
 10
220.2171331662502
 20
50.34324607944217
 30
0.0
 11
229.5171331662502
 21
50.34324607944217
 31
0.0
  0
LINE
  5
1ED
330
1F
100
AcDbEntity
  8
1
  6
Continuous
 62
     7
370
     9
100
AcDbLine
 10
229.2171331662502
 20
44.79575629463744
 30
0.0
 11
220.5171331662502
 21
44.79575629463744
 31
0.0
  0
LINE
  5
1EE
330
1F
100
AcDbEntity
  8
1
  6
Continuous
 62
     7
370
     9
100
AcDbLine
 10
219.4171331662502
 20
61.50882746321918
 30
0.0
 11
219.4171331662502
 21
44.90882746321914
 31
0.0
  0
LINE
  5
1EF
330
1F
100
AcDbEntity
  8
1
  6
Continuous
 62
     7
370
     9
100
AcDbLine
 10
220.0171331662502
 20
61.50882746321918
 30
0.0
 11
220.0171331662502
 21
45.20882746321917
 31
0.0
  0
LINE
  5
1F0
330
1F
100
AcDbEntity
  8
1
  6
Continuous
 62
     7
370
     9
100
AcDbLine
 10
220.2171331662502
 20
45.05882746321918
 30
0.0
 11
220.2171331662502
 21
61.50882746321918
 31
0.0
  0
LINE
  5
1F1
330
1F
100
AcDbEntity
  8
1
  6
Continuous
 62
     7
370
     9
100
AcDbLine
 10
219.4171331662502
 20
44.90882746321914
 30
0.0
 11
219.7171331662502
 21
44.90882746321914
 31
0.0
  0
LINE
  5
1F2
330
1F
100
AcDbEntity
  8
1
  6
Continuous
 62
     7
370
     9
100
AcDbLine
 10
216.4171331662502
 20
44.90882746321914
 30
0.0
 11
219.4171331662502
 21
44.90882746321914
 31
0.0
  0
LINE
  5
1F3
330
1F
100
AcDbEntity
  8
1
  6
Continuous
 62
     7
370
     9
100
AcDbLine
 10
216.4171331662502
 20
46.52658797774836
 30
0.0
 11
216.4171331662502
 21
43.32229398374596
 31
0.0
  0
LINE
  5
1F4
330
1F
100
AcDbEntity
  8
1
  6
Continuous
 62
     7
370
     9
100
AcDbLine
 10
215.4769716947166
 20
47.37463607390487
 30
0.0
 11
215.4769716947166
 21
44.17034207990247
 31
0.0
  0
LINE
  5
1F5
330
1F
100
AcDbEntity
  8
1
  6
Continuous
 62
     7
370
     9
100
AcDbLine
 10
215.7027083856233
 20
47.29263242086738
 30
0.0
 11
215.7027083856233
 21
44.08833842686499
 31
0.0
  0
LINE
  5
1F6
330
1F
100
AcDbEntity
  8
1
  6
Continuous
 62
     7
370
     9
100
AcDbLine
 10
215.903422817205
 20
47.19571858410745
 30
0.0
 11
215.903422817205
 21
43.99142459010488
 31
0.0
  0
LINE
  5
1F7
330
1F
100
AcDbEntity
  8
1
  6
Continuous
 62
     7
370
     9
100
AcDbLine
 10
216.0752083113603
 20
47.08578088121931
 30
0.0
 11
216.0752083113603
 21
43.88148688721673
 31
0.0
  0
LINE
  5
1F8
330
1F
100
AcDbEntity
  8
1
  6
Continuous
 62
     7
370
     9
100
AcDbLine
 10
216.2147212588485
 20
46.96495912453746
 30
0.0
 11
216.2147212588485
 21
43.76066513053502
 31
0.0
  0
LINE
  5
1F9
330
1F
100
AcDbEntity
  8
1
  6
Continuous
 62
     7
370
     9
100
AcDbLine
 10
216.3192461988405
 20
46.83560497212329
 30
0.0
 11
216.3192461988405
 21
43.63131097812089
 31
0.0
  0
LINE
  5
1FA
330
1F
100
AcDbEntity
  8
1
  6
Continuous
 62
     7
370
     9
100
AcDbLine
 10
216.3867486722746
 20
46.70023615541527
 30
0.0
 11
216.3867486722746
 21
43.49594216141297
 31
0.0
  0
LINE
  5
1FB
330
1F
100
AcDbEntity
  8
1
  6
Continuous
 62
     7
370
     9
100
AcDbLine
 10
220.2171331662502
 20
55.55497731165047
 30
0.0
 11
220.5171331662502
 21
55.18143818881293
 31
0.0
  0
LINE
  5
1FC
330
1F
100
AcDbEntity
  8
1
  6
Continuous
 62
     7
370
     9
100
AcDbLine
 10
220.5171331662502
 20
54.21730255051739
 30
0.0
 11
220.5171331662502
 21
55.18143818881293
 31
0.0
  0
LINE
  5
1FD
330
1F
100
AcDbEntity
  8
1
  6
Continuous
 62
     7
370
     9
100
AcDbLine
 10
220.5171331662502
 20
53.08459121361449
 30
0.0
 11
220.2171331662502
 21
53.47873682818079
 31
0.0
  0
LINE
  5
1FE
330
1F
100
AcDbEntity
  8
1
  6
Continuous
 62
     7
370
     9
100
AcDbLine
 10
220.5171331662502
 20
52.1895800396735
 30
0.0
 11
220.5171331662502
 21
53.08459121361449
 31
0.0
  0
LINE
  5
1FF
330
1F
100
AcDbEntity
  8
1
  6
Continuous
 62
     7
370
     9
100
AcDbLine
 10
220.5171331662502
 20
51.15171241458785
 30
0.0
 11
220.2171331662502
 21
51.55879292482945
 31
0.0
  0
LINE
  5
200
330
1F
100
AcDbEntity
  8
1
  6
Continuous
 62
     7
370
     9
100
AcDbLine
 10
220.5171331662502
 20
50.34324607944217
 30
0.0
 11
220.5171331662502
 21
51.15171241458785
 31
0.0
  0
LINE
  5
201
330
1F
100
AcDbEntity
  8
1
  6
Continuous
 62
     7
370
     9
100
AcDbLine
 10
220.5171331662502
 20
52.1895800396735
 30
0.0
 11
220.2171331662502
 21
52.12510482089186
 31
0.0
  0
LINE
  5
202
330
1F
100
AcDbEntity
  8
1
  6
Continuous
 62
     7
370
     9
100
AcDbLine
 10
220.5171331662502
 20
48.71423746018542
 30
0.0
 11
220.2171331662502
 21
48.76446649748101
 31
0.0
  0
LINE
  5
203
330
1F
100
AcDbEntity
  8
1
  6
Continuous
 62
     7
370
     9
100
AcDbLine
 10
220.5171331662502
 20
49.42042307893904
 30
0.0
 11
220.2171331662502
 21
49.83251512577124
 31
0.0
  0
LINE
  5
204
330
1F
100
AcDbEntity
  8
1
  6
Continuous
 62
     7
370
     9
100
AcDbLine
 10
220.5171331662502
 20
48.71423746018542
 30
0.0
 11
220.5171331662502
 21
49.42042307893904
 31
0.0
  0
LINE
  5
205
330
1F
100
AcDbEntity
  8
1
  6
Continuous
 62
     7
370
     9
100
AcDbLine
 10
220.2171331662502
 20
46.00882746321917
 30
0.0
 11
220.0171331662502
 21
46.00882746321917
 31
0.0
  0
LINE
  5
206
330
1F
100
AcDbEntity
  8
1
  6
Continuous
 62
     7
370
     9
100
AcDbLine
 10
220.5171331662502
 20
47.33426098170737
 30
0.0
 11
220.2171331662502
 21
47.44093449865612
 31
0.0
  0
LINE
  5
207
330
1F
100
AcDbEntity
  8
1
  6
Continuous
 62
     7
370
     9
100
AcDbLine
 10
220.2171331662502
 20
47.09093449865611
 30
0.0
 11
220.5171331662502
 21
46.69282351358129
 31
0.0
  0
LINE
  5
208
330
1F
100
AcDbEntity
  8
1
  6
Continuous
 62
     7
370
     9
100
AcDbLine
 10
220.5171331662502
 20
46.23017631646149
 30
0.0
 11
220.2171331662502
 21
46.39121803439537
 31
0.0
  0
LINE
  5
209
330
1F
100
AcDbEntity
  8
1
  6
Continuous
 62
     7
370
     9
100
AcDbLine
 10
220.5171331662502
 20
46.23017631646149
 30
0.0
 11
220.5171331662502
 21
46.69282351358129
 31
0.0
  0
LINE
  5
20A
330
1F
100
AcDbEntity
  8
1
  6
Continuous
 62
     7
370
     9
100
AcDbLine
 10
220.5171331662502
 20
47.33426098170737
 30
0.0
 11
220.5171331662502
 21
47.92442078427415
 31
0.0
  0
LINE
  5
20B
330
1F
100
AcDbEntity
  8
1
  6
Continuous
 62
     7
370
     9
100
AcDbLine
 10
220.5171331662502
 20
47.92442078427415
 30
0.0
 11
220.2171331662502
 21
48.33350346475304
 31
0.0
  0
LINE
  5
20C
330
1F
100
AcDbEntity
  8
1
  6
Continuous
 62
     7
370
     9
100
AcDbLine
 10
219.7171331662502
 20
44.90882746321914
 30
0.0
 11
220.0171331662502
 21
45.20882746321917
 31
0.0
  0
LINE
  5
20D
330
1F
100
AcDbEntity
  8
1
  6
Continuous
 62
     7
370
     9
100
AcDbLine
 10
220.5171331662502
 20
44.75882746321917
 30
0.0
 11
220.2171331662502
 21
45.05882746321918
 31
0.0
  0
LINE
  5
20E
330
1F
100
AcDbEntity
  8
1
  6
Continuous
 62
     7
370
     9
100
AcDbLine
 10
220.2171331662502
 20
45.63574864164076
 30
0.0
 11
220.5171331662502
 21
45.42347321657916
 31
0.0
  0
LINE
  5
20F
330
1F
100
AcDbEntity
  8
1
  6
Continuous
 62
     7
370
     9
100
AcDbLine
 10
220.5171331662502
 20
44.92985324028848
 30
0.0
 11
220.2171331662502
 21
45.18923067278872
 31
0.0
  0
LINE
  5
210
330
1F
100
AcDbEntity
  8
1
  6
Continuous
 62
     7
370
     9
100
AcDbLine
 10
220.5171331662502
 20
45.11311768018379
 30
0.0
 11
220.2171331662502
 21
45.46640331472099
 31
0.0
  0
LINE
  5
211
330
1F
100
AcDbEntity
  8
1
  6
Continuous
 62
     7
370
     9
100
AcDbLine
 10
220.5171331662502
 20
45.42347321657916
 30
0.0
 11
220.5171331662502
 21
45.74960290681344
 31
0.0
  0
LINE
  5
212
330
1F
100
AcDbEntity
  8
1
  6
Continuous
 62
     7
370
     9
100
AcDbLine
 10
220.5171331662502
 20
44.92985324028848
 30
0.0
 11
220.5171331662502
 21
45.11311768018379
 31
0.0
  0
LINE
  5
213
330
1F
100
AcDbEntity
  8
1
  6
Continuous
 62
     7
370
     9
100
AcDbLine
 10
220.5171331662502
 20
44.79575629463744
 30
0.0
 11
220.2171331662502
 21
45.05882746321918
 31
0.0
  0
LINE
  5
214
330
1F
100
AcDbEntity
  8
1
  6
Continuous
 62
     7
370
     9
100
AcDbLine
 10
220.5171331662502
 20
44.75882746321917
 30
0.0
 11
220.5171331662502
 21
44.79575629463744
 31
0.0
  0
LINE
  5
215
330
1F
100
AcDbEntity
  8
1
  6
Continuous
 62
     7
370
     9
100
AcDbLine
 10
220.2171331662502
 20
46.12899341900418
 30
0.0
 11
220.5171331662502
 21
45.74960290681344
 31
0.0
  0
LINE
  5
216
330
1F
100
AcDbEntity
  8
1
  6
Continuous
 62
     7
370
     9
100
AcDbLine
 10
220.5171331662502
 20
54.21730255051739
 30
0.0
 11
220.2171331662502
 21
54.09680014318206
 31
0.0
  0
CIRCLE
  5
217
330
1F
100
AcDbEntity
  8
1
  6
Continuous
 62
     7
370
     9
100
AcDbCircle
 10
217.1671331662504
 20
64.22882746321931
 30
0.0
 40
0.25
  0
CIRCLE
  5
218
330
1F
100
AcDbEntity
  8
1
  6
Continuous
 62
     7
370
     9
100
AcDbCircle
 10
217.1671331662504
 20
61.32882746321935
 30
0.0
 40
0.25
  0
CIRCLE
  5
219
330
1F
100
AcDbEntity
  8
1
  6
Continuous
 62
     7
370
     9
100
AcDbCircle
 10
217.1671331662504
 20
56.94882746321934
 30
0.0
 40
0.25
  0
CIRCLE
  5
21A
330
1F
100
AcDbEntity
  8
1
  6
Continuous
 62
     7
370
     9
100
AcDbCircle
 10
217.1671331662504
 20
58.40882746321931
 30
0.0
 40
0.25
  0
LINE
  5
21B
330
1F
100
AcDbEntity
  8
1
  6
Continuous
 62
     7
370
     9
100
AcDbLine
 10
220.5171331662501
 20
74.30341746625287
 30
0.0
 11
220.2171331662502
 21
74.25318842895734
 31
0.0
  0
LINE
  5
21C
330
1F
100
AcDbEntity
  8
1
  6
Continuous
 62
     7
370
     9
100
AcDbLine
 10
220.5171331662501
 20
73.59723184749928
 30
0.0
 11
220.2171331662501
 21
73.18513980066713
 31
0.0
  0
LINE
  5
21D
330
1F
100
AcDbEntity
  8
1
  6
Continuous
 62
     7
370
     9
100
AcDbLine
 10
220.5171331662501
 20
74.30341746625287
 30
0.0
 11
220.5171331662501
 21
73.59723184749928
 31
0.0
  0
LINE
  5
21E
330
1F
100
AcDbEntity
  8
1
  6
Continuous
 62
     7
370
     9
100
AcDbLine
 10
220.5171331662501
 20
71.8659425118505
 30
0.0
 11
220.2171331662501
 21
71.45886200160894
 31
0.0
  0
LINE
  5
21F
330
1F
100
AcDbEntity
  8
1
  6
Continuous
 62
     7
370
     9
100
AcDbLine
 10
220.5171331662501
 20
70.82807488676484
 30
0.0
 11
220.2171331662501
 21
70.89255010554649
 31
0.0
  0
LINE
  5
220
330
1F
100
AcDbEntity
  8
1
  6
Continuous
 62
     7
370
     9
100
AcDbLine
 10
220.5171331662501
 20
72.67440884699619
 30
0.0
 11
220.5171331662501
 21
71.8659425118505
 31
0.0
  0
LINE
  5
221
330
1F
100
AcDbEntity
  8
1
  6
Continuous
 62
     7
370
     9
100
AcDbLine
 10
220.5171331662502
 20
69.93306371282386
 30
0.0
 11
220.2171331662502
 21
69.53891809825757
 31
0.0
  0
LINE
  5
222
330
1F
100
AcDbEntity
  8
1
  6
Continuous
 62
     7
370
     9
100
AcDbLine
 10
220.5171331662502
 20
68.80035237592098
 30
0.0
 11
220.2171331662502
 21
68.92085478325634
 31
0.0
  0
LINE
  5
223
330
1F
100
AcDbEntity
  8
1
  6
Continuous
 62
     7
370
     9
100
AcDbLine
 10
220.5171331662502
 20
66.63070862663807
 30
0.0
 11
220.2171331662502
 21
66.8048927802377
 31
0.0
  0
LINE
  5
224
330
1F
100
AcDbEntity
  8
1
  6
Continuous
 62
     7
370
     9
100
AcDbLine
 10
220.2171331662502
 20
67.46267761478782
 30
0.0
 11
220.5171331662502
 21
67.83621673762542
 31
0.0
  0
LINE
  5
225
330
1F
100
AcDbEntity
  8
1
  6
Continuous
 62
     7
370
     9
100
AcDbLine
 10
220.5171331662502
 20
68.80035237592098
 30
0.0
 11
220.5171331662502
 21
67.83621673762542
 31
0.0
  0
LINE
  5
226
330
1F
100
AcDbEntity
  8
1
  6
Continuous
 62
     7
370
     9
100
AcDbLine
 10
220.2171331662502
 20
65.27055221052205
 30
0.0
 11
220.5171331662502
 21
65.61621432749922
 31
0.0
  0
LINE
  5
227
330
1F
100
AcDbEntity
  8
1
  6
Continuous
 62
     7
370
     9
100
AcDbLine
 10
220.5171331662502
 20
64.36137328656264
 30
0.0
 11
220.2171331662502
 21
64.58584889000838
 31
0.0
  0
LINE
  5
228
330
1F
100
AcDbEntity
  8
1
  6
Continuous
 62
     7
370
     9
100
AcDbLine
 10
220.5171331662502
 20
66.63070862663807
 30
0.0
 11
220.5171331662502
 21
65.61621432749922
 31
0.0
  0
LINE
  5
229
330
1F
100
AcDbEntity
  8
1
  6
Continuous
 62
     7
370
     9
100
AcDbLine
 10
220.5171331662502
 20
58.65628163987565
 30
0.0
 11
220.2171331662502
 21
58.43180603642998
 31
0.0
  0
LINE
  5
22A
330
1F
100
AcDbEntity
  8
1
  6
Continuous
 62
     7
370
     9
100
AcDbLine
 10
220.5171331662502
 20
58.65628163987565
 30
0.0
 11
220.5171331662502
 21
61.50882746321918
 31
0.0
  0
LINE
  5
22B
330
1F
100
AcDbEntity
  8
1
  6
Continuous
 62
     7
370
     9
100
AcDbLine
 10
220.2171331662502
 20
57.74710271591629
 30
0.0
 11
220.5171331662502
 21
57.40144059893913
 31
0.0
  0
LINE
  5
22C
330
1F
100
AcDbEntity
  8
1
  6
Continuous
 62
     7
370
     9
100
AcDbLine
 10
220.5171331662502
 20
56.3869462998003
 30
0.0
 11
220.5171331662502
 21
57.40144059893913
 31
0.0
  0
LINE
  5
22D
330
1F
100
AcDbEntity
  8
1
  6
Continuous
 62
     7
370
     9
100
AcDbLine
 10
220.5171331662502
 20
56.3869462998003
 30
0.0
 11
220.2171331662502
 21
56.21276214620064
 31
0.0
  0
LINE
  5
22E
330
1F
100
AcDbEntity
  8
1
  6
Continuous
 62
     7
370
     9
100
AcDbLine
 10
220.5171331662502
 20
64.36137328656264
 30
0.0
 11
220.5171331662502
 21
61.50882746321918
 31
0.0
  0
CIRCLE
  5
22F
330
1F
100
AcDbEntity
  8
1
  6
Continuous
 62
     7
370
     9
100
AcDbCircle
 10
221.8171331662502
 20
61.50882746321918
 30
0.0
 40
0.75
  0
LINE
  5
230
330
1F
100
AcDbEntity
  8
1
  6
Continuous
 62
     7
370
     9
100
AcDbLine
 10
220.5171331662501
 20
70.82807488676484
 30
0.0
 11
220.5171331662502
 21
69.93306371282386
 31
0.0
  0
LINE
  5
231
330
1F
100
AcDbEntity
  8
1
  6
Continuous
 62
     7
370
     9
100
AcDbLine
 10
229.7171331662502
 20
61.50882746321918
 30
0.0
 11
229.7171331662502
 21
45.50882746321917
 31
0.0
  0
LINE
  5
232
330
1F
100
AcDbEntity
  8
1
  6
Continuous
 62
     7
370
     9
100
AcDbLine
 10
229.5171331662502
 20
45.05882746321918
 30
0.0
 11
229.5171331662502
 21
61.50882746321918
 31
0.0
  0
LINE
  5
233
330
1F
100
AcDbEntity
  8
1
  6
Continuous
 62
     7
370
     9
100
AcDbLine
 10
229.5171331662502
 20
55.55497731165053
 30
0.0
 11
229.2171331662502
 21
55.18143818881299
 31
0.0
  0
LINE
  5
234
330
1F
100
AcDbEntity
  8
1
  6
Continuous
 62
     7
370
     9
100
AcDbLine
 10
229.2171331662502
 20
54.21730255051739
 30
0.0
 11
229.2171331662502
 21
55.18143818881299
 31
0.0
  0
LINE
  5
235
330
1F
100
AcDbEntity
  8
1
  6
Continuous
 62
     7
370
     9
100
AcDbLine
 10
229.2171331662502
 20
53.08459121361449
 30
0.0
 11
229.5171331662502
 21
53.47873682818085
 31
0.0
  0
LINE
  5
236
330
1F
100
AcDbEntity
  8
1
  6
Continuous
 62
     7
370
     9
100
AcDbLine
 10
229.2171331662502
 20
52.18958003967356
 30
0.0
 11
229.2171331662502
 21
53.08459121361449
 31
0.0
  0
LINE
  5
237
330
1F
100
AcDbEntity
  8
1
  6
Continuous
 62
     7
370
     9
100
AcDbLine
 10
229.2171331662502
 20
51.1517124145879
 30
0.0
 11
229.5171331662502
 21
51.55879292482945
 31
0.0
  0
LINE
  5
238
330
1F
100
AcDbEntity
  8
1
  6
Continuous
 62
     7
370
     9
100
AcDbLine
 10
229.2171331662502
 20
50.34324607944217
 30
0.0
 11
229.2171331662502
 21
51.1517124145879
 31
0.0
  0
LINE
  5
239
330
1F
100
AcDbEntity
  8
1
  6
Continuous
 62
     7
370
     9
100
AcDbLine
 10
229.2171331662502
 20
52.18958003967356
 30
0.0
 11
229.5171331662502
 21
52.12510482089186
 31
0.0
  0
LINE
  5
23A
330
1F
100
AcDbEntity
  8
1
  6
Continuous
 62
     7
370
     9
100
AcDbLine
 10
229.2171331662502
 20
48.71423746018547
 30
0.0
 11
229.5171331662502
 21
48.76446649748107
 31
0.0
  0
LINE
  5
23B
330
1F
100
AcDbEntity
  8
1
  6
Continuous
 62
     7
370
     9
100
AcDbLine
 10
229.2171331662502
 20
49.42042307893911
 30
0.0
 11
229.5171331662502
 21
49.8325151257713
 31
0.0
  0
LINE
  5
23C
330
1F
100
AcDbEntity
  8
1
  6
Continuous
 62
     7
370
     9
100
AcDbLine
 10
229.2171331662502
 20
48.71423746018547
 30
0.0
 11
229.2171331662502
 21
49.42042307893911
 31
0.0
  0
LINE
  5
23D
330
1F
100
AcDbEntity
  8
1
  6
Continuous
 62
     7
370
     9
100
AcDbLine
 10
229.2171331662502
 20
47.33426098170737
 30
0.0
 11
229.5171331662502
 21
47.44093449865612
 31
0.0
  0
LINE
  5
23E
330
1F
100
AcDbEntity
  8
1
  6
Continuous
 62
     7
370
     9
100
AcDbLine
 10
229.5171331662502
 20
47.09093449865616
 30
0.0
 11
229.2171331662502
 21
46.69282351358129
 31
0.0
  0
LINE
  5
23F
330
1F
100
AcDbEntity
  8
1
  6
Continuous
 62
     7
370
     9
100
AcDbLine
 10
229.2171331662502
 20
46.23017631646154
 30
0.0
 11
229.5171331662502
 21
46.39121803439537
 31
0.0
  0
LINE
  5
240
330
1F
100
AcDbEntity
  8
1
  6
Continuous
 62
     7
370
     9
100
AcDbLine
 10
229.2171331662502
 20
46.23017631646154
 30
0.0
 11
229.2171331662502
 21
46.69282351358129
 31
0.0
  0
LINE
  5
241
330
1F
100
AcDbEntity
  8
1
  6
Continuous
 62
     7
370
     9
100
AcDbLine
 10
229.2171331662502
 20
47.33426098170737
 30
0.0
 11
229.2171331662502
 21
47.92442078427415
 31
0.0
  0
LINE
  5
242
330
1F
100
AcDbEntity
  8
1
  6
Continuous
 62
     7
370
     9
100
AcDbLine
 10
229.7171331662502
 20
46.25882746321917
 30
0.0
 11
229.5171331662502
 21
46.25882746321917
 31
0.0
  0
LINE
  5
243
330
1F
100
AcDbEntity
  8
1
  6
Continuous
 62
     7
370
     9
100
AcDbLine
 10
229.2171331662502
 20
47.92442078427415
 30
0.0
 11
229.5171331662502
 21
48.33350346475311
 31
0.0
  0
LINE
  5
244
330
1F
100
AcDbEntity
  8
1
  6
Continuous
 62
     7
370
     9
100
AcDbLine
 10
229.2171331662502
 20
44.75882746321921
 30
0.0
 11
229.5171331662502
 21
45.05882746321918
 31
0.0
  0
LINE
  5
245
330
1F
100
AcDbEntity
  8
1
  6
Continuous
 62
     7
370
     9
100
AcDbLine
 10
229.5171331662502
 20
45.63574864164081
 30
0.0
 11
229.2171331662502
 21
45.42347321657922
 31
0.0
  0
LINE
  5
246
330
1F
100
AcDbEntity
  8
1
  6
Continuous
 62
     7
370
     9
100
AcDbLine
 10
229.2171331662502
 20
44.92985324028848
 30
0.0
 11
229.5171331662502
 21
45.18923067278872
 31
0.0
  0
LINE
  5
247
330
1F
100
AcDbEntity
  8
1
  6
Continuous
 62
     7
370
     9
100
AcDbLine
 10
229.2171331662502
 20
45.11311768018379
 30
0.0
 11
229.5171331662502
 21
45.46640331472104
 31
0.0
  0
LINE
  5
248
330
1F
100
AcDbEntity
  8
1
  6
Continuous
 62
     7
370
     9
100
AcDbLine
 10
229.2171331662502
 20
45.42347321657922
 30
0.0
 11
229.2171331662502
 21
45.74960290681349
 31
0.0
  0
LINE
  5
249
330
1F
100
AcDbEntity
  8
1
  6
Continuous
 62
     7
370
     9
100
AcDbLine
 10
229.2171331662502
 20
45.11311768018379
 30
0.0
 11
229.2171331662502
 21
44.92985324028848
 31
0.0
  0
LINE
  5
24A
330
1F
100
AcDbEntity
  8
1
  6
Continuous
 62
     7
370
     9
100
AcDbLine
 10
229.2171331662502
 20
44.79575629463744
 30
0.0
 11
229.5171331662502
 21
45.05882746321918
 31
0.0
  0
LINE
  5
24B
330
1F
100
AcDbEntity
  8
1
  6
Continuous
 62
     7
370
     9
100
AcDbLine
 10
229.2171331662502
 20
44.75882746321921
 30
0.0
 11
229.2171331662502
 21
44.79575629463744
 31
0.0
  0
LINE
  5
24C
330
1F
100
AcDbEntity
  8
1
  6
Continuous
 62
     7
370
     9
100
AcDbLine
 10
229.5171331662502
 20
46.12899341900425
 30
0.0
 11
229.2171331662502
 21
45.74960290681349
 31
0.0
  0
LINE
  5
24D
330
1F
100
AcDbEntity
  8
1
  6
Continuous
 62
     7
370
     9
100
AcDbLine
 10
229.2171331662502
 20
54.21730255051739
 30
0.0
 11
229.5171331662502
 21
54.09680014318206
 31
0.0
  0
CIRCLE
  5
24E
330
1F
100
AcDbEntity
  8
1
  6
Continuous
 62
     7
370
     9
100
AcDbCircle
 10
227.3171331662502
 20
61.50882746321918
 30
0.0
 40
2.000000000000027
  0
CIRCLE
  5
24F
330
1F
100
AcDbEntity
  8
1
  6
Continuous
 62
     7
370
     9
100
AcDbCircle
 10
227.3171331662502
 20
61.50882746321918
 30
0.0
 40
1.700000000000045
  0
LINE
  5
250
330
1F
100
AcDbEntity
  8
1
  6
Continuous
 62
     7
370
     9
100
AcDbLine
 10
229.2171331662502
 20
74.30341746625287
 30
0.0
 11
229.5171331662501
 21
74.25318842895734
 31
0.0
  0
LINE
  5
251
330
1F
100
AcDbEntity
  8
1
  6
Continuous
 62
     7
370
     9
100
AcDbLine
 10
229.2171331662502
 20
73.59723184749928
 30
0.0
 11
229.5171331662501
 21
73.18513980066713
 31
0.0
  0
LINE
  5
252
330
1F
100
AcDbEntity
  8
1
  6
Continuous
 62
     7
370
     9
100
AcDbLine
 10
229.2171331662502
 20
74.30341746625287
 30
0.0
 11
229.2171331662502
 21
73.59723184749928
 31
0.0
  0
LINE
  5
253
330
1F
100
AcDbEntity
  8
1
  6
Continuous
 62
     7
370
     9
100
AcDbLine
 10
229.2171331662502
 20
71.8659425118505
 30
0.0
 11
229.5171331662501
 21
71.45886200160894
 31
0.0
  0
LINE
  5
254
330
1F
100
AcDbEntity
  8
1
  6
Continuous
 62
     7
370
     9
100
AcDbLine
 10
229.2171331662502
 20
70.82807488676484
 30
0.0
 11
229.5171331662501
 21
70.89255010554649
 31
0.0
  0
LINE
  5
255
330
1F
100
AcDbEntity
  8
1
  6
Continuous
 62
     7
370
     9
100
AcDbLine
 10
229.2171331662502
 20
72.67440884699619
 30
0.0
 11
229.2171331662502
 21
71.8659425118505
 31
0.0
  0
LINE
  5
256
330
1F
100
AcDbEntity
  8
1
  6
Continuous
 62
     7
370
     9
100
AcDbLine
 10
229.2171331662502
 20
69.93306371282386
 30
0.0
 11
229.5171331662502
 21
69.53891809825757
 31
0.0
  0
LINE
  5
257
330
1F
100
AcDbEntity
  8
1
  6
Continuous
 62
     7
370
     9
100
AcDbLine
 10
229.2171331662502
 20
68.80035237592098
 30
0.0
 11
229.5171331662502
 21
68.92085478325634
 31
0.0
  0
LINE
  5
258
330
1F
100
AcDbEntity
  8
1
  6
Continuous
 62
     7
370
     9
100
AcDbLine
 10
229.2171331662502
 20
66.63070862663807
 30
0.0
 11
229.5171331662502
 21
66.8048927802377
 31
0.0
  0
LINE
  5
259
330
1F
100
AcDbEntity
  8
1
  6
Continuous
 62
     7
370
     9
100
AcDbLine
 10
229.5171331662502
 20
67.46267761478782
 30
0.0
 11
229.2171331662502
 21
67.83621673762542
 31
0.0
  0
LINE
  5
25A
330
1F
100
AcDbEntity
  8
1
  6
Continuous
 62
     7
370
     9
100
AcDbLine
 10
229.2171331662502
 20
68.80035237592098
 30
0.0
 11
229.2171331662502
 21
67.83621673762542
 31
0.0
  0
LINE
  5
25B
330
1F
100
AcDbEntity
  8
1
  6
Continuous
 62
     7
370
     9
100
AcDbLine
 10
229.5171331662502
 20
65.27055221052205
 30
0.0
 11
229.2171331662502
 21
65.61621432749922
 31
0.0
  0
LINE
  5
25C
330
1F
100
AcDbEntity
  8
1
  6
Continuous
 62
     7
370
     9
100
AcDbLine
 10
229.2171331662502
 20
64.36137328656269
 30
0.0
 11
229.5171331662502
 21
64.58584889000838
 31
0.0
  0
LINE
  5
25D
330
1F
100
AcDbEntity
  8
1
  6
Continuous
 62
     7
370
     9
100
AcDbLine
 10
229.2171331662502
 20
66.63070862663807
 30
0.0
 11
229.2171331662502
 21
65.61621432749922
 31
0.0
  0
LINE
  5
25E
330
1F
100
AcDbEntity
  8
1
  6
Continuous
 62
     7
370
     9
100
AcDbLine
 10
229.2171331662502
 20
58.65628163987571
 30
0.0
 11
229.5171331662502
 21
58.43180603642998
 31
0.0
  0
LINE
  5
25F
330
1F
100
AcDbEntity
  8
1
  6
Continuous
 62
     7
370
     9
100
AcDbLine
 10
229.2171331662502
 20
58.65628163987571
 30
0.0
 11
229.2171331662502
 21
60.88432766337928
 31
0.0
  0
LINE
  5
260
330
1F
100
AcDbEntity
  8
1
  6
Continuous
 62
     7
370
     9
100
AcDbLine
 10
229.5171331662502
 20
57.74710271591636
 30
0.0
 11
229.2171331662502
 21
57.40144059893913
 31
0.0
  0
LINE
  5
261
330
1F
100
AcDbEntity
  8
1
  6
Continuous
 62
     7
370
     9
100
AcDbLine
 10
229.2171331662502
 20
56.38694629980035
 30
0.0
 11
229.2171331662502
 21
57.40144059893913
 31
0.0
  0
LINE
  5
262
330
1F
100
AcDbEntity
  8
1
  6
Continuous
 62
     7
370
     9
100
AcDbLine
 10
229.2171331662502
 20
56.38694629980035
 30
0.0
 11
229.5171331662502
 21
56.21276214620064
 31
0.0
  0
LINE
  5
263
330
1F
100
AcDbEntity
  8
1
  6
Continuous
 62
     7
370
     9
100
AcDbLine
 10
229.2171331662502
 20
64.36137328656269
 30
0.0
 11
229.2171331662502
 21
62.13332726305907
 31
0.0
  0
LINE
  5
264
330
1F
100
AcDbEntity
  8
1
  6
Continuous
 62
     7
370
     9
100
AcDbLine
 10
229.2171331662502
 20
70.82807488676484
 30
0.0
 11
229.2171331662502
 21
69.93306371282386
 31
0.0
  0
LINE
  5
265
330
1F
100
AcDbEntity
  8
1
  6
Continuous
 62
     7
370
     9
100
AcDbLine
 10
239.3171331662502
 20
51.50882746322263
 30
0.0
 11
242.1388154730185
 21
51.5088274632227
 31
0.0
  0
LINE
  5
266
330
1F
100
AcDbEntity
  8
1
  6
Continuous
 62
     7
370
     9
100
AcDbLine
 10
239.3171331662502
 20
71.5088274632157
 30
0.0
 11
242.1388154730185
 21
71.5088274632157
 31
0.0
  0
LINE
  5
267
330
1F
100
AcDbEntity
  8
1
  6
Continuous
 62
     7
370
     9
100
AcDbLine
 10
236.5171331662502
 20
48.80882746321919
 30
0.0
 11
236.5171331662502
 21
61.50882746321918
 31
0.0
  0
LINE
  5
268
330
1F
100
AcDbEntity
  8
1
  6
Continuous
 62
     7
370
     9
100
AcDbLine
 10
239.3171331662502
 20
61.50882746321918
 30
0.0
 11
239.3171331662502
 21
49.30882746321919
 31
0.0
  0
LINE
  5
269
330
1F
100
AcDbEntity
  8
1
  6
Continuous
 62
     7
370
     9
100
AcDbLine
 10
235.3171331662502
 20
61.50882746321918
 30
0.0
 11
235.3171331662502
 21
45.80882746321918
 31
0.0
  0
LINE
  5
26A
330
1F
100
AcDbEntity
  8
1
  6
Continuous
 62
     7
370
     9
100
AcDbLine
 10
236.5171331662502
 20
48.80882746321919
 30
0.0
 11
238.8171331662502
 21
48.80882746321919
 31
0.0
  0
LINE
  5
26B
330
1F
100
AcDbEntity
  8
1
  6
Continuous
 62
     7
370
     9
100
AcDbLine
 10
236.5171331662502
 20
49.30882746321919
 30
0.0
 11
239.3171331662502
 21
49.30882746321919
 31
0.0
  0
LINE
  5
26C
330
1F
100
AcDbEntity
  8
1
  6
Continuous
 62
     7
370
     9
100
AcDbLine
 10
235.3171331662502
 20
49.30882746321919
 30
0.0
 11
236.5171331662502
 21
49.30882746321919
 31
0.0
  0
LINE
  5
26D
330
1F
100
AcDbEntity
  8
1
  6
Continuous
 62
     7
370
     9
100
AcDbLine
 10
235.0171331662502
 20
45.50882746321917
 30
0.0
 11
235.3171331662502
 21
45.80882746321918
 31
0.0
  0
LINE
  5
26E
330
1F
100
AcDbEntity
  8
1
  6
Continuous
 62
     7
370
     9
100
AcDbLine
 10
238.8171331662502
 20
48.80882746321919
 30
0.0
 11
239.3171331662502
 21
49.30882746321919
 31
0.0
  0
LINE
  5
26F
330
1F
100
AcDbEntity
  8
1
  6
Continuous
 62
     7
370
     9
100
AcDbLine
 10
236.5171331662502
 20
74.20882746321918
 30
0.0
 11
238.8171331662502
 21
74.20882746321918
 31
0.0
  0
LINE
  5
270
330
1F
100
AcDbEntity
  8
1
  6
Continuous
 62
     7
370
     9
100
AcDbLine
 10
236.5171331662502
 20
73.70882746321917
 30
0.0
 11
239.3171331662502
 21
73.70882746321917
 31
0.0
  0
LINE
  5
271
330
1F
100
AcDbEntity
  8
1
  6
Continuous
 62
     7
370
     9
100
AcDbLine
 10
235.3171331662502
 20
73.70882746321917
 30
0.0
 11
236.5171331662502
 21
73.70882746321917
 31
0.0
  0
LINE
  5
272
330
1F
100
AcDbEntity
  8
1
  6
Continuous
 62
     7
370
     9
100
AcDbLine
 10
236.5171331662502
 20
74.20882746321918
 30
0.0
 11
236.5171331662502
 21
61.50882746321918
 31
0.0
  0
LINE
  5
273
330
1F
100
AcDbEntity
  8
1
  6
Continuous
 62
     7
370
     9
100
AcDbLine
 10
238.8171331662502
 20
74.20882746321918
 30
0.0
 11
239.3171331662502
 21
73.70882746321917
 31
0.0
  0
LINE
  5
274
330
1F
100
AcDbEntity
  8
1
  6
Continuous
 62
     7
370
     9
100
AcDbLine
 10
239.3171331662502
 20
61.50882746321918
 30
0.0
 11
239.3171331662502
 21
73.70882746321917
 31
0.0
  0
LINE
  5
275
330
1F
100
AcDbEntity
  8
1
  6
Continuous
 62
     7
370
     9
100
AcDbLine
 10
242.3388154730185
 20
61.50882746321918
 30
0.0
 11
242.3388154730185
 21
51.70882746322264
 31
0.0
  0
LINE
  5
276
330
1F
100
AcDbEntity
  8
1
  6
Continuous
 62
     7
370
     9
100
AcDbLine
 10
242.1388154730185
 20
51.50882746322263
 30
0.0
 11
242.3388154730185
 21
51.70882746322264
 31
0.0
  0
LINE
  5
277
330
1F
100
AcDbEntity
  8
1
  6
Continuous
 62
     7
370
     9
100
AcDbLine
 10
242.3388154730185
 20
61.50882746321918
 30
0.0
 11
242.3388154730185
 21
71.30882746321572
 31
0.0
  0
LINE
  5
278
330
1F
100
AcDbEntity
  8
1
  6
Continuous
 62
     7
370
     9
100
AcDbLine
 10
242.1388154730185
 20
71.5088274632157
 30
0.0
 11
242.3388154730185
 21
71.30882746321572
 31
0.0
  0
LINE
  5
279
330
1F
100
AcDbEntity
  8
1
  6
Continuous
 62
     7
370
     9
100
AcDbLine
 10
229.7171331662502
 20
77.50882746321919
 30
0.0
 11
235.0171331662502
 21
77.50882746321919
 31
0.0
  0
LINE
  5
27A
330
1F
100
AcDbEntity
  8
1
  6
Continuous
 62
     7
370
     9
100
AcDbLine
 10
229.2171331662502
 20
78.25882746321919
 30
0.0
 11
220.5171331662501
 21
78.25882746321919
 31
0.0
  0
LINE
  5
27B
330
1F
100
AcDbEntity
  8
1
  6
Continuous
 62
     7
370
     9
100
AcDbLine
 10
220.5171331662502
 20
78.25882746321919
 30
0.0
 11
229.2171331662502
 21
78.25882746321919
 31
0.0
  0
LINE
  5
27C
330
1F
100
AcDbEntity
  8
1
  6
Continuous
 62
     7
370
     9
100
AcDbLine
 10
229.2171331662502
 20
75.09323414216419
 30
0.0
 11
220.5171331662501
 21
75.09323414216419
 31
0.0
  0
LINE
  5
27D
330
1F
100
AcDbEntity
  8
1
  6
Continuous
 62
     7
370
     9
100
AcDbLine
 10
229.5171331662501
 20
75.92672042778223
 30
0.0
 11
220.2171331662502
 21
75.92672042778223
 31
0.0
  0
LINE
  5
27E
330
1F
100
AcDbEntity
  8
1
  6
Continuous
 62
     7
370
     9
100
AcDbLine
 10
229.5171331662501
 20
76.88866150743411
 30
0.0
 11
220.2171331662502
 21
76.88866150743411
 31
0.0
  0
LINE
  5
27F
330
1F
100
AcDbEntity
  8
1
  6
Continuous
 62
     7
370
     9
100
AcDbLine
 10
229.2171331662502
 20
77.59418170985918
 30
0.0
 11
220.5171331662501
 21
77.59418170985918
 31
0.0
  0
LINE
  5
280
330
1F
100
AcDbEntity
  8
1
  6
Continuous
 62
     7
370
     9
100
AcDbLine
 10
229.2171331662502
 20
77.90453724625456
 30
0.0
 11
220.5171331662501
 21
77.90453724625456
 31
0.0
  0
LINE
  5
281
330
1F
100
AcDbEntity
  8
1
  6
Continuous
 62
     7
370
     9
100
AcDbLine
 10
229.2171331662502
 20
77.26805201962491
 30
0.0
 11
220.5171331662501
 21
77.26805201962491
 31
0.0
  0
LINE
  5
282
330
1F
100
AcDbEntity
  8
1
  6
Continuous
 62
     7
370
     9
100
AcDbLine
 10
229.2171331662502
 20
76.78747860997686
 30
0.0
 11
220.5171331662501
 21
76.78747860997686
 31
0.0
  0
LINE
  5
283
330
1F
100
AcDbEntity
  8
1
  6
Continuous
 62
     7
370
     9
100
AcDbLine
 10
229.2171331662502
 20
76.32483141285707
 30
0.0
 11
220.5171331662501
 21
76.32483141285707
 31
0.0
  0
LINE
  5
284
330
1F
100
AcDbEntity
  8
1
  6
Continuous
 62
     7
370
     9
100
AcDbLine
 10
220.5171331662501
 20
75.68339394473099
 30
0.0
 11
229.2171331662502
 21
75.68339394473099
 31
0.0
  0
LINE
  5
285
330
1F
100
AcDbEntity
  8
1
  6
Continuous
 62
     7
370
     9
100
AcDbLine
 10
229.2171331662502
 20
78.08780168614987
 30
0.0
 11
220.5171331662501
 21
78.08780168614987
 31
0.0
  0
LINE
  5
286
330
1F
100
AcDbEntity
  8
1
  6
Continuous
 62
     7
370
     9
100
AcDbLine
 10
229.2171331662502
 20
78.22189863180091
 30
0.0
 11
220.5171331662501
 21
78.22189863180091
 31
0.0
  0
LINE
  5
287
330
1F
100
AcDbEntity
  8
1
  6
Continuous
 62
     7
370
     9
100
AcDbLine
 10
219.4171331662502
 20
78.1088274632192
 30
0.0
 11
219.7171331662502
 21
78.1088274632192
 31
0.0
  0
LINE
  5
288
330
1F
100
AcDbEntity
  8
1
  6
Continuous
 62
     7
370
     9
100
AcDbLine
 10
220.5171331662501
 20
78.25882746321919
 30
0.0
 11
220.2171331662501
 21
77.95882746321918
 31
0.0
  0
LINE
  5
289
330
1F
100
AcDbEntity
  8
1
  6
Continuous
 62
     7
370
     9
100
AcDbLine
 10
220.2171331662502
 20
77.00882746321919
 30
0.0
 11
220.0171331662502
 21
77.00882746321919
 31
0.0
  0
LINE
  5
28A
330
1F
100
AcDbEntity
  8
1
  6
Continuous
 62
     7
370
     9
100
AcDbLine
 10
219.7171331662502
 20
78.1088274632192
 30
0.0
 11
220.0171331662502
 21
77.80882746321919
 31
0.0
  0
LINE
  5
28B
330
1F
100
AcDbEntity
  8
1
  6
Continuous
 62
     7
370
     9
100
AcDbLine
 10
220.5171331662502
 20
78.25882746321919
 30
0.0
 11
220.2171331662502
 21
77.95882746321918
 31
0.0
  0
LINE
  5
28C
330
1F
100
AcDbEntity
  8
1
  6
Continuous
 62
     7
370
     9
100
AcDbLine
 10
220.2171331662501
 20
76.88866150743411
 30
0.0
 11
220.5171331662501
 21
77.26805201962491
 31
0.0
  0
LINE
  5
28D
330
1F
100
AcDbEntity
  8
1
  6
Continuous
 62
     7
370
     9
100
AcDbLine
 10
220.2171331662501
 20
77.38190628479753
 30
0.0
 11
220.5171331662501
 21
77.59418170985918
 31
0.0
  0
LINE
  5
28E
330
1F
100
AcDbEntity
  8
1
  6
Continuous
 62
     7
370
     9
100
AcDbLine
 10
220.5171331662501
 20
77.90453724625456
 30
0.0
 11
220.2171331662501
 21
77.55125161171736
 31
0.0
  0
LINE
  5
28F
330
1F
100
AcDbEntity
  8
1
  6
Continuous
 62
     7
370
     9
100
AcDbLine
 10
220.5171331662501
 20
77.59418170985918
 30
0.0
 11
220.5171331662501
 21
77.26805201962491
 31
0.0
  0
LINE
  5
290
330
1F
100
AcDbEntity
  8
1
  6
Continuous
 62
     7
370
     9
100
AcDbLine
 10
220.5171331662501
 20
78.08780168614987
 30
0.0
 11
220.2171331662501
 21
77.8284242536497
 31
0.0
  0
LINE
  5
291
330
1F
100
AcDbEntity
  8
1
  6
Continuous
 62
     7
370
     9
100
AcDbLine
 10
220.5171331662501
 20
78.08780168614987
 30
0.0
 11
220.5171331662501
 21
77.90453724625456
 31
0.0
  0
LINE
  5
292
330
1F
100
AcDbEntity
  8
1
  6
Continuous
 62
     7
370
     9
100
AcDbLine
 10
220.5171331662501
 20
78.22189863180091
 30
0.0
 11
220.2171331662501
 21
77.95882746321918
 31
0.0
  0
LINE
  5
293
330
1F
100
AcDbEntity
  8
1
  6
Continuous
 62
     7
370
     9
100
AcDbLine
 10
220.5171331662501
 20
78.25882746321919
 30
0.0
 11
220.5171331662501
 21
78.22189863180091
 31
0.0
  0
LINE
  5
294
330
1F
100
AcDbEntity
  8
1
  6
Continuous
 62
     7
370
     9
100
AcDbLine
 10
220.5171331662501
 20
75.68339394473099
 30
0.0
 11
220.2171331662501
 21
75.57672042778222
 31
0.0
  0
LINE
  5
295
330
1F
100
AcDbEntity
  8
1
  6
Continuous
 62
     7
370
     9
100
AcDbLine
 10
220.2171331662501
 20
75.92672042778223
 30
0.0
 11
220.5171331662501
 21
76.32483141285707
 31
0.0
  0
LINE
  5
296
330
1F
100
AcDbEntity
  8
1
  6
Continuous
 62
     7
370
     9
100
AcDbLine
 10
220.5171331662501
 20
75.68339394473099
 30
0.0
 11
220.5171331662501
 21
75.09323414216419
 31
0.0
  0
LINE
  5
297
330
1F
100
AcDbEntity
  8
1
  6
Continuous
 62
     7
370
     9
100
AcDbLine
 10
220.5171331662501
 20
76.78747860997686
 30
0.0
 11
220.2171331662501
 21
76.62643689204298
 31
0.0
  0
LINE
  5
298
330
1F
100
AcDbEntity
  8
1
  6
Continuous
 62
     7
370
     9
100
AcDbLine
 10
220.5171331662501
 20
76.78747860997686
 30
0.0
 11
220.5171331662501
 21
76.32483141285707
 31
0.0
  0
LINE
  5
299
330
1F
100
AcDbEntity
  8
1
  6
Continuous
 62
     7
370
     9
100
AcDbLine
 10
229.2171331662502
 20
78.25882746321919
 30
0.0
 11
229.5171331662501
 21
77.95882746321918
 31
0.0
  0
LINE
  5
29A
330
1F
100
AcDbEntity
  8
1
  6
Continuous
 62
     7
370
     9
100
AcDbLine
 10
229.2171331662502
 20
78.25882746321919
 30
0.0
 11
229.5171331662502
 21
77.95882746321918
 31
0.0
  0
LINE
  5
29B
330
1F
100
AcDbEntity
  8
1
  6
Continuous
 62
     7
370
     9
100
AcDbLine
 10
229.5171331662501
 20
76.88866150743411
 30
0.0
 11
229.2171331662502
 21
77.26805201962491
 31
0.0
  0
LINE
  5
29C
330
1F
100
AcDbEntity
  8
1
  6
Continuous
 62
     7
370
     9
100
AcDbLine
 10
229.5171331662501
 20
77.38190628479753
 30
0.0
 11
229.2171331662502
 21
77.59418170985918
 31
0.0
  0
LINE
  5
29D
330
1F
100
AcDbEntity
  8
1
  6
Continuous
 62
     7
370
     9
100
AcDbLine
 10
229.2171331662502
 20
78.08780168614987
 30
0.0
 11
229.5171331662501
 21
77.8284242536497
 31
0.0
  0
LINE
  5
29E
330
1F
100
AcDbEntity
  8
1
  6
Continuous
 62
     7
370
     9
100
AcDbLine
 10
229.2171331662502
 20
77.90453724625456
 30
0.0
 11
229.5171331662501
 21
77.55125161171736
 31
0.0
  0
LINE
  5
29F
330
1F
100
AcDbEntity
  8
1
  6
Continuous
 62
     7
370
     9
100
AcDbLine
 10
229.2171331662502
 20
77.59418170985918
 30
0.0
 11
229.2171331662502
 21
77.26805201962491
 31
0.0
  0
LINE
  5
2A0
330
1F
100
AcDbEntity
  8
1
  6
Continuous
 62
     7
370
     9
100
AcDbLine
 10
229.2171331662502
 20
77.90453724625456
 30
0.0
 11
229.2171331662502
 21
78.08780168614987
 31
0.0
  0
LINE
  5
2A1
330
1F
100
AcDbEntity
  8
1
  6
Continuous
 62
     7
370
     9
100
AcDbLine
 10
229.2171331662502
 20
78.22189863180091
 30
0.0
 11
229.5171331662501
 21
77.95882746321918
 31
0.0
  0
LINE
  5
2A2
330
1F
100
AcDbEntity
  8
1
  6
Continuous
 62
     7
370
     9
100
AcDbLine
 10
229.2171331662502
 20
78.25882746321919
 30
0.0
 11
229.2171331662502
 21
78.22189863180091
 31
0.0
  0
LINE
  5
2A3
330
1F
100
AcDbEntity
  8
1
  6
Continuous
 62
     7
370
     9
100
AcDbLine
 10
229.7171331662502
 20
76.75882746321919
 30
0.0
 11
229.5171331662502
 21
76.75882746321919
 31
0.0
  0
LINE
  5
2A4
330
1F
100
AcDbEntity
  8
1
  6
Continuous
 62
     7
370
     9
100
AcDbLine
 10
229.2171331662502
 20
75.68339394473099
 30
0.0
 11
229.5171331662501
 21
75.57672042778222
 31
0.0
  0
LINE
  5
2A5
330
1F
100
AcDbEntity
  8
1
  6
Continuous
 62
     7
370
     9
100
AcDbLine
 10
229.5171331662501
 20
75.92672042778223
 30
0.0
 11
229.2171331662502
 21
76.32483141285707
 31
0.0
  0
LINE
  5
2A6
330
1F
100
AcDbEntity
  8
1
  6
Continuous
 62
     7
370
     9
100
AcDbLine
 10
229.2171331662502
 20
75.68339394473099
 30
0.0
 11
229.2171331662502
 21
75.09323414216419
 31
0.0
  0
LINE
  5
2A7
330
1F
100
AcDbEntity
  8
1
  6
Continuous
 62
     7
370
     9
100
AcDbLine
 10
229.2171331662502
 20
76.78747860997686
 30
0.0
 11
229.5171331662501
 21
76.62643689204298
 31
0.0
  0
LINE
  5
2A8
330
1F
100
AcDbEntity
  8
1
  6
Continuous
 62
     7
370
     9
100
AcDbLine
 10
229.2171331662502
 20
76.78747860997686
 30
0.0
 11
229.2171331662502
 21
76.32483141285707
 31
0.0
  0
LINE
  5
2A9
330
1F
100
AcDbEntity
  8
1
  6
Continuous
 62
     7
370
     9
100
AcDbLine
 10
235.0171331662502
 20
77.50882746321919
 30
0.0
 11
235.3171331662502
 21
77.20882746321918
 31
0.0
  0
MTEXT
  5
2AA
330
1F
100
AcDbEntity
  8
1
  6
Continuous
 62
     7
370
     9
100
AcDbMText
 10
218.2836334997832
 20
55.78767885081584
 30
0.0
 40
2.200000000000002
 41
0.3623840000000004
 71
     1
 72
     1
  1
{\fＭＳ ゴシック;\T0.750000;.}
 11
-0.0000000000000002
 21
-1.0
 31
0.0
 73
     1
 44
1.0
1001
ACAD
1000
ACAD_MTEXT_DEFINED_HEIGHT_BEGIN
1070
    46
1040
2.200000000000002
1000
ACAD_MTEXT_DEFINED_HEIGHT_END
1000
MTEXTBEGIN
1070
    73
1070
     1
1070
    44
1040
1.0
1070
    74
1070
     0
1000
MTEXTEND
  0
MTEXT
  5
2AB
330
1F
100
AcDbEntity
  8
1
  6
Continuous
 62
     7
370
     9
100
AcDbMText
 10
218.2836334997832
 20
56.64498623153047
 30
0.0
 40
2.200000000000002
 41
0.8403560000000011
 71
     1
 72
     1
  1
{\fＭＳ ゴシック;\T0.750000;1}
 11
-0.0000000000000002
 21
-1.0
 31
0.0
 73
     1
 44
1.0
1001
ACAD
1000
ACAD_MTEXT_DEFINED_HEIGHT_BEGIN
1070
    46
1040
2.200000000000002
1000
ACAD_MTEXT_DEFINED_HEIGHT_END
1000
MTEXTBEGIN
1070
    73
1070
     1
1070
    44
1040
1.0
1070
    74
1070
     0
1000
MTEXTEND
  0
MTEXT
  5
2AC
330
1F
100
AcDbEntity
  8
1
  6
Continuous
 62
     7
370
     9
100
AcDbMText
 10
218.2836334997832
 20
55.2740361755216
 30
0.0
 40
2.200000000000002
 41
1.758812000000002
 71
     1
 72
     1
  1
{\fＭＳ ゴシック;\T0.750000;4}
 11
-0.0000000000000002
 21
-1.0
 31
0.0
 73
     1
 44
1.0
1001
ACAD
1000
ACAD_MTEXT_DEFINED_HEIGHT_BEGIN
1070
    46
1040
2.200000000000002
1000
ACAD_MTEXT_DEFINED_HEIGHT_END
1000
MTEXTBEGIN
1070
    73
1070
     1
1070
    44
1040
1.0
1070
    74
1070
     0
1000
MTEXTEND
  0
MTEXT
  5
2AD
330
1F
100
AcDbEntity
  8
1
  6
Continuous
 62
     7
370
     9
100
AcDbMText
 10
218.2836334997832
 20
60.44476836095704
 30
0.0
 40
2.200000000000002
 41
1.758812000000002
 71
     1
 72
     1
  1
{\fＭＳ ゴシック;\T0.750000;4}
 11
-0.0000000000000002
 21
-1.0
 31
0.0
 73
     1
 44
1.0
1001
ACAD
1000
ACAD_MTEXT_DEFINED_HEIGHT_BEGIN
1070
    46
1040
2.200000000000002
1000
ACAD_MTEXT_DEFINED_HEIGHT_END
1000
MTEXTBEGIN
1070
    73
1070
     1
1070
    44
1040
1.0
1070
    74
1070
     0
1000
MTEXTEND
  0
MTEXT
  5
2AE
330
1F
100
AcDbEntity
  8
1
  6
Continuous
 62
     7
370
     9
100
AcDbMText
 10
218.2836334997832
 20
66.71928903879404
 30
0.0
 40
2.200000000000002
 41
0.8403560000000011
 71
     1
 72
     1
  1
{\fＭＳ ゴシック;\T0.750000;1}
 11
-0.0000000000000002
 21
-1.0
 31
0.0
 73
     1
 44
1.0
1001
ACAD
1000
ACAD_MTEXT_DEFINED_HEIGHT_BEGIN
1070
    46
1040
2.200000000000002
1000
ACAD_MTEXT_DEFINED_HEIGHT_END
1000
MTEXTBEGIN
1070
    73
1070
     1
1070
    44
1040
1.0
1070
    74
1070
     0
1000
MTEXTEND
  0
MTEXT
  5
2AF
330
1F
100
AcDbEntity
  8
1
  6
Continuous
 62
     7
370
     9
100
AcDbMText
 10
218.2836334997832
 20
63.3647221420008
 30
0.0
 40
2.200000000000002
 41
1.649472000000002
 71
     1
 72
     1
  1
{\fＭＳ ゴシック;\T0.750000;8}
 11
-0.0000000000000002
 21
-1.0
 31
0.0
 73
     1
 44
1.0
1001
ACAD
1000
ACAD_MTEXT_DEFINED_HEIGHT_BEGIN
1070
    46
1040
2.200000000000002
1000
ACAD_MTEXT_DEFINED_HEIGHT_END
1000
MTEXTBEGIN
1070
    73
1070
     1
1070
    44
1040
1.0
1070
    74
1070
     0
1000
MTEXTEND
  0
MTEXT
  5
2B0
330
1F
100
AcDbEntity
  8
1
  6
Continuous
 62
     7
370
     9
100
AcDbMText
 10
218.2836334997832
 20
65.75252987220739
 30
0.0
 40
2.200000000000002
 41
1.583868000000002
 71
     1
 72
     1
  1
{\fＭＳ ゴシック;\T0.750000;6}
 11
-0.0000000000000002
 21
-1.0
 31
0.0
 73
     1
 44
1.0
1001
ACAD
1000
ACAD_MTEXT_DEFINED_HEIGHT_BEGIN
1070
    46
1040
2.200000000000002
1000
ACAD_MTEXT_DEFINED_HEIGHT_END
1000
MTEXTBEGIN
1070
    73
1070
     1
1070
    44
1040
1.0
1070
    74
1070
     0
1000
MTEXTEND
  0
MTEXT
  5
2B1
330
1F
100
AcDbEntity
  8
1
  6
Continuous
 62
     7
370
     9
100
AcDbMText
 10
218.2836334997832
 20
69.72237802664853
 30
0.0
 40
2.200000000000002
 41
1.743192000000002
 71
     1
 72
     1
  1
{\fＭＳ ゴシック;\T0.750000;C}
 11
-0.0000000000000002
 21
-1.0
 31
0.0
 73
     1
 44
1.0
1001
ACAD
1000
ACAD_MTEXT_DEFINED_HEIGHT_BEGIN
1070
    46
1040
2.200000000000002
1000
ACAD_MTEXT_DEFINED_HEIGHT_END
1000
MTEXTBEGIN
1070
    73
1070
     1
1070
    44
1040
1.0
1070
    74
1070
     0
1000
MTEXTEND
  0
LINE
  5
2B2
330
1F
100
AcDbEntity
  8
25
  6
DASHDOT
 62
     7
370
     9
100
AcDbLine
 10
227.3171331662502
 20
63.75289923732851
 30
0.0
 11
227.3171331662502
 21
59.26475568910984
 31
0.0
  0
LINE
  5
2B3
330
1F
100
AcDbEntity
  8
25
  6
DASHDOT
 62
     7
370
     9
100
AcDbLine
 10
214.4171331662502
 20
75.08416290130613
 30
0.0
 11
214.4171331662502
 21
76.68553543077577
 31
0.0
  0
LINE
  5
2B4
330
1F
100
AcDbEntity
  8
25
  6
DASHDOT
 62
     7
370
     9
100
AcDbLine
 10
203.2171331662502
 20
45.97564528693168
 30
0.0
 11
203.2171331662502
 21
48.05022362026159
 31
0.0
  0
LINE
  5
2B5
330
1F
100
AcDbEntity
  8
25
  6
DASHDOT
 62
     7
370
     9
100
AcDbLine
 10
204.3424588132293
 20
47.00290194982982
 30
0.0
 11
202.1076998578037
 21
47.00290194982982
 31
0.0
  0
LINE
  5
2B6
330
1F
100
AcDbEntity
  8
25
  6
DASHDOT
 62
     7
370
     9
100
AcDbLine
 10
148.0362872261769
 20
37.52755981353447
 30
0.0
 11
148.0362872261769
 21
85.45660623778344
 31
0.0
  0
LINE
  5
2B7
330
1F
100
AcDbEntity
  8
25
  6
DASHDOT
 62
     7
370
     9
100
AcDbLine
 10
212.8252198566658
 20
75.88484916604091
 30
0.0
 11
216.0090464758346
 21
75.88484916604091
 31
0.0
  0
LINE
  5
2B8
330
1F
100
AcDbEntity
  8
25
  6
DASHDOT
 62
     7
370
     9
100
AcDbLine
 10
172.3558770289406
 20
61.50882746321918
 30
0.0
 11
123.8766748109333
 21
61.50882746321918
 31
0.0
  0
LINE
  5
2B9
330
1F
100
AcDbEntity
  8
25
  6
DASHDOT
 62
     7
370
     9
100
AcDbLine
 10
203.2171331662502
 20
77.04200994565827
 30
0.0
 11
203.2171331662502
 21
74.96743161232839
 31
0.0
  0
LINE
  5
2BA
330
1F
100
AcDbEntity
  8
25
  6
DASHDOT
 62
     7
370
     9
100
AcDbLine
 10
204.3424588132294
 20
76.01475328276013
 30
0.0
 11
202.1076998578038
 21
76.01475328276013
 31
0.0
  0
LINE
  5
2BB
330
1F
100
AcDbEntity
  8
25
  6
Continuous
 62
     7
370
     9
100
AcDbLine
 10
253.1779744433678
 20
61.1739861861015
 30
0.0
 11
252.5082918891325
 21
61.84366874033685
 31
0.0
  0
LINE
  5
2BC
330
1F
100
AcDbEntity
  8
25
  6
Continuous
 62
     7
370
     9
100
AcDbLine
 10
253.1779744433678
 20
61.84366874033685
 30
0.0
 11
252.5082918891325
 21
61.1739861861015
 31
0.0
  0
DIMENSION
  5
2C7
330
1F
100
AcDbEntity
  8
25
  6
Continuous
 62
     7
370
     9
100
AcDbDimension
  2
Dim1
 10
189.8171331662505
 20
35.04923512991849
 30
0.0
 11
196.0499970394056
 21
36.5492351299185
 31
0.0
 70
   160
  1
(<>
 71
     5
 42
-1.0
  3
Standard
100
AcDbAlignedDimension
 13
200.8171331662502
 23
45.05882746321918
 33
0.0
 14
189.8171331662502
 24
39.25882746321923
 34
0.0
 50
179.9999999999998
100
AcDbRotatedDimension
1001
ACAD
1000
DSTYLE
1002
{
1070
   279
1070
     2
1070
   340
1005
2BD
1070
   140
1040
2.0
1070
    40
1040
1.0
1070
   147
1040
0.0
1070
    76
1070
     0
1070
    75
1070
     0
1070
   344
1005
51
1070
   343
1005
51
1070
   173
1070
     1
1070
   289
1070
     2
1070
   288
1070
     1
1070
    77
1070
     1
1070
   172
1070
     1
1070
   174
1070
     0
1070
    74
1070
     0
1070
    73
1070
     0
1070
   284
1070
     8
1070
    78
1070
     8
1070
    42
1040
2.0
1070
    44
1040
1.0
1070
    43
1040
10.0
1070
   271
1070
     2
1070
    41
1040
1.0
1002
}
  0
DIMENSION
  5
2D1
330
1F
100
AcDbEntity
  8
25
  6
Continuous
 62
     7
370
     9
100
AcDbDimension
  2
Dim2
 10
239.3171331662508
 20
35.04923512991843
 30
0.0
 11
245.8067916037542
 21
36.54923512991843
 31
0.0
 70
   160
  1
(<>
 71
     5
 42
-1.0
  3
Standard
100
AcDbAlignedDimension
 13
242.3388154730185
 23
51.70882746322264
 33
0.0
 14
239.3171331662502
 24
49.30882746321919
 34
0.0
 50
179.9999999999998
100
AcDbRotatedDimension
1001
ACAD
1000
DSTYLE
1002
{
1070
   279
1070
     2
1070
   340
1005
2BD
1070
   140
1040
2.0
1070
    40
1040
1.0
1070
   147
1040
0.0
1070
    76
1070
     0
1070
    75
1070
     0
1070
   344
1005
51
1070
   343
1005
51
1070
   173
1070
     1
1070
   289
1070
     2
1070
   288
1070
     1
1070
    77
1070
     1
1070
   172
1070
     1
1070
   174
1070
     0
1070
    74
1070
     0
1070
    73
1070
     0
1070
   284
1070
     8
1070
    78
1070
     8
1070
    42
1040
2.0
1070
    44
1040
1.0
1070
    43
1040
10.0
1070
   271
1070
     2
1070
    41
1040
1.0
1002
}
  0
DIMENSION
  5
2DB
330
1F
100
AcDbEntity
  8
25
  6
Continuous
 62
     7
370
     9
100
AcDbDimension
  2
Dim3
 10
258.4253412085149
 20
71.50882746321555
 30
0.0
 11
256.9253412085149
 21
61.41682949936347
 31
0.0
 70
   160
  1
φ<>
 71
     5
 42
-1.0
  3
Standard
100
AcDbAlignedDimension
 13
242.1388154730185
 23
51.5088274632227
 33
0.0
 14
242.1388154730185
 24
71.5088274632157
 34
0.0
 50
89.99999999999991
100
AcDbRotatedDimension
1001
ACAD
1000
DSTYLE
1002
{
1070
   279
1070
     2
1070
   340
1005
2BD
1070
   140
1040
2.0
1070
    40
1040
1.0
1070
   147
1040
0.0
1070
    76
1070
     0
1070
    75
1070
     0
1070
   344
1005
51
1070
   343
1005
51
1070
   173
1070
     1
1070
   289
1070
     2
1070
   288
1070
     1
1070
    77
1070
     1
1070
   172
1070
     1
1070
   174
1070
     0
1070
    74
1070
     0
1070
    73
1070
     0
1070
   284
1070
     8
1070
    78
1070
     8
1070
    42
1040
2.0
1070
    44
1040
1.0
1070
    43
1040
10.0
1070
   271
1070
     2
1070
    41
1040
1.0
1002
}
  0
DIMENSION
  5
2E5
330
1F
100
AcDbEntity
  8
25
  6
Continuous
 62
     7
370
     9
100
AcDbDimension
  2
Dim4
 10
264.0528392101136
 20
77.50882746321895
 30
0.0
 11
262.5528392101136
 21
61.41682949936347
 31
0.0
 70
   160
  1
φ<>
 71
     5
 42
-1.0
  3
Standard
100
AcDbAlignedDimension
 13
235.0171331662502
 23
45.50882746321917
 33
0.0
 14
235.0171331662502
 24
77.50882746321919
 34
0.0
 50
89.99999999999991
100
AcDbRotatedDimension
1001
ACAD
1000
DSTYLE
1002
{
1070
   279
1070
     2
1070
   340
1005
2BD
1070
   140
1040
2.0
1070
    40
1040
1.0
1070
   147
1040
0.0
1070
    76
1070
     0
1070
    75
1070
     0
1070
   344
1005
51
1070
   343
1005
51
1070
   173
1070
     1
1070
   289
1070
     2
1070
   288
1070
     1
1070
    77
1070
     1
1070
   172
1070
     1
1070
   174
1070
     0
1070
    74
1070
     0
1070
    73
1070
     0
1070
   284
1070
     8
1070
    78
1070
     8
1070
    42
1040
2.0
1070
    44
1040
1.0
1070
    43
1040
10.0
1070
   271
1070
     2
1070
    41
1040
1.0
1002
}
  0
DIMENSION
  5
2EF
330
1F
100
AcDbEntity
  8
25
  6
Continuous
 62
     7
370
     9
100
AcDbDimension
  2
Dim5
 10
182.5453065519388
 20
83.75882746321916
 30
0.0
 11
181.0453065519388
 21
61.73337626195342
 31
0.0
 70
   160
  1
φ<>
 71
     5
 42
-1.0
  3
Standard
100
AcDbAlignedDimension
 13
189.8171331662502
 23
39.25882746321923
 33
0.0
 14
189.8171331662502
 24
83.75882746321913
 34
0.0
 50
89.99999999999991
100
AcDbRotatedDimension
1001
ACAD
1000
DSTYLE
1002
{
1070
   279
1070
     2
1070
   340
1005
2BD
1070
   140
1040
2.0
1070
    40
1040
1.0
1070
   147
1040
0.0
1070
    76
1070
     0
1070
    75
1070
     0
1070
   344
1005
51
1070
   343
1005
51
1070
   173
1070
     1
1070
   289
1070
     2
1070
   288
1070
     1
1070
    77
1070
     1
1070
   172
1070
     1
1070
   174
1070
     0
1070
    74
1070
     0
1070
    73
1070
     0
1070
   284
1070
     8
1070
    78
1070
     8
1070
    42
1040
2.0
1070
    44
1040
1.0
1070
    43
1040
10.0
1070
   271
1070
     2
1070
    41
1040
1.0
1002
}
  0
DIMENSION
  5
2F9
330
1F
100
AcDbEntity
  8
25
  6
Continuous
 62
     7
370
     9
100
AcDbDimension
  2
Dim6
 10
235.317133166251
 20
35.04923512991849
 30
0.0
 11
237.3171331662502
 21
36.54923512991846
 31
0.0
 70
   160
  1
<>
 71
     5
 42
-1.0
  3
Standard
100
AcDbAlignedDimension
 13
239.3171331662502
 23
49.30882746321919
 33
0.0
 14
235.3171331662502
 24
45.80882746321918
 34
0.0
 50
179.9999999999992
100
AcDbRotatedDimension
1001
ACAD
1000
DSTYLE
1002
{
1070
   279
1070
     2
1070
   340
1005
2BD
1070
   140
1040
2.0
1070
    40
1040
1.0
1070
   147
1040
0.0
1070
    76
1070
     0
1070
    75
1070
     0
1070
   344
1005
51
1070
   343
1005
51
1070
   173
1070
     1
1070
   289
1070
     2
1070
   288
1070
     1
1070
    77
1070
     1
1070
   172
1070
     1
1070
   174
1070
     0
1070
    74
1070
     0
1070
    73
1070
     0
1070
   284
1070
     8
1070
    78
1070
     8
1070
    42
1040
2.0
1070
    44
1040
1.0
1070
    43
1040
10.0
1070
   271
1070
     2
1070
    41
1040
1.0
1002
}
  0
DIMENSION
  5
303
330
1F
100
AcDbEntity
  8
25
  6
Continuous
 62
     7
370
     9
100
AcDbDimension
  2
Dim7
 10
220.217133166251
 20
35.04923512991849
 30
0.0
 11
224.8671331662502
 21
36.5492351299185
 31
0.0
 70
   160
  1
<>
 71
     5
 42
-1.0
  3
Standard
100
AcDbAlignedDimension
 13
229.5171331662502
 23
45.05882746321918
 33
0.0
 14
220.2171331662502
 24
45.05882746321918
 34
0.0
 50
179.9999999999998
100
AcDbRotatedDimension
1001
ACAD
1000
DSTYLE
1002
{
1070
   279
1070
     2
1070
   340
1005
2BD
1070
   140
1040
2.0
1070
    40
1040
1.0
1070
   147
1040
0.0
1070
    76
1070
     0
1070
    75
1070
     0
1070
   344
1005
51
1070
   343
1005
51
1070
   173
1070
     1
1070
   289
1070
     2
1070
   288
1070
     1
1070
    77
1070
     1
1070
   172
1070
     1
1070
   174
1070
     0
1070
    74
1070
     0
1070
    73
1070
     0
1070
   284
1070
     8
1070
    78
1070
     8
1070
    42
1040
2.0
1070
    44
1040
1.0
1070
    43
1040
10.0
1070
   271
1070
     2
1070
    41
1040
1.0
1002
}
  0
DIMENSION
  5
30D
330
1F
100
AcDbEntity
  8
25
  6
Continuous
 62
     7
370
     9
100
AcDbDimension
  2
Dim8
 10
229.517133166251
 20
35.04923512991849
 30
0.0
 11
232.4171331662502
 21
36.5492351299185
 31
0.0
 70
   160
  1
<>
 71
     5
 42
-1.0
  3
Standard
100
AcDbAlignedDimension
 13
235.3171331662502
 23
45.80882746321918
 33
0.0
 14
229.5171331662502
 24
45.05882746321918
 34
0.0
 50
179.9999999999998
100
AcDbRotatedDimension
1001
ACAD
1000
DSTYLE
1002
{
1070
   279
1070
     2
1070
   340
1005
2BD
1070
   140
1040
2.0
1070
    40
1040
1.0
1070
   147
1040
0.0
1070
    76
1070
     0
1070
    75
1070
     0
1070
   344
1005
51
1070
   343
1005
51
1070
   173
1070
     1
1070
   289
1070
     2
1070
   288
1070
     1
1070
    77
1070
     1
1070
   172
1070
     1
1070
   174
1070
     0
1070
    74
1070
     0
1070
    73
1070
     0
1070
   284
1070
     8
1070
    78
1070
     8
1070
    42
1040
2.0
1070
    44
1040
1.0
1070
    43
1040
10.0
1070
   271
1070
     2
1070
    41
1040
1.0
1002
}
  0
DIMENSION
  5
317
330
1F
100
AcDbEntity
  8
25
  6
Continuous
 62
     7
370
     9
100
AcDbDimension
  2
Dim9
 10
235.317133166251
 20
28.78687094077975
 30
0.0
 11
244.0801331662502
 21
30.28687094077966
 31
0.0
 70
   160
  1
<>
 71
     5
 42
-1.0
  3
Standard
100
AcDbAlignedDimension
 13
252.8431331662502
 23
61.50882746321918
 33
0.0
 14
235.3171331662502
 24
34.42423512991843
 34
0.0
 50
179.9999999999994
100
AcDbRotatedDimension
1001
ACAD
1000
DSTYLE
1002
{
1070
   279
1070
     2
1070
   340
1005
2BD
1070
   140
1040
2.0
1070
    40
1040
1.0
1070
   147
1040
0.0
1070
    76
1070
     0
1070
    75
1070
     0
1070
   344
1005
51
1070
   343
1005
51
1070
   173
1070
     1
1070
   289
1070
     2
1070
   288
1070
     1
1070
    77
1070
     1
1070
   172
1070
     1
1070
   174
1070
     0
1070
    74
1070
     0
1070
    73
1070
     0
1070
   284
1070
     8
1070
    78
1070
     8
1070
    42
1040
2.0
1070
    44
1040
1.0
1070
    43
1040
10.0
1070
   271
1070
     2
1070
    41
1040
1.0
1002
}
  0
DIMENSION
  5
321
330
1F
100
AcDbEntity
  8
25
  6
Continuous
 62
     7
370
     9
100
AcDbDimension
  2
Dim10
 10
200.817133166251
 20
35.04923512991843
 30
0.0
 11
204.5171331662501
 21
36.54923512991846
 31
0.0
 70
   160
  1
<>
 71
     5
 42
-1.0
  3
Standard
100
AcDbAlignedDimension
 13
208.2171331662502
 23
45.05882746321918
 33
0.0
 14
200.8171331662502
 24
45.05882746321918
 34
0.0
 50
-179.9999999999996
100
AcDbRotatedDimension
1001
ACAD
1000
DSTYLE
1002
{
1070
   279
1070
     2
1070
   340
1005
2BD
1070
   140
1040
2.0
1070
    40
1040
1.0
1070
   147
1040
0.0
1070
    76
1070
     0
1070
    75
1070
     0
1070
   344
1005
51
1070
   343
1005
51
1070
   173
1070
     1
1070
   289
1070
     2
1070
   288
1070
     1
1070
    77
1070
     1
1070
   172
1070
     1
1070
   174
1070
     0
1070
    74
1070
     0
1070
    73
1070
     0
1070
   284
1070
     8
1070
    78
1070
     8
1070
    42
1040
2.0
1070
    44
1040
1.0
1070
    43
1040
10.0
1070
   271
1070
     2
1070
    41
1040
1.0
1002
}
  0
DIMENSION
  5
32B
330
1F
100
AcDbEntity
  8
25
  6
Continuous
 62
     7
370
     9
100
AcDbDimension
  2
Dim11
 10
208.217133166251
 20
35.04923512991849
 30
0.0
 11
214.2171331662502
 21
36.5492351299185
 31
0.0
 70
   160
  1
<>
 71
     5
 42
-1.0
  3
Standard
100
AcDbAlignedDimension
 13
220.2171331662502
 23
45.05882746321918
 33
0.0
 14
208.2171331662502
 24
45.05882746321918
 34
0.0
 50
179.9999999999998
100
AcDbRotatedDimension
1001
ACAD
1000
DSTYLE
1002
{
1070
   279
1070
     2
1070
   340
1005
2BD
1070
   140
1040
2.0
1070
    40
1040
1.0
1070
   147
1040
0.0
1070
    76
1070
     0
1070
    75
1070
     0
1070
   344
1005
51
1070
   343
1005
51
1070
   173
1070
     1
1070
   289
1070
     2
1070
   288
1070
     1
1070
    77
1070
     1
1070
   172
1070
     1
1070
   174
1070
     0
1070
    74
1070
     0
1070
    73
1070
     0
1070
   284
1070
     8
1070
    78
1070
     8
1070
    42
1040
2.0
1070
    44
1040
1.0
1070
    43
1040
10.0
1070
   271
1070
     2
1070
    41
1040
1.0
1002
}
  0
DIMENSION
  5
333
330
1F
100
AcDbEntity
  8
25
  6
Continuous
 62
     7
370
     9
100
AcDbDimension
  2
Dim12
 10
142.6927169945181
 20
48.6769820316636
 30
0.0
 11
156.7443735478766
 21
85.02135040908054
 31
0.0
 70
   163
  1
<>
 71
     5
 42
-1.0
  3
Standard
100
AcDbDiametricDimension
 15
153.3798574578355
 25
74.34067289477479
 35
0.0
 40
0.0
1001
ACAD
1000
DSTYLE
1002
{
1070
   340
1005
2BD
1070
   140
1040
2.0
1070
    40
1040
1.0
1070
   147
1040
0.0
1070
    76
1070
     1
1070
    75
1070
     1
1070
   344
1005
51
1070
   343
1005
51
1070
   173
1070
     1
1070
   289
1070
     2
1070
   288
1070
     1
1070
    77
1070
     1
1070
   172
1070
     1
1070
   174
1070
     0
1070
    74
1070
     0
1070
    73
1070
     0
1070
   284
1070
     8
1070
    78
1070
     8
1070
    42
1040
0.0
1070
    44
1040
0.0
1070
    43
1040
10.0
1070
   271
1070
     2
1070
    41
1040
2.0
1002
}
  0
INSERT
  5
334
330
1F
100
AcDbEntity
  8
25
  6
Continuous
 62
     7
370
     9
100
AcDbBlockReference
  2
MARK_OPEN
 10
204.6992153
 20
78.25882746321919
 30
0.0
 50
307.1738943121131
  0
POLYLINE
  5
335
330
1F
100
AcDbEntity
  8
25
  6
Continuous
 62
     7
370
     9
100
AcDb2dPolyline
 66
     1
 10
0.0
 20
0.0
 30
0.0
  0
VERTEX
  5
336
330
335
100
AcDbEntity
  8
25
  6
Continuous
 62
     7
370
     9
100
AcDbVertex
100
AcDb2dVertex
 10
204.6992153
 20
78.25882746321919
 30
0.0
  0
VERTEX
  5
337
330
335
100
AcDbEntity
  8
25
  6
Continuous
 62
     7
370
     9
100
AcDbVertex
100
AcDb2dVertex
 10
193.7476969567014
 20
92.7005788545537
 30
0.0
  0
VERTEX
  5
338
330
335
100
AcDbEntity
  8
25
  6
Continuous
 62
     7
370
     9
100
AcDbVertex
100
AcDb2dVertex
 10
182.1798176179343
 20
92.7005788545537
 30
0.0
  0
SEQEND
  5
339
330
335
100
AcDbEntity
  8
25
  6
Continuous
 62
     7
370
     9
  0
INSERT
  5
33A
330
1F
100
AcDbEntity
  8
25
  6
Continuous
 62
     7
370
     9
100
AcDbBlockReference
  2
MARK_OPEN
 10
214.5149029288339
 20
78.1088274632192
 30
0.0
 50
306.1699012857401
  0
POLYLINE
  5
33B
330
1F
100
AcDbEntity
  8
25
  6
Continuous
 62
     7
370
     9
100
AcDb2dPolyline
 66
     1
 10
0.0
 20
0.0
 30
0.0
  0
VERTEX
  5
33C
330
33B
100
AcDbEntity
  8
25
  6
Continuous
 62
     7
370
     9
100
AcDbVertex
100
AcDb2dVertex
 10
214.5149029288339
 20
78.1088274632192
 30
0.0
  0
VERTEX
  5
33D
330
33B
100
AcDbEntity
  8
25
  6
Continuous
 62
     7
370
     9
100
AcDbVertex
100
AcDb2dVertex
 10
200.4924922284947
 20
97.28915522971853
 30
0.0
  0
VERTEX
  5
33E
330
33B
100
AcDbEntity
  8
25
  6
Continuous
 62
     7
370
     9
100
AcDbVertex
100
AcDb2dVertex
 10
185.0432229630886
 20
97.28915522971853
 30
0.0
  0
SEQEND
  5
33F
330
33B
100
AcDbEntity
  8
25
  6
Continuous
 62
     7
370
     9
  0
INSERT
  5
340
330
1F
100
AcDbEntity
  8
25
  6
Continuous
 62
     7
370
     9
100
AcDbBlockReference
  2
MARK_OPEN
 10
191.4686720221031
 20
83.00882746321919
 30
0.0
 50
315.9510974267398
  0
POLYLINE
  5
341
330
1F
100
AcDbEntity
  8
25
  6
Continuous
 62
     7
370
     9
100
AcDb2dPolyline
 66
     1
 10
0.0
 20
0.0
 30
0.0
  0
VERTEX
  5
342
330
341
100
AcDbEntity
  8
25
  6
Continuous
 62
     7
370
     9
100
AcDbVertex
100
AcDb2dVertex
 10
191.4686720221031
 20
83.00882746321919
 30
0.0
  0
VERTEX
  5
343
330
341
100
AcDbEntity
  8
25
  6
Continuous
 62
     7
370
     9
100
AcDbVertex
100
AcDb2dVertex
 10
185.2723906122611
 20
89.00273579711159
 30
0.0
  0
VERTEX
  5
344
330
341
100
AcDbEntity
  8
25
  6
Continuous
 62
     7
370
     9
100
AcDbVertex
100
AcDb2dVertex
 10
173.2906982846883
 20
89.00273579711159
 30
0.0
  0
SEQEND
  5
345
330
341
100
AcDbEntity
  8
25
  6
Continuous
 62
     7
370
     9
  0
INSERT
  5
346
330
1F
100
AcDbEntity
  8
25
  6
Continuous
 62
     7
370
     9
100
AcDbBlockReference
  2
MARK_OPEN
 10
237.6818322362244
 20
74.20882746321918
 30
0.0
 50
229.9999999999999
  0
POLYLINE
  5
347
330
1F
100
AcDbEntity
  8
25
  6
Continuous
 62
     7
370
     9
100
AcDb2dPolyline
 66
     1
 10
0.0
 20
0.0
 30
0.0
  0
VERTEX
  5
348
330
347
100
AcDbEntity
  8
25
  6
Continuous
 62
     7
370
     9
100
AcDbVertex
100
AcDb2dVertex
 10
237.6818322362244
 20
74.20882746321918
 30
0.0
  0
VERTEX
  5
349
330
347
100
AcDbEntity
  8
25
  6
Continuous
 62
     7
370
     9
100
AcDbVertex
100
AcDb2dVertex
 10
246.794659162636
 20
85.0690716914595
 30
0.0
  0
VERTEX
  5
34A
330
347
100
AcDbEntity
  8
25
  6
Continuous
 62
     7
370
     9
100
AcDbVertex
100
AcDb2dVertex
 10
258.9380864007049
 20
85.0690716914595
 30
0.0
  0
SEQEND
  5
34B
330
347
100
AcDbEntity
  8
25
  6
Continuous
 62
     7
370
     9
  0
MTEXT
  5
34C
330
1F
100
AcDbEntity
  8
25
  6
Continuous
 62
     7
370
     9
100
AcDbMText
 10
251.1422919331176
 20
85.3815716914595
 30
0.0
 40
1.5
 41
7.4245522677
 71
     7
 72
     1
  1
{\fＭＳ ゴシック;\T0.772570;1-32UNF}
 73
     1
 44
1.0
1001
ACAD
1000
ACAD_MTEXT_DEFINED_HEIGHT_BEGIN
1070
    46
1040
1.5
1000
ACAD_MTEXT_DEFINED_HEIGHT_END
1000
MTEXTBEGIN
1070
    73
1070
     1
1070
    44
1040
1.0
1070
    74
1070
     0
1000
MTEXTEND
  0
MTEXT
  5
34D
330
1F
100
AcDbEntity
  8
25
  6
Continuous
 62
     7
370
     9
100
AcDbMText
 10
183.6171703756324
 20
89.31523579711159
 30
0.0
 40
1.5
 41
10.62958623975
 71
     9
 72
     1
  1
{\fＭＳ ゴシック;\T0.763650;M43 P=0.75}
 73
     1
 44
1.0
1001
ACAD
1000
ACAD_MTEXT_DEFINED_HEIGHT_BEGIN
1070
    46
1040
1.5
1000
ACAD_MTEXT_DEFINED_HEIGHT_END
1000
MTEXTBEGIN
1070
    73
1070
     1
1070
    44
1040
1.0
1070
    74
1070
     0
1000
MTEXTEND
  0
LINE
  5
34E
330
1F
100
AcDbEntity
  8
25
  6
Continuous
 62
     7
370
     9
100
AcDbLine
 10
189.8171331662502
 20
83.00882746321919
 30
0.0
 11
192.9465084764236
 21
83.00882746321919
 31
0.0
  0
LINE
  5
34F
330
1F
100
AcDbEntity
  8
25
  6
Continuous
 62
     7
370
     9
100
AcDbLine
 10
189.8171331662502
 20
83.00882746321919
 30
0.0
 11
190.1171331662502
 21
82.70882746321911
 31
0.0
  0
LINE
  5
350
330
1F
100
AcDbEntity
  8
25
  6
Continuous
 62
     7
370
     9
100
AcDbLine
 10
189.8171331662502
 20
83.75882746321913
 30
0.0
 11
196.3771331662502
 21
83.75882746321913
 31
0.0
  0
LINE
  5
351
330
1F
100
AcDbEntity
  8
25
  6
Continuous
 62
     7
370
     9
100
AcDbLine
 10
196.3771331662502
 20
83.75882746321913
 30
0.0
 11
198.2771331662502
 21
77.50882746321913
 31
0.0
  0
LINE
  5
352
330
1F
100
AcDbEntity
  8
25
  6
Continuous
 62
     7
370
     9
100
AcDbLine
 10
189.8171331662502
 20
83.75882746321913
 30
0.0
 11
189.8171331662502
 21
61.50882746321918
 31
0.0
  0
LINE
  5
353
330
1F
100
AcDbEntity
  8
25
  6
Continuous
 62
     7
370
     9
100
AcDbLine
 10
196.3771331662502
 20
83.75882746321913
 30
0.0
 11
196.3771331662502
 21
61.50882746321918
 31
0.0
  0
MTEXT
  5
354
330
1F
100
AcDbEntity
  8
25
  6
Continuous
 62
     7
370
     9
100
AcDbMText
 10
241.133372165545
 20
28.34145449086287
 30
0.0
 40
1.25
 41
7.097318799424425
 71
     1
 72
     1
  1
{\fＭＳ 明朝;\T0.761675;(IN AIR)}
 73
     1
 44
1.0
1001
ACAD
1000
ACAD_MTEXT_DEFINED_HEIGHT_BEGIN
1070
    46
1040
1.25
1000
ACAD_MTEXT_DEFINED_HEIGHT_END
1000
MTEXTBEGIN
1070
    73
1070
     1
1070
    44
1040
1.0
1070
    74
1070
     0
1000
MTEXTEND
  0
HATCH
  5
355
330
1F
100
AcDbEntity
  8
1
  6
Continuous
 62
     7
370
     9
100
AcDbHatch
 10
0.0
 20
0.0
 30
0.0
210
0.0
220
0.0
230
1.0
  2
SOLID
 70
     1
 71
     0
 91
        3
 92
        0
 93
      113
 72
     1
 10
212.0171331662503
 20
67.93382746321924
 11
212.0169903994876
 21
67.94037037132405
 72
     1
 10
212.0169903994876
 20
67.94037037132405
 11
212.0165623709641
 21
67.9469008246314
 72
     1
 10
212.0165623709641
 20
67.9469008246314
 11
212.0158498954564
 21
67.95340639205226
 72
     1
 10
212.0158498954564
 20
67.95340639205226
 11
212.0148543292021
 21
67.95987468986928
 72
     1
 10
212.0148543292021
 20
67.95987468986928
 11
212.0135775673183
 21
67.96629340530995
 72
     1
 10
212.0135775673183
 20
67.96629340530995
 11
212.0120220401937
 21
67.97265031998462
 72
     1
 10
212.0120220401937
 20
67.97265031998462
 11
212.0101907088626
 21
67.9789333331449
 72
     1
 10
212.0101907088626
 20
67.9789333331449
 11
212.0080870593682
 21
67.9851304847181
 72
     1
 10
212.0080870593682
 20
67.9851304847181
 11
212.005715096127
 21
67.99122997807403
 72
     1
 10
212.005715096127
 20
67.99122997807403
 11
212.0030793343058
 21
67.99722020248035
 72
     1
 10
212.0030793343058
 20
67.99722020248035
 11
212.000184791227
 21
68.0030897552045
 72
     1
 10
212.000184791227
 20
68.0030897552045
 11
211.997036976818
 21
68.00882746321924
 72
     1
 10
211.997036976818
 20
68.00882746321924
 11
211.9936418831223
 21
68.01442240447129
 72
     1
 10
211.9936418831223
 20
68.01442240447129
 11
211.9900059728937
 21
68.01986392867191
 72
     1
 10
211.9900059728937
 20
68.01986392867191
 11
211.986136167294
 21
68.02514167757056
 72
     1
 10
211.986136167294
 20
68.02514167757056
 11
211.9820398327182
 21
68.03024560467221
 72
     1
 10
211.9820398327182
 20
68.03024560467221
 11
211.9777247667718
 21
68.03516599436159
 72
     1
 10
211.9777247667718
 20
68.03516599436159
 11
211.9731991834283
 21
68.03989348039722
 72
     1
 10
211.9731991834283
 20
68.03989348039722
 11
211.9684716973927
 21
68.04441906374076
 72
     1
 10
211.9684716973927
 20
68.04441906374076
 11
211.9635513077033
 21
68.04873412968709
 72
     1
 10
211.9635513077033
 20
68.04873412968709
 11
211.9584473806016
 21
68.05283046426294
 72
     1
 10
211.9584473806016
 20
68.05283046426294
 11
211.953169631703
 21
68.0567002698626
 72
     1
 10
211.953169631703
 20
68.0567002698626
 11
211.9477281075023
 21
68.06033618009118
 72
     1
 10
211.9477281075023
 20
68.06033618009118
 11
211.9421331662503
 21
68.06373127378691
 72
     1
 10
211.9421331662503
 20
68.06373127378691
 11
211.9363954582356
 21
68.06687908819599
 72
     1
 10
211.9363954582356
 20
68.06687908819599
 11
211.9305259055114
 21
68.06977363127474
 72
     1
 10
211.9305259055114
 20
68.06977363127474
 11
211.9245356811051
 21
68.07240939309593
 72
     1
 10
211.9245356811051
 20
68.07240939309593
 11
211.9184361877492
 21
68.07478135633714
 72
     1
 10
211.9184361877492
 20
68.07478135633714
 11
211.9122390361759
 21
68.07688500583148
 72
     1
 10
211.9122390361759
 20
68.07688500583148
 11
211.9059560230157
 21
68.07871633716262
 72
     1
 10
211.9059560230157
 20
68.07871633716262
 11
211.899599108341
 21
68.08027186428724
 72
     1
 10
211.899599108341
 20
68.08027186428724
 11
211.8931803929003
 21
68.08154862617107
 72
     1
 10
211.8931803929003
 20
68.08154862617107
 11
211.8867120950833
 21
68.08254419242532
 72
     1
 10
211.8867120950833
 20
68.08254419242532
 11
211.8802065276625
 21
68.083256667933
 72
     1
 10
211.8802065276625
 20
68.083256667933
 11
211.8736760743551
 21
68.08368469645653
 72
     1
 10
211.8736760743551
 20
68.08368469645653
 11
211.8671331662503
 21
68.08382746321925
 72
     1
 10
211.8671331662503
 20
68.08382746321928
 11
210.6671331662503
 21
68.08382746321928
 72
     1
 10
210.6671331662503
 20
68.08382746321925
 11
210.6605902581455
 21
68.08368469645653
 72
     1
 10
210.6605902581455
 20
68.08368469645653
 11
210.6540598048382
 21
68.083256667933
 72
     1
 10
210.6540598048382
 20
68.083256667933
 11
210.6475542374173
 21
68.08254419242532
 72
     1
 10
210.6475542374173
 20
68.08254419242532
 11
210.6410859396003
 21
68.08154862617107
 72
     1
 10
210.6410859396003
 20
68.08154862617107
 11
210.6346672241596
 21
68.08027186428724
 72
     1
 10
210.6346672241596
 20
68.08027186428724
 11
210.6283103094849
 21
68.07871633716262
 72
     1
 10
210.6283103094849
 20
68.07871633716262
 11
210.6220272963247
 21
68.07688500583148
 72
     1
 10
210.6220272963247
 20
68.07688500583148
 11
210.6158301447515
 21
68.07478135633714
 72
     1
 10
210.6158301447515
 20
68.07478135633714
 11
210.6097306513956
 21
68.07240939309593
 72
     1
 10
210.6097306513956
 20
68.07240939309593
 11
210.6037404269891
 21
68.06977363127474
 72
     1
 10
210.6037404269891
 20
68.06977363127474
 11
210.5978708742651
 21
68.06687908819599
 72
     1
 10
210.5978708742651
 20
68.06687908819599
 11
210.5921331662503
 21
68.06373127378691
 72
     1
 10
210.5921331662503
 20
68.06373127378691
 11
210.5865382249983
 21
68.06033618009118
 72
     1
 10
210.5865382249983
 20
68.06033618009118
 11
210.5810967007977
 21
68.0567002698626
 72
     1
 10
210.5810967007977
 20
68.0567002698626
 11
210.575818951899
 21
68.05283046426294
 72
     1
 10
210.575818951899
 20
68.05283046426294
 11
210.5707150247974
 21
68.04873412968709
 72
     1
 10
210.5707150247974
 20
68.04873412968709
 11
210.565794635108
 21
68.04441906374076
 72
     1
 10
210.565794635108
 20
68.04441906374076
 11
210.5610671490723
 21
68.03989348039722
 72
     1
 10
210.5610671490723
 20
68.03989348039722
 11
210.5565415657288
 21
68.03516599436159
 72
     1
 10
210.5565415657288
 20
68.03516599436159
 11
210.5522264997825
 21
68.03024560467221
 72
     1
 10
210.5522264997825
 20
68.03024560467221
 11
210.5481301652066
 21
68.02514167757056
 72
     1
 10
210.5481301652066
 20
68.02514167757056
 11
210.544260359607
 21
68.01986392867191
 72
     1
 10
210.544260359607
 20
68.01986392867191
 11
210.5406244493784
 21
68.01442240447129
 72
     1
 10
210.5406244493784
 20
68.01442240447129
 11
210.5372293556827
 21
68.00882746321924
 72
     1
 10
210.5372293556827
 20
68.00882746321924
 11
210.5340815412735
 21
68.0030897552045
 72
     1
 10
210.5340815412735
 20
68.0030897552045
 11
210.5311869981948
 21
67.99722020248035
 72
     1
 10
210.5311869981948
 20
67.99722020248035
 11
210.5285512363736
 21
67.99122997807403
 72
     1
 10
210.5285512363736
 20
67.99122997807403
 11
210.5261792731324
 21
67.9851304847181
 72
     1
 10
210.5261792731324
 20
67.9851304847181
 11
210.5240756236381
 21
67.9789333331449
 72
     1
 10
210.5240756236381
 20
67.9789333331449
 11
210.522244292307
 21
67.97265031998462
 72
     1
 10
210.522244292307
 20
67.97265031998462
 11
210.5206887651823
 21
67.96629340530997
 72
     1
 10
210.5206887651823
 20
67.96629340530997
 11
210.5194120032985
 21
67.95987468986928
 72
     1
 10
210.5194120032985
 20
67.95987468986928
 11
210.5184164370442
 21
67.95340639205226
 72
     1
 10
210.5184164370442
 20
67.95340639205226
 11
210.5177039615366
 21
67.9469008246314
 72
     1
 10
210.5177039615366
 20
67.9469008246314
 11
210.5172759330131
 21
67.94037037132405
 72
     1
 10
210.5172759330131
 20
67.94037037132405
 11
210.5171331662503
 21
67.93382746321924
 72
     1
 10
210.5171331662503
 20
67.93382746321924
 11
210.5171331662503
 21
67.48382746321931
 72
     1
 10
210.5171331662503
 20
67.48382746321931
 11
210.5171331662503
 21
67.33382746321928
 72
     1
 10
210.5171331662503
 20
67.33382746321928
 11
211.8671331662503
 21
67.33382746321928
 72
     1
 10
211.8671331662503
 20
67.33382746321931
 11
211.8736760743551
 21
67.33397022998203
 72
     1
 10
211.8736760743551
 20
67.33397022998203
 11
211.8802065276625
 21
67.33439825850553
 72
     1
 10
211.8802065276625
 20
67.33439825850553
 11
211.8867120950833
 21
67.33511073401324
 72
     1
 10
211.8867120950833
 20
67.33511073401324
 11
211.8931803929003
 21
67.33610630026747
 72
     1
 10
211.8931803929003
 20
67.33610630026747
 11
211.899599108341
 21
67.33738306215132
 72
     1
 10
211.899599108341
 20
67.33738306215132
 11
211.9059560230157
 21
67.33893858927594
 72
     1
 10
211.9059560230157
 20
67.33893858927594
 11
211.9122390361759
 21
67.34076992060707
 72
     1
 10
211.9122390361759
 20
67.34076992060707
 11
211.9184361877492
 21
67.34287357010142
 72
     1
 10
211.9184361877492
 20
67.34287357010142
 11
211.9245356811051
 21
67.34524553334262
 72
     1
 10
211.9245356811051
 20
67.34524553334262
 11
211.9305259055114
 21
67.34788129516381
 72
     1
 10
211.9305259055114
 20
67.34788129516381
 11
211.9363954582356
 21
67.35077583824256
 72
     1
 10
211.9363954582356
 20
67.35077583824256
 11
211.9421331662503
 21
67.35392365265164
 72
     1
 10
211.9421331662503
 20
67.35392365265164
 11
211.9477281075023
 21
67.35731874634737
 72
     1
 10
211.9477281075023
 20
67.35731874634737
 11
211.953169631703
 21
67.36095465657595
 72
     1
 10
211.953169631703
 20
67.36095465657595
 11
211.9584473806016
 21
67.36482446217562
 72
     1
 10
211.9584473806016
 20
67.36482446217562
 11
211.9635513077033
 21
67.36892079675147
 72
     1
 10
211.9635513077033
 20
67.36892079675147
 11
211.9684716973927
 21
67.3732358626978
 72
     1
 10
211.9684716973927
 20
67.3732358626978
 11
211.9731991834283
 21
67.37776144604133
 72
     1
 10
211.9731991834283
 20
67.37776144604133
 11
211.9777247667718
 21
67.38248893207695
 72
     1
 10
211.9777247667718
 20
67.38248893207695
 11
211.9820398327182
 21
67.38740932176632
 72
     1
 10
211.9820398327182
 20
67.38740932176632
 11
211.986136167294
 21
67.392513248868
 72
     1
 10
211.986136167294
 20
67.392513248868
 11
211.9900059728937
 21
67.39779099776665
 72
     1
 10
211.9900059728937
 20
67.39779099776665
 11
211.9936418831223
 21
67.40323252196728
 72
     1
 10
211.9936418831223
 20
67.40323252196728
 11
211.997036976818
 21
67.40882746321931
 72
     1
 10
211.997036976818
 20
67.40882746321931
 11
212.000184791227
 21
67.41456517123406
 72
     1
 10
212.000184791227
 20
67.41456517123406
 11
212.0030793343058
 21
67.4204347239582
 72
     1
 10
212.0030793343058
 20
67.4204347239582
 11
212.005715096127
 21
67.42642494836454
 72
     1
 10
212.005715096127
 20
67.42642494836454
 11
212.0080870593682
 21
67.43252444172046
 72
     1
 10
212.0080870593682
 20
67.43252444172046
 11
212.0101907088626
 21
67.43872159329367
 72
     1
 10
212.0101907088626
 20
67.43872159329367
 11
212.0120220401937
 21
67.44500460645394
 72
     1
 10
212.0120220401937
 20
67.44500460645394
 11
212.0135775673183
 21
67.4513615211286
 72
     1
 10
212.0135775673183
 20
67.4513615211286
 11
212.0148543292021
 21
67.45778023656928
 72
     1
 10
212.0148543292021
 20
67.45778023656928
 11
212.0158498954564
 21
67.4642485343863
 72
     1
 10
212.0158498954564
 20
67.4642485343863
 11
212.0165623709641
 21
67.47075410180716
 72
     1
 10
212.0165623709641
 20
67.47075410180716
 11
212.0169903994876
 21
67.47728455511451
 72
     1
 10
212.0169903994876
 20
67.47728455511451
 11
212.0171331662503
 21
67.48382746321931
 72
     1
 10
212.0171331662503
 20
67.48382746321931
 11
212.0171331662503
 21
67.9338274632193
 97
        0
 92
        0
 93
        1
 72
     2
 10
211.8671331662503
 20
67.93382746321924
 40
0.1500000000000057
 50
0.0
 51
360.0
 73
     1
 97
        0
 92
        0
 93
       37
 72
     1
 10
210.5171331662503
 20
67.48382746321931
 11
210.5172759330131
 21
67.47728455511451
 72
     1
 10
210.5172759330131
 20
67.47728455511451
 11
210.5177039615366
 21
67.47075410180716
 72
     1
 10
210.5177039615366
 20
67.47075410180716
 11
210.5184164370442
 21
67.4642485343863
 72
     1
 10
210.5184164370442
 20
67.4642485343863
 11
210.5194120032985
 21
67.45778023656928
 72
     1
 10
210.5194120032985
 20
67.45778023656928
 11
210.5206887651823
 21
67.4513615211286
 72
     1
 10
210.5206887651823
 20
67.4513615211286
 11
210.522244292307
 21
67.44500460645394
 72
     1
 10
210.522244292307
 20
67.44500460645394
 11
210.5240756236381
 21
67.43872159329367
 72
     1
 10
210.5240756236381
 20
67.43872159329367
 11
210.5261792731324
 21
67.43252444172046
 72
     1
 10
210.5261792731324
 20
67.43252444172046
 11
210.5285512363736
 21
67.42642494836454
 72
     1
 10
210.5285512363736
 20
67.42642494836454
 11
210.5311869981948
 21
67.4204347239582
 72
     1
 10
210.5311869981948
 20
67.4204347239582
 11
210.5340815412735
 21
67.41456517123406
 72
     1
 10
210.5340815412735
 20
67.41456517123406
 11
210.5372293556827
 21
67.40882746321931
 72
     1
 10
210.5372293556827
 20
67.40882746321931
 11
210.5406244493784
 21
67.40323252196728
 72
     1
 10
210.5406244493784
 20
67.40323252196728
 11
210.544260359607
 21
67.39779099776665
 72
     1
 10
210.544260359607
 20
67.39779099776665
 11
210.5481301652066
 21
67.392513248868
 72
     1
 10
210.5481301652066
 20
67.392513248868
 11
210.5522264997825
 21
67.38740932176632
 72
     1
 10
210.5522264997825
 20
67.38740932176632
 11
210.5565415657288
 21
67.38248893207696
 72
     1
 10
210.5565415657288
 20
67.38248893207696
 11
210.5610671490723
 21
67.37776144604133
 72
     1
 10
210.5610671490723
 20
67.37776144604133
 11
210.565794635108
 21
67.3732358626978
 72
     1
 10
210.565794635108
 20
67.3732358626978
 11
210.5707150247974
 21
67.36892079675147
 72
     1
 10
210.5707150247974
 20
67.36892079675147
 11
210.575818951899
 21
67.36482446217562
 72
     1
 10
210.575818951899
 20
67.36482446217562
 11
210.5810967007977
 21
67.36095465657595
 72
     1
 10
210.5810967007977
 20
67.36095465657595
 11
210.5865382249983
 21
67.35731874634737
 72
     1
 10
210.5865382249983
 20
67.35731874634737
 11
210.5921331662503
 21
67.35392365265164
 72
     1
 10
210.5921331662503
 20
67.35392365265164
 11
210.5978708742651
 21
67.35077583824256
 72
     1
 10
210.5978708742651
 20
67.35077583824256
 11
210.6037404269891
 21
67.34788129516381
 72
     1
 10
210.6037404269891
 20
67.34788129516381
 11
210.6097306513956
 21
67.34524553334262
 72
     1
 10
210.6097306513956
 20
67.34524553334262
 11
210.6158301447515
 21
67.34287357010142
 72
     1
 10
210.6158301447515
 20
67.34287357010142
 11
210.6220272963247
 21
67.34076992060707
 72
     1
 10
210.6220272963247
 20
67.34076992060707
 11
210.6283103094849
 21
67.33893858927595
 72
     1
 10
210.6283103094849
 20
67.33893858927595
 11
210.6346672241596
 21
67.33738306215132
 72
     1
 10
210.6346672241596
 20
67.33738306215132
 11
210.6410859396003
 21
67.33610630026747
 72
     1
 10
210.6410859396003
 20
67.33610630026747
 11
210.6475542374173
 21
67.33511073401324
 72
     1
 10
210.6475542374173
 20
67.33511073401324
 11
210.6540598048382
 21
67.33439825850553
 72
     1
 10
210.6540598048382
 20
67.33439825850553
 11
210.6605902581455
 21
67.33397022998203
 72
     1
 10
210.6605902581455
 20
67.33397022998203
 11
210.6671331662503
 21
67.33382746321931
 72
     1
 10
210.6671331662503
 20
67.33382746321931
 11
210.5171331662503
 21
67.48382746321931
 97
        0
 75
     0
 76
     1
 98
        0
  0
HATCH
  5
356
330
1F
100
AcDbEntity
  8
1
  6
Continuous
 62
     7
370
     9
100
AcDbHatch
 10
0.0
 20
0.0
 30
0.0
210
0.0
220
0.0
230
1.0
  2
SOLID
 70
     1
 71
     0
 91
        1
 92
        0
 93
       38
 72
     1
 10
212.0171331662503
 20
67.93382746321924
 11
212.0171331662503
 21
67.48382746321931
 72
     1
 10
212.0171331662503
 20
67.48382746321931
 11
211.8671331662503
 21
68.08382746321925
 72
     1
 10
211.8671331662503
 20
68.08382746321925
 11
211.8475542374173
 21
68.08254419242532
 72
     1
 10
211.8475542374173
 20
68.08254419242532
 11
211.8283103094849
 21
68.07871633716262
 72
     1
 10
211.8283103094849
 20
68.07871633716262
 11
211.8097306513955
 21
68.07240939309593
 72
     1
 10
211.8097306513955
 20
68.07240939309593
 11
211.7921331662503
 21
68.06373127378691
 72
     1
 10
211.7921331662503
 20
68.06373127378691
 11
211.775818951899
 21
68.05283046426294
 72
     1
 10
211.775818951899
 20
68.05283046426294
 11
211.7610671490723
 21
68.03989348039722
 72
     1
 10
211.7610671490723
 20
68.03989348039722
 11
211.7481301652066
 21
68.02514167757056
 72
     1
 10
211.7481301652066
 20
68.02514167757056
 11
211.7372293556826
 21
68.00882746321924
 72
     1
 10
211.7372293556826
 20
68.00882746321924
 11
211.7285512363736
 21
67.99122997807403
 72
     1
 10
211.7285512363736
 20
67.99122997807403
 11
211.722244292307
 21
67.97265031998462
 72
     1
 10
211.722244292307
 20
67.97265031998462
 11
211.7184164370442
 21
67.95340639205226
 72
     1
 10
211.7184164370442
 20
67.95340639205226
 11
211.7171331662503
 21
67.93382746321924
 72
     1
 10
211.7171331662503
 20
67.93382746321924
 11
211.7184164370442
 21
67.91424853438622
 72
     1
 10
211.7184164370442
 20
67.91424853438622
 11
211.722244292307
 21
67.89500460645387
 72
     1
 10
211.722244292307
 20
67.89500460645387
 11
211.7285512363736
 21
67.87642494836447
 72
     1
 10
211.7285512363736
 20
67.87642494836447
 11
211.7372293556826
 21
67.85882746321924
 72
     1
 10
211.7372293556826
 20
67.85882746321924
 11
211.7481301652066
 21
67.84251324886793
 72
     1
 10
211.7481301652066
 20
67.84251324886793
 11
211.7610671490723
 21
67.82776144604127
 72
     1
 10
211.7610671490723
 20
67.82776144604127
 11
211.775818951899
 21
67.81482446217555
 72
     1
 10
211.775818951899
 20
67.81482446217555
 11
211.7921331662503
 21
67.80392365265157
 72
     1
 10
211.7921331662503
 20
67.80392365265157
 11
211.8097306513955
 21
67.79524553334254
 72
     1
 10
211.8097306513955
 20
67.79524553334254
 11
211.8283103094849
 21
67.7889385892759
 72
     1
 10
211.8283103094849
 20
67.7889385892759
 11
211.8475542374173
 21
67.78511073401317
 72
     1
 10
211.8475542374173
 20
67.78511073401317
 11
211.8671331662503
 21
67.78382746321923
 72
     1
 10
211.8671331662503
 20
67.78382746321923
 11
211.8867120950833
 21
67.78511073401317
 72
     1
 10
211.8867120950833
 20
67.78511073401317
 11
211.9059560230157
 21
67.78893858927587
 72
     1
 10
211.9059560230157
 20
67.78893858927587
 11
211.9245356811051
 21
67.79524553334254
 72
     1
 10
211.9245356811051
 20
67.79524553334254
 11
211.9421331662503
 21
67.80392365265157
 72
     1
 10
211.9421331662503
 20
67.80392365265157
 11
211.9584473806016
 21
67.81482446217555
 72
     1
 10
211.9584473806016
 20
67.81482446217555
 11
211.9731991834283
 21
67.82776144604127
 72
     1
 10
211.9731991834283
 20
67.82776144604127
 11
211.986136167294
 21
67.84251324886793
 72
     1
 10
211.986136167294
 20
67.84251324886793
 11
211.997036976818
 21
67.85882746321924
 72
     1
 10
211.997036976818
 20
67.85882746321924
 11
212.005715096127
 21
67.87642494836447
 72
     1
 10
212.005715096127
 20
67.87642494836447
 11
212.0120220401937
 21
67.89500460645387
 72
     1
 10
212.0120220401937
 20
67.89500460645387
 11
212.0158498954564
 21
67.91424853438622
 72
     1
 10
212.0158498954564
 20
67.91424853438622
 11
212.0171331662503
 21
67.93382746321924
 97
        0
 75
     0
 76
     1
 98
        0
  0
HATCH
  5
357
330
1F
100
AcDbEntity
  8
1
  6
Continuous
 62
     7
370
     9
100
AcDbHatch
 10
0.0
 20
0.0
 30
0.0
210
0.0
220
0.0
230
1.0
  2
SOLID
 70
     1
 71
     0
 91
        1
 92
        0
 93
        1
 72
     2
 10
211.8671331662503
 20
67.93382746321924
 40
0.1500000000000057
 50
0.0
 51
360.0
 73
     1
 97
        0
 75
     0
 76
     1
 98
        0
  0
LINE
  5
358
330
1F
100
AcDbEntity
  8
1
  6
Continuous
 62
     7
370
     9
100
AcDbLine
 10
211.9782936206029
 20
64.34639025249403
 30
0.0
 11
210.7782936206029
 21
64.34639025249403
 31
0.0
  0
LINE
  5
359
330
1F
100
AcDbEntity
  8
1
  6
Continuous
 62
     7
370
     9
100
AcDbLine
 10
211.9782936206029
 20
65.09639025249403
 30
0.0
 11
210.7782936206029
 21
65.09639025249403
 31
0.0
  0
ARC
  5
35A
330
1F
100
AcDbEntity
  8
1
  6
Continuous
 62
     7
370
     9
100
AcDbCircle
 10
210.7782936206029
 20
64.49639025249407
 30
0.0
 40
0.1500000000000057
100
AcDbArc
 50
179.9999999999998
 51
269.9999999999998
  0
LINE
  5
35B
330
1F
100
AcDbEntity
  8
1
  6
Continuous
 62
     7
370
     9
100
AcDbLine
 10
210.6282936206029
 20
64.49639025249407
 30
0.0
 11
210.6282936206029
 21
64.94639025249405
 31
0.0
  0
ARC
  5
35C
330
1F
100
AcDbEntity
  8
1
  6
Continuous
 62
     7
370
     9
100
AcDbCircle
 10
210.7782936206029
 20
64.946390252494
 30
0.0
 40
0.1500000000000057
100
AcDbArc
 50
89.99999999999991
 51
179.9999999999783
  0
LINE
  5
35D
330
1F
100
AcDbEntity
  8
1
  6
Continuous
 62
     7
370
     9
100
AcDbLine
 10
212.1282936206029
 20
64.94639025249405
 30
0.0
 11
212.1282936206029
 21
64.49639025249407
 31
0.0
  0
ARC
  5
35E
330
1F
100
AcDbEntity
  8
1
  6
Continuous
 62
     7
370
     9
100
AcDbCircle
 10
211.9782936206029
 20
64.49639025249407
 30
0.0
 40
0.1500000000000057
100
AcDbArc
 50
269.9999999999998
 51
0.0000000000054281
  0
ARC
  5
35F
330
1F
100
AcDbEntity
  8
1
  6
Continuous
 62
     7
370
     9
100
AcDbCircle
 10
211.9782936206029
 20
64.946390252494
 30
0.0
 40
0.1500000000000057
100
AcDbArc
 50
0.0000000000271407
 51
89.99999999999991
  0
HATCH
  5
360
330
1F
100
AcDbEntity
  8
1
  6
Continuous
 62
     7
370
     9
100
AcDbHatch
 10
0.0
 20
0.0
 30
0.0
210
0.0
220
0.0
230
1.0
  2
SOLID
 70
     1
 71
     0
 91
        3
 92
        0
 93
      113
 72
     1
 10
212.1282936206029
 20
64.946390252494
 11
212.1281508538401
 21
64.95293316059878
 72
     1
 10
212.1281508538401
 20
64.95293316059878
 11
212.1277228253166
 21
64.95946361390615
 72
     1
 10
212.1277228253166
 20
64.95946361390615
 11
212.127010349809
 21
64.96596918132701
 72
     1
 10
212.127010349809
 20
64.96596918132701
 11
212.1260147835547
 21
64.97243747914403
 72
     1
 10
212.1260147835547
 20
64.97243747914403
 11
212.1247380216709
 21
64.97885619458471
 72
     1
 10
212.1247380216709
 20
64.97885619458471
 11
212.1231824945462
 21
64.98521310925939
 72
     1
 10
212.1231824945462
 20
64.98521310925939
 11
212.1213511632151
 21
64.99149612241964
 72
     1
 10
212.1213511632151
 20
64.99149612241964
 11
212.1192475137208
 21
64.99769327399285
 72
     1
 10
212.1192475137208
 20
64.99769327399285
 11
212.1168755504796
 21
65.00379276734877
 72
     1
 10
212.1168755504796
 20
65.00379276734877
 11
212.1142397886584
 21
65.0097829917551
 72
     1
 10
212.1142397886584
 20
65.0097829917551
 11
212.1113452455796
 21
65.01565254447925
 72
     1
 10
212.1113452455796
 20
65.01565254447925
 11
212.1081974311705
 21
65.021390252494
 72
     1
 10
212.1081974311705
 20
65.021390252494
 11
212.1048023374748
 21
65.02698519374603
 72
     1
 10
212.1048023374748
 20
65.02698519374603
 11
212.1011664272462
 21
65.03242671794665
 72
     1
 10
212.1011664272462
 20
65.03242671794665
 11
212.0972966216466
 21
65.03770446684531
 72
     1
 10
212.0972966216466
 20
65.03770446684531
 11
212.0932002870707
 21
65.04280839394697
 72
     1
 10
212.0932002870707
 20
65.04280839394697
 11
212.0888852211244
 21
65.04772878363635
 72
     1
 10
212.0888852211244
 20
65.04772878363635
 11
212.0843596377809
 21
65.05245626967198
 72
     1
 10
212.0843596377809
 20
65.05245626967198
 11
212.0796321517452
 21
65.05698185301551
 72
     1
 10
212.0796321517452
 20
65.05698185301551
 11
212.0747117620558
 21
65.06129691896184
 72
     1
 10
212.0747117620558
 20
65.06129691896184
 11
212.0696078349542
 21
65.06539325353767
 72
     1
 10
212.0696078349542
 20
65.06539325353767
 11
212.0643300860555
 21
65.06926305913736
 72
     1
 10
212.0643300860555
 20
65.06926305913736
 11
212.0588885618549
 21
65.07289896936594
 72
     1
 10
212.0588885618549
 20
65.07289896936594
 11
212.0532936206029
 21
65.07629406306168
 72
     1
 10
212.0532936206029
 20
65.07629406306168
 11
212.0475559125881
 21
65.07944187747074
 72
     1
 10
212.0475559125881
 20
65.07944187747074
 11
212.041686359864
 21
65.0823364205495
 72
     1
 10
212.041686359864
 20
65.0823364205495
 11
212.0356961354576
 21
65.08497218237069
 72
     1
 10
212.0356961354576
 20
65.08497218237069
 11
212.0295966421017
 21
65.08734414561189
 72
     1
 10
212.0295966421017
 20
65.08734414561189
 11
212.0233994905285
 21
65.08944779510624
 72
     1
 10
212.0233994905285
 20
65.08944779510624
 11
212.0171164773683
 21
65.09127912643737
 72
     1
 10
212.0171164773683
 20
65.09127912643737
 11
212.0107595626936
 21
65.09283465356201
 72
     1
 10
212.0107595626936
 20
65.09283465356201
 11
212.0043408472529
 21
65.09411141544584
 72
     1
 10
212.0043408472529
 20
65.09411141544584
 11
211.9978725494359
 21
65.09510698170007
 72
     1
 10
211.9978725494359
 20
65.09510698170007
 11
211.991366982015
 21
65.09581945720778
 72
     1
 10
211.991366982015
 20
65.09581945720778
 11
211.9848365287077
 21
65.09624748573128
 72
     1
 10
211.9848365287077
 20
65.09624748573128
 11
211.9782936206029
 21
65.096390252494
 72
     1
 10
211.9782936206029
 20
65.09639025249403
 11
210.7782936206029
 21
65.09639025249403
 72
     1
 10
210.7782936206029
 20
65.096390252494
 11
210.7717507124981
 21
65.09624748573128
 72
     1
 10
210.7717507124981
 20
65.09624748573128
 11
210.7652202591907
 21
65.09581945720778
 72
     1
 10
210.7652202591907
 20
65.09581945720778
 11
210.7587146917699
 21
65.09510698170007
 72
     1
 10
210.7587146917699
 20
65.09510698170007
 11
210.7522463939528
 21
65.09411141544584
 72
     1
 10
210.7522463939528
 20
65.09411141544584
 11
210.7458276785122
 21
65.09283465356201
 72
     1
 10
210.7458276785122
 20
65.09283465356201
 11
210.7394707638375
 21
65.09127912643737
 72
     1
 10
210.7394707638375
 20
65.09127912643737
 11
210.7331877506772
 21
65.08944779510624
 72
     1
 10
210.7331877506772
 20
65.08944779510624
 11
210.726990599104
 21
65.08734414561189
 72
     1
 10
210.726990599104
 20
65.08734414561189
 11
210.7208911057481
 21
65.08497218237069
 72
     1
 10
210.7208911057481
 20
65.08497218237069
 11
210.7149008813418
 21
65.0823364205495
 72
     1
 10
210.7149008813418
 20
65.0823364205495
 11
210.7090313286176
 21
65.07944187747074
 72
     1
 10
210.7090313286176
 20
65.07944187747074
 11
210.7032936206029
 21
65.07629406306168
 72
     1
 10
210.7032936206029
 20
65.07629406306168
 11
210.6976986793509
 21
65.07289896936594
 72
     1
 10
210.6976986793509
 20
65.07289896936594
 11
210.6922571551502
 21
65.06926305913736
 72
     1
 10
210.6922571551502
 20
65.06926305913736
 11
210.6869794062516
 21
65.06539325353767
 72
     1
 10
210.6869794062516
 20
65.06539325353767
 11
210.6818754791499
 21
65.06129691896184
 72
     1
 10
210.6818754791499
 20
65.06129691896184
 11
210.6769550894605
 21
65.05698185301551
 72
     1
 10
210.6769550894605
 20
65.05698185301551
 11
210.6722276034249
 21
65.05245626967198
 72
     1
 10
210.6722276034249
 20
65.05245626967198
 11
210.6677020200814
 21
65.04772878363635
 72
     1
 10
210.6677020200814
 20
65.04772878363635
 11
210.663386954135
 21
65.04280839394697
 72
     1
 10
210.663386954135
 20
65.04280839394697
 11
210.6592906195592
 21
65.03770446684531
 72
     1
 10
210.6592906195592
 20
65.03770446684531
 11
210.6554208139595
 21
65.03242671794665
 72
     1
 10
210.6554208139595
 20
65.03242671794665
 11
210.6517849037309
 21
65.02698519374603
 72
     1
 10
210.6517849037309
 20
65.02698519374603
 11
210.6483898100352
 21
65.021390252494
 72
     1
 10
210.6483898100352
 20
65.021390252494
 11
210.6452419956262
 21
65.01565254447925
 72
     1
 10
210.6452419956262
 20
65.01565254447925
 11
210.6423474525474
 21
65.0097829917551
 72
     1
 10
210.6423474525474
 20
65.0097829917551
 11
210.6397116907262
 21
65.00379276734877
 72
     1
 10
210.6397116907262
 20
65.00379276734877
 11
210.637339727485
 21
64.99769327399285
 72
     1
 10
210.637339727485
 20
64.99769327399285
 11
210.6352360779906
 21
64.99149612241964
 72
     1
 10
210.6352360779906
 20
64.99149612241964
 11
210.6334047466595
 21
64.98521310925939
 72
     1
 10
210.6334047466595
 20
64.98521310925939
 11
210.6318492195349
 21
64.97885619458472
 72
     1
 10
210.6318492195349
 20
64.97885619458472
 11
210.6305724576511
 21
64.97243747914403
 72
     1
 10
210.6305724576511
 20
64.97243747914403
 11
210.6295768913968
 21
64.96596918132701
 72
     1
 10
210.6295768913968
 20
64.96596918132701
 11
210.6288644158891
 21
64.95946361390615
 72
     1
 10
210.6288644158891
 20
64.95946361390615
 11
210.6284363873656
 21
64.95293316059878
 72
     1
 10
210.6284363873656
 20
64.95293316059878
 11
210.6282936206029
 21
64.946390252494
 72
     1
 10
210.6282936206029
 20
64.946390252494
 11
210.6282936206029
 21
64.49639025249407
 72
     1
 10
210.6282936206029
 20
64.49639025249407
 11
210.6282936206029
 21
64.34639025249403
 72
     1
 10
210.6282936206029
 20
64.34639025249403
 11
211.9782936206029
 21
64.34639025249403
 72
     1
 10
211.9782936206029
 20
64.34639025249406
 11
211.9848365287077
 21
64.34653301925678
 72
     1
 10
211.9848365287077
 20
64.34653301925678
 11
211.991366982015
 21
64.3469610477803
 72
     1
 10
211.991366982015
 20
64.3469610477803
 11
211.9978725494359
 21
64.34767352328801
 72
     1
 10
211.9978725494359
 20
64.34767352328801
 11
212.0043408472529
 21
64.34866908954223
 72
     1
 10
212.0043408472529
 20
64.34866908954223
 11
212.0107595626936
 21
64.34994585142607
 72
     1
 10
212.0107595626936
 20
64.34994585142607
 11
212.0171164773683
 21
64.35150137855071
 72
     1
 10
212.0171164773683
 20
64.35150137855071
 11
212.0233994905285
 21
64.35333270988182
 72
     1
 10
212.0233994905285
 20
64.35333270988182
 11
212.0295966421017
 21
64.35543635937617
 72
     1
 10
212.0295966421017
 20
64.35543635937617
 11
212.0356961354576
 21
64.35780832261738
 72
     1
 10
212.0356961354576
 20
64.35780832261738
 11
212.041686359864
 21
64.36044408443857
 72
     1
 10
212.041686359864
 20
64.36044408443857
 11
212.0475559125881
 21
64.36333862751732
 72
     1
 10
212.0475559125881
 20
64.36333862751732
 11
212.0532936206029
 21
64.3664864419264
 72
     1
 10
212.0532936206029
 20
64.3664864419264
 11
212.0588885618549
 21
64.36988153562213
 72
     1
 10
212.0588885618549
 20
64.36988153562213
 11
212.0643300860555
 21
64.37351744585071
 72
     1
 10
212.0643300860555
 20
64.37351744585071
 11
212.0696078349542
 21
64.37738725145037
 72
     1
 10
212.0696078349542
 20
64.37738725145037
 11
212.0747117620558
 21
64.38148358602622
 72
     1
 10
212.0747117620558
 20
64.38148358602622
 11
212.0796321517452
 21
64.38579865197255
 72
     1
 10
212.0796321517452
 20
64.38579865197255
 11
212.0843596377809
 21
64.3903242353161
 72
     1
 10
212.0843596377809
 20
64.3903242353161
 11
212.0888852211244
 21
64.3950517213517
 72
     1
 10
212.0888852211244
 20
64.3950517213517
 11
212.0932002870707
 21
64.39997211104108
 72
     1
 10
212.0932002870707
 20
64.39997211104108
 11
212.0972966216466
 21
64.40507603814275
 72
     1
 10
212.0972966216466
 20
64.40507603814275
 11
212.1011664272462
 21
64.4103537870414
 72
     1
 10
212.1011664272462
 20
64.4103537870414
 11
212.1048023374748
 21
64.41579531124204
 72
     1
 10
212.1048023374748
 20
64.41579531124204
 11
212.1081974311705
 21
64.42139025249407
 72
     1
 10
212.1081974311705
 20
64.42139025249407
 11
212.1113452455796
 21
64.42712796050881
 72
     1
 10
212.1113452455796
 20
64.42712796050881
 11
212.1142397886584
 21
64.43299751323296
 72
     1
 10
212.1142397886584
 20
64.43299751323296
 11
212.1168755504796
 21
64.4389877376393
 72
     1
 10
212.1168755504796
 20
64.4389877376393
 11
212.1192475137208
 21
64.44508723099521
 72
     1
 10
212.1192475137208
 20
64.44508723099521
 11
212.1213511632151
 21
64.45128438256843
 72
     1
 10
212.1213511632151
 20
64.45128438256843
 11
212.1231824945462
 21
64.45756739572868
 72
     1
 10
212.1231824945462
 20
64.45756739572868
 11
212.1247380216709
 21
64.46392431040334
 72
     1
 10
212.1247380216709
 20
64.46392431040334
 11
212.1260147835547
 21
64.47034302584403
 72
     1
 10
212.1260147835547
 20
64.47034302584403
 11
212.127010349809
 21
64.47681132366105
 72
     1
 10
212.127010349809
 20
64.47681132366105
 11
212.1277228253166
 21
64.4833168910819
 72
     1
 10
212.1277228253166
 20
64.4833168910819
 11
212.1281508538401
 21
64.48984734438926
 72
     1
 10
212.1281508538401
 20
64.48984734438926
 11
212.1282936206029
 21
64.49639025249407
 72
     1
 10
212.1282936206029
 20
64.49639025249407
 11
212.1282936206029
 21
64.94639025249405
 97
        0
 92
        0
 93
        1
 72
     2
 10
211.9782936206029
 20
64.946390252494
 40
0.1500000000000057
 50
0.0
 51
360.0
 73
     1
 97
        0
 92
        0
 93
       37
 72
     1
 10
210.6282936206029
 20
64.49639025249407
 11
210.6284363873656
 21
64.48984734438926
 72
     1
 10
210.6284363873656
 20
64.48984734438926
 11
210.6288644158891
 21
64.4833168910819
 72
     1
 10
210.6288644158891
 20
64.4833168910819
 11
210.6295768913968
 21
64.47681132366105
 72
     1
 10
210.6295768913968
 20
64.47681132366105
 11
210.6305724576511
 21
64.47034302584403
 72
     1
 10
210.6305724576511
 20
64.47034302584403
 11
210.6318492195349
 21
64.46392431040336
 72
     1
 10
210.6318492195349
 20
64.46392431040336
 11
210.6334047466595
 21
64.45756739572868
 72
     1
 10
210.6334047466595
 20
64.45756739572868
 11
210.6352360779906
 21
64.45128438256843
 72
     1
 10
210.6352360779906
 20
64.45128438256843
 11
210.637339727485
 21
64.44508723099521
 72
     1
 10
210.637339727485
 20
64.44508723099521
 11
210.6397116907262
 21
64.4389877376393
 72
     1
 10
210.6397116907262
 20
64.4389877376393
 11
210.6423474525474
 21
64.43299751323296
 72
     1
 10
210.6423474525474
 20
64.43299751323296
 11
210.6452419956262
 21
64.42712796050881
 72
     1
 10
210.6452419956262
 20
64.42712796050881
 11
210.6483898100352
 21
64.42139025249407
 72
     1
 10
210.6483898100352
 20
64.42139025249407
 11
210.6517849037309
 21
64.41579531124204
 72
     1
 10
210.6517849037309
 20
64.41579531124204
 11
210.6554208139595
 21
64.4103537870414
 72
     1
 10
210.6554208139595
 20
64.4103537870414
 11
210.6592906195592
 21
64.40507603814275
 72
     1
 10
210.6592906195592
 20
64.40507603814275
 11
210.663386954135
 21
64.39997211104108
 72
     1
 10
210.663386954135
 20
64.39997211104108
 11
210.6677020200814
 21
64.39505172135172
 72
     1
 10
210.6677020200814
 20
64.39505172135172
 11
210.6722276034249
 21
64.3903242353161
 72
     1
 10
210.6722276034249
 20
64.3903242353161
 11
210.6769550894605
 21
64.38579865197255
 72
     1
 10
210.6769550894605
 20
64.38579865197255
 11
210.6818754791499
 21
64.38148358602622
 72
     1
 10
210.6818754791499
 20
64.38148358602622
 11
210.6869794062516
 21
64.37738725145037
 72
     1
 10
210.6869794062516
 20
64.37738725145037
 11
210.6922571551502
 21
64.37351744585071
 72
     1
 10
210.6922571551502
 20
64.37351744585071
 11
210.6976986793509
 21
64.36988153562213
 72
     1
 10
210.6976986793509
 20
64.36988153562213
 11
210.7032936206029
 21
64.3664864419264
 72
     1
 10
210.7032936206029
 20
64.3664864419264
 11
210.7090313286176
 21
64.36333862751732
 72
     1
 10
210.7090313286176
 20
64.36333862751732
 11
210.7149008813418
 21
64.36044408443857
 72
     1
 10
210.7149008813418
 20
64.36044408443857
 11
210.7208911057481
 21
64.35780832261738
 72
     1
 10
210.7208911057481
 20
64.35780832261738
 11
210.726990599104
 21
64.35543635937617
 72
     1
 10
210.726990599104
 20
64.35543635937617
 11
210.7331877506772
 21
64.35333270988182
 72
     1
 10
210.7331877506772
 20
64.35333270988182
 11
210.7394707638375
 21
64.35150137855071
 72
     1
 10
210.7394707638375
 20
64.35150137855071
 11
210.7458276785122
 21
64.34994585142607
 72
     1
 10
210.7458276785122
 20
64.34994585142607
 11
210.7522463939528
 21
64.34866908954223
 72
     1
 10
210.7522463939528
 20
64.34866908954223
 11
210.7587146917699
 21
64.34767352328801
 72
     1
 10
210.7587146917699
 20
64.34767352328801
 11
210.7652202591907
 21
64.3469610477803
 72
     1
 10
210.7652202591907
 20
64.3469610477803
 11
210.7717507124981
 21
64.34653301925678
 72
     1
 10
210.7717507124981
 20
64.34653301925678
 11
210.7782936206029
 21
64.34639025249406
 72
     1
 10
210.7782936206029
 20
64.34639025249406
 11
210.6282936206029
 21
64.49639025249407
 97
        0
 75
     0
 76
     1
 98
        0
  0
HATCH
  5
361
330
1F
100
AcDbEntity
  8
1
  6
Continuous
 62
     7
370
     9
100
AcDbHatch
 10
0.0
 20
0.0
 30
0.0
210
0.0
220
0.0
230
1.0
  2
SOLID
 70
     1
 71
     0
 91
        1
 92
        0
 93
       38
 72
     1
 10
212.1282936206029
 20
64.946390252494
 11
212.1282936206029
 21
64.49639025249407
 72
     1
 10
212.1282936206029
 20
64.49639025249407
 11
211.9782936206029
 21
65.096390252494
 72
     1
 10
211.9782936206029
 20
65.096390252494
 11
211.9587146917699
 21
65.09510698170007
 72
     1
 10
211.9587146917699
 20
65.09510698170007
 11
211.9394707638375
 21
65.09127912643737
 72
     1
 10
211.9394707638375
 20
65.09127912643737
 11
211.9208911057481
 21
65.08497218237069
 72
     1
 10
211.9208911057481
 20
65.08497218237069
 11
211.9032936206029
 21
65.07629406306168
 72
     1
 10
211.9032936206029
 20
65.07629406306168
 11
211.8869794062516
 21
65.06539325353767
 72
     1
 10
211.8869794062516
 20
65.06539325353767
 11
211.8722276034249
 21
65.05245626967198
 72
     1
 10
211.8722276034249
 20
65.05245626967198
 11
211.8592906195592
 21
65.03770446684531
 72
     1
 10
211.8592906195592
 20
65.03770446684531
 11
211.8483898100352
 21
65.021390252494
 72
     1
 10
211.8483898100352
 20
65.021390252494
 11
211.8397116907262
 21
65.00379276734877
 72
     1
 10
211.8397116907262
 20
65.00379276734877
 11
211.8334047466595
 21
64.98521310925939
 72
     1
 10
211.8334047466595
 20
64.98521310925939
 11
211.8295768913968
 21
64.96596918132701
 72
     1
 10
211.8295768913968
 20
64.96596918132701
 11
211.8282936206029
 21
64.946390252494
 72
     1
 10
211.8282936206029
 20
64.946390252494
 11
211.8295768913968
 21
64.92681132366097
 72
     1
 10
211.8295768913968
 20
64.92681132366097
 11
211.8334047466595
 21
64.90756739572862
 72
     1
 10
211.8334047466595
 20
64.90756739572862
 11
211.8397116907262
 21
64.88898773763922
 72
     1
 10
211.8397116907262
 20
64.88898773763922
 11
211.8483898100352
 21
64.87139025249399
 72
     1
 10
211.8483898100352
 20
64.87139025249399
 11
211.8592906195592
 21
64.85507603814268
 72
     1
 10
211.8592906195592
 20
64.85507603814268
 11
211.8722276034249
 21
64.84032423531601
 72
     1
 10
211.8722276034249
 20
64.84032423531601
 11
211.8869794062516
 21
64.8273872514503
 72
     1
 10
211.8869794062516
 20
64.8273872514503
 11
211.9032936206029
 21
64.81648644192633
 72
     1
 10
211.9032936206029
 20
64.81648644192633
 11
211.9208911057481
 21
64.80780832261729
 72
     1
 10
211.9208911057481
 20
64.80780832261729
 11
211.9394707638375
 21
64.80150137855064
 72
     1
 10
211.9394707638375
 20
64.80150137855064
 11
211.9587146917699
 21
64.79767352328792
 72
     1
 10
211.9587146917699
 20
64.79767352328792
 11
211.9782936206029
 21
64.79639025249399
 72
     1
 10
211.9782936206029
 20
64.79639025249399
 11
211.9978725494359
 21
64.79767352328792
 72
     1
 10
211.9978725494359
 20
64.79767352328792
 11
212.0171164773683
 21
64.80150137855064
 72
     1
 10
212.0171164773683
 20
64.80150137855064
 11
212.0356961354576
 21
64.80780832261729
 72
     1
 10
212.0356961354576
 20
64.80780832261729
 11
212.0532936206029
 21
64.81648644192633
 72
     1
 10
212.0532936206029
 20
64.81648644192633
 11
212.0696078349542
 21
64.8273872514503
 72
     1
 10
212.0696078349542
 20
64.8273872514503
 11
212.0843596377809
 21
64.84032423531601
 72
     1
 10
212.0843596377809
 20
64.84032423531601
 11
212.0972966216466
 21
64.85507603814268
 72
     1
 10
212.0972966216466
 20
64.85507603814268
 11
212.1081974311705
 21
64.87139025249399
 72
     1
 10
212.1081974311705
 20
64.87139025249399
 11
212.1168755504796
 21
64.88898773763922
 72
     1
 10
212.1168755504796
 20
64.88898773763922
 11
212.1231824945462
 21
64.90756739572862
 72
     1
 10
212.1231824945462
 20
64.90756739572862
 11
212.127010349809
 21
64.92681132366097
 72
     1
 10
212.127010349809
 20
64.92681132366097
 11
212.1282936206029
 21
64.946390252494
 97
        0
 75
     0
 76
     1
 98
        0
  0
HATCH
  5
362
330
1F
100
AcDbEntity
  8
1
  6
Continuous
 62
     7
370
     9
100
AcDbHatch
 10
0.0
 20
0.0
 30
0.0
210
0.0
220
0.0
230
1.0
  2
SOLID
 70
     1
 71
     0
 91
        1
 92
        0
 93
        1
 72
     2
 10
211.9782936206029
 20
64.946390252494
 40
0.1500000000000057
 50
0.0
 51
360.0
 73
     1
 97
        0
 75
     0
 76
     1
 98
        0
  0
HATCH
  5
363
330
1F
100
AcDbEntity
  8
1
  6
Continuous
 62
     7
370
     9
100
AcDbHatch
 10
0.0
 20
0.0
 30
0.0
210
0.0
220
0.0
230
1.0
  2
SOLID
 70
     1
 71
     0
 91
        1
 92
        0
 93
        1
 72
     2
 10
217.1671331662504
 20
64.22882746321931
 40
0.25
 50
0.0
 51
360.0
 73
     1
 97
        0
 75
     0
 76
     1
 98
        0
  0
HATCH
  5
364
330
1F
100
AcDbEntity
  8
1
  6
Continuous
 62
     7
370
     9
100
AcDbHatch
 10
0.0
 20
0.0
 30
0.0
210
0.0
220
0.0
230
1.0
  2
SOLID
 70
     1
 71
     0
 91
        1
 92
        0
 93
        1
 72
     2
 10
217.1671331662504
 20
61.32882746321935
 40
0.25
 50
0.0
 51
360.0
 73
     1
 97
        0
 75
     0
 76
     1
 98
        0
  0
HATCH
  5
365
330
1F
100
AcDbEntity
  8
1
  6
Continuous
 62
     7
370
     9
100
AcDbHatch
 10
0.0
 20
0.0
 30
0.0
210
0.0
220
0.0
230
1.0
  2
SOLID
 70
     1
 71
     0
 91
        1
 92
        0
 93
        1
 72
     2
 10
217.1671331662504
 20
58.40882746321931
 40
0.25
 50
0.0
 51
360.0
 73
     1
 97
        0
 75
     0
 76
     1
 98
        0
  0
HATCH
  5
366
330
1F
100
AcDbEntity
  8
1
  6
Continuous
 62
     7
370
     9
100
AcDbHatch
 10
0.0
 20
0.0
 30
0.0
210
0.0
220
0.0
230
1.0
  2
SOLID
 70
     1
 71
     0
 91
        1
 92
        0
 93
        1
 72
     2
 10
217.1671331662504
 20
56.94882746321934
 40
0.25
 50
0.0
 51
360.0
 73
     1
 97
        0
 75
     0
 76
     1
 98
        0
  0
HATCH
  5
367
330
1F
100
AcDbEntity
  8
1
  6
Continuous
 62
     7
370
     9
100
AcDbHatch
 10
0.0
 20
0.0
 30
0.0
210
0.0
220
0.0
230
1.0
  2
SOLID
 70
     1
 71
     0
 91
        1
 92
        0
 93
        1
 72
     2
 10
206.7171331662502
 20
61.50882746321918
 40
0.75
 50
0.0
 51
360.0
 73
     1
 97
        0
 75
     0
 76
     1
 98
        0
  0
HATCH
  5
368
330
1F
100
AcDbEntity
  8
1
  6
Continuous
 62
     7
370
     9
100
AcDbHatch
 10
0.0
 20
0.0
 30
0.0
210
0.0
220
0.0
230
1.0
  2
SOLID
 70
     1
 71
     0
 91
        1
 92
        0
 93
        1
 72
     2
 10
221.8171331662502
 20
61.50882746321918
 40
0.75
 50
0.0
 51
360.0
 73
     1
 97
        0
 75
     0
 76
     1
 98
        0
  0
MTEXT
  5
369
330
1F
100
AcDbEntity
  8
1
  6
Continuous
 62
     7
370
     9
100
AcDbMText
 10
209.9251038373512
 20
63.18099070959228
 30
0.0
 40
3.5
 41
5.850570570570571
 71
     7
 72
     1
  1
{\fＭＳ 明朝;\T0.750000;∞}
 11
0.0000000000000016
 21
-1.0
 31
0.0
 73
     1
 44
1.0
1001
ACAD
1000
ACAD_MTEXT_DEFINED_HEIGHT_BEGIN
1070
    46
1040
3.5
1000
ACAD_MTEXT_DEFINED_HEIGHT_END
1000
MTEXTBEGIN
1070
    73
1070
     1
1070
    44
1040
1.0
1070
    74
1070
     0
1000
MTEXTEND
  0
MTEXT
  5
36A
330
1F
100
AcDbEntity
  8
25
  6
Continuous
 62
     7
370
     9
100
AcDbMText
 10
200.3670564023539
 20
97.67199895473853
 30
0.0
 40
1.5
 41
21.79416
 71
     9
 72
     1
  1
{\fＭＳ ゴシック;\T0.750000;インデックスリング}
 73
     1
 44
1.0
1001
ACAD
1000
ACAD_MTEXT_DEFINED_HEIGHT_BEGIN
1070
    46
1040
1.5
1000
ACAD_MTEXT_DEFINED_HEIGHT_END
1000
MTEXTBEGIN
1070
    73
1070
     1
1070
    44
1040
1.0
1070
    74
1070
     0
1000
MTEXTEND
  0
MTEXT
  5
36B
330
1F
100
AcDbEntity
  8
25
  6
Continuous
 62
     7
370
     9
100
AcDbMText
 10
193.7382922606765
 20
93.29445375463365
 30
0.0
 40
1.5
 41
19.17718875
 71
     9
 72
     1
  1
{\fＭＳ ゴシック;\T0.750000;フォーカスリング}
 73
     1
 44
1.0
1001
ACAD
1000
ACAD_MTEXT_DEFINED_HEIGHT_BEGIN
1070
    46
1040
1.5
1000
ACAD_MTEXT_DEFINED_HEIGHT_END
1000
MTEXTBEGIN
1070
    73
1070
     1
1070
    44
1040
1.0
1070
    74
1070
     0
1000
MTEXTEND
  0
LINE
  5
36C
330
1F
100
AcDbEntity
  8
1
  6
Continuous
 62
     7
370
     9
100
AcDbLine
 10
182.1798176179343
 20
92.7005788545537
 30
0.0
 11
181.5630162536638
 21
92.7005788545537
 31
0.0
  0
LINE
  5
36D
330
1F
100
AcDbEntity
  8
25
  6
Continuous
 62
     7
370
     9
100
AcDbLine
 10
190.1171331662502
 20
82.70882746321911
 30
0.0
 11
192.7718225461259
 21
82.70882746321918
 31
0.0
  0
POLYLINE
  5
36E
330
1F
100
AcDbEntity
  8
1
  6
Continuous
 62
     7
370
     9
100
AcDb2dPolyline
 66
     1
 10
0.0
 20
0.0
 30
0.0
 70
     2
  0
VERTEX
  5
36F
330
36E
100
AcDbEntity
  8
1
  6
Continuous
 62
     7
370
     9
100
AcDbVertex
100
AcDb2dVertex
 10
189.8171331662502
 20
80.89609793646562
 30
0.0
  0
VERTEX
  5
370
330
36E
100
AcDbEntity
  8
1
  6
Continuous
 62
     7
370
     9
100
AcDbVertex
100
AcDb2dVertex
 10
189.8307208194531
 20
80.89598332378647
 30
0.0
  0
VERTEX
  5
371
330
36E
100
AcDbEntity
  8
1
  6
Continuous
 62
     7
370
     9
100
AcDbVertex
100
AcDb2dVertex
 10
189.8711075044481
 20
80.89564214873922
 30
0.0
  0
VERTEX
  5
372
330
36E
100
AcDbEntity
  8
1
  6
Continuous
 62
     7
370
     9
100
AcDbVertex
100
AcDb2dVertex
 10
189.9371429246063
 20
80.89507971985936
 30
0.0
  0
VERTEX
  5
373
330
36E
100
AcDbEntity
  8
1
  6
Continuous
 62
     7
370
     9
100
AcDbVertex
100
AcDb2dVertex
 10
190.0268501652731
 20
80.89429694635166
 30
0.0
  0
VERTEX
  5
374
330
36E
100
AcDbEntity
  8
1
  6
Continuous
 62
     7
370
     9
100
AcDbVertex
100
AcDb2dVertex
 10
190.1373740218371
 20
80.89328163637937
 30
0.0
  0
VERTEX
  5
375
330
36E
100
AcDbEntity
  8
1
  6
Continuous
 62
     7
370
     9
100
AcDbVertex
100
AcDb2dVertex
 10
190.2649731468954
 20
80.89200178474724
 30
0.0
  0
VERTEX
  5
376
330
36E
100
AcDbEntity
  8
1
  6
Continuous
 62
     7
370
     9
100
AcDbVertex
100
AcDb2dVertex
 10
190.4050968517656
 20
80.8904043709049
 30
0.0
  0
VERTEX
  5
377
330
36E
100
AcDbEntity
  8
1
  6
Continuous
 62
     7
370
     9
100
AcDbVertex
100
AcDb2dVertex
 10
190.5525722697839
 20
80.88842198458197
 30
0.0
  0
VERTEX
  5
378
330
36E
100
AcDbEntity
  8
1
  6
Continuous
 62
     7
370
     9
100
AcDbVertex
100
AcDb2dVertex
 10
190.7019027047807
 20
80.88598758548661
 30
0.0
  0
VERTEX
  5
379
330
36E
100
AcDbEntity
  8
1
  6
Continuous
 62
     7
370
     9
100
AcDbVertex
100
AcDb2dVertex
 10
190.8476493634939
 20
80.88305537874722
 30
0.0
  0
VERTEX
  5
37A
330
36E
100
AcDbEntity
  8
1
  6
Continuous
 62
     7
370
     9
100
AcDbVertex
100
AcDb2dVertex
 10
190.9848435674798
 20
80.87962374511819
 30
0.0
  0
VERTEX
  5
37B
330
36E
100
AcDbEntity
  8
1
  6
Continuous
 62
     7
370
     9
100
AcDbVertex
100
AcDb2dVertex
 10
191.1093616724193
 20
80.87575495556329
 30
0.0
  0
VERTEX
  5
37C
330
36E
100
AcDbEntity
  8
1
  6
Continuous
 62
     7
370
     9
100
AcDbVertex
100
AcDb2dVertex
 10
191.2181947632345
 20
80.87158639085144
 30
0.0
  0
VERTEX
  5
37D
330
36E
100
AcDbEntity
  8
1
  6
Continuous
 62
     7
370
     9
100
AcDbVertex
100
AcDb2dVertex
 10
191.3095607968183
 20
80.86732926480447
 30
0.0
  0
VERTEX
  5
37E
330
36E
100
AcDbEntity
  8
1
  6
Continuous
 62
     7
370
     9
100
AcDbVertex
100
AcDb2dVertex
 10
191.3828355021638
 20
80.86325319075207
 30
0.0
  0
VERTEX
  5
37F
330
36E
100
AcDbEntity
  8
1
  6
Continuous
 62
     7
370
     9
100
AcDbVertex
100
AcDb2dVertex
 10
191.4383140553828
 20
80.85965784477968
 30
0.0
  0
VERTEX
  5
380
330
36E
100
AcDbEntity
  8
1
  6
Continuous
 62
     7
370
     9
100
AcDbVertex
100
AcDb2dVertex
 10
191.4768504612617
 20
80.85683582091871
 30
0.0
  0
VERTEX
  5
381
330
36E
100
AcDbEntity
  8
1
  6
Continuous
 62
     7
370
     9
100
AcDbVertex
100
AcDb2dVertex
 10
191.4994477500342
 20
80.85503289055131
 30
0.0
  0
VERTEX
  5
382
330
36E
100
AcDbEntity
  8
1
  6
Continuous
 62
     7
370
     9
100
AcDbVertex
100
AcDb2dVertex
 10
191.5068833821831
 20
80.8544127660834
 30
0.0
  0
VERTEX
  5
383
330
36E
100
AcDbEntity
  8
1
  6
Continuous
 62
     7
370
     9
100
AcDbVertex
100
AcDb2dVertex
 10
191.5142347712139
 20
80.85378586606775
 30
0.0
  0
VERTEX
  5
384
330
36E
100
AcDbEntity
  8
1
  6
Continuous
 62
     7
370
     9
100
AcDbVertex
100
AcDb2dVertex
 10
191.5355979256118
 20
80.85189057892234
 30
0.0
  0
VERTEX
  5
385
330
36E
100
AcDbEntity
  8
1
  6
Continuous
 62
     7
370
     9
100
AcDbVertex
100
AcDb2dVertex
 10
191.5690198223936
 20
80.84874034633573
 30
0.0
  0
VERTEX
  5
386
330
36E
100
AcDbEntity
  8
1
  6
Continuous
 62
     7
370
     9
100
AcDbVertex
100
AcDb2dVertex
 10
191.6116196630068
 20
80.84452766639531
 30
0.0
  0
VERTEX
  5
387
330
36E
100
AcDbEntity
  8
1
  6
Continuous
 62
     7
370
     9
100
AcDbVertex
100
AcDb2dVertex
 10
191.6600658321194
 20
80.83981292563935
 30
0.0
  0
VERTEX
  5
388
330
36E
100
AcDbEntity
  8
1
  6
Continuous
 62
     7
370
     9
100
AcDbVertex
100
AcDb2dVertex
 10
191.711094807143
 20
80.83567528489776
 30
0.0
  0
VERTEX
  5
389
330
36E
100
AcDbEntity
  8
1
  6
Continuous
 62
     7
370
     9
100
AcDbVertex
100
AcDb2dVertex
 10
191.7619649758676
 20
80.83375180314016
 30
0.0
  0
VERTEX
  5
38A
330
36E
100
AcDbEntity
  8
1
  6
Continuous
 62
     7
370
     9
100
AcDbVertex
100
AcDb2dVertex
 10
191.8107562459907
 20
80.83611494565881
 30
0.0
  0
VERTEX
  5
38B
330
36E
100
AcDbEntity
  8
1
  6
Continuous
 62
     7
370
     9
100
AcDbVertex
100
AcDb2dVertex
 10
191.8564639717984
 20
80.84497920085286
 30
0.0
  0
VERTEX
  5
38C
330
36E
100
AcDbEntity
  8
1
  6
Continuous
 62
     7
370
     9
100
AcDbVertex
100
AcDb2dVertex
 10
191.8988840265587
 20
80.86227480268327
 30
0.0
  0
VERTEX
  5
38D
330
36E
100
AcDbEntity
  8
1
  6
Continuous
 62
     7
370
     9
100
AcDbVertex
100
AcDb2dVertex
 10
191.9383333665133
 20
80.88916849863791
 30
0.0
  0
VERTEX
  5
38E
330
36E
100
AcDbEntity
  8
1
  6
Continuous
 62
     7
370
     9
100
AcDbVertex
100
AcDb2dVertex
 10
191.9752860581461
 20
80.92563675301576
 30
0.0
  0
VERTEX
  5
38F
330
36E
100
AcDbEntity
  8
1
  6
Continuous
 62
     7
370
     9
100
AcDbVertex
100
AcDb2dVertex
 10
192.0100203494174
 20
80.97019823615063
 30
0.0
  0
VERTEX
  5
390
330
36E
100
AcDbEntity
  8
1
  6
Continuous
 62
     7
370
     9
100
AcDbVertex
100
AcDb2dVertex
 10
192.0423647207203
 20
81.01988804610021
 30
0.0
  0
VERTEX
  5
391
330
36E
100
AcDbEntity
  8
1
  6
Continuous
 62
     7
370
     9
100
AcDbVertex
100
AcDb2dVertex
 10
192.0716023265799
 20
81.07051020233271
 30
0.0
  0
VERTEX
  5
392
330
36E
100
AcDbEntity
  8
1
  6
Continuous
 62
     7
370
     9
100
AcDbVertex
100
AcDb2dVertex
 10
192.0965511902875
 20
81.11714725424894
 30
0.0
  0
VERTEX
  5
393
330
36E
100
AcDbEntity
  8
1
  6
Continuous
 62
     7
370
     9
100
AcDbVertex
100
AcDb2dVertex
 10
192.1157924537421
 20
81.15484923092568
 30
0.0
  0
VERTEX
  5
394
330
36E
100
AcDbEntity
  8
1
  6
Continuous
 62
     7
370
     9
100
AcDbVertex
100
AcDb2dVertex
 10
192.1279820100473
 20
81.17938165968919
 30
0.0
  0
VERTEX
  5
395
330
36E
100
AcDbEntity
  8
1
  6
Continuous
 62
     7
370
     9
100
AcDbVertex
100
AcDb2dVertex
 10
192.1321609379163
 20
81.18789412914111
 30
0.0
  0
VERTEX
  5
396
330
36E
100
AcDbEntity
  8
1
  6
Continuous
 62
     7
370
     9
100
AcDbVertex
100
AcDb2dVertex
 10
192.1363805630571
 20
81.19653861390835
 30
0.0
  0
VERTEX
  5
397
330
36E
100
AcDbEntity
  8
1
  6
Continuous
 62
     7
370
     9
100
AcDbVertex
100
AcDb2dVertex
 10
192.149161449949
 20
81.22300231789111
 30
0.0
  0
VERTEX
  5
398
330
36E
100
AcDbEntity
  8
1
  6
Continuous
 62
     7
370
     9
100
AcDbVertex
100
AcDb2dVertex
 10
192.1708148238114
 20
81.26868651793021
 30
0.0
  0
VERTEX
  5
399
330
36E
100
AcDbEntity
  8
1
  6
Continuous
 62
     7
370
     9
100
AcDbVertex
100
AcDb2dVertex
 10
192.2016899857227
 20
81.3353414102516
 30
0.0
  0
VERTEX
  5
39A
330
36E
100
AcDbEntity
  8
1
  6
Continuous
 62
     7
370
     9
100
AcDbVertex
100
AcDb2dVertex
 10
192.2419635760454
 20
81.42433922672029
 30
0.0
  0
VERTEX
  5
39B
330
36E
100
AcDbEntity
  8
1
  6
Continuous
 62
     7
370
     9
100
AcDbVertex
100
AcDb2dVertex
 10
192.2914207402757
 20
81.53592143761409
 30
0.0
  0
VERTEX
  5
39C
330
36E
100
AcDbEntity
  8
1
  6
Continuous
 62
     7
370
     9
100
AcDbVertex
100
AcDb2dVertex
 10
192.3492823337756
 20
81.66860719812712
 30
0.0
  0
VERTEX
  5
39D
330
36E
100
AcDbEntity
  8
1
  6
Continuous
 62
     7
370
     9
100
AcDbVertex
100
AcDb2dVertex
 10
192.4141222204752
 20
81.81891385097774
 30
0.0
  0
VERTEX
  5
39E
330
36E
100
AcDbEntity
  8
1
  6
Continuous
 62
     7
370
     9
100
AcDbVertex
100
AcDb2dVertex
 10
192.4838983576658
 20
81.98146806093081
 30
0.0
  0
VERTEX
  5
39F
330
36E
100
AcDbEntity
  8
1
  6
Continuous
 62
     7
370
     9
100
AcDbVertex
100
AcDb2dVertex
 10
192.5560955750518
 20
82.14949534139991
 30
0.0
  0
VERTEX
  5
3A0
330
36E
100
AcDbEntity
  8
1
  6
Continuous
 62
     7
370
     9
100
AcDbVertex
100
AcDb2dVertex
 10
192.6279528681497
 20
82.3155880475757
 30
0.0
  0
VERTEX
  5
3A1
330
36E
100
AcDbEntity
  8
1
  6
Continuous
 62
     7
370
     9
100
AcDbVertex
100
AcDb2dVertex
 10
192.6967295411288
 20
82.47258824190069
 30
0.0
  0
VERTEX
  5
3A2
330
36E
100
AcDbEntity
  8
1
  6
Continuous
 62
     7
370
     9
100
AcDbVertex
100
AcDb2dVertex
 10
192.7599569394018
 20
82.61439724005992
 30
0.0
  0
VERTEX
  5
3A3
330
36E
100
AcDbEntity
  8
1
  6
Continuous
 62
     7
370
     9
100
AcDbVertex
100
AcDb2dVertex
 10
192.8156274586921
 20
82.7365437404112
 30
0.0
  0
VERTEX
  5
3A4
330
36E
100
AcDbEntity
  8
1
  6
Continuous
 62
     7
370
     9
100
AcDbVertex
100
AcDb2dVertex
 10
192.8622886409314
 20
82.83640209346403
 30
0.0
  0
VERTEX
  5
3A5
330
36E
100
AcDbEntity
  8
1
  6
Continuous
 62
     7
370
     9
100
AcDbVertex
100
AcDb2dVertex
 10
192.8990334369175
 20
82.91303686183884
 30
0.0
  0
VERTEX
  5
3A6
330
36E
100
AcDbEntity
  8
1
  6
Continuous
 62
     7
370
     9
100
AcDbVertex
100
AcDb2dVertex
 10
192.9254024210844
 20
82.96673880297644
 30
0.0
  0
VERTEX
  5
3A7
330
36E
100
AcDbEntity
  8
1
  6
Continuous
 62
     7
370
     9
100
AcDbVertex
100
AcDb2dVertex
 10
192.9412338849635
 20
82.99838926644671
 30
0.0
  0
VERTEX
  5
3A8
330
36E
100
AcDbEntity
  8
1
  6
Continuous
 62
     7
370
     9
100
AcDbVertex
100
AcDb2dVertex
 10
192.9465084764236
 20
83.00882746321919
 30
0.0
  0
VERTEX
  5
3A9
330
36E
100
AcDbEntity
  8
1
  6
Continuous
 62
     7
370
     9
100
AcDbVertex
100
AcDb2dVertex
 10
192.9517567452866
 20
83.01915824065801
 30
0.0
  0
VERTEX
  5
3AA
330
36E
100
AcDbEntity
  8
1
  6
Continuous
 62
     7
370
     9
100
AcDbVertex
100
AcDb2dVertex
 10
192.967204095156
 20
83.04923933598505
 30
0.0
  0
VERTEX
  5
3AB
330
36E
100
AcDbEntity
  8
1
  6
Continuous
 62
     7
370
     9
100
AcDbVertex
100
AcDb2dVertex
 10
192.9919931098687
 20
83.09647138586781
 30
0.0
  0
VERTEX
  5
3AC
330
36E
100
AcDbEntity
  8
1
  6
Continuous
 62
     7
370
     9
100
AcDbVertex
100
AcDb2dVertex
 10
193.0248049744463
 20
83.15694446269436
 30
0.0
  0
VERTEX
  5
3AD
330
36E
100
AcDbEntity
  8
1
  6
Continuous
 62
     7
370
     9
100
AcDbVertex
100
AcDb2dVertex
 10
193.0640040777088
 20
83.22598786644354
 30
0.0
  0
VERTEX
  5
3AE
330
36E
100
AcDbEntity
  8
1
  6
Continuous
 62
     7
370
     9
100
AcDbVertex
100
AcDb2dVertex
 10
193.1078035424146
 20
83.29879078846007
 30
0.0
  0
VERTEX
  5
3AF
330
36E
100
AcDbEntity
  8
1
  6
Continuous
 62
     7
370
     9
100
AcDbVertex
100
AcDb2dVertex
 10
193.1544242633458
 20
83.37098348124266
 30
0.0
  0
VERTEX
  5
3B0
330
36E
100
AcDbEntity
  8
1
  6
Continuous
 62
     7
370
     9
100
AcDbVertex
100
AcDb2dVertex
 10
193.2022233212444
 20
83.43908233419812
 30
0.0
  0
VERTEX
  5
3B1
330
36E
100
AcDbEntity
  8
1
  6
Continuous
 62
     7
370
     9
100
AcDbVertex
100
AcDb2dVertex
 10
193.2497756214736
 20
83.50073511737921
 30
0.0
  0
VERTEX
  5
3B2
330
36E
100
AcDbEntity
  8
1
  6
Continuous
 62
     7
370
     9
100
AcDbVertex
100
AcDb2dVertex
 10
193.2959033606317
 20
83.55474677240271
 30
0.0
  0
VERTEX
  5
3B3
330
36E
100
AcDbEntity
  8
1
  6
Continuous
 62
     7
370
     9
100
AcDbVertex
100
AcDb2dVertex
 10
193.3396589716105
 20
83.60091137651227
 30
0.0
  0
VERTEX
  5
3B4
330
36E
100
AcDbEntity
  8
1
  6
Continuous
 62
     7
370
     9
100
AcDbVertex
100
AcDb2dVertex
 10
193.3802760812002
 20
83.63971225585094
 30
0.0
  0
VERTEX
  5
3B5
330
36E
100
AcDbEntity
  8
1
  6
Continuous
 62
     7
370
     9
100
AcDbVertex
100
AcDb2dVertex
 10
193.4171078703027
 20
83.67197207051768
 30
0.0
  0
VERTEX
  5
3B6
330
36E
100
AcDbEntity
  8
1
  6
Continuous
 62
     7
370
     9
100
AcDbVertex
100
AcDb2dVertex
 10
193.4495722023146
 20
83.6985345568857
 30
0.0
  0
VERTEX
  5
3B7
330
36E
100
AcDbEntity
  8
1
  6
Continuous
 62
     7
370
     9
100
AcDbVertex
100
AcDb2dVertex
 10
193.477118309528
 20
83.72004083615049
 30
0.0
  0
VERTEX
  5
3B8
330
36E
100
AcDbEntity
  8
1
  6
Continuous
 62
     7
370
     9
100
AcDbVertex
100
AcDb2dVertex
 10
193.4992220976384
 20
83.73683148470908
 30
0.0
  0
VERTEX
  5
3B9
330
36E
100
AcDbEntity
  8
1
  6
Continuous
 62
     7
370
     9
100
AcDbVertex
100
AcDb2dVertex
 10
193.5154083417035
 20
83.74896947144589
 30
0.0
  0
VERTEX
  5
3BA
330
36E
100
AcDbEntity
  8
1
  6
Continuous
 62
     7
370
     9
100
AcDbVertex
100
AcDb2dVertex
 10
193.5252904704305
 20
83.75634785503141
 30
0.0
  0
VERTEX
  5
3BB
330
36E
100
AcDbEntity
  8
1
  6
Continuous
 62
     7
370
     9
100
AcDbVertex
100
AcDb2dVertex
 10
193.5286141457204
 20
83.75882746321913
 30
0.0
  0
SEQEND
  5
3BC
330
36E
100
AcDbEntity
  8
1
  6
Continuous
 62
     7
370
     9
  0
LINE
  5
3BD
330
1F
100
AcDbEntity
  8
25
  6
Continuous
 62
     7
370
     9
100
AcDbLine
 10
190.1171331662502
 20
82.70882746321911
 30
0.0
 11
190.1171331662502
 21
80.89346757580607
 31
0.0
  0
INSERT
  5
3C7
330
1F
100
AcDbEntity
  8
0
100
AcDbBlockReference
  2
*G2828
 10
0.0
 20
0.0
 30
0.0
  0
INSERT
  5
3C8
330
1F
100
AcDbEntity
  8
25
  6
Continuous
 62
     7
370
     9
100
AcDbBlockReference
  2
MARK_OPEN
 10
225.5929439653252
 20
78.77063329099093
 30
0.0
 50
231.8717957248547
  0
POLYLINE
  5
3C9
330
1F
100
AcDbEntity
  8
25
  6
Continuous
 62
     7
370
     9
100
AcDb2dPolyline
 66
     1
 10
0.0
 20
0.0
 30
0.0
  0
VERTEX
  5
3CA
330
3C9
100
AcDbEntity
  8
25
  6
Continuous
 62
     7
370
     9
100
AcDbVertex
100
AcDb2dVertex
 10
225.5929439653252
 20
78.77063329099093
 30
0.0
  0
VERTEX
  5
3CB
330
3C9
100
AcDbEntity
  8
25
  6
Continuous
 62
     7
370
     9
100
AcDbVertex
100
AcDb2dVertex
 10
234.7057708917369
 20
90.3808775192313
 30
0.0
  0
VERTEX
  5
3CC
330
3C9
100
AcDbEntity
  8
25
  6
Continuous
 62
     7
370
     9
100
AcDbVertex
100
AcDb2dVertex
 10
248.2775105819866
 20
90.3808775192313
 30
0.0
  0
SEQEND
  5
3CD
330
3C9
100
AcDbEntity
  8
25
  6
Continuous
 62
     7
370
     9
  0
MTEXT
  5
3CE
330
1F
100
AcDbEntity
  8
25
  6
Continuous
 62
     7
370
     9
100
AcDbMText
 10
235.7096868598186
 20
90.83406496927128
 30
0.0
 40
1.5
 41
16.9372275
 71
     7
 72
     1
  1
{\fＭＳ ゴシック;\T0.750000;アイリスリング}
 73
     1
 44
1.0
1001
ACAD
1000
ACAD_MTEXT_DEFINED_HEIGHT_BEGIN
1070
    46
1040
1.5
1000
ACAD_MTEXT_DEFINED_HEIGHT_END
1000
MTEXTBEGIN
1070
    73
1070
     1
1070
    44
1040
1.0
1070
    74
1070
     0
1000
MTEXTEND
  0
LINE
  5
3CF
330
1F
100
AcDbEntity
  8
25
  6
DASHDOT
 62
     7
370
     9
100
AcDbLine
 10
253.8115940441613
 20
61.50882746321918
 30
0.0
 11
187.3898443698535
 21
61.50882746321918
 31
0.0
  0
DIMENSION
  5
3D9
330
1F
100
AcDbEntity
  8
25
  6
Continuous
 62
     7
370
     9
100
AcDbDimension
  2
Dim13
 10
189.817133166251
 20
28.78687094077964
 30
0.0
 11
215.8191015089164
 21
30.36368312757218
 31
0.0
 70
   160
  1
<>
 71
     5
 42
-1.0
  3
Standard
100
AcDbAlignedDimension
 13
235.3171331662502
 23
34.42423512991843
 33
0.0
 14
189.8171331662502
 24
34.42423512991843
 34
0.0
 50
180.0
100
AcDbRotatedDimension
1001
ACAD
1000
DSTYLE
1002
{
1070
   279
1070
     2
1070
   340
1005
2BD
1070
   140
1040
2.0
1070
    40
1040
1.0
1070
   147
1040
0.0
1070
    76
1070
     0
1070
    75
1070
     0
1070
   344
1005
51
1070
   343
1005
51
1070
   173
1070
     1
1070
   289
1070
     2
1070
   288
1070
     1
1070
    77
1070
     1
1070
   172
1070
     1
1070
   174
1070
     0
1070
    74
1070
     0
1070
    73
1070
     0
1070
   284
1070
     8
1070
    78
1070
     8
1070
    42
1040
2.0
1070
    44
1040
1.0
1070
    43
1040
10.0
1070
   271
1070
     2
1070
    41
1040
1.0
1002
}
  0
ELLIPSE
  5
3DA
330
1F
100
AcDbEntity
  8
1
  6
Continuous
 62
     7
370
     9
100
AcDbEllipse
 10
214.4171331662502
 20
43.32229398374596
 30
0.0
 11
2.0
 21
0.0
 31
0.0
210
0.0
220
0.0
230
1.0
 40
0.5000000000000321
 41
-0.6667637439095762
 42
3.912816991879521
  0
VIEWPORT
  5
3F
102
{ACAD_XDICTIONARY
360
423
102
}
330
1B
100
AcDbEntity
 67
     1
  8
0
100
AcDbViewport
 10
210.0
 20
148.5
 30
0.0
 40
420.0
 41
297.0
 68
     1
 69
     1
 12
210.0
 22
148.5
 13
0.0
 23
0.0
 14
0.5
 24
0.5
 15
0.5
 25
0.5
 16
0.0
 26
0.0
 36
1.0
 17
0.0
 27
0.0
 37
0.0
 42
50.0
 43
0.0
 44
0.0
 45
9.0
 50
0.0
 51
0.0
 72
   100
 90
    32864
  1

281
     0
 71
     1
 74
     0
110
0.0
120
0.0
130
0.0
111
1.0
121
0.0
131
0.0
112
0.0
122
1.0
132
0.0
 79
     0
146
0.0
  0
ENDSEC
  0
SECTION
  2
OBJECTS
  0
DICTIONARY
  5
C
330
0
100
AcDbDictionary
281
     1
  3
ACAD_COLOR
350
40A
  3
ACAD_GROUP
350
D
  3
ACAD_LAYOUT
350
1A
  3
ACAD_MATERIAL
350
3B
  3
ACAD_MLEADERSTYLE
350
3DD
  3
ACAD_MLINESTYLE
350
17
  3
ACAD_PLOTSETTINGS
350
19
  3
ACAD_PLOTSTYLENAME
350
E
  3
ACAD_VISUALSTYLE
350
2A
  3
ACDBHEADERROUNDTRIPXREC
350
41C
  3
AcDbVariableDictionary
350
3DB
  0
DICTIONARY
  5
423
330
3F
100
AcDbDictionary
280
     1
281
     1
  3
ACAD_XREC_ROUNDTRIP
360
424
  0
DICTIONARY
  5
40A
102
{ACAD_REACTORS
330
C
102
}
330
C
100
AcDbDictionary
281
     1
  0
DICTIONARY
  5
D
102
{ACAD_REACTORS
330
C
102
}
330
C
100
AcDbDictionary
281
     1
  0
DICTIONARY
  5
1A
102
{ACAD_REACTORS
330
C
102
}
330
C
100
AcDbDictionary
281
     1
  3
Layout1
350
1E
  3
Layout2
350
26
  3
Model
350
22
  0
DICTIONARY
  5
3B
102
{ACAD_REACTORS
330
C
102
}
330
C
100
AcDbDictionary
281
     1
  3
ByBlock
350
3D
  3
ByLayer
350
3C
  3
Global
350
3E
  0
DICTIONARY
  5
3DD
102
{ACAD_REACTORS
330
C
102
}
330
C
100
AcDbDictionary
281
     1
  0
DICTIONARY
  5
17
102
{ACAD_REACTORS
330
C
102
}
330
C
100
AcDbDictionary
281
     1
  3
Standard
350
18
  0
DICTIONARY
  5
19
102
{ACAD_REACTORS
330
C
102
}
330
C
100
AcDbDictionary
281
     1
  0
ACDBDICTIONARYWDFLT
  5
E
102
{ACAD_REACTORS
330
C
102
}
330
C
100
AcDbDictionary
281
     1
  3
Normal
350
F
100
AcDbDictionaryWithDefault
340
F
  0
DICTIONARY
  5
2A
102
{ACAD_REACTORS
330
C
102
}
330
C
100
AcDbDictionary
281
     1
  3
2dWireframe
350
2F
  3
3D Hidden
350
31
  3
3dWireframe
350
30
  3
Basic
350
32
  3
Brighten
350
36
  3
ColorChange
350
3A
  3
Conceptual
350
34
  3
Dim
350
35
  3
Facepattern
350
39
  3
Flat
350
2B
  3
FlatWithEdges
350
2C
  3
Gouraud
350
2D
  3
GouraudWithEdges
350
2E
  3
Linepattern
350
38
  3
Realistic
350
33
  3
Thicken
350
37
  0
DICTIONARY
  5
41C
102
{ACAD_REACTORS
330
C
102
}
330
C
100
AcDbDictionary
281
     1
  0
DICTIONARY
  5
3DB
102
{ACAD_REACTORS
330
C
102
}
330
C
100
AcDbDictionary
281
     1
  3
DIMASSOC
350
3DE
  3
HIDETEXT
350
3DF
  3
PROJECTNAME
350
41A
  0
XRECORD
  5
424
102
{ACAD_REACTORS
330
423
102
}
330
423
100
AcDbXrecord
280
     1
102
SHADEPLOT
 70
     0
  0
LAYOUT
  5
1E
102
{ACAD_XDICTIONARY
360
41D
102
}
102
{ACAD_REACTORS
330
1A
102
}
330
1A
100
AcDbPlotSettings
  1

  2
none_device
  4

  6

 40
0.0
 41
0.0
 42
0.0
 43
0.0
 44
0.0
 45
0.0
 46
0.0
 47
0.0
 48
0.0
 49
0.0
140
0.0
141
0.0
142
1.0
143
1.0
 70
   688
 72
     0
 73
     0
 74
     5
  7

 75
    16
147
1.0
148
0.0
149
0.0
100
AcDbLayout
  1
Layout1
 70
     1
 71
     1
 10
0.0
 20
0.0
 11
420.0
 21
297.0
 12
0.0
 22
0.0
 32
0.0
 14
0.0
 24
0.0
 34
0.0
 15
420.0
 25
297.0
 35
0.0
146
0.0
 13
0.0
 23
0.0
 33
0.0
 16
1.0
 26
0.0
 36
0.0
 17
0.0
 27
1.0
 37
0.0
 76
     0
330
1B
331
3F
  0
LAYOUT
  5
26
102
{ACAD_XDICTIONARY
360
421
102
}
102
{ACAD_REACTORS
330
1A
102
}
330
1A
100
AcDbPlotSettings
  1

  2
none_device
  4

  6

 40
0.0
 41
0.0
 42
0.0
 43
0.0
 44
0.0
 45
0.0
 46
0.0
 47
0.0
 48
0.0
 49
0.0
140
0.0
141
0.0
142
1.0
143
1.0
 70
   688
 72
     0
 73
     0
 74
     5
  7

 75
    16
147
1.0
148
0.0
149
0.0
100
AcDbLayout
  1
Layout2
 70
     1
 71
     2
 10
0.0
 20
0.0
 11
0.0
 21
0.0
 12
0.0
 22
0.0
 32
0.0
 14
0.0
 24
0.0
 34
0.0
 15
0.0
 25
0.0
 35
0.0
146
0.0
 13
0.0
 23
0.0
 33
0.0
 16
1.0
 26
0.0
 36
0.0
 17
0.0
 27
1.0
 37
0.0
 76
     0
330
23
  0
LAYOUT
  5
22
102
{ACAD_XDICTIONARY
360
41F
102
}
102
{ACAD_REACTORS
330
1A
102
}
330
1A
100
AcDbPlotSettings
  1

  2
none_device
  4

  6

 40
0.0
 41
0.0
 42
0.0
 43
0.0
 44
0.0
 45
0.0
 46
0.0
 47
0.0
 48
0.0
 49
0.0
140
0.0
141
0.0
142
1.0
143
1.0
 70
  1712
 72
     0
 73
     0
 74
     0
  7

 75
     0
147
1.0
148
0.0
149
0.0
100
AcDbLayout
  1
Model
 70
     1
 71
     0
 10
0.0
 20
0.0
 11
420.0
 21
297.0
 12
0.0
 22
0.0
 32
0.0
 14
123.8766748109333
 24
27.09145449086287
 34
0.0
 15
265.0528392101136
 25
99.17199895473853
 35
0.0
146
0.0
 13
0.0
 23
0.0
 33
0.0
 16
1.0
 26
0.0
 36
0.0
 17
0.0
 27
1.0
 37
0.0
 76
     0
330
1F
  0
MATERIAL
  5
3D
102
{ACAD_XDICTIONARY
360
402
102
}
102
{ACAD_REACTORS
330
3B
102
}
330
3B
100
AcDbMaterial
  1
ByBlock
  0
MATERIAL
  5
3C
102
{ACAD_XDICTIONARY
360
400
102
}
102
{ACAD_REACTORS
330
3B
102
}
330
3B
100
AcDbMaterial
  1
ByLayer
  0
MATERIAL
  5
3E
102
{ACAD_XDICTIONARY
360
404
102
}
102
{ACAD_REACTORS
330
3B
102
}
330
3B
100
AcDbMaterial
  1
Global
  0
MLINESTYLE
  5
18
102
{ACAD_REACTORS
330
17
102
}
330
17
100
AcDbMlineStyle
  2
STANDARD
 70
     0
  3

 62
   256
 51
90.0
 52
90.0
 71
     2
 49
0.5
 62
   256
  6
BYLAYER
 49
-0.5
 62
   256
  6
BYLAYER
  0
ACDBPLACEHOLDER
  5
F
102
{ACAD_REACTORS
330
E
102
}
330
E
  0
VISUALSTYLE
  5
2F
102
{ACAD_XDICTIONARY
360
3E8
102
}
102
{ACAD_REACTORS
330
2A
102
}
330
2A
100
AcDbVisualStyle
  2
2dWireframe
 70
     4
 71
     0
 72
     2
 73
     0
 90
        0
 40
-0.6
 41
-30.0
 62
     5
 63
     7
 74
     1
 91
        4
 64
     7
 65
   257
 75
     1
175
     1
 42
1.0
 92
        0
 66
   257
 43
1.0
 76
     1
 77
     6
 78
     2
 67
     7
 79
     5
170
     0
171
     0
290
     0
174
     0
 93
        1
 44
0.0
173
     0
291
     0
 45
0.0
1001
ACAD
1000
AcDbSavedByObjectVersion
1070
     0
1001
ACAD
1000
AcRTDxfName
1000
VISUALSTYLE
  0
VISUALSTYLE
  5
31
102
{ACAD_XDICTIONARY
360
3EC
102
}
102
{ACAD_REACTORS
330
2A
102
}
330
2A
100
AcDbVisualStyle
  2
3D Hidden
 70
     6
 71
     1
 72
     2
 73
     2
 90
        0
 40
-0.6
 41
-30.0
 62
     5
 63
     7
 74
     2
 91
        2
 64
     7
 65
   257
 75
     2
175
     1
 42
40.0
 92
        0
 66
   257
 43
1.0
 76
     1
 77
     6
 78
     2
 67
     7
 79
     3
170
     0
171
     0
290
     0
174
     0
 93
        1
 44
0.0
173
     0
291
     0
 45
0.0
1001
ACAD
1000
AcDbSavedByObjectVersion
1070
     0
1001
ACAD
1000
AcRTDxfName
1000
VISUALSTYLE
  0
VISUALSTYLE
  5
30
102
{ACAD_XDICTIONARY
360
3EA
102
}
102
{ACAD_REACTORS
330
2A
102
}
330
2A
100
AcDbVisualStyle
  2
3dWireframe
 70
     5
 71
     0
 72
     2
 73
     0
 90
        0
 40
-0.6
 41
-30.0
 62
     5
 63
     7
 74
     1
 91
        4
 64
     7
 65
   257
 75
     1
175
     1
 42
1.0
 92
        0
 66
   257
 43
1.0
 76
     1
 77
     6
 78
     2
 67
     7
 79
     5
170
     0
171
     0
290
     0
174
     0
 93
        1
 44
0.0
173
     0
291
     0
 45
0.0
1001
ACAD
1000
AcDbSavedByObjectVersion
1070
     0
1001
ACAD
1000
AcRTDxfName
1000
VISUALSTYLE
  0
VISUALSTYLE
  5
32
102
{ACAD_XDICTIONARY
360
3EE
102
}
102
{ACAD_REACTORS
330
2A
102
}
330
2A
100
AcDbVisualStyle
  2
Basic
 70
     7
 71
     1
 72
     0
 73
     1
 90
        0
 40
-0.6
 41
-30.0
 62
     5
 63
     7
 74
     0
 91
        4
 64
     7
 65
   257
 75
     1
175
     1
 42
1.0
 92
        8
 66
     7
 43
1.0
 76
     1
 77
     6
 78
     2
 67
     7
 79
     5
170
     0
171
     0
290
     0
174
     0
 93
        1
 44
0.0
173
     0
291
     1
 45
0.0
1001
ACAD
1000
AcDbSavedByObjectVersion
1070
     0
1001
ACAD
1000
AcRTDxfName
1000
VISUALSTYLE
  0
VISUALSTYLE
  5
36
102
{ACAD_XDICTIONARY
360
3F6
102
}
102
{ACAD_REACTORS
330
2A
102
}
330
2A
100
AcDbVisualStyle
  2
Brighten
 70
    12
 71
     2
 72
     2
 73
     0
 90
        0
 40
-0.6
 41
-30.0
 62
     5
 63
     7
 74
     1
 91
        4
 64
     7
 65
   257
 75
     1
175
     1
 42
1.0
 92
        8
 66
     7
 43
1.0
 76
     1
 77
     6
 78
     2
 67
     7
 79
     5
170
     0
171
     0
290
     0
174
     0
 93
        1
 44
50.0
173
     0
291
     1
 45
0.0
1001
ACAD
1000
AcDbSavedByObjectVersion
1070
     0
1001
ACAD
1000
AcRTDxfName
1000
VISUALSTYLE
  0
VISUALSTYLE
  5
3A
102
{ACAD_XDICTIONARY
360
3FE
102
}
102
{ACAD_REACTORS
330
2A
102
}
330
2A
100
AcDbVisualStyle
  2
ColorChange
 70
    16
 71
     2
 72
     2
 73
     3
 90
        0
 40
-0.6
 41
-30.0
 62
     5
 63
     8
 74
     1
 91
        4
 64
     7
 65
   257
 75
     1
175
     1
 42
1.0
 92
        8
 66
     8
 43
1.0
 76
     1
 77
     6
 78
     2
 67
     7
 79
     5
170
     0
171
     0
290
     0
174
     0
 93
        1
 44
0.0
173
     0
291
     1
 45
0.0
1001
ACAD
1000
AcDbSavedByObjectVersion
1070
     0
1001
ACAD
1000
AcRTDxfName
1000
VISUALSTYLE
  0
VISUALSTYLE
  5
34
102
{ACAD_XDICTIONARY
360
3F2
102
}
102
{ACAD_REACTORS
330
2A
102
}
330
2A
100
AcDbVisualStyle
  2
Conceptual
 70
     9
 71
     3
 72
     2
 73
     0
 90
        0
 40
-0.6
 41
-30.0
 62
     5
 63
     7
 74
     2
 91
        2
 64
     7
 65
   257
 75
     1
175
     1
 42
40.0
 92
        8
 66
     7
 43
1.0
 76
     1
 77
     6
 78
     2
 67
     7
 79
     3
170
     0
171
     0
290
     0
174
     0
 93
        1
 44
0.0
173
     0
291
     0
 45
0.0
1001
ACAD
1000
AcDbSavedByObjectVersion
1070
     0
1001
ACAD
1000
AcRTDxfName
1000
VISUALSTYLE
  0
VISUALSTYLE
  5
35
102
{ACAD_XDICTIONARY
360
3F4
102
}
102
{ACAD_REACTORS
330
2A
102
}
330
2A
100
AcDbVisualStyle
  2
Dim
 70
    11
 71
     2
 72
     2
 73
     0
 90
        0
 40
-0.6
 41
-30.0
 62
     5
 63
     7
 74
     1
 91
        4
 64
     7
 65
   257
 75
     1
175
     1
 42
1.0
 92
        8
 66
     7
 43
1.0
 76
     1
 77
     6
 78
     2
 67
     7
 79
     5
170
     0
171
     0
290
     0
174
     0
 93
        1
 44
-50.0
173
     0
291
     1
 45
0.0
1001
ACAD
1000
AcDbSavedByObjectVersion
1070
     0
1001
ACAD
1000
AcRTDxfName
1000
VISUALSTYLE
  0
VISUALSTYLE
  5
39
102
{ACAD_XDICTIONARY
360
3FC
102
}
102
{ACAD_REACTORS
330
2A
102
}
330
2A
100
AcDbVisualStyle
  2
Facepattern
 70
    15
 71
     2
 72
     2
 73
     0
 90
        0
 40
-0.6
 41
-30.0
 62
     5
 63
     7
 74
     1
 91
        4
 64
     7
 65
   257
 75
     1
175
     1
 42
1.0
 92
        8
 66
     7
 43
1.0
 76
     1
 77
     6
 78
     2
 67
     7
 79
     5
170
     0
171
     0
290
     0
174
     0
 93
        1
 44
0.0
173
     0
291
     1
 45
0.0
1001
ACAD
1000
AcDbSavedByObjectVersion
1070
     0
1001
ACAD
1000
AcRTDxfName
1000
VISUALSTYLE
  0
VISUALSTYLE
  5
2B
102
{ACAD_XDICTIONARY
360
3E0
102
}
102
{ACAD_REACTORS
330
2A
102
}
330
2A
100
AcDbVisualStyle
  2
Flat
 70
     0
 71
     2
 72
     1
 73
     1
 90
        2
 40
-0.6
 41
30.0
 62
     5
 63
     7
 74
     0
 91
        4
 64
     7
 65
   257
 75
     1
175
     1
 42
1.0
 92
        8
 66
     7
 43
1.0
 76
     1
 77
     6
 78
     2
 67
     7
 79
     5
170
     0
171
     0
290
     0
174
     0
 93
       13
 44
0.0
173
     0
291
     1
 45
0.0
1001
ACAD
1000
AcDbSavedByObjectVersion
1070
     0
1001
ACAD
1000
AcRTDxfName
1000
VISUALSTYLE
  0
VISUALSTYLE
  5
2C
102
{ACAD_XDICTIONARY
360
3E2
102
}
102
{ACAD_REACTORS
330
2A
102
}
330
2A
100
AcDbVisualStyle
  2
FlatWithEdges
 70
     1
 71
     2
 72
     1
 73
     1
 90
        2
 40
-0.6
 41
30.0
 62
     5
 63
     7
 74
     1
 91
        4
 64
     7
 65
   257
 75
     1
175
     1
 42
1.0
 92
        0
 66
   257
 43
1.0
 76
     1
 77
     6
 78
     2
 67
     7
 79
     5
170
     0
171
     0
290
     0
174
     0
 93
       13
 44
0.0
173
     0
291
     1
 45
0.0
1001
ACAD
1000
AcDbSavedByObjectVersion
1070
     0
1001
ACAD
1000
AcRTDxfName
1000
VISUALSTYLE
  0
VISUALSTYLE
  5
2D
102
{ACAD_XDICTIONARY
360
3E4
102
}
102
{ACAD_REACTORS
330
2A
102
}
330
2A
100
AcDbVisualStyle
  2
Gouraud
 70
     2
 71
     2
 72
     2
 73
     1
 90
        2
 40
-0.6
 41
30.0
 62
     5
 63
     7
 74
     0
 91
        4
 64
     7
 65
   257
 75
     1
175
     1
 42
1.0
 92
        0
 66
     7
 43
1.0
 76
     1
 77
     6
 78
     2
 67
     7
 79
     5
170
     0
171
     0
290
     0
174
     0
 93
       13
 44
0.0
173
     0
291
     1
 45
0.0
1001
ACAD
1000
AcDbSavedByObjectVersion
1070
     0
1001
ACAD
1000
AcRTDxfName
1000
VISUALSTYLE
  0
VISUALSTYLE
  5
2E
102
{ACAD_XDICTIONARY
360
3E6
102
}
102
{ACAD_REACTORS
330
2A
102
}
330
2A
100
AcDbVisualStyle
  2
GouraudWithEdges
 70
     3
 71
     2
 72
     2
 73
     1
 90
        2
 40
-0.6
 41
30.0
 62
     5
 63
     7
 74
     1
 91
        4
 64
     7
 65
   257
 75
     1
175
     1
 42
1.0
 92
        0
 66
   257
 43
1.0
 76
     1
 77
     6
 78
     2
 67
     7
 79
     5
170
     0
171
     0
290
     0
174
     0
 93
       13
 44
0.0
173
     0
291
     1
 45
0.0
1001
ACAD
1000
AcDbSavedByObjectVersion
1070
     0
1001
ACAD
1000
AcRTDxfName
1000
VISUALSTYLE
  0
VISUALSTYLE
  5
38
102
{ACAD_XDICTIONARY
360
3FA
102
}
102
{ACAD_REACTORS
330
2A
102
}
330
2A
100
AcDbVisualStyle
  2
Linepattern
 70
    14
 71
     2
 72
     2
 73
     0
 90
        0
 40
-0.6
 41
-30.0
 62
     5
 63
     7
 74
     1
 91
        4
 64
     7
 65
   257
 75
     7
175
     7
 42
1.0
 92
        8
 66
     7
 43
1.0
 76
     1
 77
     6
 78
     2
 67
     7
 79
     5
170
     0
171
     0
290
     0
174
     0
 93
        1
 44
0.0
173
     0
291
     1
 45
0.0
1001
ACAD
1000
AcDbSavedByObjectVersion
1070
     0
1001
ACAD
1000
AcRTDxfName
1000
VISUALSTYLE
  0
VISUALSTYLE
  5
33
102
{ACAD_XDICTIONARY
360
3F0
102
}
102
{ACAD_REACTORS
330
2A
102
}
330
2A
100
AcDbVisualStyle
  2
Realistic
 70
     8
 71
     2
 72
     2
 73
     0
 90
        0
 40
-0.6
 41
-30.0
 62
     5
 63
     7
 74
     1
 91
        0
 64
     7
 65
   257
 75
     1
175
     1
 42
1.0
 92
        8
 66
     8
 43
1.0
 76
     1
 77
     6
 78
     2
 67
     7
 79
     5
170
     0
171
     0
290
     0
174
     0
 93
       13
 44
0.0
173
     0
291
     0
 45
0.0
1001
ACAD
1000
AcDbSavedByObjectVersion
1070
     0
1001
ACAD
1000
AcRTDxfName
1000
VISUALSTYLE
  0
VISUALSTYLE
  5
37
102
{ACAD_XDICTIONARY
360
3F8
102
}
102
{ACAD_REACTORS
330
2A
102
}
330
2A
100
AcDbVisualStyle
  2
Thicken
 70
    13
 71
     2
 72
     2
 73
     0
 90
        0
 40
-0.6
 41
-30.0
 62
     5
 63
     7
 74
     1
 91
        4
 64
     7
 65
   257
 75
     1
175
     1
 42
1.0
 92
       12
 66
     7
 43
1.0
 76
     1
 77
     6
 78
     2
 67
     7
 79
     5
170
     0
171
     0
290
     0
174
     0
 93
        1
 44
0.0
173
     0
291
     1
 45
0.0
1001
ACAD
1000
AcDbSavedByObjectVersion
1070
     0
1001
ACAD
1000
AcRTDxfName
1000
VISUALSTYLE
  0
DICTIONARYVAR
  5
3DE
102
{ACAD_REACTORS
330
3DB
102
}
330
3DB
100
DictionaryVariables
280
     0
  1
1
  0
DICTIONARYVAR
  5
3DF
102
{ACAD_REACTORS
330
3DB
102
}
330
3DB
100
DictionaryVariables
280
     0
  1
1
  0
DICTIONARYVAR
  5
41A
102
{ACAD_REACTORS
330
3DB
102
}
330
3DB
100
DictionaryVariables
280
     0
  1

  0
DICTIONARY
  5
41D
330
1E
100
AcDbDictionary
280
     1
281
     1
  3
ACAD_XREC_ROUNDTRIP
360
41E
  0
DICTIONARY
  5
421
330
26
100
AcDbDictionary
280
     1
281
     1
  3
ACAD_XREC_ROUNDTRIP
360
422
  0
DICTIONARY
  5
41F
330
22
100
AcDbDictionary
280
     1
281
     1
  3
ACAD_XREC_ROUNDTRIP
360
420
  0
DICTIONARY
  5
402
330
3D
100
AcDbDictionary
280
     1
281
     1
  3
ACAD_XREC_ROUNDTRIP
360
403
  0
DICTIONARY
  5
400
330
3C
100
AcDbDictionary
280
     1
281
     1
  3
ACAD_XREC_ROUNDTRIP
360
401
  0
DICTIONARY
  5
404
330
3E
100
AcDbDictionary
280
     1
281
     1
  3
ACAD_XREC_ROUNDTRIP
360
405
  0
DICTIONARY
  5
3E8
330
2F
100
AcDbDictionary
280
     1
281
     1
  3
ACAD_XREC_ROUNDTRIP
360
3E9
  0
DICTIONARY
  5
3EC
330
31
100
AcDbDictionary
280
     1
281
     1
  3
ACAD_XREC_ROUNDTRIP
360
3ED
  0
DICTIONARY
  5
3EA
330
30
100
AcDbDictionary
280
     1
281
     1
  3
ACAD_XREC_ROUNDTRIP
360
3EB
  0
DICTIONARY
  5
3EE
330
32
100
AcDbDictionary
280
     1
281
     1
  3
ACAD_XREC_ROUNDTRIP
360
3EF
  0
DICTIONARY
  5
3F6
330
36
100
AcDbDictionary
280
     1
281
     1
  3
ACAD_XREC_ROUNDTRIP
360
3F7
  0
DICTIONARY
  5
3FE
330
3A
100
AcDbDictionary
280
     1
281
     1
  3
ACAD_XREC_ROUNDTRIP
360
3FF
  0
DICTIONARY
  5
3F2
330
34
100
AcDbDictionary
280
     1
281
     1
  3
ACAD_XREC_ROUNDTRIP
360
3F3
  0
DICTIONARY
  5
3F4
330
35
100
AcDbDictionary
280
     1
281
     1
  3
ACAD_XREC_ROUNDTRIP
360
3F5
  0
DICTIONARY
  5
3FC
330
39
100
AcDbDictionary
280
     1
281
     1
  3
ACAD_XREC_ROUNDTRIP
360
3FD
  0
DICTIONARY
  5
3E0
330
2B
100
AcDbDictionary
280
     1
281
     1
  3
ACAD_XREC_ROUNDTRIP
360
3E1
  0
DICTIONARY
  5
3E2
330
2C
100
AcDbDictionary
280
     1
281
     1
  3
ACAD_XREC_ROUNDTRIP
360
3E3
  0
DICTIONARY
  5
3E4
330
2D
100
AcDbDictionary
280
     1
281
     1
  3
ACAD_XREC_ROUNDTRIP
360
3E5
  0
DICTIONARY
  5
3E6
330
2E
100
AcDbDictionary
280
     1
281
     1
  3
ACAD_XREC_ROUNDTRIP
360
3E7
  0
DICTIONARY
  5
3FA
330
38
100
AcDbDictionary
280
     1
281
     1
  3
ACAD_XREC_ROUNDTRIP
360
3FB
  0
DICTIONARY
  5
3F0
330
33
100
AcDbDictionary
280
     1
281
     1
  3
ACAD_XREC_ROUNDTRIP
360
3F1
  0
DICTIONARY
  5
3F8
330
37
100
AcDbDictionary
280
     1
281
     1
  3
ACAD_XREC_ROUNDTRIP
360
3F9
  0
XRECORD
  5
41E
102
{ACAD_REACTORS
330
41D
102
}
330
41D
100
AcDbXrecord
280
     1
102
SHADEPLOT
 70
     0
102
SHADEPLOTRESLEVEL
 70
     2
102
SHADEPLOTCUSTOMDPI
 70
   300
  0
XRECORD
  5
422
102
{ACAD_REACTORS
330
421
102
}
330
421
100
AcDbXrecord
280
     1
102
SHADEPLOT
 70
     0
102
SHADEPLOTRESLEVEL
 70
     2
102
SHADEPLOTCUSTOMDPI
 70
   300
  0
XRECORD
  5
420
102
{ACAD_REACTORS
330
41F
102
}
330
41F
100
AcDbXrecord
280
     1
102
SHADEPLOT
 70
     0
102
SHADEPLOTRESLEVEL
 70
     2
102
SHADEPLOTCUSTOMDPI
 70
   300
  0
XRECORD
  5
403
102
{ACAD_REACTORS
330
402
102
}
330
402
100
AcDbXrecord
280
     1
102
MATERIAL
148
0.0
149
0.0
149
0.0
 93
        0
 94
      127
282
     0
 72
     1
 77
     1
171
     1
175
     1
179
     1
273
     0
  0
XRECORD
  5
401
102
{ACAD_REACTORS
330
400
102
}
330
400
100
AcDbXrecord
280
     1
102
MATERIAL
148
0.0
149
0.0
149
0.0
 93
        0
 94
      127
282
     0
 72
     1
 77
     1
171
     1
175
     1
179
     1
273
     0
  0
XRECORD
  5
405
102
{ACAD_REACTORS
330
404
102
}
330
404
100
AcDbXrecord
280
     1
102
MATERIAL
148
0.0
149
0.0
149
0.0
 93
        0
 94
      127
282
     0
 72
     1
 77
     1
171
     1
175
     1
179
     1
273
     0
  0
XRECORD
  5
3E9
102
{ACAD_REACTORS
330
3E8
102
}
330
3E8
100
AcDbXrecord
280
     1
102
RTVSPropertyOp0
 70
     1
102
RTVSPropertyOp1
 70
     1
102
RTVSPropertyOp2
 70
     1
102
RTVSPropertyOp3
 70
     1
102
RTVSPropertyOp4
 70
     1
102
RTVSPropertyOp5
 70
     1
102
RTVSPropertyOp6
 70
     1
102
RTVSPropertyOp7
 70
     1
102
RTVSPropertyOp8
 70
     1
102
RTVSPropertyOp9
 70
     1
102
RTVSPropertyOp10
 70
     1
102
RTVSPropertyOp11
 70
     1
102
RTVSPropertyOp12
 70
     1
102
RTVSPropertyOp13
 70
     1
102
RTVSPropertyOp14
 70
     1
102
RTVSPropertyOp15
 70
     1
102
RTVSPropertyOp16
 70
     1
102
RTVSPropertyOp17
 70
     1
102
RTVSPropertyOp18
 70
     1
102
RTVSPropertyOp19
 70
     1
102
RTVSPropertyOp20
 70
     1
102
RTVSPropertyOp21
 70
     1
102
RTVSPropertyOp22
 70
     1
102
RTVSPropertyOp23
 70
     1
102
RTVSPropertyOp24
 70
     1
102
RTVSPropertyOp25
 70
     1
102
RTVSPropertyOp26
 70
     1
102
RTVSPropertyOp27
 70
     1
102
RTVSPropertyOp28
 70
     1
102
RTVSPropertyOp29
 70
     1
102
RTVSPropertyOp30
 70
     1
102
RTVSPropertyOp31
 70
     1
102
RTVSPropertyOp32
 70
     1
  0
XRECORD
  5
3ED
102
{ACAD_REACTORS
330
3EC
102
}
330
3EC
100
AcDbXrecord
280
     1
102
RTVSPropertyOp0
 70
     1
102
RTVSPropertyOp1
 70
     1
102
RTVSPropertyOp2
 70
     1
102
RTVSPropertyOp3
 70
     1
102
RTVSPropertyOp4
 70
     1
102
RTVSPropertyOp5
 70
     1
102
RTVSPropertyOp6
 70
     1
102
RTVSPropertyOp7
 70
     1
102
RTVSPropertyOp8
 70
     1
102
RTVSPropertyOp9
 70
     1
102
RTVSPropertyOp10
 70
     1
102
RTVSPropertyOp11
 70
     1
102
RTVSPropertyOp12
 70
     1
102
RTVSPropertyOp13
 70
     1
102
RTVSPropertyOp14
 70
     1
102
RTVSPropertyOp15
 70
     1
102
RTVSPropertyOp16
 70
     1
102
RTVSPropertyOp17
 70
     1
102
RTVSPropertyOp18
 70
     1
102
RTVSPropertyOp19
 70
     1
102
RTVSPropertyOp20
 70
     1
102
RTVSPropertyOp21
 70
     1
102
RTVSPropertyOp22
 70
     1
102
RTVSPropertyOp23
 70
     1
102
RTVSPropertyOp24
 70
     1
102
RTVSPropertyOp25
 70
     1
102
RTVSPropertyOp26
 70
     1
102
RTVSPropertyOp27
 70
     1
102
RTVSPropertyOp28
 70
     1
102
RTVSPropertyOp29
 70
     1
102
RTVSPropertyOp30
 70
     1
102
RTVSPropertyOp31
 70
     1
102
RTVSPropertyOp32
 70
     1
  0
XRECORD
  5
3EB
102
{ACAD_REACTORS
330
3EA
102
}
330
3EA
100
AcDbXrecord
280
     1
102
RTVSPropertyOp0
 70
     1
102
RTVSPropertyOp1
 70
     1
102
RTVSPropertyOp2
 70
     1
102
RTVSPropertyOp3
 70
     1
102
RTVSPropertyOp4
 70
     1
102
RTVSPropertyOp5
 70
     1
102
RTVSPropertyOp6
 70
     1
102
RTVSPropertyOp7
 70
     1
102
RTVSPropertyOp8
 70
     1
102
RTVSPropertyOp9
 70
     1
102
RTVSPropertyOp10
 70
     1
102
RTVSPropertyOp11
 70
     1
102
RTVSPropertyOp12
 70
     1
102
RTVSPropertyOp13
 70
     1
102
RTVSPropertyOp14
 70
     1
102
RTVSPropertyOp15
 70
     1
102
RTVSPropertyOp16
 70
     1
102
RTVSPropertyOp17
 70
     1
102
RTVSPropertyOp18
 70
     1
102
RTVSPropertyOp19
 70
     1
102
RTVSPropertyOp20
 70
     1
102
RTVSPropertyOp21
 70
     1
102
RTVSPropertyOp22
 70
     1
102
RTVSPropertyOp23
 70
     1
102
RTVSPropertyOp24
 70
     1
102
RTVSPropertyOp25
 70
     1
102
RTVSPropertyOp26
 70
     1
102
RTVSPropertyOp27
 70
     1
102
RTVSPropertyOp28
 70
     1
102
RTVSPropertyOp29
 70
     1
102
RTVSPropertyOp30
 70
     1
102
RTVSPropertyOp31
 70
     1
102
RTVSPropertyOp32
 70
     1
  0
XRECORD
  5
3EF
102
{ACAD_REACTORS
330
3EE
102
}
330
3EE
100
AcDbXrecord
280
     1
102
RTVSPropertyOp0
 70
     1
102
RTVSPropertyOp1
 70
     1
102
RTVSPropertyOp2
 70
     1
102
RTVSPropertyOp3
 70
     1
102
RTVSPropertyOp4
 70
     1
102
RTVSPropertyOp5
 70
     1
102
RTVSPropertyOp6
 70
     1
102
RTVSPropertyOp7
 70
     1
102
RTVSPropertyOp8
 70
     1
102
RTVSPropertyOp9
 70
     1
102
RTVSPropertyOp10
 70
     1
102
RTVSPropertyOp11
 70
     1
102
RTVSPropertyOp12
 70
     1
102
RTVSPropertyOp13
 70
     1
102
RTVSPropertyOp14
 70
     1
102
RTVSPropertyOp15
 70
     1
102
RTVSPropertyOp16
 70
     1
102
RTVSPropertyOp17
 70
     1
102
RTVSPropertyOp18
 70
     1
102
RTVSPropertyOp19
 70
     1
102
RTVSPropertyOp20
 70
     1
102
RTVSPropertyOp21
 70
     1
102
RTVSPropertyOp22
 70
     1
102
RTVSPropertyOp23
 70
     1
102
RTVSPropertyOp24
 70
     1
102
RTVSPropertyOp25
 70
     1
102
RTVSPropertyOp26
 70
     1
102
RTVSPropertyOp27
 70
     1
102
RTVSPropertyOp28
 70
     1
102
RTVSPropertyOp29
 70
     1
102
RTVSPropertyOp30
 70
     1
102
RTVSPropertyOp31
 70
     1
102
RTVSPropertyOp32
 70
     1
  0
XRECORD
  5
3F7
102
{ACAD_REACTORS
330
3F6
102
}
330
3F6
100
AcDbXrecord
280
     1
102
RTVSPropertyOp0
 70
     1
102
RTVSPropertyOp1
 70
     1
102
RTVSPropertyOp2
 70
     1
102
RTVSPropertyOp3
 70
     1
102
RTVSPropertyOp4
 70
     1
102
RTVSPropertyOp5
 70
     1
102
RTVSPropertyOp6
 70
     1
102
RTVSPropertyOp7
 70
     1
102
RTVSPropertyOp8
 70
     1
102
RTVSPropertyOp9
 70
     1
102
RTVSPropertyOp10
 70
     1
102
RTVSPropertyOp11
 70
     1
102
RTVSPropertyOp12
 70
     1
102
RTVSPropertyOp13
 70
     1
102
RTVSPropertyOp14
 70
     1
102
RTVSPropertyOp15
 70
     1
102
RTVSPropertyOp16
 70
     1
102
RTVSPropertyOp17
 70
     1
102
RTVSPropertyOp18
 70
     1
102
RTVSPropertyOp19
 70
     1
102
RTVSPropertyOp20
 70
     1
102
RTVSPropertyOp21
 70
     1
102
RTVSPropertyOp22
 70
     1
102
RTVSPropertyOp23
 70
     1
102
RTVSPropertyOp24
 70
     1
102
RTVSPropertyOp25
 70
     1
102
RTVSPropertyOp26
 70
     1
102
RTVSPropertyOp27
 70
     1
102
RTVSPropertyOp28
 70
     1
102
RTVSPropertyOp29
 70
     1
102
RTVSPropertyOp30
 70
     1
102
RTVSPropertyOp31
 70
     1
102
RTVSPropertyOp32
 70
     1
  0
XRECORD
  5
3FF
102
{ACAD_REACTORS
330
3FE
102
}
330
3FE
100
AcDbXrecord
280
     1
102
RTVSPropertyOp0
 70
     1
102
RTVSPropertyOp1
 70
     1
102
RTVSPropertyOp2
 70
     1
102
RTVSPropertyOp3
 70
     1
102
RTVSPropertyOp4
 70
     1
102
RTVSPropertyOp5
 70
     1
102
RTVSPropertyOp6
 70
     1
102
RTVSPropertyOp7
 70
     1
102
RTVSPropertyOp8
 70
     1
102
RTVSPropertyOp9
 70
     1
102
RTVSPropertyOp10
 70
     1
102
RTVSPropertyOp11
 70
     1
102
RTVSPropertyOp12
 70
     1
102
RTVSPropertyOp13
 70
     1
102
RTVSPropertyOp14
 70
     1
102
RTVSPropertyOp15
 70
     1
102
RTVSPropertyOp16
 70
     1
102
RTVSPropertyOp17
 70
     1
102
RTVSPropertyOp18
 70
     1
102
RTVSPropertyOp19
 70
     1
102
RTVSPropertyOp20
 70
     1
102
RTVSPropertyOp21
 70
     1
102
RTVSPropertyOp22
 70
     1
102
RTVSPropertyOp23
 70
     1
102
RTVSPropertyOp24
 70
     1
102
RTVSPropertyOp25
 70
     1
102
RTVSPropertyOp26
 70
     1
102
RTVSPropertyOp27
 70
     1
102
RTVSPropertyOp28
 70
     1
102
RTVSPropertyOp29
 70
     1
102
RTVSPropertyOp30
 70
     1
102
RTVSPropertyOp31
 70
     1
102
RTVSPropertyOp32
 70
     1
  0
XRECORD
  5
3F3
102
{ACAD_REACTORS
330
3F2
102
}
330
3F2
100
AcDbXrecord
280
     1
102
RTVSPropertyOp0
 70
     1
102
RTVSPropertyOp1
 70
     1
102
RTVSPropertyOp2
 70
     1
102
RTVSPropertyOp3
 70
     1
102
RTVSPropertyOp4
 70
     1
102
RTVSPropertyOp5
 70
     1
102
RTVSPropertyOp6
 70
     1
102
RTVSPropertyOp7
 70
     1
102
RTVSPropertyOp8
 70
     1
102
RTVSPropertyOp9
 70
     1
102
RTVSPropertyOp10
 70
     1
102
RTVSPropertyOp11
 70
     1
102
RTVSPropertyOp12
 70
     1
102
RTVSPropertyOp13
 70
     1
102
RTVSPropertyOp14
 70
     1
102
RTVSPropertyOp15
 70
     1
102
RTVSPropertyOp16
 70
     1
102
RTVSPropertyOp17
 70
     1
102
RTVSPropertyOp18
 70
     1
102
RTVSPropertyOp19
 70
     1
102
RTVSPropertyOp20
 70
     1
102
RTVSPropertyOp21
 70
     1
102
RTVSPropertyOp22
 70
     1
102
RTVSPropertyOp23
 70
     1
102
RTVSPropertyOp24
 70
     1
102
RTVSPropertyOp25
 70
     1
102
RTVSPropertyOp26
 70
     1
102
RTVSPropertyOp27
 70
     1
102
RTVSPropertyOp28
 70
     1
102
RTVSPropertyOp29
 70
     1
102
RTVSPropertyOp30
 70
     1
102
RTVSPropertyOp31
 70
     1
102
RTVSPropertyOp32
 70
     1
  0
XRECORD
  5
3F5
102
{ACAD_REACTORS
330
3F4
102
}
330
3F4
100
AcDbXrecord
280
     1
102
RTVSPropertyOp0
 70
     1
102
RTVSPropertyOp1
 70
     1
102
RTVSPropertyOp2
 70
     1
102
RTVSPropertyOp3
 70
     1
102
RTVSPropertyOp4
 70
     1
102
RTVSPropertyOp5
 70
     1
102
RTVSPropertyOp6
 70
     1
102
RTVSPropertyOp7
 70
     1
102
RTVSPropertyOp8
 70
     1
102
RTVSPropertyOp9
 70
     1
102
RTVSPropertyOp10
 70
     1
102
RTVSPropertyOp11
 70
     1
102
RTVSPropertyOp12
 70
     1
102
RTVSPropertyOp13
 70
     1
102
RTVSPropertyOp14
 70
     1
102
RTVSPropertyOp15
 70
     1
102
RTVSPropertyOp16
 70
     1
102
RTVSPropertyOp17
 70
     1
102
RTVSPropertyOp18
 70
     1
102
RTVSPropertyOp19
 70
     1
102
RTVSPropertyOp20
 70
     1
102
RTVSPropertyOp21
 70
     1
102
RTVSPropertyOp22
 70
     1
102
RTVSPropertyOp23
 70
     1
102
RTVSPropertyOp24
 70
     1
102
RTVSPropertyOp25
 70
     1
102
RTVSPropertyOp26
 70
     1
102
RTVSPropertyOp27
 70
     1
102
RTVSPropertyOp28
 70
     1
102
RTVSPropertyOp29
 70
     1
102
RTVSPropertyOp30
 70
     1
102
RTVSPropertyOp31
 70
     1
102
RTVSPropertyOp32
 70
     1
  0
XRECORD
  5
3FD
102
{ACAD_REACTORS
330
3FC
102
}
330
3FC
100
AcDbXrecord
280
     1
102
RTVSPropertyOp0
 70
     1
102
RTVSPropertyOp1
 70
     1
102
RTVSPropertyOp2
 70
     1
102
RTVSPropertyOp3
 70
     1
102
RTVSPropertyOp4
 70
     1
102
RTVSPropertyOp5
 70
     1
102
RTVSPropertyOp6
 70
     1
102
RTVSPropertyOp7
 70
     1
102
RTVSPropertyOp8
 70
     1
102
RTVSPropertyOp9
 70
     1
102
RTVSPropertyOp10
 70
     1
102
RTVSPropertyOp11
 70
     1
102
RTVSPropertyOp12
 70
     1
102
RTVSPropertyOp13
 70
     1
102
RTVSPropertyOp14
 70
     1
102
RTVSPropertyOp15
 70
     1
102
RTVSPropertyOp16
 70
     1
102
RTVSPropertyOp17
 70
     1
102
RTVSPropertyOp18
 70
     1
102
RTVSPropertyOp19
 70
     1
102
RTVSPropertyOp20
 70
     1
102
RTVSPropertyOp21
 70
     1
102
RTVSPropertyOp22
 70
     1
102
RTVSPropertyOp23
 70
     1
102
RTVSPropertyOp24
 70
     1
102
RTVSPropertyOp25
 70
     1
102
RTVSPropertyOp26
 70
     1
102
RTVSPropertyOp27
 70
     1
102
RTVSPropertyOp28
 70
     1
102
RTVSPropertyOp29
 70
     1
102
RTVSPropertyOp30
 70
     1
102
RTVSPropertyOp31
 70
     1
102
RTVSPropertyOp32
 70
     1
  0
XRECORD
  5
3E1
102
{ACAD_REACTORS
330
3E0
102
}
330
3E0
100
AcDbXrecord
280
     1
102
RTVSPropertyOp0
 70
     1
102
RTVSPropertyOp1
 70
     1
102
RTVSPropertyOp2
 70
     1
102
RTVSPropertyOp3
 70
     1
102
RTVSPropertyOp4
 70
     1
102
RTVSPropertyOp5
 70
     1
102
RTVSPropertyOp6
 70
     1
102
RTVSPropertyOp7
 70
     1
102
RTVSPropertyOp8
 70
     1
102
RTVSPropertyOp9
 70
     1
102
RTVSPropertyOp10
 70
     1
102
RTVSPropertyOp11
 70
     1
102
RTVSPropertyOp12
 70
     1
102
RTVSPropertyOp13
 70
     1
102
RTVSPropertyOp14
 70
     1
102
RTVSPropertyOp15
 70
     1
102
RTVSPropertyOp16
 70
     1
102
RTVSPropertyOp17
 70
     1
102
RTVSPropertyOp18
 70
     1
102
RTVSPropertyOp19
 70
     1
102
RTVSPropertyOp20
 70
     1
102
RTVSPropertyOp21
 70
     1
102
RTVSPropertyOp22
 70
     1
102
RTVSPropertyOp23
 70
     1
102
RTVSPropertyOp24
 70
     1
102
RTVSPropertyOp25
 70
     1
102
RTVSPropertyOp26
 70
     1
102
RTVSPropertyOp27
 70
     1
102
RTVSPropertyOp28
 70
     1
102
RTVSPropertyOp29
 70
     1
102
RTVSPropertyOp30
 70
     1
102
RTVSPropertyOp31
 70
     1
102
RTVSPropertyOp32
 70
     1
  0
XRECORD
  5
3E3
102
{ACAD_REACTORS
330
3E2
102
}
330
3E2
100
AcDbXrecord
280
     1
102
RTVSPropertyOp0
 70
     1
102
RTVSPropertyOp1
 70
     1
102
RTVSPropertyOp2
 70
     1
102
RTVSPropertyOp3
 70
     1
102
RTVSPropertyOp4
 70
     1
102
RTVSPropertyOp5
 70
     1
102
RTVSPropertyOp6
 70
     1
102
RTVSPropertyOp7
 70
     1
102
RTVSPropertyOp8
 70
     1
102
RTVSPropertyOp9
 70
     1
102
RTVSPropertyOp10
 70
     1
102
RTVSPropertyOp11
 70
     1
102
RTVSPropertyOp12
 70
     1
102
RTVSPropertyOp13
 70
     1
102
RTVSPropertyOp14
 70
     1
102
RTVSPropertyOp15
 70
     1
102
RTVSPropertyOp16
 70
     1
102
RTVSPropertyOp17
 70
     1
102
RTVSPropertyOp18
 70
     1
102
RTVSPropertyOp19
 70
     1
102
RTVSPropertyOp20
 70
     1
102
RTVSPropertyOp21
 70
     1
102
RTVSPropertyOp22
 70
     1
102
RTVSPropertyOp23
 70
     1
102
RTVSPropertyOp24
 70
     1
102
RTVSPropertyOp25
 70
     1
102
RTVSPropertyOp26
 70
     1
102
RTVSPropertyOp27
 70
     1
102
RTVSPropertyOp28
 70
     1
102
RTVSPropertyOp29
 70
     1
102
RTVSPropertyOp30
 70
     1
102
RTVSPropertyOp31
 70
     1
102
RTVSPropertyOp32
 70
     1
  0
XRECORD
  5
3E5
102
{ACAD_REACTORS
330
3E4
102
}
330
3E4
100
AcDbXrecord
280
     1
102
RTVSPropertyOp0
 70
     1
102
RTVSPropertyOp1
 70
     1
102
RTVSPropertyOp2
 70
     1
102
RTVSPropertyOp3
 70
     1
102
RTVSPropertyOp4
 70
     1
102
RTVSPropertyOp5
 70
     1
102
RTVSPropertyOp6
 70
     1
102
RTVSPropertyOp7
 70
     1
102
RTVSPropertyOp8
 70
     1
102
RTVSPropertyOp9
 70
     1
102
RTVSPropertyOp10
 70
     1
102
RTVSPropertyOp11
 70
     1
102
RTVSPropertyOp12
 70
     1
102
RTVSPropertyOp13
 70
     1
102
RTVSPropertyOp14
 70
     1
102
RTVSPropertyOp15
 70
     1
102
RTVSPropertyOp16
 70
     1
102
RTVSPropertyOp17
 70
     1
102
RTVSPropertyOp18
 70
     1
102
RTVSPropertyOp19
 70
     1
102
RTVSPropertyOp20
 70
     1
102
RTVSPropertyOp21
 70
     1
102
RTVSPropertyOp22
 70
     1
102
RTVSPropertyOp23
 70
     1
102
RTVSPropertyOp24
 70
     1
102
RTVSPropertyOp25
 70
     1
102
RTVSPropertyOp26
 70
     1
102
RTVSPropertyOp27
 70
     1
102
RTVSPropertyOp28
 70
     1
102
RTVSPropertyOp29
 70
     1
102
RTVSPropertyOp30
 70
     1
102
RTVSPropertyOp31
 70
     1
102
RTVSPropertyOp32
 70
     1
  0
XRECORD
  5
3E7
102
{ACAD_REACTORS
330
3E6
102
}
330
3E6
100
AcDbXrecord
280
     1
102
RTVSPropertyOp0
 70
     1
102
RTVSPropertyOp1
 70
     1
102
RTVSPropertyOp2
 70
     1
102
RTVSPropertyOp3
 70
     1
102
RTVSPropertyOp4
 70
     1
102
RTVSPropertyOp5
 70
     1
102
RTVSPropertyOp6
 70
     1
102
RTVSPropertyOp7
 70
     1
102
RTVSPropertyOp8
 70
     1
102
RTVSPropertyOp9
 70
     1
102
RTVSPropertyOp10
 70
     1
102
RTVSPropertyOp11
 70
     1
102
RTVSPropertyOp12
 70
     1
102
RTVSPropertyOp13
 70
     1
102
RTVSPropertyOp14
 70
     1
102
RTVSPropertyOp15
 70
     1
102
RTVSPropertyOp16
 70
     1
102
RTVSPropertyOp17
 70
     1
102
RTVSPropertyOp18
 70
     1
102
RTVSPropertyOp19
 70
     1
102
RTVSPropertyOp20
 70
     1
102
RTVSPropertyOp21
 70
     1
102
RTVSPropertyOp22
 70
     1
102
RTVSPropertyOp23
 70
     1
102
RTVSPropertyOp24
 70
     1
102
RTVSPropertyOp25
 70
     1
102
RTVSPropertyOp26
 70
     1
102
RTVSPropertyOp27
 70
     1
102
RTVSPropertyOp28
 70
     1
102
RTVSPropertyOp29
 70
     1
102
RTVSPropertyOp30
 70
     1
102
RTVSPropertyOp31
 70
     1
102
RTVSPropertyOp32
 70
     1
  0
XRECORD
  5
3FB
102
{ACAD_REACTORS
330
3FA
102
}
330
3FA
100
AcDbXrecord
280
     1
102
RTVSPropertyOp0
 70
     1
102
RTVSPropertyOp1
 70
     1
102
RTVSPropertyOp2
 70
     1
102
RTVSPropertyOp3
 70
     1
102
RTVSPropertyOp4
 70
     1
102
RTVSPropertyOp5
 70
     1
102
RTVSPropertyOp6
 70
     1
102
RTVSPropertyOp7
 70
     1
102
RTVSPropertyOp8
 70
     1
102
RTVSPropertyOp9
 70
     1
102
RTVSPropertyOp10
 70
     1
102
RTVSPropertyOp11
 70
     1
102
RTVSPropertyOp12
 70
     1
102
RTVSPropertyOp13
 70
     1
102
RTVSPropertyOp14
 70
     1
102
RTVSPropertyOp15
 70
     1
102
RTVSPropertyOp16
 70
     1
102
RTVSPropertyOp17
 70
     1
102
RTVSPropertyOp18
 70
     1
102
RTVSPropertyOp19
 70
     1
102
RTVSPropertyOp20
 70
     1
102
RTVSPropertyOp21
 70
     1
102
RTVSPropertyOp22
 70
     1
102
RTVSPropertyOp23
 70
     1
102
RTVSPropertyOp24
 70
     1
102
RTVSPropertyOp25
 70
     1
102
RTVSPropertyOp26
 70
     1
102
RTVSPropertyOp27
 70
     1
102
RTVSPropertyOp28
 70
     1
102
RTVSPropertyOp29
 70
     1
102
RTVSPropertyOp30
 70
     1
102
RTVSPropertyOp31
 70
     1
102
RTVSPropertyOp32
 70
     1
  0
XRECORD
  5
3F1
102
{ACAD_REACTORS
330
3F0
102
}
330
3F0
100
AcDbXrecord
280
     1
102
RTVSPropertyOp0
 70
     1
102
RTVSPropertyOp1
 70
     1
102
RTVSPropertyOp2
 70
     1
102
RTVSPropertyOp3
 70
     1
102
RTVSPropertyOp4
 70
     1
102
RTVSPropertyOp5
 70
     1
102
RTVSPropertyOp6
 70
     1
102
RTVSPropertyOp7
 70
     1
102
RTVSPropertyOp8
 70
     1
102
RTVSPropertyOp9
 70
     1
102
RTVSPropertyOp10
 70
     1
102
RTVSPropertyOp11
 70
     1
102
RTVSPropertyOp12
 70
     1
102
RTVSPropertyOp13
 70
     1
102
RTVSPropertyOp14
 70
     1
102
RTVSPropertyOp15
 70
     1
102
RTVSPropertyOp16
 70
     1
102
RTVSPropertyOp17
 70
     1
102
RTVSPropertyOp18
 70
     1
102
RTVSPropertyOp19
 70
     1
102
RTVSPropertyOp20
 70
     1
102
RTVSPropertyOp21
 70
     1
102
RTVSPropertyOp22
 70
     1
102
RTVSPropertyOp23
 70
     1
102
RTVSPropertyOp24
 70
     1
102
RTVSPropertyOp25
 70
     1
102
RTVSPropertyOp26
 70
     1
102
RTVSPropertyOp27
 70
     1
102
RTVSPropertyOp28
 70
     1
102
RTVSPropertyOp29
 70
     1
102
RTVSPropertyOp30
 70
     1
102
RTVSPropertyOp31
 70
     1
102
RTVSPropertyOp32
 70
     1
  0
XRECORD
  5
3F9
102
{ACAD_REACTORS
330
3F8
102
}
330
3F8
100
AcDbXrecord
280
     1
102
RTVSPropertyOp0
 70
     1
102
RTVSPropertyOp1
 70
     1
102
RTVSPropertyOp2
 70
     1
102
RTVSPropertyOp3
 70
     1
102
RTVSPropertyOp4
 70
     1
102
RTVSPropertyOp5
 70
     1
102
RTVSPropertyOp6
 70
     1
102
RTVSPropertyOp7
 70
     1
102
RTVSPropertyOp8
 70
     1
102
RTVSPropertyOp9
 70
     1
102
RTVSPropertyOp10
 70
     1
102
RTVSPropertyOp11
 70
     1
102
RTVSPropertyOp12
 70
     1
102
RTVSPropertyOp13
 70
     1
102
RTVSPropertyOp14
 70
     1
102
RTVSPropertyOp15
 70
     1
102
RTVSPropertyOp16
 70
     1
102
RTVSPropertyOp17
 70
     1
102
RTVSPropertyOp18
 70
     1
102
RTVSPropertyOp19
 70
     1
102
RTVSPropertyOp20
 70
     1
102
RTVSPropertyOp21
 70
     1
102
RTVSPropertyOp22
 70
     1
102
RTVSPropertyOp23
 70
     1
102
RTVSPropertyOp24
 70
     1
102
RTVSPropertyOp25
 70
     1
102
RTVSPropertyOp26
 70
     1
102
RTVSPropertyOp27
 70
     1
102
RTVSPropertyOp28
 70
     1
102
RTVSPropertyOp29
 70
     1
102
RTVSPropertyOp30
 70
     1
102
RTVSPropertyOp31
 70
     1
102
RTVSPropertyOp32
 70
     1
  0
ENDSEC
  0
EOF
