  0
SECTION
  2
HEADER
  9
$ACADVER
  1
AC1024
  9
$ACADMAINTVER
 70
     6
  9
$DWGCODEPAGE
  3
ANSI_932
  9
$INSBASE
 10
0.0
 20
0.0
 30
0.0
  9
$EXTMIN
 10
65.05354704967812
 20
23.98258048235334
 30
0.0
  9
$EXTMAX
 10
194.207381419967
 20
88.03175066485048
 30
0.0
  9
$LIMMIN
 10
0.0
 20
0.0
  9
$LIMMAX
 10
420.0
 20
297.0
  9
$ORTHOMODE
 70
     0
  9
$REGENMODE
 70
     1
  9
$FILLMODE
 70
     1
  9
$QTEXTMODE
 70
     0
  9
$MIRRTEXT
 70
     1
  9
$LTSCALE
 40
0.25
  9
$ATTMODE
 70
     1
  9
$TEXTSIZE
 40
5.0
  9
$TRACEWID
 40
0.05
  9
$TEXTSTYLE
  7
Standard
  9
$CLAYER
  8
0
  9
$CELTYPE
  6
ByLayer
  9
$CECOLOR
 62
   256
  9
$CELTSCALE
 40
1.0
  9
$DISPSILH
 70
     0
  9
$DIMSCALE
 40
1.0
  9
$DIMASZ
 40
4.0
  9
$DIMEXO
 40
2.0
  9
$DIMDLI
 40
10.0
  9
$DIMRND
 40
0.0
  9
$DIMDLE
 40
0.0
  9
$DIMEXE
 40
2.0
  9
$DIMTP
 40
0.0
  9
$DIMTM
 40
0.0
  9
$DIMTXT
 40
3.5
  9
$DIMCEN
 40
0.09
  9
$DIMTSZ
 40
0.0
  9
$DIMTOL
 70
     0
  9
$DIMLIM
 70
     0
  9
$DIMTIH
 70
     0
  9
$DIMTOH
 70
     0
  9
$DIMSE1
 70
     0
  9
$DIMSE2
 70
     0
  9
$DIMTAD
 70
     3
  9
$DIMZIN
 70
     8
  9
$DIMBLK
  1

  9
$DIMASO
 70
     1
  9
$DIMSHO
 70
     1
  9
$DIMPOST
  1

  9
$DIMAPOST
  1

  9
$DIMALT
 70
     0
  9
$DIMALTD
 70
     2
  9
$DIMALTF
 40
25.4
  9
$DIMLFAC
 40
1.0
  9
$DIMTOFL
 70
     1
  9
$DIMTVP
 40
0.7
  9
$DIMTIX
 70
     0
  9
$DIMSOXD
 70
     0
  9
$DIMSAH
 70
     0
  9
$DIMBLK1
  1

  9
$DIMBLK2
  1

  9
$DIMSTYLE
  2
Standard
  9
$DIMCLRD
 70
     0
  9
$DIMCLRE
 70
     0
  9
$DIMCLRT
 70
     0
  9
$DIMTFAC
 40
0.5
  9
$DIMGAP
 40
0.09
  9
$DIMJUST
 70
     0
  9
$DIMSD1
 70
     0
  9
$DIMSD2
 70
     0
  9
$DIMTOLJ
 70
     1
  9
$DIMTZIN
 70
     8
  9
$DIMALTZ
 70
     0
  9
$DIMALTTZ
 70
     0
  9
$DIMUPT
 70
     1
  9
$DIMDEC
 70
     2
  9
$DIMTDEC
 70
     4
  9
$DIMALTU
 70
     2
  9
$DIMALTTD
 70
     2
  9
$DIMTXSTY
  7
Standard
  9
$DIMAUNIT
 70
     0
  9
$DIMADEC
 70
     0
  9
$DIMALTRND
 40
0.0
  9
$DIMAZIN
 70
     0
  9
$DIMDSEP
 70
    46
  9
$DIMATFIT
 70
     2
  9
$DIMFRAC
 70
     0
  9
$DIMLDRBLK
  1

  9
$DIMLUNIT
 70
     2
  9
$DIMLWD
 70
    -2
  9
$DIMLWE
 70
    -2
  9
$DIMTMOVE
 70
     2
  9
$DIMFXL
 40
1.0
  9
$DIMFXLON
 70
     0
  9
$DIMJOGANG
 40
0.7853981633974483
  9
$DIMTFILL
 70
     0
  9
$DIMTFILLCLR
 70
     0
  9
$DIMARCSYM
 70
     0
  9
$DIMLTYPE
  6

  9
$DIMLTEX1
  6

  9
$DIMLTEX2
  6

  9
$DIMTXTDIRECTION
 70
     0
  9
$LUNITS
 70
     2
  9
$LUPREC
 70
     4
  9
$SKETCHINC
 40
0.1
  9
$FILLETRAD
 40
0.5
  9
$AUNITS
 70
     0
  9
$AUPREC
 70
     0
  9
$MENU
  1
.
  9
$ELEVATION
 40
0.0
  9
$PELEVATION
 40
0.0
  9
$THICKNESS
 40
0.0
  9
$LIMCHECK
 70
     0
  9
$CHAMFERA
 40
0.5
  9
$CHAMFERB
 40
0.5
  9
$CHAMFERC
 40
1.0
  9
$CHAMFERD
 40
0.0
  9
$SKPOLY
 70
     0
  9
$TDCREATE
 40
2456735.104456019
  9
$TDUCREATE
 40
2456734.729456019
  9
$TDUPDATE
 40
2456734.729466504
  9
$TDUUPDATE
 40
2456734.354466504
  9
$TDINDWG
 40
0.0000000116
  9
$TDUSRTIMER
 40
0.0000000116
  9
$USRTIMER
 70
     1
  9
$ANGBASE
 50
0.0
  9
$ANGDIR
 70
     0
  9
$PDMODE
 70
     0
  9
$PDSIZE
 40
0.0
  9
$PLINEWID
 40
0.0
  9
$SPLFRAME
 70
     0
  9
$SPLINETYPE
 70
     6
  9
$SPLINESEGS
 70
     8
  9
$HANDSEED
  5
4D7
  9
$SURFTAB1
 70
     6
  9
$SURFTAB2
 70
     6
  9
$SURFTYPE
 70
     6
  9
$SURFU
 70
     6
  9
$SURFV
 70
     6
  9
$UCSBASE
  2

  9
$UCSNAME
  2

  9
$UCSORG
 10
0.0
 20
0.0
 30
0.0
  9
$UCSXDIR
 10
1.0
 20
0.0
 30
0.0
  9
$UCSYDIR
 10
0.0
 20
1.0
 30
0.0
  9
$UCSORTHOREF
  2

  9
$UCSORTHOVIEW
 70
     0
  9
$UCSORGTOP
 10
0.0
 20
0.0
 30
0.0
  9
$UCSORGBOTTOM
 10
0.0
 20
0.0
 30
0.0
  9
$UCSORGLEFT
 10
0.0
 20
0.0
 30
0.0
  9
$UCSORGRIGHT
 10
0.0
 20
0.0
 30
0.0
  9
$UCSORGFRONT
 10
0.0
 20
0.0
 30
0.0
  9
$UCSORGBACK
 10
0.0
 20
0.0
 30
0.0
  9
$PUCSBASE
  2

  9
$PUCSNAME
  2

  9
$PUCSORG
 10
0.0
 20
0.0
 30
0.0
  9
$PUCSXDIR
 10
1.0
 20
0.0
 30
0.0
  9
$PUCSYDIR
 10
0.0
 20
1.0
 30
0.0
  9
$PUCSORTHOREF
  2

  9
$PUCSORTHOVIEW
 70
     0
  9
$PUCSORGTOP
 10
0.0
 20
0.0
 30
0.0
  9
$PUCSORGBOTTOM
 10
0.0
 20
0.0
 30
0.0
  9
$PUCSORGLEFT
 10
0.0
 20
0.0
 30
0.0
  9
$PUCSORGRIGHT
 10
0.0
 20
0.0
 30
0.0
  9
$PUCSORGFRONT
 10
0.0
 20
0.0
 30
0.0
  9
$PUCSORGBACK
 10
0.0
 20
0.0
 30
0.0
  9
$USERI1
 70
     0
  9
$USERI2
 70
     0
  9
$USERI3
 70
     0
  9
$USERI4
 70
     0
  9
$USERI5
 70
     0
  9
$USERR1
 40
0.0
  9
$USERR2
 40
0.0
  9
$USERR3
 40
0.0
  9
$USERR4
 40
0.0
  9
$USERR5
 40
0.0
  9
$WORLDVIEW
 70
     1
  9
$SHADEDGE
 70
     3
  9
$SHADEDIF
 70
    70
  9
$TILEMODE
 70
     1
  9
$MAXACTVP
 70
    64
  9
$PINSBASE
 10
0.0
 20
0.0
 30
0.0
  9
$PLIMCHECK
 70
     0
  9
$PEXTMIN
 10
0.0
 20
0.0
 30
0.0
  9
$PEXTMAX
 10
420.0
 20
297.0
 30
0.0
  9
$PLIMMIN
 10
0.0
 20
0.0
  9
$PLIMMAX
 10
420.0
 20
297.0
  9
$UNITMODE
 70
     0
  9
$VISRETAIN
 70
     1
  9
$PLINEGEN
 70
     0
  9
$PSLTSCALE
 70
     1
  9
$TREEDEPTH
 70
  3020
  9
$CMLSTYLE
  2
Standard
  9
$CMLJUST
 70
     0
  9
$CMLSCALE
 40
1.0
  9
$PROXYGRAPHICS
 70
     1
  9
$MEASUREMENT
 70
     1
  9
$CELWEIGHT
370
    -1
  9
$ENDCAPS
280
     0
  9
$JOINSTYLE
280
     0
  9
$LWDISPLAY
290
     0
  9
$INSUNITS
 70
     4
  9
$HYPERLINKBASE
  1

  9
$STYLESHEET
  1

  9
$XEDIT
290
     1
  9
$CEPSNTYPE
380
     0
  9
$PSTYLEMODE
290
     1
  9
$FINGERPRINTGUID
  2
{D46FF11C-3DA7-43F2-9E77-D806CB83FD7C}
  9
$VERSIONGUID
  2
{FAEB1C32-E019-11D5-929B-00C0DF256EC4}
  9
$EXTNAMES
290
     1
  9
$PSVPSCALE
 40
0.0
  9
$OLESTARTUP
290
     0
  9
$SORTENTS
280
   127
  9
$INDEXCTL
280
     0
  9
$HIDETEXT
280
     1
  9
$XCLIPFRAME
280
     2
  9
$HALOGAP
280
     0
  9
$OBSCOLOR
 70
   257
  9
$OBSLTYPE
280
     0
  9
$INTERSECTIONDISPLAY
280
     0
  9
$INTERSECTIONCOLOR
 70
   257
  9
$DIMASSOC
280
     1
  9
$PROJECTNAME
  1

  9
$CAMERADISPLAY
290
     0
  9
$LENSLENGTH
 40
50.0
  9
$CAMERAHEIGHT
 40
0.0
  9
$STEPSPERSEC
 40
2.0
  9
$STEPSIZE
 40
6.0
  9
$3DDWFPREC
 40
2.0
  9
$PSOLWIDTH
 40
0.25
  9
$PSOLHEIGHT
 40
4.0
  9
$LOFTANG1
 40
1.570796326794897
  9
$LOFTANG2
 40
1.570796326794897
  9
$LOFTMAG1
 40
0.0
  9
$LOFTMAG2
 40
0.0
  9
$LOFTPARAM
 70
     7
  9
$LOFTNORMALS
280
     1
  9
$LATITUDE
 40
37.795
  9
$LONGITUDE
 40
-122.394
  9
$NORTHDIRECTION
 40
0.0
  9
$TIMEZONE
 70
 -8000
  9
$LIGHTGLYPHDISPLAY
280
     1
  9
$TILEMODELIGHTSYNCH
280
     1
  9
$SOLIDHIST
280
     1
  9
$SHOWHIST
280
     1
  9
$DWFFRAME
280
     2
  9
$DGNFRAME
280
     2
  9
$REALWORLDSCALE
290
     1
  9
$INTERFERECOLOR
 62
   256
  9
$CSHADOW
280
     0
  9
$SHADOWPLANELOCATION
 40
0.0
  0
ENDSEC
  0
SECTION
  2
CLASSES
  0
CLASS
  1
ACDBDICTIONARYWDFLT
  2
AcDbDictionaryWithDefault
  3
ObjectDBX Classes
 90
        0
 91
        4
280
     0
281
     0
  0
CLASS
  1
VISUALSTYLE
  2
AcDbVisualStyle
  3
ObjectDBX Classes
 90
     4095
 91
        4
280
     0
281
     0
  0
CLASS
  1
MATERIAL
  2
AcDbMaterial
  3
ObjectDBX Classes
 90
     1153
 91
        4
280
     0
281
     0
  0
ENDSEC
  0
SECTION
  2
TABLES
  0
TABLE
  2
VPORT
  5
8
330
0
100
AcDbSymbolTable
 70
     1
  0
VPORT
  5
29
330
8
100
AcDbSymbolTableRecord
100
AcDbViewportTableRecord
  2
*Active
 70
     0
 10
0.0
 20
0.0
 11
1.0
 21
1.0
 12
10.42990654205607
 22
4.5
 13
0.0
 23
0.0
 14
0.5
 24
0.5
 15
0.5
 25
0.5
 16
0.0
 26
0.0
 36
1.0
 17
0.0
 27
0.0
 37
0.0
 40
9.0
 41
1.972972972850329
 42
50.0
 43
0.0
 44
0.0
 50
0.0
 51
0.0
 71
     0
 72
   100
 73
     1
 74
     3
 75
     0
 76
     0
 77
     0
 78
     0
281
     0
 65
     1
110
0.0
120
0.0
130
0.0
111
1.0
121
0.0
131
0.0
112
0.0
122
1.0
132
0.0
 79
     0
146
0.0
 60
     3
 61
     5
292
     1
282
     1
141
0.0
142
0.0
 63
   250
  0
ENDTAB
  0
TABLE
  2
LTYPE
  5
5
330
0
100
AcDbSymbolTable
 70
     9
  0
LTYPE
  5
14
330
5
100
AcDbSymbolTableRecord
100
AcDbLinetypeTableRecord
  2
ByBlock
 70
     0
  3

 72
    65
 73
     0
 40
0.0
  0
LTYPE
  5
15
330
5
100
AcDbSymbolTableRecord
100
AcDbLinetypeTableRecord
  2
ByLayer
 70
     0
  3

 72
    65
 73
     0
 40
0.0
  0
LTYPE
  5
16
330
5
100
AcDbSymbolTableRecord
100
AcDbLinetypeTableRecord
  2
Continuous
 70
     0
  3
Solid line
 72
    65
 73
     0
 40
0.0
  0
LTYPE
  5
8E
330
5
100
AcDbSymbolTableRecord
100
AcDbLinetypeTableRecord
  2
DOT
 70
     0
  3
DOT
 72
    65
 73
     2
 40
4.0
 49
6.0
 74
     0
 49
-2.0
 74
     0
  0
LTYPE
  5
8F
330
5
100
AcDbSymbolTableRecord
100
AcDbLinetypeTableRecord
  2
HIDDEN
 70
     0
  3
HIDDEN
 72
    65
 73
     2
 40
4.2
 49
8.4
 74
     0
 49
-4.2
 74
     0
  0
LTYPE
  5
90
330
5
100
AcDbSymbolTableRecord
100
AcDbLinetypeTableRecord
  2
DASHDOT
 70
     0
  3
DASHDOT
 72
    65
 73
     4
 40
14.5
 49
30.0
 74
     0
 49
-9.0
 74
     0
 49
2.5
 74
     0
 49
-9.0
 74
     0
  0
LTYPE
  5
91
330
5
100
AcDbSymbolTableRecord
100
AcDbLinetypeTableRecord
  2
PHANTOM
 70
     0
  3
PHANTOM
 72
    65
 73
     6
 40
12.0
 49
30.0
 74
     0
 49
-9.0
 74
     0
 49
2.5
 74
     0
 49
-5.0
 74
     0
 49
2.5
 74
     0
 49
-9.0
 74
     0
  0
LTYPE
  5
92
330
5
100
AcDbSymbolTableRecord
100
AcDbLinetypeTableRecord
  2
ACAD_ISO14W100
 70
     0
  3
ACAD_ISO14W100
 72
    65
 73
     8
 40
1.5
 49
12.0
 74
     0
 49
-3.0
 74
     0
 49
0.5
 74
     0
 49
-3.0
 74
     0
 49
0.5
 74
     0
 49
-3.0
 74
     0
 49
0.5
 74
     0
 49
-3.0
 74
     0
  0
LTYPE
  5
93
330
5
100
AcDbSymbolTableRecord
100
AcDbLinetypeTableRecord
  2
ACAD_ISO06W100
 70
     0
  3
ACAD_ISO06W100
 72
    65
 73
     8
 40
13.5
 49
24.0
 74
     0
 49
-3.0
 74
     0
 49
0.5
 74
     0
 49
-3.0
 74
     0
 49
0.5
 74
     0
 49
-3.0
 74
     0
 49
0.5
 74
     0
 49
-3.0
 74
     0
  0
LTYPE
  5
94
330
5
100
AcDbSymbolTableRecord
100
AcDbLinetypeTableRecord
  2
ACAD_ISO11W100
 70
     0
  3
ACAD_ISO11W100
 72
    65
 73
     6
 40
15.5
 49
12.0
 74
     0
 49
-3.0
 74
     0
 49
12.0
 74
     0
 49
-3.0
 74
     0
 49
0.5
 74
     0
 49
-3.0
 74
     0
  0
LTYPE
  5
95
330
5
100
AcDbSymbolTableRecord
100
AcDbLinetypeTableRecord
  2
ACAD_ISO13W100
 70
     0
  3
ACAD_ISO13W100
 72
    65
 73
     8
 40
13.0
 49
12.0
 74
     0
 49
-3.0
 74
     0
 49
12.0
 74
     0
 49
-3.0
 74
     0
 49
0.5
 74
     0
 49
-3.0
 74
     0
 49
0.5
 74
     0
 49
-3.0
 74
     0
  0
ENDTAB
  0
TABLE
  2
LAYER
  5
2
330
0
100
AcDbSymbolTable
 70
    30
  0
LAYER
  5
10
330
2
100
AcDbSymbolTableRecord
100
AcDbLayerTableRecord
  2
0
 70
     0
 62
     7
  6
Continuous
370
    -3
390
F
347
3E
  0
LAYER
  5
96
330
2
100
AcDbSymbolTableRecord
100
AcDbLayerTableRecord
  2
1
 70
     0
 62
     7
  6
Continuous
370
     9
390
F
347
3E
  0
LAYER
  5
97
330
2
100
AcDbSymbolTableRecord
100
AcDbLayerTableRecord
  2
2
 70
     0
 62
   134
  6
Continuous
370
     9
390
F
347
3E
  0
LAYER
  5
98
330
2
100
AcDbSymbolTableRecord
100
AcDbLayerTableRecord
  2
3
 70
     0
 62
   214
  6
Continuous
370
     9
390
F
347
3E
  0
LAYER
  5
99
330
2
100
AcDbSymbolTableRecord
100
AcDbLayerTableRecord
  2
4
 70
     0
 62
    54
  6
Continuous
370
     9
390
F
347
3E
  0
LAYER
  5
9A
330
2
100
AcDbSymbolTableRecord
100
AcDbLayerTableRecord
  2
5
 70
     0
 62
    94
  6
Continuous
370
     9
390
F
347
3E
  0
LAYER
  5
9B
330
2
100
AcDbSymbolTableRecord
100
AcDbLayerTableRecord
  2
6
 70
     0
 62
    14
  6
Continuous
370
     9
390
F
347
3E
  0
LAYER
  5
9C
330
2
100
AcDbSymbolTableRecord
100
AcDbLayerTableRecord
  2
7
 70
     0
 62
     4
  6
Continuous
370
     9
390
F
347
3E
  0
LAYER
  5
9D
330
2
100
AcDbSymbolTableRecord
100
AcDbLayerTableRecord
  2
8
 70
     0
 62
     6
  6
Continuous
370
     9
390
F
347
3E
  0
LAYER
  5
9E
330
2
100
AcDbSymbolTableRecord
100
AcDbLayerTableRecord
  2
9
 70
     0
 62
     2
  6
Continuous
370
     9
390
F
347
3E
  0
LAYER
  5
9F
330
2
100
AcDbSymbolTableRecord
100
AcDbLayerTableRecord
  2
10
 70
     0
 62
     3
  6
Continuous
370
     9
390
F
347
3E
  0
LAYER
  5
A0
330
2
100
AcDbSymbolTableRecord
100
AcDbLayerTableRecord
  2
11
 70
     0
 62
   251
  6
Continuous
370
     9
390
F
347
3E
  0
LAYER
  5
A1
330
2
100
AcDbSymbolTableRecord
100
AcDbLayerTableRecord
  2
12
 70
     0
 62
   136
  6
Continuous
370
     9
390
F
347
3E
  0
LAYER
  5
A2
330
2
100
AcDbSymbolTableRecord
100
AcDbLayerTableRecord
  2
13
 70
     0
 62
   216
  6
Continuous
370
     9
390
F
347
3E
  0
LAYER
  5
A3
330
2
100
AcDbSymbolTableRecord
100
AcDbLayerTableRecord
  2
14
 70
     0
 62
    56
  6
Continuous
370
     9
390
F
347
3E
  0
LAYER
  5
A4
330
2
100
AcDbSymbolTableRecord
100
AcDbLayerTableRecord
  2
15
 70
     0
 62
    96
  6
Continuous
370
     9
390
F
347
3E
  0
LAYER
  5
A5
330
2
100
AcDbSymbolTableRecord
100
AcDbLayerTableRecord
  2
16
 70
     0
 62
    16
  6
Continuous
370
     9
390
F
347
3E
  0
LAYER
  5
A6
330
2
100
AcDbSymbolTableRecord
100
AcDbLayerTableRecord
  2
17
 70
     0
 62
   132
  6
Continuous
370
     9
390
F
347
3E
  0
LAYER
  5
A7
330
2
100
AcDbSymbolTableRecord
100
AcDbLayerTableRecord
  2
18
 70
     0
 62
   212
  6
Continuous
370
     9
390
F
347
3E
  0
LAYER
  5
A8
330
2
100
AcDbSymbolTableRecord
100
AcDbLayerTableRecord
  2
19
 70
     0
 62
    52
  6
Continuous
370
     9
390
F
347
3E
  0
LAYER
  5
A9
330
2
100
AcDbSymbolTableRecord
100
AcDbLayerTableRecord
  2
20
 70
     0
 62
   250
  6
Continuous
370
     9
390
F
347
3E
  0
LAYER
  5
AA
330
2
100
AcDbSymbolTableRecord
100
AcDbLayerTableRecord
  2
21
 70
     0
 62
     7
  6
Continuous
370
     9
390
F
347
3E
  0
LAYER
  5
AB
330
2
100
AcDbSymbolTableRecord
100
AcDbLayerTableRecord
  2
22
 70
     0
 62
     7
  6
Continuous
370
     9
390
F
347
3E
  0
LAYER
  5
AC
330
2
100
AcDbSymbolTableRecord
100
AcDbLayerTableRecord
  2
23
 70
     0
 62
     5
  6
Continuous
370
     9
390
F
347
3E
  0
LAYER
  5
AD
330
2
100
AcDbSymbolTableRecord
100
AcDbLayerTableRecord
  2
24
 70
     0
 62
   104
  6
Continuous
370
     9
390
F
347
3E
  0
LAYER
  5
AE
330
2
100
AcDbSymbolTableRecord
100
AcDbLayerTableRecord
  2
25
 70
     0
 62
     7
  6
Continuous
370
     9
390
F
347
3E
  0
LAYER
  5
AF
330
2
100
AcDbSymbolTableRecord
100
AcDbLayerTableRecord
  2
26
 70
     0
 62
     1
  6
Continuous
370
     9
390
F
347
3E
  0
LAYER
  5
B0
330
2
100
AcDbSymbolTableRecord
100
AcDbLayerTableRecord
  2
27
 70
     0
 62
    12
  6
Continuous
370
     9
390
F
347
3E
  0
LAYER
  5
B1
330
2
100
AcDbSymbolTableRecord
100
AcDbLayerTableRecord
  2
28
 70
     0
 62
   104
  6
Continuous
370
     9
390
F
347
3E
  0
LAYER
  5
B2
330
2
100
AcDbSymbolTableRecord
100
AcDbLayerTableRecord
  2
29
 70
     0
 62
     1
  6
Continuous
370
     9
390
F
347
3E
  0
ENDTAB
  0
TABLE
  2
STYLE
  5
3
330
0
100
AcDbSymbolTable
 70
     3
  0
STYLE
  5
11
330
3
100
AcDbSymbolTableRecord
100
AcDbTextStyleTableRecord
  2
Standard
 70
     0
 40
0.0
 41
1.0
 50
0.0
 71
     0
 42
5.0
  3
txt
  4
bigfont
  0
STYLE
  5
41
330
3
100
AcDbSymbolTableRecord
100
AcDbTextStyleTableRecord
  2
T_STANDARD
 70
     4
 40
10.0
 41
1.0
 50
0.0
 71
     0
 42
10.0
  3
txt
  4
bigfont
  0
STYLE
  5
3B1
330
3
100
AcDbSymbolTableRecord
100
AcDbTextStyleTableRecord
  2
ＭＳ ゴシック
 70
     0
 40
0.0
 41
1.0
 50
0.0
 71
     0
 42
0.0
  3
MSGOTHIC.TTC
  4

  0
ENDTAB
  0
TABLE
  2
VIEW
  5
6
330
0
100
AcDbSymbolTable
 70
     0
  0
ENDTAB
  0
TABLE
  2
UCS
  5
7
330
0
100
AcDbSymbolTable
 70
     0
  0
ENDTAB
  0
TABLE
  2
APPID
  5
9
330
0
100
AcDbSymbolTable
 70
     2
  0
APPID
  5
12
330
9
100
AcDbSymbolTableRecord
100
AcDbRegAppTableRecord
  2
ACAD
 70
     0
  0
APPID
  5
40
330
9
100
AcDbSymbolTableRecord
100
AcDbRegAppTableRecord
  2
ODA
 70
     0
  0
ENDTAB
  0
TABLE
  2
DIMSTYLE
  5
A
330
0
100
AcDbSymbolTable
 70
     1
100
AcDbDimStyleTable
  0
DIMSTYLE
105
27
102
{ACAD_REACTORS
330
3BB
330
3C5
330
3CF
330
3D9
330
3EB
330
3F5
330
3FF
330
409
330
413
330
41D
330
427
330
431
330
43B
330
445
102
}
330
A
100
AcDbSymbolTableRecord
100
AcDbDimStyleTableRecord
  2
Standard
 70
     0
178
     0
340
11
  0
ENDTAB
  0
TABLE
  2
BLOCK_RECORD
  5
1
330
0
100
AcDbSymbolTable
 70
    31
  0
BLOCK_RECORD
  5
1F
330
1
100
AcDbSymbolTableRecord
100
AcDbBlockTableRecord
  2
*Model_Space
340
22
 70
     0
280
     1
281
     0
  0
BLOCK_RECORD
  5
1B
330
1
100
AcDbSymbolTableRecord
100
AcDbBlockTableRecord
  2
*Paper_Space
340
1E
 70
     0
280
     1
281
     0
  0
BLOCK_RECORD
  5
23
330
1
100
AcDbSymbolTableRecord
100
AcDbBlockTableRecord
  2
*Paper_Space0
340
26
 70
     0
280
     1
281
     0
  0
BLOCK_RECORD
  5
42
330
1
100
AcDbSymbolTableRecord
100
AcDbBlockTableRecord
  2
_ORIGIN
340
0
 70
     0
280
     1
281
     0
  0
BLOCK_RECORD
  5
47
330
1
100
AcDbSymbolTableRecord
100
AcDbBlockTableRecord
  2
_DOTBLANK
340
0
 70
     0
280
     1
281
     0
  0
BLOCK_RECORD
  5
4C
330
1
100
AcDbSymbolTableRecord
100
AcDbBlockTableRecord
  2
_DOT
340
0
 70
     0
280
     1
281
     0
  0
BLOCK_RECORD
  5
51
330
1
100
AcDbSymbolTableRecord
100
AcDbBlockTableRecord
  2
_OPEN
340
0
102
{BLKREFS
331
3B9
331
3BA
331
3C3
331
3C4
331
3CD
331
3CE
331
3D7
331
3D8
331
3E9
331
3EA
331
3F3
331
3F4
331
3FD
331
3FE
331
407
331
408
331
411
331
412
331
41B
331
41C
331
425
331
426
331
42F
331
430
331
439
331
43A
331
443
331
444
102
}
 70
     0
280
     1
281
     0
  0
BLOCK_RECORD
  5
57
330
1
100
AcDbSymbolTableRecord
100
AcDbBlockTableRecord
  2
_CLOSED
340
0
 70
     0
280
     1
281
     0
  0
BLOCK_RECORD
  5
5E
330
1
100
AcDbSymbolTableRecord
100
AcDbBlockTableRecord
  2
_CLOSEDBLANK
340
0
 70
     0
280
     1
281
     0
  0
BLOCK_RECORD
  5
64
330
1
100
AcDbSymbolTableRecord
100
AcDbBlockTableRecord
  2
_ARROWFILLED
340
0
 70
     0
280
     1
281
     0
  0
BLOCK_RECORD
  5
68
330
1
100
AcDbSymbolTableRecord
100
AcDbBlockTableRecord
  2
_BOXBLANK
340
0
 70
     0
280
     1
281
     0
  0
BLOCK_RECORD
  5
70
330
1
100
AcDbSymbolTableRecord
100
AcDbBlockTableRecord
  2
_BOXFILLED
340
0
 70
     0
280
     1
281
     0
  0
BLOCK_RECORD
  5
75
330
1
100
AcDbSymbolTableRecord
100
AcDbBlockTableRecord
  2
_INTEGRAL
340
0
 70
     0
280
     1
281
     0
  0
BLOCK_RECORD
  5
7A
330
1
100
AcDbSymbolTableRecord
100
AcDbBlockTableRecord
  2
_OBLIQUE
340
0
 70
     0
280
     1
281
     0
  0
BLOCK_RECORD
  5
7E
330
1
100
AcDbSymbolTableRecord
100
AcDbBlockTableRecord
  2
_NONE
340
0
 70
     0
280
     1
281
     0
  0
BLOCK_RECORD
  5
81
330
1
100
AcDbSymbolTableRecord
100
AcDbBlockTableRecord
  2
MARK_OPEN
340
0
102
{BLKREFS
331
390
331
396
331
39C
331
3A2
331
3A8
102
}
 70
     0
280
     1
281
     0
  0
BLOCK_RECORD
  5
86
330
1
100
AcDbSymbolTableRecord
100
AcDbBlockTableRecord
  2
MARK_ORIGIN
340
0
 70
     0
280
     1
281
     0
  0
BLOCK_RECORD
  5
8A
330
1
100
AcDbSymbolTableRecord
100
AcDbBlockTableRecord
  2
MARK_DOT
340
0
 70
     0
280
     1
281
     0
  0
BLOCK_RECORD
  5
3B2
330
1
100
AcDbSymbolTableRecord
100
AcDbBlockTableRecord
  2
Dim1
340
0
 70
     0
280
     1
281
     0
  0
BLOCK_RECORD
  5
3BC
330
1
100
AcDbSymbolTableRecord
100
AcDbBlockTableRecord
  2
Dim2
340
0
 70
     0
280
     1
281
     0
  0
BLOCK_RECORD
  5
3C6
330
1
100
AcDbSymbolTableRecord
100
AcDbBlockTableRecord
  2
Dim3
340
0
 70
     0
280
     1
281
     0
  0
BLOCK_RECORD
  5
3D0
330
1
100
AcDbSymbolTableRecord
100
AcDbBlockTableRecord
  2
Dim4
340
0
 70
     0
280
     1
281
     0
  0
BLOCK_RECORD
  5
3E4
330
1
100
AcDbSymbolTableRecord
100
AcDbBlockTableRecord
  2
Dim5
340
0
 70
     0
280
     1
281
     0
  0
BLOCK_RECORD
  5
3EC
330
1
100
AcDbSymbolTableRecord
100
AcDbBlockTableRecord
  2
Dim6
340
0
 70
     0
280
     1
281
     0
  0
BLOCK_RECORD
  5
3F6
330
1
100
AcDbSymbolTableRecord
100
AcDbBlockTableRecord
  2
Dim7
340
0
 70
     0
280
     1
281
     0
  0
BLOCK_RECORD
  5
400
330
1
100
AcDbSymbolTableRecord
100
AcDbBlockTableRecord
  2
Dim8
340
0
 70
     0
280
     1
281
     0
  0
BLOCK_RECORD
  5
40A
330
1
100
AcDbSymbolTableRecord
100
AcDbBlockTableRecord
  2
Dim9
340
0
 70
     0
280
     1
281
     0
  0
BLOCK_RECORD
  5
414
330
1
100
AcDbSymbolTableRecord
100
AcDbBlockTableRecord
  2
Dim10
340
0
 70
     0
280
     1
281
     0
  0
BLOCK_RECORD
  5
41E
330
1
100
AcDbSymbolTableRecord
100
AcDbBlockTableRecord
  2
Dim11
340
0
 70
     0
280
     1
281
     0
  0
BLOCK_RECORD
  5
428
330
1
100
AcDbSymbolTableRecord
100
AcDbBlockTableRecord
  2
Dim12
340
0
 70
     0
280
     1
281
     0
  0
BLOCK_RECORD
  5
432
330
1
100
AcDbSymbolTableRecord
100
AcDbBlockTableRecord
  2
Dim13
340
0
 70
     0
280
     1
281
     0
  0
BLOCK_RECORD
  5
43C
330
1
100
AcDbSymbolTableRecord
100
AcDbBlockTableRecord
  2
Dim14
340
0
 70
     0
280
     1
281
     0
  0
BLOCK_RECORD
  5
4BC
330
1
100
AcDbSymbolTableRecord
100
AcDbBlockTableRecord
  2
*G30
340
0
102
{BLKREFS
331
4C7
102
}
 70
     0
280
     1
281
     0
  0
ENDTAB
  0
ENDSEC
  0
SECTION
  2
BLOCKS
  0
BLOCK
  5
20
330
1F
100
AcDbEntity
  8
0
100
AcDbBlockBegin
  2
*Model_Space
 70
     0
 10
0.0
 20
0.0
 30
0.0
  3
*Model_Space
  1

  0
ENDBLK
  5
21
330
1F
100
AcDbEntity
  8
0
100
AcDbBlockEnd
  0
BLOCK
  5
1C
330
1B
100
AcDbEntity
 67
     1
  8
0
100
AcDbBlockBegin
  2
*Paper_Space
 70
     0
 10
0.0
 20
0.0
 30
0.0
  3
*Paper_Space
  1

  0
ENDBLK
  5
1D
330
1B
100
AcDbEntity
 67
     1
  8
0
100
AcDbBlockEnd
  0
BLOCK
  5
24
330
23
100
AcDbEntity
  8
0
100
AcDbBlockBegin
  2
*Paper_Space0
 70
     0
 10
0.0
 20
0.0
 30
0.0
  3
*Paper_Space0
  1

  0
ENDBLK
  5
25
330
23
100
AcDbEntity
  8
0
100
AcDbBlockEnd
  0
BLOCK
  5
45
330
42
100
AcDbEntity
  8
0
100
AcDbBlockBegin
  2
_ORIGIN
 70
     0
 10
0.0
 20
0.0
 30
0.0
  3
_ORIGIN
  1

  0
CIRCLE
  5
43
330
42
100
AcDbEntity
  8
0
100
AcDbCircle
 10
0.0
 20
0.0
 30
0.0
 40
0.5
  0
LINE
  5
44
330
42
100
AcDbEntity
  8
0
100
AcDbLine
 10
0.0
 20
0.0
 30
0.0
 11
-1.0
 21
0.0
 31
0.0
  0
ENDBLK
  5
46
330
42
100
AcDbEntity
  8
0
100
AcDbBlockEnd
  0
BLOCK
  5
4A
330
47
100
AcDbEntity
  8
0
100
AcDbBlockBegin
  2
_DOTBLANK
 70
     0
 10
0.0
 20
0.0
 30
0.0
  3
_DOTBLANK
  1

  0
CIRCLE
  5
48
330
47
100
AcDbEntity
  8
0
100
AcDbCircle
 10
0.0
 20
0.0
 30
0.0
 40
0.5
  0
LINE
  5
49
330
47
100
AcDbEntity
  8
0
100
AcDbLine
 10
-0.5
 20
0.0
 30
0.0
 11
-1.0
 21
0.0
 31
0.0
  0
ENDBLK
  5
4B
330
47
100
AcDbEntity
  8
0
100
AcDbBlockEnd
  0
BLOCK
  5
4F
330
4C
100
AcDbEntity
  8
0
100
AcDbBlockBegin
  2
_DOT
 70
     0
 10
0.0
 20
0.0
 30
0.0
  3
_DOT
  1

  0
LWPOLYLINE
  5
4D
330
4C
100
AcDbEntity
  8
0
100
AcDbPolyline
 90
        2
 70
     1
 43
0.5
 10
-0.25
 20
0.0
 42
1.0
 10
0.25
 20
0.0
 42
1.0
  0
LINE
  5
4E
330
4C
100
AcDbEntity
  8
0
100
AcDbLine
 10
-0.5
 20
0.0
 30
0.0
 11
-1.0
 21
0.0
 31
0.0
  0
ENDBLK
  5
50
330
4C
100
AcDbEntity
  8
0
100
AcDbBlockEnd
  0
BLOCK
  5
55
330
51
100
AcDbEntity
  8
0
100
AcDbBlockBegin
  2
_OPEN
 70
     0
 10
0.0
 20
0.0
 30
0.0
  3
_OPEN
  1

  0
LINE
  5
52
330
51
100
AcDbEntity
  8
0
100
AcDbLine
 10
0.0
 20
0.0
 30
0.0
 11
-1.0
 21
0.1666666666666667
 31
0.0
  0
LINE
  5
53
330
51
100
AcDbEntity
  8
0
100
AcDbLine
 10
0.0
 20
0.0
 30
0.0
 11
-1.0
 21
-0.1666666666666667
 31
0.0
  0
LINE
  5
54
330
51
100
AcDbEntity
  8
0
100
AcDbLine
 10
0.0
 20
0.0
 30
0.0
 11
-1.0
 21
0.0
 31
0.0
  0
ENDBLK
  5
56
330
51
100
AcDbEntity
  8
0
100
AcDbBlockEnd
  0
BLOCK
  5
5C
330
57
100
AcDbEntity
  8
0
100
AcDbBlockBegin
  2
_CLOSED
 70
     0
 10
0.0
 20
0.0
 30
0.0
  3
_CLOSED
  1

  0
LINE
  5
58
330
57
100
AcDbEntity
  8
0
100
AcDbLine
 10
0.0
 20
0.0
 30
0.0
 11
-1.0
 21
0.1666666666666667
 31
0.0
  0
LINE
  5
59
330
57
100
AcDbEntity
  8
0
100
AcDbLine
 10
0.0
 20
0.0
 30
0.0
 11
-1.0
 21
-0.1666666666666667
 31
0.0
  0
LINE
  5
5A
330
57
100
AcDbEntity
  8
0
100
AcDbLine
 10
-1.0
 20
0.1666666666666667
 30
0.0
 11
-1.0
 21
-0.1666666666666667
 31
0.0
  0
LINE
  5
5B
330
57
100
AcDbEntity
  8
0
100
AcDbLine
 10
0.0
 20
0.0
 30
0.0
 11
-1.0
 21
0.0
 31
0.0
  0
ENDBLK
  5
5D
330
57
100
AcDbEntity
  8
0
100
AcDbBlockEnd
  0
BLOCK
  5
62
330
5E
100
AcDbEntity
  8
0
100
AcDbBlockBegin
  2
_CLOSEDBLANK
 70
     0
 10
0.0
 20
0.0
 30
0.0
  3
_CLOSEDBLANK
  1

  0
LINE
  5
5F
330
5E
100
AcDbEntity
  8
0
100
AcDbLine
 10
0.0
 20
0.0
 30
0.0
 11
-1.0
 21
0.1666666666666667
 31
0.0
  0
LINE
  5
60
330
5E
100
AcDbEntity
  8
0
100
AcDbLine
 10
0.0
 20
0.0
 30
0.0
 11
-1.0
 21
-0.1666666666666667
 31
0.0
  0
LINE
  5
61
330
5E
100
AcDbEntity
  8
0
100
AcDbLine
 10
-1.0
 20
0.1666666666666667
 30
0.0
 11
-1.0
 21
-0.1666666666666667
 31
0.0
  0
ENDBLK
  5
63
330
5E
100
AcDbEntity
  8
0
100
AcDbBlockEnd
  0
BLOCK
  5
66
330
64
100
AcDbEntity
  8
0
100
AcDbBlockBegin
  2
_ARROWFILLED
 70
     0
 10
0.0
 20
0.0
 30
0.0
  3
_ARROWFILLED
  1

  0
SOLID
  5
65
330
64
100
AcDbEntity
  8
0
100
AcDbTrace
 10
0.0
 20
0.0
 30
0.0
 11
-1.0
 21
-0.1666666666666667
 31
0.0
 12
-1.0
 22
0.1666666666666667
 32
0.0
 13
0.0
 23
0.0
 33
0.0
  0
ENDBLK
  5
67
330
64
100
AcDbEntity
  8
0
100
AcDbBlockEnd
  0
BLOCK
  5
6E
330
68
100
AcDbEntity
  8
0
100
AcDbBlockBegin
  2
_BOXBLANK
 70
     0
 10
0.0
 20
0.0
 30
0.0
  3
_BOXBLANK
  1

  0
LINE
  5
69
330
68
100
AcDbEntity
  8
0
100
AcDbLine
 10
-0.5
 20
-0.5
 30
0.0
 11
0.5
 21
-0.5
 31
0.0
  0
LINE
  5
6A
330
68
100
AcDbEntity
  8
0
100
AcDbLine
 10
0.5
 20
-0.5
 30
0.0
 11
0.5
 21
0.5
 31
0.0
  0
LINE
  5
6B
330
68
100
AcDbEntity
  8
0
100
AcDbLine
 10
0.5
 20
0.5
 30
0.0
 11
-0.5
 21
0.5
 31
0.0
  0
LINE
  5
6C
330
68
100
AcDbEntity
  8
0
100
AcDbLine
 10
-0.5
 20
0.5
 30
0.0
 11
-0.5
 21
-0.5
 31
0.0
  0
LINE
  5
6D
330
68
100
AcDbEntity
  8
0
100
AcDbLine
 10
-0.5
 20
0.0
 30
0.0
 11
-1.0
 21
0.0
 31
0.0
  0
ENDBLK
  5
6F
330
68
100
AcDbEntity
  8
0
100
AcDbBlockEnd
  0
BLOCK
  5
73
330
70
100
AcDbEntity
  8
0
100
AcDbBlockBegin
  2
_BOXFILLED
 70
     0
 10
0.0
 20
0.0
 30
0.0
  3
_BOXFILLED
  1

  0
SOLID
  5
71
330
70
100
AcDbEntity
  8
0
100
AcDbTrace
 10
-0.5
 20
0.5
 30
0.0
 11
0.5
 21
0.5
 31
0.0
 12
-0.5
 22
-0.5
 32
0.0
 13
0.5
 23
-0.5
 33
0.0
  0
LINE
  5
72
330
70
100
AcDbEntity
  8
0
100
AcDbLine
 10
-0.5
 20
0.0
 30
0.0
 11
-1.0
 21
0.0
 31
0.0
  0
ENDBLK
  5
74
330
70
100
AcDbEntity
  8
0
100
AcDbBlockEnd
  0
BLOCK
  5
78
330
75
100
AcDbEntity
  8
0
100
AcDbBlockBegin
  2
_INTEGRAL
 70
     0
 10
0.0
 20
0.0
 30
0.0
  3
_INTEGRAL
  1

  0
ARC
  5
76
330
75
100
AcDbEntity
  8
0
100
AcDbCircle
 10
0.444888
 20
-0.0913346
 30
0.0
 40
0.4541666
100
AcDbArc
 50
101.9999999999999
 51
167.9999999999998
  0
ARC
  5
77
330
75
100
AcDbEntity
  8
0
100
AcDbCircle
 10
-0.444888
 20
0.0913346
 30
0.0
 40
0.4541666
100
AcDbArc
 50
281.9999999999997
 51
347.9999999999997
  0
ENDBLK
  5
79
330
75
100
AcDbEntity
  8
0
100
AcDbBlockEnd
  0
BLOCK
  5
7C
330
7A
100
AcDbEntity
  8
0
100
AcDbBlockBegin
  2
_OBLIQUE
 70
     0
 10
0.0
 20
0.0
 30
0.0
  3
_OBLIQUE
  1

  0
LINE
  5
7B
330
7A
100
AcDbEntity
  8
0
100
AcDbLine
 10
-0.5
 20
-0.5
 30
0.0
 11
0.5
 21
0.5
 31
0.0
  0
ENDBLK
  5
7D
330
7A
100
AcDbEntity
  8
0
100
AcDbBlockEnd
  0
BLOCK
  5
7F
330
7E
100
AcDbEntity
  8
0
100
AcDbBlockBegin
  2
_NONE
 70
     0
 10
0.0
 20
0.0
 30
0.0
  3
_NONE
  1

  0
ENDBLK
  5
80
330
7E
100
AcDbEntity
  8
0
100
AcDbBlockEnd
  0
BLOCK
  5
84
330
81
100
AcDbEntity
  8
0
100
AcDbBlockBegin
  2
MARK_OPEN
 70
     0
 10
0.0
 20
0.0
 30
0.0
  3
MARK_OPEN
  1

  0
LINE
  5
82
330
81
100
AcDbEntity
  8
0
100
AcDbLine
 10
0.0
 20
0.0
 30
0.0
 11
-1.0
 21
0.1666666666666667
 31
0.0
  0
LINE
  5
83
330
81
100
AcDbEntity
  8
0
100
AcDbLine
 10
0.0
 20
0.0
 30
0.0
 11
-1.0
 21
-0.1666666666666667
 31
0.0
  0
ENDBLK
  5
85
330
81
100
AcDbEntity
  8
0
100
AcDbBlockEnd
  0
BLOCK
  5
88
330
86
100
AcDbEntity
  8
0
100
AcDbBlockBegin
  2
MARK_ORIGIN
 70
     0
 10
0.0
 20
0.0
 30
0.0
  3
MARK_ORIGIN
  1

  0
CIRCLE
  5
87
330
86
100
AcDbEntity
  8
0
100
AcDbCircle
 10
0.0
 20
0.0
 30
0.0
 40
0.5
  0
ENDBLK
  5
89
330
86
100
AcDbEntity
  8
0
100
AcDbBlockEnd
  0
BLOCK
  5
8C
330
8A
100
AcDbEntity
  8
0
100
AcDbBlockBegin
  2
MARK_DOT
 70
     0
 10
0.0
 20
0.0
 30
0.0
  3
MARK_DOT
  1

  0
LWPOLYLINE
  5
8B
330
8A
100
AcDbEntity
  8
0
100
AcDbPolyline
 90
        2
 70
     1
 43
0.5
 10
-0.25
 20
0.0
 42
1.0
 10
0.25
 20
0.0
 42
1.0
  0
ENDBLK
  5
8D
330
8A
100
AcDbEntity
  8
0
100
AcDbBlockEnd
  0
BLOCK
  5
3B3
330
3B2
100
AcDbEntity
  8
0
100
AcDbBlockBegin
  2
Dim1
 70
     0
 10
0.0
 20
0.0
 30
0.0
  3
Dim1
  1

  0
LINE
  5
3B5
330
3B2
100
AcDbEntity
  8
25
  6
Continuous
 62
     7
370
     9
100
AcDbLine
 10
171.4225628887966
 20
47.31321888815419
 30
0.0
 11
189.617453362413
 21
47.31321888815425
 31
0.0
  0
LINE
  5
3B6
330
3B2
100
AcDbEntity
  8
25
  6
Continuous
 62
     7
370
     9
100
AcDbLine
 10
171.4225628887966
 20
65.3132188881542
 30
0.0
 11
189.617453362413
 21
65.31321888815425
 31
0.0
  0
LINE
  5
3B7
330
3B2
100
AcDbEntity
  8
25
  6
Continuous
 62
     7
370
     9
100
AcDbLine
 10
188.617453362413
 20
47.31321888815425
 30
0.0
 11
188.617453362413
 21
65.31321888815425
 31
0.0
  0
MTEXT
  5
3B8
330
3B2
100
AcDbEntity
  8
25
  6
Continuous
 62
     7
370
     9
100
AcDbMText
 10
188.117453362413
 20
56.4800858901356
 30
0.0
 40
2.0
 41
21.18
 46
2.0
 71
     8
 72
     1
  1
φ18
  7
ＭＳ ゴシック
 11
1.615544574432587E-15
 21
1.0
 31
0.0
 73
     1
 44
1.0
1001
ACAD
1000
ACAD_MTEXT_DEFINED_HEIGHT_BEGIN
1070
    46
1040
2.0
1000
ACAD_MTEXT_DEFINED_HEIGHT_END
  0
INSERT
  5
3B9
330
3B2
100
AcDbEntity
  8
25
  6
Continuous
 62
     7
370
     9
100
AcDbBlockReference
  2
_OPEN
 10
188.617453362413
 20
47.31321888815425
 30
0.0
 50
269.9999999999998
  0
INSERT
  5
3BA
330
3B2
100
AcDbEntity
  8
25
  6
Continuous
 62
     7
370
     9
100
AcDbBlockReference
  2
_OPEN
 10
188.617453362413
 20
65.31321888815425
 30
0.0
 50
89.99999999999991
  0
ENDBLK
  5
3B4
330
3B2
100
AcDbEntity
  8
0
100
AcDbBlockEnd
  0
BLOCK
  5
3BD
330
3BC
100
AcDbEntity
  8
0
100
AcDbBlockBegin
  2
Dim2
 70
     0
 10
0.0
 20
0.0
 30
0.0
  3
Dim2
  1

  0
LINE
  5
3BF
330
3BC
100
AcDbEntity
  8
25
  6
Continuous
 62
     7
370
     9
100
AcDbLine
 10
166.3939374655881
 20
40.31321888815417
 30
0.0
 11
194.207381419967
 21
40.31321888815396
 31
0.0
  0
LINE
  5
3C0
330
3BC
100
AcDbEntity
  8
25
  6
Continuous
 62
     7
370
     9
100
AcDbLine
 10
166.3939374655881
 20
72.31321888815417
 30
0.0
 11
194.207381419967
 21
72.31321888815398
 31
0.0
  0
LINE
  5
3C1
330
3BC
100
AcDbEntity
  8
25
  6
Continuous
 62
     7
370
     9
100
AcDbLine
 10
193.207381419967
 20
40.31321888815397
 30
0.0
 11
193.207381419967
 21
72.31321888815398
 31
0.0
  0
MTEXT
  5
3C2
330
3BC
100
AcDbEntity
  8
25
  6
Continuous
 62
     7
370
     9
100
AcDbMText
 10
192.707381419967
 20
56.4800858901356
 30
0.0
 40
2.0
 41
24.51
 46
2.0
 71
     8
 72
     1
  1
φ32
  7
ＭＳ ゴシック
 11
1.615544574432587E-15
 21
1.0
 31
0.0
 73
     1
 44
1.0
1001
ACAD
1000
ACAD_MTEXT_DEFINED_HEIGHT_BEGIN
1070
    46
1040
2.0
1000
ACAD_MTEXT_DEFINED_HEIGHT_END
  0
INSERT
  5
3C3
330
3BC
100
AcDbEntity
  8
25
  6
Continuous
 62
     7
370
     9
100
AcDbBlockReference
  2
_OPEN
 10
193.207381419967
 20
40.31321888815397
 30
0.0
 50
269.9999999999998
  0
INSERT
  5
3C4
330
3BC
100
AcDbEntity
  8
25
  6
Continuous
 62
     7
370
     9
100
AcDbBlockReference
  2
_OPEN
 10
193.207381419967
 20
72.31321888815398
 30
0.0
 50
89.99999999999991
  0
ENDBLK
  5
3BE
330
3BC
100
AcDbEntity
  8
0
100
AcDbBlockEnd
  0
BLOCK
  5
3C7
330
3C6
100
AcDbEntity
  8
0
100
AcDbBlockBegin
  2
Dim3
 70
     0
 10
0.0
 20
0.0
 30
0.0
  3
Dim3
  1

  0
LINE
  5
3C9
330
3C6
100
AcDbEntity
  8
25
  6
Continuous
 62
     7
370
     9
100
AcDbLine
 10
134.6939374655881
 20
40.31321888815419
 30
0.0
 11
123.7574576259422
 21
40.31321888815423
 31
0.0
  0
LINE
  5
3CA
330
3C6
100
AcDbEntity
  8
25
  6
Continuous
 62
     7
370
     9
100
AcDbLine
 10
134.6939374655881
 20
72.3132188881542
 30
0.0
 11
123.7574576259422
 21
72.31321888815422
 31
0.0
  0
LINE
  5
3CB
330
3C6
100
AcDbEntity
  8
25
  6
Continuous
 62
     7
370
     9
100
AcDbLine
 10
124.7574576259422
 20
40.31321888815422
 30
0.0
 11
124.7574576259422
 21
72.31321888815422
 31
0.0
  0
MTEXT
  5
3CC
330
3C6
100
AcDbEntity
  8
25
  6
Continuous
 62
     7
370
     9
100
AcDbMText
 10
124.2574576259422
 20
56.32181250884062
 30
0.0
 40
2.0
 41
24.51
 46
2.0
 71
     8
 72
     1
  1
φ32
  7
ＭＳ ゴシック
 11
1.615544574432587E-15
 21
1.0
 31
0.0
 73
     1
 44
1.0
1001
ACAD
1000
ACAD_MTEXT_DEFINED_HEIGHT_BEGIN
1070
    46
1040
2.0
1000
ACAD_MTEXT_DEFINED_HEIGHT_END
  0
INSERT
  5
3CD
330
3C6
100
AcDbEntity
  8
25
  6
Continuous
 62
     7
370
     9
100
AcDbBlockReference
  2
_OPEN
 10
124.7574576259422
 20
40.31321888815422
 30
0.0
 50
269.9999999999998
  0
INSERT
  5
3CE
330
3C6
100
AcDbEntity
  8
25
  6
Continuous
 62
     7
370
     9
100
AcDbBlockReference
  2
_OPEN
 10
124.7574576259422
 20
72.31321888815422
 30
0.0
 50
89.99999999999991
  0
ENDBLK
  5
3C8
330
3C6
100
AcDbEntity
  8
0
100
AcDbBlockEnd
  0
BLOCK
  5
3D1
330
3D0
100
AcDbEntity
  8
0
100
AcDbBlockBegin
  2
Dim4
 70
     0
 10
0.0
 20
0.0
 30
0.0
  3
Dim4
  1

  0
LINE
  5
3D3
330
3D0
100
AcDbEntity
  8
25
  6
Continuous
 62
     7
370
     9
100
AcDbLine
 10
135.1939374655881
 20
39.56321888815419
 30
0.0
 11
119.8678612894476
 21
39.56321888815423
 31
0.0
  0
LINE
  5
3D4
330
3D0
100
AcDbEntity
  8
25
  6
Continuous
 62
     7
370
     9
100
AcDbLine
 10
135.1939374655881
 20
73.0632188881542
 30
0.0
 11
119.8678612894476
 21
73.06321888815424
 31
0.0
  0
LINE
  5
3D5
330
3D0
100
AcDbEntity
  8
25
  6
Continuous
 62
     7
370
     9
100
AcDbLine
 10
120.8678612894476
 20
39.56321888815423
 30
0.0
 11
120.8678612894476
 21
73.06321888815424
 31
0.0
  0
MTEXT
  5
3D6
330
3D0
100
AcDbEntity
  8
25
  6
Continuous
 62
     7
370
     9
100
AcDbMText
 10
120.3678612894476
 20
56.16353912754565
 30
0.0
 40
2.0
 41
37.84
 46
2.0
 71
     8
 72
     1
  1
φ33.5
  7
ＭＳ ゴシック
 11
1.615544574432587E-15
 21
1.0
 31
0.0
 73
     1
 44
1.0
1001
ACAD
1000
ACAD_MTEXT_DEFINED_HEIGHT_BEGIN
1070
    46
1040
2.0
1000
ACAD_MTEXT_DEFINED_HEIGHT_END
  0
INSERT
  5
3D7
330
3D0
100
AcDbEntity
  8
25
  6
Continuous
 62
     7
370
     9
100
AcDbBlockReference
  2
_OPEN
 10
120.8678612894476
 20
39.56321888815423
 30
0.0
 50
269.9999999999998
  0
INSERT
  5
3D8
330
3D0
100
AcDbEntity
  8
25
  6
Continuous
 62
     7
370
     9
100
AcDbBlockReference
  2
_OPEN
 10
120.8678612894476
 20
73.06321888815424
 30
0.0
 50
89.99999999999991
  0
ENDBLK
  5
3D2
330
3D0
100
AcDbEntity
  8
0
100
AcDbBlockEnd
  0
BLOCK
  5
3E5
330
3E4
100
AcDbEntity
  8
0
100
AcDbBlockBegin
  2
Dim5
 70
     0
 10
0.0
 20
0.0
 30
0.0
  3
Dim5
  1

  0
LINE
  5
3E7
330
3E4
100
AcDbEntity
  8
25
  6
Continuous
 62
     7
370
     9
100
AcDbLine
 10
82.6021020636083
 20
46.64581074536028
 30
0.0
 11
95.8548934404299
 21
77.91209646800121
 31
0.0
  0
MTEXT
  5
3E8
330
3E4
100
AcDbEntity
  8
25
  6
Continuous
 62
     7
370
     9
100
AcDbMText
 10
93.83350863677164
 20
74.42440332273463
 30
0.0
 40
2.0
 41
21.07
 46
2.0
 71
     7
 72
     1
  1
φ21
  7
ＭＳ ゴシック
 11
0.3902580087384477
 21
0.920705537408949
 31
0.0
 73
     1
 44
1.0
1001
ACAD
1000
ACAD_MTEXT_DEFINED_HEIGHT_BEGIN
1070
    46
1040
2.0
1000
ACAD_MTEXT_DEFINED_HEIGHT_END
  0
INSERT
  5
3E9
330
3E4
100
AcDbEntity
  8
25
  6
Continuous
 62
     7
370
     9
100
AcDbBlockReference
  2
_OPEN
 10
82.6021020636083
 20
46.64581074536028
 30
0.0
 50
247.0294455912962
  0
INSERT
  5
3EA
330
3E4
100
AcDbEntity
  8
25
  6
Continuous
 62
     7
370
     9
100
AcDbBlockReference
  2
_OPEN
 10
90.79752024711566
 20
65.98062703094809
 30
0.0
 50
67.02944559129621
  0
ENDBLK
  5
3E6
330
3E4
100
AcDbEntity
  8
0
100
AcDbBlockEnd
  0
BLOCK
  5
3ED
330
3EC
100
AcDbEntity
  8
0
100
AcDbBlockBegin
  2
Dim6
 70
     0
 10
0.0
 20
0.0
 30
0.0
  3
Dim6
  1

  0
LINE
  5
3EF
330
3EC
100
AcDbEntity
  8
25
  6
Continuous
 62
     7
370
     9
100
AcDbLine
 10
168.6939374655882
 20
42.11321888815417
 30
0.0
 11
168.693937465589
 21
30.50696140013332
 31
0.0
  0
LINE
  5
3F0
330
3EC
100
AcDbEntity
  8
25
  6
Continuous
 62
     7
370
     9
100
AcDbLine
 10
164.6939374655882
 20
38.61321888815417
 30
0.0
 11
164.693937465589
 21
30.50696140013326
 31
0.0
  0
LINE
  5
3F1
330
3EC
100
AcDbEntity
  8
25
  6
Continuous
 62
     7
370
     9
100
AcDbLine
 10
168.6939374655889
 20
31.50696140013332
 30
0.0
 11
164.6939374655889
 21
31.50696140013326
 31
0.0
  0
MTEXT
  5
3F2
330
3EC
100
AcDbEntity
  8
25
  6
Continuous
 62
     7
370
     9
100
AcDbMText
 10
166.6939374655881
 20
32.00696140013329
 30
0.0
 40
2.0
 41
6.89
 46
2.0
 71
     8
 72
     1
  1
4
  7
ＭＳ ゴシック
 73
     1
 44
1.0
1001
ACAD
1000
ACAD_MTEXT_DEFINED_HEIGHT_BEGIN
1070
    46
1040
2.0
1000
ACAD_MTEXT_DEFINED_HEIGHT_END
  0
INSERT
  5
3F3
330
3EC
100
AcDbEntity
  8
25
  6
Continuous
 62
     7
370
     9
100
AcDbBlockReference
  2
_OPEN
 10
168.6939374655889
 20
31.50696140013332
 30
0.0
 50
0.0000000000006361
  0
INSERT
  5
3F4
330
3EC
100
AcDbEntity
  8
25
  6
Continuous
 62
     7
370
     9
100
AcDbBlockReference
  2
_OPEN
 10
164.6939374655889
 20
31.50696140013326
 30
0.0
 50
180.0000000000006
  0
ENDBLK
  5
3EE
330
3EC
100
AcDbEntity
  8
0
100
AcDbBlockEnd
  0
BLOCK
  5
3F7
330
3F6
100
AcDbEntity
  8
0
100
AcDbBlockBegin
  2
Dim7
 70
     0
 10
0.0
 20
0.0
 30
0.0
  3
Dim7
  1

  0
LINE
  5
3F9
330
3F6
100
AcDbEntity
  8
25
  6
Continuous
 62
     7
370
     9
100
AcDbLine
 10
161.3939374655882
 20
37.86321888815417
 30
0.0
 11
161.3939374655889
 21
30.50696140013326
 31
0.0
  0
LINE
  5
3FA
330
3F6
100
AcDbEntity
  8
25
  6
Continuous
 62
     7
370
     9
100
AcDbLine
 10
155.1939374655883
 20
37.86321888815417
 30
0.0
 11
155.193937465589
 21
30.50696140013326
 31
0.0
  0
LINE
  5
3FB
330
3F6
100
AcDbEntity
  8
25
  6
Continuous
 62
     7
370
     9
100
AcDbLine
 10
161.3939374655889
 20
31.50696140013326
 30
0.0
 11
155.1939374655889
 21
31.50696140013326
 31
0.0
  0
MTEXT
  5
3FC
330
3F6
100
AcDbEntity
  8
25
  6
Continuous
 62
     7
370
     9
100
AcDbMText
 10
158.2939374655881
 20
32.00696140013326
 30
0.0
 40
2.0
 41
20.21
 46
2.0
 71
     8
 72
     1
  1
6.2
  7
ＭＳ ゴシック
 73
     1
 44
1.0
1001
ACAD
1000
ACAD_MTEXT_DEFINED_HEIGHT_BEGIN
1070
    46
1040
2.0
1000
ACAD_MTEXT_DEFINED_HEIGHT_END
  0
INSERT
  5
3FD
330
3F6
100
AcDbEntity
  8
25
  6
Continuous
 62
     7
370
     9
100
AcDbBlockReference
  2
_OPEN
 10
161.3939374655889
 20
31.50696140013326
 30
0.0
 50
359.9999999999997
  0
INSERT
  5
3FE
330
3F6
100
AcDbEntity
  8
25
  6
Continuous
 62
     7
370
     9
100
AcDbBlockReference
  2
_OPEN
 10
155.1939374655889
 20
31.50696140013326
 30
0.0
 50
179.9999999999998
  0
ENDBLK
  5
3F8
330
3F6
100
AcDbEntity
  8
0
100
AcDbBlockEnd
  0
BLOCK
  5
401
330
400
100
AcDbEntity
  8
0
100
AcDbBlockBegin
  2
Dim8
 70
     0
 10
0.0
 20
0.0
 30
0.0
  3
Dim8
  1

  0
LINE
  5
403
330
400
100
AcDbEntity
  8
25
  6
Continuous
 62
     7
370
     9
100
AcDbLine
 10
182.2199374655881
 20
54.31321888815418
 30
0.0
 11
182.219937465588
 21
24.3125440426092
 31
0.0
  0
LINE
  5
404
330
400
100
AcDbEntity
  8
25
  6
Continuous
 62
     7
370
     9
100
AcDbLine
 10
164.6939374655884
 20
28.88196140013332
 30
0.0
 11
164.693937465589
 21
24.3125440426092
 31
0.0
  0
LINE
  5
405
330
400
100
AcDbEntity
  8
25
  6
Continuous
 62
     7
370
     9
100
AcDbLine
 10
182.219937465588
 20
25.3125440426092
 30
0.0
 11
164.6939374655889
 21
25.3125440426092
 31
0.0
  0
MTEXT
  5
406
330
400
100
AcDbEntity
  8
25
  6
Continuous
 62
     7
370
     9
100
AcDbMText
 10
173.4569374655881
 20
25.8125440426092
 30
0.0
 40
2.0
 41
46.85000000000001
 46
2.0
 71
     8
 72
     1
  1
17.526
  7
ＭＳ ゴシック
 73
     1
 44
1.0
1001
ACAD
1000
ACAD_MTEXT_DEFINED_HEIGHT_BEGIN
1070
    46
1040
2.0
1000
ACAD_MTEXT_DEFINED_HEIGHT_END
  0
INSERT
  5
407
330
400
100
AcDbEntity
  8
25
  6
Continuous
 62
     7
370
     9
100
AcDbBlockReference
  2
_OPEN
 10
182.219937465588
 20
25.3125440426092
 30
0.0
 50
359.9999999999997
  0
INSERT
  5
408
330
400
100
AcDbEntity
  8
25
  6
Continuous
 62
     7
370
     9
100
AcDbBlockReference
  2
_OPEN
 10
164.6939374655889
 20
25.3125440426092
 30
0.0
 50
179.9999999999998
  0
ENDBLK
  5
402
330
400
100
AcDbEntity
  8
0
100
AcDbBlockEnd
  0
BLOCK
  5
40B
330
40A
100
AcDbEntity
  8
0
100
AcDbBlockBegin
  2
Dim9
 70
     0
 10
0.0
 20
0.0
 30
0.0
  3
Dim9
  1

  0
LINE
  5
40D
330
40A
100
AcDbEntity
  8
25
  6
Continuous
 62
     7
370
     9
100
AcDbLine
 10
143.1939374655883
 20
37.86321888815417
 30
0.0
 11
143.193937465589
 21
30.50696140013326
 31
0.0
  0
LINE
  5
40E
330
40A
100
AcDbEntity
  8
25
  6
Continuous
 62
     7
370
     9
100
AcDbLine
 10
136.8939374655883
 20
37.86321888815417
 30
0.0
 11
136.893937465589
 21
30.50696140013332
 31
0.0
  0
LINE
  5
40F
330
40A
100
AcDbEntity
  8
25
  6
Continuous
 62
     7
370
     9
100
AcDbLine
 10
143.1939374655889
 20
31.50696140013326
 30
0.0
 11
136.8939374655889
 21
31.50696140013332
 31
0.0
  0
MTEXT
  5
410
330
40A
100
AcDbEntity
  8
25
  6
Continuous
 62
     7
370
     9
100
AcDbMText
 10
140.0439374655881
 20
32.00696140013329
 30
0.0
 40
2.0
 41
20.21
 46
2.0
 71
     8
 72
     1
  1
6.3
  7
ＭＳ ゴシック
 73
     1
 44
1.0
1001
ACAD
1000
ACAD_MTEXT_DEFINED_HEIGHT_BEGIN
1070
    46
1040
2.0
1000
ACAD_MTEXT_DEFINED_HEIGHT_END
  0
INSERT
  5
411
330
40A
100
AcDbEntity
  8
25
  6
Continuous
 62
     7
370
     9
100
AcDbBlockReference
  2
_OPEN
 10
143.1939374655889
 20
31.50696140013326
 30
0.0
 50
359.9999999999993
  0
INSERT
  5
412
330
40A
100
AcDbEntity
  8
25
  6
Continuous
 62
     7
370
     9
100
AcDbBlockReference
  2
_OPEN
 10
136.8939374655889
 20
31.50696140013332
 30
0.0
 50
179.9999999999993
  0
ENDBLK
  5
40C
330
40A
100
AcDbEntity
  8
0
100
AcDbBlockEnd
  0
BLOCK
  5
415
330
414
100
AcDbEntity
  8
0
100
AcDbBlockBegin
  2
Dim10
 70
     0
 10
0.0
 20
0.0
 30
0.0
  3
Dim10
  1

  0
LINE
  5
417
330
414
100
AcDbEntity
  8
25
  6
Continuous
 62
     7
370
     9
100
AcDbLine
 10
164.6939374655884
 20
28.88196140013332
 30
0.0
 11
164.693937465589
 21
24.3125440426092
 31
0.0
  0
LINE
  5
418
330
414
100
AcDbEntity
  8
25
  6
Continuous
 62
     7
370
     9
100
AcDbLine
 10
136.4939374655883
 20
28.88196140013332
 30
0.0
 11
136.493937465589
 21
24.31254404260915
 31
0.0
  0
LINE
  5
419
330
414
100
AcDbEntity
  8
25
  6
Continuous
 62
     7
370
     9
100
AcDbLine
 10
164.6939374655889
 20
25.3125440426092
 30
0.0
 11
136.4939374655889
 21
25.31254404260915
 31
0.0
  0
MTEXT
  5
41A
330
414
100
AcDbEntity
  8
25
  6
Continuous
 62
     7
370
     9
100
AcDbMText
 10
150.5939374655881
 20
25.81254404260918
 30
0.0
 40
2.0
 41
30.21
 46
2.0
 71
     8
 72
     1
  1
28.2
  7
ＭＳ ゴシック
 73
     1
 44
1.0
1001
ACAD
1000
ACAD_MTEXT_DEFINED_HEIGHT_BEGIN
1070
    46
1040
2.0
1000
ACAD_MTEXT_DEFINED_HEIGHT_END
  0
INSERT
  5
41B
330
414
100
AcDbEntity
  8
25
  6
Continuous
 62
     7
370
     9
100
AcDbBlockReference
  2
_OPEN
 10
164.6939374655889
 20
25.3125440426092
 30
0.0
 50
359.9999999999999
  0
INSERT
  5
41C
330
414
100
AcDbEntity
  8
25
  6
Continuous
 62
     7
370
     9
100
AcDbBlockReference
  2
_OPEN
 10
136.4939374655889
 20
25.31254404260915
 30
0.0
 50
179.9999999999999
  0
ENDBLK
  5
416
330
414
100
AcDbEntity
  8
0
100
AcDbBlockEnd
  0
BLOCK
  5
41F
330
41E
100
AcDbEntity
  8
0
100
AcDbBlockBegin
  2
Dim11
 70
     0
 10
0.0
 20
0.0
 30
0.0
  3
Dim11
  1

  0
LINE
  5
421
330
41E
100
AcDbEntity
  8
25
  6
Continuous
 62
     7
370
     9
100
AcDbLine
 10
155.1939374655883
 20
37.86321888815417
 30
0.0
 11
155.193937465589
 21
30.50696140013326
 31
0.0
  0
LINE
  5
422
330
41E
100
AcDbEntity
  8
25
  6
Continuous
 62
     7
370
     9
100
AcDbLine
 10
143.1939374655883
 20
37.86321888815417
 30
0.0
 11
143.193937465589
 21
30.50696140013326
 31
0.0
  0
LINE
  5
423
330
41E
100
AcDbEntity
  8
25
  6
Continuous
 62
     7
370
     9
100
AcDbLine
 10
155.1939374655889
 20
31.50696140013326
 30
0.0
 11
143.1939374655889
 21
31.50696140013326
 31
0.0
  0
MTEXT
  5
424
330
41E
100
AcDbEntity
  8
25
  6
Continuous
 62
     7
370
     9
100
AcDbMText
 10
149.1939374655881
 20
32.00696140013326
 30
0.0
 40
2.0
 41
13.52
 46
2.0
 71
     8
 72
     1
  1
12
  7
ＭＳ ゴシック
 73
     1
 44
1.0
1001
ACAD
1000
ACAD_MTEXT_DEFINED_HEIGHT_BEGIN
1070
    46
1040
2.0
1000
ACAD_MTEXT_DEFINED_HEIGHT_END
  0
INSERT
  5
425
330
41E
100
AcDbEntity
  8
25
  6
Continuous
 62
     7
370
     9
100
AcDbBlockReference
  2
_OPEN
 10
155.1939374655889
 20
31.50696140013326
 30
0.0
 50
359.9999999999997
  0
INSERT
  5
426
330
41E
100
AcDbEntity
  8
25
  6
Continuous
 62
     7
370
     9
100
AcDbBlockReference
  2
_OPEN
 10
143.1939374655889
 20
31.50696140013326
 30
0.0
 50
179.9999999999998
  0
ENDBLK
  5
420
330
41E
100
AcDbEntity
  8
0
100
AcDbBlockEnd
  0
BLOCK
  5
429
330
428
100
AcDbEntity
  8
0
100
AcDbBlockBegin
  2
Dim12
 70
     0
 10
0.0
 20
0.0
 30
0.0
  3
Dim12
  1

  0
LINE
  5
42B
330
428
100
AcDbEntity
  8
25
  6
Continuous
 62
     7
370
     9
100
AcDbLine
 10
169.6225628887968
 20
45.5132188881542
 30
0.0
 11
169.6225628887974
 21
30.50696140013332
 31
0.0
  0
LINE
  5
42C
330
428
100
AcDbEntity
  8
25
  6
Continuous
 62
     7
370
     9
100
AcDbLine
 10
168.6939374655882
 20
42.11321888815417
 30
0.0
 11
168.6939374655887
 21
30.50696140013332
 31
0.0
  0
LINE
  5
42D
330
428
100
AcDbEntity
  8
25
  6
Continuous
 62
     7
370
     9
100
AcDbLine
 10
177.6225628887974
 20
31.50696140013329
 30
0.0
 11
160.6939374655886
 21
31.50696140013335
 31
0.0
  0
MTEXT
  5
42E
330
428
100
AcDbEntity
  8
25
  6
Continuous
 62
     7
370
     9
100
AcDbMText
 10
171.7006806077772
 20
32.00696140013331
 30
0.0
 40
2.0
 41
31.89
 46
2.0
 71
     7
 72
     1
  1
(0.8)
  7
ＭＳ ゴシック
 73
     1
 44
1.0
1001
ACAD
1000
ACAD_MTEXT_DEFINED_HEIGHT_BEGIN
1070
    46
1040
2.0
1000
ACAD_MTEXT_DEFINED_HEIGHT_END
  0
INSERT
  5
42F
330
428
100
AcDbEntity
  8
25
  6
Continuous
 62
     7
370
     9
100
AcDbBlockReference
  2
_OPEN
 10
169.6225628887974
 20
31.50696140013332
 30
0.0
 50
179.9999999999994
  0
INSERT
  5
430
330
428
100
AcDbEntity
  8
25
  6
Continuous
 62
     7
370
     9
100
AcDbBlockReference
  2
_OPEN
 10
168.6939374655886
 20
31.50696140013332
 30
0.0
 50
359.9999999999994
  0
ENDBLK
  5
42A
330
428
100
AcDbEntity
  8
0
100
AcDbBlockEnd
  0
BLOCK
  5
433
330
432
100
AcDbEntity
  8
0
100
AcDbBlockBegin
  2
Dim13
 70
     0
 10
0.0
 20
0.0
 30
0.0
  3
Dim13
  1

  0
LINE
  5
435
330
432
100
AcDbEntity
  8
25
  6
Continuous
 62
     7
370
     9
100
AcDbLine
 10
164.6939374655882
 20
38.61321888815417
 30
0.0
 11
164.6939374655889
 21
30.50696140013329
 31
0.0
  0
LINE
  5
436
330
432
100
AcDbEntity
  8
25
  6
Continuous
 62
     7
370
     9
100
AcDbLine
 10
161.3939374655882
 20
37.86321888815417
 30
0.0
 11
161.3939374655888
 21
30.5069614001333
 31
0.0
  0
LINE
  5
437
330
432
100
AcDbEntity
  8
25
  6
Continuous
 62
     7
370
     9
100
AcDbLine
 10
164.6939374655888
 20
31.50696140013329
 30
0.0
 11
161.3939374655887
 21
31.5069614001333
 31
0.0
  0
MTEXT
  5
438
330
432
100
AcDbEntity
  8
25
  6
Continuous
 62
     7
370
     9
100
AcDbMText
 10
163.0411407499515
 20
32.00696140013329
 30
0.0
 40
2.0
 41
20.18
 46
2.0
 71
     8
 72
     1
  1
3.3
  7
ＭＳ ゴシック
 73
     1
 44
1.0
1001
ACAD
1000
ACAD_MTEXT_DEFINED_HEIGHT_BEGIN
1070
    46
1040
2.0
1000
ACAD_MTEXT_DEFINED_HEIGHT_END
  0
INSERT
  5
439
330
432
100
AcDbEntity
  8
25
  6
Continuous
 62
     7
370
     9
100
AcDbBlockReference
  2
_OPEN
 10
164.6939374655888
 20
31.50696140013329
 30
0.0
 50
359.9999999999996
  0
INSERT
  5
43A
330
432
100
AcDbEntity
  8
25
  6
Continuous
 62
     7
370
     9
100
AcDbBlockReference
  2
_OPEN
 10
161.3939374655887
 20
31.5069614001333
 30
0.0
 50
179.9999999999996
  0
ENDBLK
  5
434
330
432
100
AcDbEntity
  8
0
100
AcDbBlockEnd
  0
BLOCK
  5
43D
330
43C
100
AcDbEntity
  8
0
100
AcDbBlockBegin
  2
Dim14
 70
     0
 10
0.0
 20
0.0
 30
0.0
  3
Dim14
  1

  0
LINE
  5
43F
330
43C
100
AcDbEntity
  8
25
  6
Continuous
 62
     7
370
     9
100
AcDbLine
 10
136.8939374655883
 20
37.86321888815417
 30
0.0
 11
136.8939374655889
 21
30.50696140013336
 31
0.0
  0
LINE
  5
440
330
43C
100
AcDbEntity
  8
25
  6
Continuous
 62
     7
370
     9
100
AcDbLine
 10
136.4939374655883
 20
38.5132188881542
 30
0.0
 11
136.493937465589
 21
30.5069614001334
 31
0.0
  0
LINE
  5
441
330
43C
100
AcDbEntity
  8
25
  6
Continuous
 62
     7
370
     9
100
AcDbLine
 10
144.8939374655889
 20
31.50696140013258
 30
0.0
 11
128.4939374655889
 21
31.50696140013418
 31
0.0
  0
MTEXT
  5
442
330
43C
100
AcDbEntity
  8
25
  6
Continuous
 62
     7
370
     9
100
AcDbMText
 10
135.6622816972759
 20
32.11883764593257
 30
0.0
 40
2.0
 41
31.89
 46
2.0
 71
     9
 72
     1
  1
(0.4)
  7
ＭＳ ゴシック
 73
     1
 44
1.0
1001
ACAD
1000
ACAD_MTEXT_DEFINED_HEIGHT_BEGIN
1070
    46
1040
2.0
1000
ACAD_MTEXT_DEFINED_HEIGHT_END
  0
INSERT
  5
443
330
43C
100
AcDbEntity
  8
25
  6
Continuous
 62
     7
370
     9
100
AcDbBlockReference
  2
_OPEN
 10
136.8939374655889
 20
31.50696140013336
 30
0.0
 50
179.999999999994
  0
INSERT
  5
444
330
43C
100
AcDbEntity
  8
25
  6
Continuous
 62
     7
370
     9
100
AcDbBlockReference
  2
_OPEN
 10
136.4939374655889
 20
31.5069614001334
 30
0.0
 50
359.999999999994
  0
ENDBLK
  5
43E
330
43C
100
AcDbEntity
  8
0
100
AcDbBlockEnd
  0
BLOCK
  5
4BD
330
4BC
100
AcDbEntity
  8
0
100
AcDbBlockBegin
  2
*G30
 70
     1
 10
0.0
 20
0.0
 30
0.0
  3
*G30
  1

  0
LINE
  5
4BF
330
4BC
100
AcDbEntity
  8
1
  6
Continuous
 62
     7
370
     9
100
AcDbLine
 10
142.7116721255886
 20
73.05963320459507
 30
0.0
 11
142.7152578091477
 21
73.06321888815418
 31
0.0
  0
LINE
  5
4C0
330
4BC
100
AcDbEntity
  8
1
  6
Continuous
 62
     7
370
     9
100
AcDbLine
 10
141.9903753621156
 20
73.04544322230862
 30
0.0
 11
142.0081510279612
 21
73.06321888815418
 31
0.0
  0
LINE
  5
4C1
330
4BC
100
AcDbEntity
  8
1
  6
Continuous
 62
     7
370
     9
100
AcDbLine
 10
141.2690785986426
 20
73.03125324002217
 30
0.0
 11
141.3010442467746
 21
73.06321888815418
 31
0.0
  0
LINE
  5
4C2
330
4BC
100
AcDbEntity
  8
1
  6
Continuous
 62
     7
370
     9
100
AcDbLine
 10
138.7939374655881
 20
71.26321888815417
 30
0.0
 11
140.5939374655881
 21
73.06321888815418
 31
0.0
  0
LINE
  5
4C3
330
4BC
100
AcDbEntity
  8
1
  6
Continuous
 62
     7
370
     9
100
AcDbLine
 10
138.0868306844015
 20
71.26321888815417
 30
0.0
 11
139.8868306844015
 21
73.06321888815418
 31
0.0
  0
LINE
  5
4C4
330
4BC
100
AcDbEntity
  8
1
  6
Continuous
 62
     7
370
     9
100
AcDbLine
 10
137.379723903215
 20
71.26321888815417
 30
0.0
 11
139.179723903215
 21
73.06321888815418
 31
0.0
  0
LINE
  5
4C5
330
4BC
100
AcDbEntity
  8
1
  6
Continuous
 62
     7
370
     9
100
AcDbLine
 10
136.7332772938082
 20
71.32387905993399
 30
0.0
 11
138.4726171220284
 21
73.06321888815418
 31
0.0
  0
LINE
  5
4C6
330
4BC
100
AcDbEntity
  8
1
  6
Continuous
 62
     7
370
     9
100
AcDbLine
 10
136.4939374655881
 20
71.79164601290037
 30
0.0
 11
137.7655103408419
 21
73.06321888815418
 31
0.0
  0
ENDBLK
  5
4BE
330
4BC
100
AcDbEntity
  8
0
100
AcDbBlockEnd
  0
ENDSEC
  0
SECTION
  2
ENTITIES
  0
LINE
  5
B3
330
1F
100
AcDbEntity
  8
25
  6
DASHDOT
 62
     7
370
     9
100
AcDbLine
 10
159.3939374655881
 20
58.62149135505695
 30
0.0
 11
159.3939374655881
 21
54.00824241384288
 31
0.0
  0
LINE
  5
B4
330
1F
100
AcDbEntity
  8
25
  6
DASHDOT
 62
     7
370
     9
100
AcDbLine
 10
149.3939374655879
 20
69.5772514423868
 30
0.0
 11
149.3939374655879
 21
71.80122973956503
 31
0.0
  0
LINE
  5
B5
330
1F
100
AcDbEntity
  8
25
  6
DASHDOT
 62
     7
370
     9
100
AcDbLine
 10
147.9555874850202
 20
70.68924059097594
 30
0.0
 11
150.8322874461556
 21
70.68924059097594
 31
0.0
  0
LINE
  5
B6
330
1F
100
AcDbEntity
  8
25
  6
DASHDOT
 62
     7
370
     9
100
AcDbLine
 10
141.793937465588
 20
71.8464013705933
 30
0.0
 11
141.793937465588
 21
69.77182303726335
 31
0.0
  0
LINE
  5
B7
330
1F
100
AcDbEntity
  8
25
  6
DASHDOT
 62
     7
370
     9
100
AcDbLine
 10
142.9192631125672
 20
70.81914470769516
 30
0.0
 11
140.6845041571416
 21
70.81914470769516
 31
0.0
  0
LINE
  5
B8
330
1F
100
AcDbEntity
  8
25
  6
DASHDOT
 62
     7
370
     9
100
AcDbLine
 10
141.793937465588
 20
40.78003640571507
 30
0.0
 11
141.793937465588
 21
42.85461473904502
 31
0.0
  0
LINE
  5
B9
330
1F
100
AcDbEntity
  8
25
  6
DASHDOT
 62
     7
370
     9
100
AcDbLine
 10
142.9192631125672
 20
41.80729306861321
 30
0.0
 11
140.6845041571416
 21
41.80729306861321
 31
0.0
  0
LINE
  5
BA
330
1F
100
AcDbEntity
  8
25
  6
DASHDOT
 62
     7
370
     9
100
AcDbLine
 10
86.69981115536197
 20
36.62540345965346
 30
0.0
 11
86.69981115536197
 21
75.74488978122224
 31
0.0
  0
LINE
  5
BB
330
1F
100
AcDbEntity
  8
25
  6
DASHDOT
 62
     7
370
     9
100
AcDbLine
 10
182.2199374655881
 20
56.31321888815418
 30
0.0
 11
133.376298009989
 21
56.31321888815418
 31
0.0
  0
LINE
  5
BC
330
1F
100
AcDbEntity
  8
25
  6
DASHDOT
 62
     7
370
     9
100
AcDbLine
 10
110.0562741318381
 20
56.31321888815418
 30
0.0
 11
65.05354704967812
 21
56.31321888815418
 31
0.0
  0
LINE
  5
BD
330
1F
100
AcDbEntity
  8
1
  6
Continuous
 62
     7
370
     9
100
AcDbLine
 10
81.53805148912667
 20
60.03385818355025
 30
0.0
 11
82.55628525403532
 21
61.05209194845889
 31
0.0
  0
LINE
  5
BE
330
1F
100
AcDbEntity
  8
1
  6
Continuous
 62
     7
370
     9
100
AcDbLine
 10
81.53805148912667
 20
52.11385818355024
 30
0.0
 11
82.55628525403532
 21
53.13209194845888
 31
0.0
  0
LINE
  5
BF
330
1F
100
AcDbEntity
  8
1
  6
Continuous
 62
     7
370
     9
100
AcDbLine
 10
81.39178067948077
 20
58.86935360899571
 30
0.0
 11
83.71137754147352
 21
61.31281857562158
 31
0.0
  0
LINE
  5
C0
330
1F
100
AcDbEntity
  8
1
  6
Continuous
 62
     7
370
     9
100
AcDbLine
 10
82.57152516815393
 20
59.00038450452303
 30
0.0
 11
83.58975893306254
 21
60.01861826943167
 31
0.0
  0
LINE
  5
C1
330
1F
100
AcDbEntity
  8
1
  6
Continuous
 62
     7
370
     9
100
AcDbLine
 10
81.39178067948077
 20
50.94935360899569
 30
0.0
 11
83.71137754147352
 21
53.39281857562162
 31
0.0
  0
LINE
  5
C2
330
1F
100
AcDbEntity
  8
1
  6
Continuous
 62
     7
370
     9
100
AcDbLine
 10
82.57152516815393
 20
51.08038450452301
 30
0.0
 11
83.58975893306254
 21
52.09861826943165
 31
0.0
  0
LINE
  5
C3
330
1F
100
AcDbEntity
  8
1
  6
Continuous
 62
     7
370
     9
100
AcDbLine
 10
89.45805148912669
 20
60.03385818355025
 30
0.0
 11
90.47628525403533
 21
61.05209194845889
 31
0.0
  0
LINE
  5
C4
330
1F
100
AcDbEntity
  8
1
  6
Continuous
 62
     7
370
     9
100
AcDbLine
 10
90.49152516815391
 20
51.08038450452301
 30
0.0
 11
91.50975893306256
 21
52.09861826943165
 31
0.0
  0
LINE
  5
C5
330
1F
100
AcDbEntity
  8
1
  6
Continuous
 62
     7
370
     9
100
AcDbLine
 10
89.45805148912669
 20
52.11385818355024
 30
0.0
 11
90.47628525403533
 21
53.13209194845888
 31
0.0
  0
LINE
  5
C6
330
1F
100
AcDbEntity
  8
1
  6
Continuous
 62
     7
370
     9
100
AcDbLine
 10
89.31178067948079
 20
50.94935360899569
 30
0.0
 11
91.63137754147351
 21
53.39281857562162
 31
0.0
  0
LINE
  5
C7
330
1F
100
AcDbEntity
  8
1
  6
Continuous
 62
     7
370
     9
100
AcDbLine
 10
89.31178067948079
 20
58.86935360899571
 30
0.0
 11
91.63137754147351
 21
61.31281857562158
 31
0.0
  0
LINE
  5
C8
330
1F
100
AcDbEntity
  8
1
  6
Continuous
 62
     7
370
     9
100
AcDbLine
 10
90.49152516815391
 20
59.00038450452303
 30
0.0
 11
91.50975893306256
 21
60.01861826943167
 31
0.0
  0
ELLIPSE
  5
C9
330
1F
100
AcDbEntity
  8
1
  6
Continuous
 62
     7
370
     9
100
AcDbEllipse
 10
149.3939374655879
 20
70.68924059097594
 30
0.0
 11
1.25
 21
0.0
 31
0.0
210
0.0
220
0.0
230
1.0
 40
0.467039104197238
 41
0.0
 42
6.283185307179586
  0
ELLIPSE
  5
CA
330
1F
100
AcDbEntity
  8
1
  6
Continuous
 62
     7
370
     9
100
AcDbEllipse
 10
141.793937465588
 20
70.81914470769516
 30
0.0
 11
-0.8499999999999943
 21
2.746425776535379E-15
 31
0.0
210
0.0
220
0.0
230
1.0
 40
0.5219879437762297
 41
0.0
 42
6.283185307179586
  0
POLYLINE
  5
CB
330
1F
100
AcDbEntity
  8
1
  6
Continuous
 62
     7
370
     9
100
AcDb2dPolyline
 66
     1
 10
0.0
 20
0.0
 30
0.0
 70
     2
  0
VERTEX
  5
CC
330
CB
100
AcDbEntity
  8
1
  6
Continuous
 62
     7
370
     9
100
AcDbVertex
100
AcDb2dVertex
 10
136.4939374655881
 20
69.44686306326241
 30
0.0
  0
VERTEX
  5
CD
330
CB
100
AcDbEntity
  8
1
  6
Continuous
 62
     7
370
     9
100
AcDbVertex
100
AcDb2dVertex
 10
136.5677619388371
 20
69.43014878641394
 30
0.0
  0
VERTEX
  5
CE
330
CB
100
AcDbEntity
  8
1
  6
Continuous
 62
     7
370
     9
100
AcDbVertex
100
AcDb2dVertex
 10
136.6450530777064
 20
69.41328117349966
 30
0.0
  0
VERTEX
  5
CF
330
CB
100
AcDbEntity
  8
1
  6
Continuous
 62
     7
370
     9
100
AcDbVertex
100
AcDb2dVertex
 10
136.725810882196
 20
69.39626022451951
 30
0.0
  0
VERTEX
  5
D0
330
CB
100
AcDbEntity
  8
1
  6
Continuous
 62
     7
370
     9
100
AcDbVertex
100
AcDb2dVertex
 10
136.810035352306
 20
69.37908593947353
 30
0.0
  0
VERTEX
  5
D1
330
CB
100
AcDbEntity
  8
1
  6
Continuous
 62
     7
370
     9
100
AcDbVertex
100
AcDb2dVertex
 10
136.8977264880363
 20
69.36175831836171
 30
0.0
  0
VERTEX
  5
D2
330
CB
100
AcDbEntity
  8
1
  6
Continuous
 62
     7
370
     9
100
AcDbVertex
100
AcDb2dVertex
 10
136.9888842893868
 20
69.34427736118404
 30
0.0
  0
VERTEX
  5
D3
330
CB
100
AcDbEntity
  8
1
  6
Continuous
 62
     7
370
     9
100
AcDbVertex
100
AcDb2dVertex
 10
137.0835087563577
 20
69.32664306794055
 30
0.0
  0
VERTEX
  5
D4
330
CB
100
AcDbEntity
  8
1
  6
Continuous
 62
     7
370
     9
100
AcDbVertex
100
AcDb2dVertex
 10
137.181599888949
 20
69.30885543863123
 30
0.0
  0
VERTEX
  5
D5
330
CB
100
AcDbEntity
  8
1
  6
Continuous
 62
     7
370
     9
100
AcDbVertex
100
AcDb2dVertex
 10
137.2831576871604
 20
69.29091447325605
 30
0.0
  0
VERTEX
  5
D6
330
CB
100
AcDbEntity
  8
1
  6
Continuous
 62
     7
370
     9
100
AcDbVertex
100
AcDb2dVertex
 10
137.3881821509923
 20
69.27282017181504
 30
0.0
  0
VERTEX
  5
D7
330
CB
100
AcDbEntity
  8
1
  6
Continuous
 62
     7
370
     9
100
AcDbVertex
100
AcDb2dVertex
 10
137.4966732804444
 20
69.25457253430821
 30
0.0
  0
VERTEX
  5
D8
330
CB
100
AcDbEntity
  8
1
  6
Continuous
 62
     7
370
     9
100
AcDbVertex
100
AcDb2dVertex
 10
137.6086310755169
 20
69.23617156073551
 30
0.0
  0
VERTEX
  5
D9
330
CB
100
AcDbEntity
  8
1
  6
Continuous
 62
     7
370
     9
100
AcDbVertex
100
AcDb2dVertex
 10
137.7240555362096
 20
69.217617251097
 30
0.0
  0
VERTEX
  5
DA
330
CB
100
AcDbEntity
  8
1
  6
Continuous
 62
     7
370
     9
100
AcDbVertex
100
AcDb2dVertex
 10
137.8429466625227
 20
69.19890960539263
 30
0.0
  0
VERTEX
  5
DB
330
CB
100
AcDbEntity
  8
1
  6
Continuous
 62
     7
370
     9
100
AcDbVertex
100
AcDb2dVertex
 10
137.9653044544561
 20
69.18004862362244
 30
0.0
  0
VERTEX
  5
DC
330
CB
100
AcDbEntity
  8
1
  6
Continuous
 62
     7
370
     9
100
AcDbVertex
100
AcDb2dVertex
 10
138.0911289120098
 20
69.1610343057864
 30
0.0
  0
VERTEX
  5
DD
330
CB
100
AcDbEntity
  8
1
  6
Continuous
 62
     7
370
     9
100
AcDbVertex
100
AcDb2dVertex
 10
138.2204200351838
 20
69.14186665188453
 30
0.0
  0
VERTEX
  5
DE
330
CB
100
AcDbEntity
  8
1
  6
Continuous
 62
     7
370
     9
100
AcDbVertex
100
AcDb2dVertex
 10
138.3531778239782
 20
69.12254566191682
 30
0.0
  0
VERTEX
  5
DF
330
CB
100
AcDbEntity
  8
1
  6
Continuous
 62
     7
370
     9
100
AcDbVertex
100
AcDb2dVertex
 10
138.4894022783928
 20
69.10307133588326
 30
0.0
  0
VERTEX
  5
E0
330
CB
100
AcDbEntity
  8
1
  6
Continuous
 62
     7
370
     9
100
AcDbVertex
100
AcDb2dVertex
 10
138.6290933984278
 20
69.08344367378388
 30
0.0
  0
SEQEND
  5
E1
330
CB
100
AcDbEntity
  8
1
  6
Continuous
 62
     7
370
     9
  0
ELLIPSE
  5
E2
330
1F
100
AcDbEntity
  8
1
  6
Continuous
 62
     7
370
     9
100
AcDbEllipse
 10
149.3939374655879
 20
37.8668777875456
 30
0.0
 11
1.700000000000017
 21
0.0
 31
0.0
210
0.0
220
0.0
230
1.0
 40
0.5000000000000334
 41
0.0
 42
6.283185307179586
  0
ELLIPSE
  5
E3
330
1F
100
AcDbEntity
  8
1
  6
Continuous
 62
     7
370
     9
100
AcDbEllipse
 10
149.3939374655879
 20
41.33097940268337
 30
0.0
 11
2.0
 21
0.0
 31
0.0
210
0.0
220
0.0
230
1.0
 40
0.500000000000032
 41
0.0
 42
3.14159265358979
  0
ELLIPSE
  5
E4
330
1F
100
AcDbEntity
  8
1
  6
Continuous
 62
     7
370
     9
100
AcDbEllipse
 10
141.793937465588
 20
41.80729306861321
 30
0.0
 11
-0.8499999999999943
 21
2.746425776535379E-15
 31
0.0
210
0.0
220
0.0
230
1.0
 40
0.5219879437762297
 41
0.0
 42
6.283185307179586
  0
CIRCLE
  5
E5
330
1F
100
AcDbEntity
  8
1
  6
Continuous
 62
     7
370
     9
100
AcDbCircle
 10
86.69981115536197
 20
56.31321888815418
 30
0.0
 40
10.49999999999994
  0
CIRCLE
  5
E6
330
1F
100
AcDbEntity
  8
1
  6
Continuous
 62
     7
370
     9
100
AcDbCircle
 10
86.69981115536197
 20
56.31321888815418
 30
0.0
 40
11.59999999999994
  0
CIRCLE
  5
E7
330
1F
100
AcDbEntity
  8
1
  6
Continuous
 62
     7
370
     9
100
AcDbCircle
 10
86.69981115536197
 20
56.31321888815421
 30
0.0
 40
16.45
  0
CIRCLE
  5
E8
330
1F
100
AcDbEntity
  8
1
  6
Continuous
 62
     7
370
     9
100
AcDbCircle
 10
86.69981115536197
 20
56.31321888815418
 30
0.0
 40
15.0
  0
CIRCLE
  5
E9
330
1F
100
AcDbEntity
  8
1
  6
Continuous
 62
     7
370
     9
100
AcDbCircle
 10
86.69981115536197
 20
56.31321888815418
 30
0.0
 40
16.0
  0
ARC
  5
EA
330
1F
100
AcDbEntity
  8
1
  6
Continuous
 62
     7
370
     9
100
AcDbCircle
 10
86.69981115536197
 20
56.31321888815418
 30
0.0
 40
16.75
100
AcDbArc
 50
202.1942615943672
 51
205.8053344278511
  0
LINE
  5
EB
330
1F
100
AcDbEntity
  8
1
  6
Continuous
 62
     7
370
     9
100
AcDbLine
 10
75.88958605806314
 20
43.51862888512045
 30
0.0
 11
76.29866873854209
 21
43.56885792241604
 31
0.0
  0
LINE
  5
EC
330
1F
100
AcDbEntity
  8
1
  6
Continuous
 62
     7
370
     9
100
AcDbLine
 10
71.62015053426546
 20
49.02169397545234
 30
0.0
 11
72.01429614883179
 21
48.90119156811704
 31
0.0
  0
LINE
  5
ED
330
1F
100
AcDbEntity
  8
1
  6
Continuous
 62
     7
370
     9
100
AcDbLine
 10
72.2223644386871
 20
47.88908471508694
 30
0.0
 11
72.34286766025335
 21
48.28323299288274
 31
0.0
  0
ARC
  5
EE
330
1F
100
AcDbEntity
  8
1
  6
Continuous
 62
     7
370
     9
100
AcDbCircle
 10
86.69981115536197
 20
56.31321888815418
 30
0.0
 40
16.75
100
AcDbArc
 50
210.1942615943683
 51
213.805334427852
  0
LINE
  5
EF
330
1F
100
AcDbEntity
  8
1
  6
Continuous
 62
     7
370
     9
100
AcDbLine
 10
72.7816888876587
 20
46.99397146460851
 30
0.0
 11
73.18876939790027
 21
46.92949624582687
 31
0.0
  0
LINE
  5
F0
330
1F
100
AcDbEntity
  8
1
  6
Continuous
 62
     7
370
     9
100
AcDbLine
 10
75.10520224014627
 20
44.22489625417384
 30
0.0
 11
75.11239538218365
 21
44.63699108549898
 31
0.0
  0
ARC
  5
F1
330
1F
100
AcDbEntity
  8
1
  6
Continuous
 62
     7
370
     9
100
AcDbCircle
 10
86.69981115536197
 20
56.31321888815418
 30
0.0
 40
16.75
100
AcDbArc
 50
226.194261594368
 51
229.8053344278511
  0
LINE
  5
F2
330
1F
100
AcDbEntity
  8
1
  6
Continuous
 62
     7
370
     9
100
AcDbLine
 10
73.53567083070075
 20
45.95619665622726
 30
0.0
 11
73.60014648513939
 21
46.36327991709899
 31
0.0
  0
LINE
  5
F3
330
1F
100
AcDbEntity
  8
1
  6
Continuous
 62
     7
370
     9
100
AcDbLine
 10
74.21412765936336
 20
45.14763750437714
 30
0.0
 11
74.62621970619554
 21
45.1404444109433
 31
0.0
  0
ARC
  5
F4
330
1F
100
AcDbEntity
  8
1
  6
Continuous
 62
     7
370
     9
100
AcDbCircle
 10
86.69981115536197
 20
56.31321888815418
 30
0.0
 40
16.75
100
AcDbArc
 50
218.1942615943669
 51
221.8053344278513
  0
LINE
  5
F5
330
1F
100
AcDbEntity
  8
1
  6
Continuous
 62
     7
370
     9
100
AcDbLine
 10
76.90040952345433
 20
42.72888130192769
 30
0.0
 11
76.85018014676271
 21
43.13796674656538
 31
0.0
  0
LINE
  5
F6
330
1F
100
AcDbEntity
  8
1
  6
Continuous
 62
     7
370
     9
100
AcDbLine
 10
79.83502280205639
 20
41.03456774139647
 30
0.0
 11
80.21441331424714
 21
41.19560945933034
 31
0.0
  0
LINE
  5
F7
330
1F
100
AcDbEntity
  8
1
  6
Continuous
 62
     7
370
     9
100
AcDbLine
 10
77.7754531918331
 20
42.13865240664234
 30
0.0
 11
78.17356417690792
 21
42.24532592359111
 31
0.0
  0
LINE
  5
F8
330
1F
100
AcDbEntity
  8
1
  6
Continuous
 62
     7
370
     9
100
AcDbLine
 10
78.88635101287332
 20
41.49727002884242
 30
0.0
 11
78.77967677513496
 21
41.89538370394064
 31
0.0
  0
ARC
  5
F9
330
1F
100
AcDbEntity
  8
1
  6
Continuous
 62
     7
370
     9
100
AcDbCircle
 10
86.69981115536197
 20
56.31321888815418
 30
0.0
 40
16.75
100
AcDbArc
 50
242.1942615943677
 51
245.8053344278514
  0
ARC
  5
FA
330
1F
100
AcDbEntity
  8
1
  6
Continuous
 62
     7
370
     9
100
AcDbCircle
 10
86.69981115536197
 20
56.31321888815418
 30
0.0
 40
16.75
100
AcDbArc
 50
234.194261594367
 51
237.8053344278519
  0
LINE
  5
FB
330
1F
100
AcDbEntity
  8
1
  6
Continuous
 62
     7
370
     9
100
AcDbLine
 10
84.31232006314846
 20
39.73424466522346
 30
0.0
 11
84.63262451701235
 21
39.99362209772372
 31
0.0
  0
LINE
  5
FC
330
1F
100
AcDbEntity
  8
1
  6
Continuous
 62
     7
370
     9
100
AcDbLine
 10
82.02820770899572
 20
40.22786464151417
 30
0.0
 11
82.38149334353298
 21
40.44014006657579
 31
0.0
  0
LINE
  5
FD
330
1F
100
AcDbEntity
  8
1
  6
Continuous
 62
     7
370
     9
100
AcDbLine
 10
83.27286017514743
 20
39.9175332672597
 30
0.0
 11
83.0605833157475
 21
40.27082128893684
 31
0.0
  0
ARC
  5
FE
330
1F
100
AcDbEntity
  8
1
  6
Continuous
 62
     7
370
     9
100
AcDbCircle
 10
86.69981115536197
 20
56.31321888815418
 30
0.0
 40
16.75
100
AcDbArc
 50
250.1942615943676
 51
253.8053344278518
  0
LINE
  5
FF
330
1F
100
AcDbEntity
  8
1
  6
Continuous
 62
     7
370
     9
100
AcDbLine
 10
81.02437261628666
 20
40.55403434741166
 30
0.0
 11
80.86332981019899
 21
40.93342742313217
 31
0.0
  0
ARC
  5
100
330
1F
100
AcDbEntity
  8
1
  6
Continuous
 62
     7
370
     9
100
AcDbCircle
 10
86.69981115536197
 20
56.31321888815418
 30
0.0
 40
16.75
100
AcDbArc
 50
258.1942615943676
 51
261.8053344278516
  0
LINE
  5
101
330
1F
100
AcDbEntity
  8
1
  6
Continuous
 62
     7
370
     9
100
AcDbLine
 10
75.8896762696896
 20
69.10788511098195
 30
0.0
 11
76.29876171432736
 21
69.05765573429034
 31
0.0
  0
LINE
  5
102
330
1F
100
AcDbEntity
  8
1
  6
Continuous
 62
     7
370
     9
100
AcDbLine
 10
75.10528747208298
 20
68.4016232724343
 30
0.0
 11
75.11248056551685
 21
67.98953122560215
 31
0.0
  0
LINE
  5
103
330
1F
100
AcDbEntity
  8
1
  6
Continuous
 62
     7
370
     9
100
AcDbLine
 10
71.62020194530388
 20
63.60485012347672
 30
0.0
 11
72.01435022309968
 21
63.725353345043
 31
0.0
  0
LINE
  5
104
330
1F
100
AcDbEntity
  8
1
  6
Continuous
 62
     7
370
     9
100
AcDbLine
 10
71.190889691568
 20
62.64060816256043
 30
0.0
 11
71.36507384516764
 21
62.26706903972288
 31
0.0
  0
LINE
  5
105
330
1F
100
AcDbEntity
  8
1
  6
Continuous
 62
     7
370
     9
100
AcDbLine
 10
70.75215673546305
 20
61.43521249450299
 30
0.0
 11
71.12569838229265
 21
61.60939782505949
 31
0.0
  0
LINE
  5
106
330
1F
100
AcDbEntity
  8
1
  6
Continuous
 62
     7
370
     9
100
AcDbLine
 10
70.46121906284546
 20
60.42060575243426
 30
0.0
 11
70.6856946662912
 21
60.07494363545706
 31
0.0
  0
LINE
  5
107
330
1F
100
AcDbEntity
  8
1
  6
Continuous
 62
     7
370
     9
100
AcDbLine
 10
70.19451447871748
 20
59.16588108616307
 30
0.0
 11
70.54017893132271
 21
59.39035820638335
 31
0.0
  0
ARC
  5
108
330
1F
100
AcDbEntity
  8
1
  6
Continuous
 62
     7
370
     9
100
AcDbCircle
 10
86.69981115536197
 20
56.31321888815418
 30
0.0
 40
16.75
100
AcDbArc
 50
162.1942615943675
 51
165.8053344278526
  0
ARC
  5
109
330
1F
100
AcDbEntity
  8
1
  6
Continuous
 62
     7
370
     9
100
AcDbCircle
 10
86.69981115536197
 20
56.31321888815418
 30
0.0
 40
16.75
100
AcDbArc
 50
154.1942615943669
 51
157.8053344278518
  0
LINE
  5
10A
330
1F
100
AcDbEntity
  8
1
  6
Continuous
 62
     7
370
     9
100
AcDbLine
 10
70.19449436574152
 20
53.46067306481066
 30
0.0
 11
70.54015648271874
 21
53.23619746136495
 31
0.0
  0
LINE
  5
10B
330
1F
100
AcDbEntity
  8
1
  6
Continuous
 62
     7
370
     9
100
AcDbLine
 10
70.46119010312256
 20
52.20594651810535
 30
0.0
 11
70.68566722334285
 21
52.55161097071058
 31
0.0
  0
LINE
  5
10C
330
1F
100
AcDbEntity
  8
1
  6
Continuous
 62
     7
370
     9
100
AcDbLine
 10
70.75212062200214
 20
51.19133772473526
 30
0.0
 11
71.12565974483968
 21
51.01715357113562
 31
0.0
  0
ARC
  5
10D
330
1F
100
AcDbEntity
  8
1
  6
Continuous
 62
     7
370
     9
100
AcDbCircle
 10
86.69981115536197
 20
56.31321888815418
 30
0.0
 40
16.75
100
AcDbArc
 50
194.1942615943678
 51
197.8053344278519
  0
ARC
  5
10E
330
1F
100
AcDbEntity
  8
1
  6
Continuous
 62
     7
370
     9
100
AcDbCircle
 10
86.69981115536197
 20
56.31321888815418
 30
0.0
 40
16.75
100
AcDbArc
 50
170.1942615943676
 51
189.8053344278524
  0
LINE
  5
10F
330
1F
100
AcDbEntity
  8
1
  6
Continuous
 62
     7
370
     9
100
AcDbLine
 10
71.1908450791619
 20
49.98593896331477
 30
0.0
 11
71.3650304097184
 21
50.35948061014437
 31
0.0
  0
LINE
  5
110
330
1F
100
AcDbEntity
  8
1
  6
Continuous
 62
     7
370
     9
100
AcDbLine
 10
74.21420638531137
 20
67.47888830499124
 30
0.0
 11
74.6263012166365
 21
67.4860814470286
 31
0.0
  0
LINE
  5
111
330
1F
100
AcDbEntity
  8
1
  6
Continuous
 62
     7
370
     9
100
AcDbLine
 10
73.53574385572338
 20
66.67033393678554
 30
0.0
 11
73.60021907450502
 21
66.26325342654397
 31
0.0
  0
LINE
  5
112
330
1F
100
AcDbEntity
  8
1
  6
Continuous
 62
     7
370
     9
100
AcDbLine
 10
72.78175459561726
 20
65.63256444456249
 30
0.0
 11
73.18883785648902
 21
65.69704009900116
 31
0.0
  0
LINE
  5
113
330
1F
100
AcDbEntity
  8
1
  6
Continuous
 62
     7
370
     9
100
AcDbLine
 10
72.22242383544662
 20
64.7374551377589
 30
0.0
 11
72.34292624278194
 21
64.34330952319257
 31
0.0
  0
ARC
  5
114
330
1F
100
AcDbEntity
  8
1
  6
Continuous
 62
     7
370
     9
100
AcDbCircle
 10
86.69981115536197
 20
56.31321888815418
 30
0.0
 40
16.75
100
AcDbArc
 50
146.1942615943669
 51
149.8053344278521
  0
ARC
  5
115
330
1F
100
AcDbEntity
  8
1
  6
Continuous
 62
     7
370
     9
100
AcDbCircle
 10
86.69981115536197
 20
56.31321888815418
 30
0.0
 40
16.75
100
AcDbArc
 50
138.194261594368
 51
141.8053344278522
  0
ARC
  5
116
330
1F
100
AcDbEntity
  8
1
  6
Continuous
 62
     7
370
     9
100
AcDbCircle
 10
86.69981115536197
 20
56.31321888815418
 30
0.0
 40
16.75
100
AcDbArc
 50
130.1942615943675
 51
133.8053344278516
  0
LINE
  5
117
330
1F
100
AcDbEntity
  8
1
  6
Continuous
 62
     7
370
     9
100
AcDbLine
 10
79.83513052805992
 20
71.59191843638615
 30
0.0
 11
80.2145236037804
 21
71.43087563029849
 31
0.0
  0
LINE
  5
118
330
1F
100
AcDbEntity
  8
1
  6
Continuous
 62
     7
370
     9
100
AcDbLine
 10
78.8864554765058
 20
71.1292228377921
 30
0.0
 11
78.77978195955703
 21
70.73111185271728
 31
0.0
  0
LINE
  5
119
330
1F
100
AcDbEntity
  8
1
  6
Continuous
 62
     7
370
     9
100
AcDbLine
 10
77.77555313327127
 20
70.48784829266242
 30
0.0
 11
78.17366680836949
 21
70.38117405492409
 31
0.0
  0
ARC
  5
11A
330
1F
100
AcDbEntity
  8
1
  6
Continuous
 62
     7
370
     9
100
AcDbCircle
 10
86.69981115536197
 20
56.31321888815418
 30
0.0
 40
16.75
100
AcDbArc
 50
114.1942615943676
 51
117.8053344278521
  0
LINE
  5
11B
330
1F
100
AcDbEntity
  8
1
  6
Continuous
 62
     7
370
     9
100
AcDbLine
 10
76.9005053033624
 20
69.89762556709925
 30
0.0
 11
76.8502762660668
 21
69.48854288662031
 31
0.0
  0
ARC
  5
11C
330
1F
100
AcDbEntity
  8
1
  6
Continuous
 62
     7
370
     9
100
AcDbCircle
 10
86.69981115536197
 20
56.31321888815418
 30
0.0
 40
16.75
100
AcDbArc
 50
122.1942615943682
 51
125.8053344278513
  0
LINE
  5
11D
330
1F
100
AcDbEntity
  8
1
  6
Continuous
 62
     7
370
     9
100
AcDbLine
 10
84.31243695728372
 20
72.89220994425739
 30
0.0
 11
84.63274357543472
 21
72.63283075915203
 31
0.0
  0
LINE
  5
11E
330
1F
100
AcDbEntity
  8
1
  6
Continuous
 62
     7
370
     9
100
AcDbLine
 10
83.2729757769878
 20
72.7089286711896
 30
0.0
 11
83.06070035192622
 21
72.35564303665234
 31
0.0
  0
LINE
  5
11F
330
1F
100
AcDbEntity
  8
1
  6
Continuous
 62
     7
370
     9
100
AcDbLine
 10
82.02832112280046
 20
72.39860607266667
 30
0.0
 11
82.38160914447761
 21
72.18632921326673
 31
0.0
  0
LINE
  5
120
330
1F
100
AcDbEntity
  8
1
  6
Continuous
 62
     7
370
     9
100
AcDbLine
 10
81.02448373037777
 20
72.07244344455995
 30
0.0
 11
80.86344201244393
 21
71.69305293236914
 31
0.0
  0
ARC
  5
121
330
1F
100
AcDbEntity
  8
1
  6
Continuous
 62
     7
370
     9
100
AcDbCircle
 10
86.69981115536197
 20
56.31321888815418
 30
0.0
 40
16.75
100
AcDbArc
 50
106.1942615943674
 51
109.8053344278522
  0
ARC
  5
122
330
1F
100
AcDbEntity
  8
1
  6
Continuous
 62
     7
370
     9
100
AcDbCircle
 10
86.69981115536197
 20
56.31321888815418
 30
0.0
 40
16.75
100
AcDbArc
 50
98.19426159436769
 51
101.8053344278516
  0
LINE
  5
123
330
1F
100
AcDbEntity
  8
1
  6
Continuous
 62
     7
370
     9
100
AcDbLine
 10
144.4939374655881
 20
72.91321888815418
 30
0.0
 11
154.3939374655881
 21
72.91321888815418
 31
0.0
  0
LINE
  5
124
330
1F
100
AcDbEntity
  8
1
  6
Continuous
 62
     7
370
     9
100
AcDbLine
 10
151.3939374655879
 20
39.71321888815419
 30
0.0
 11
154.3939374655881
 21
39.71321888815419
 31
0.0
  0
LINE
  5
125
330
1F
100
AcDbEntity
  8
1
  6
Continuous
 62
     7
370
     9
100
AcDbLine
 10
102.2513695472141
 20
62.53507806245352
 30
0.0
 11
101.8665898745686
 21
62.68278114019483
 31
0.0
  0
LINE
  5
126
330
1F
100
AcDbEntity
  8
1
  6
Continuous
 62
     7
370
     9
100
AcDbLine
 10
102.2513256781015
 20
50.09125006397787
 30
0.0
 11
101.8665434055118
 21
49.9435459882115
 31
0.0
  0
ARC
  5
127
330
1F
100
AcDbEntity
  8
1
  6
Continuous
 62
     7
370
     9
100
AcDbCircle
 10
86.69981115536197
 20
56.31321888815418
 30
0.0
 40
16.75
100
AcDbArc
 50
290.1942615943677
 51
309.8053344278529
  0
LINE
  5
128
330
1F
100
AcDbEntity
  8
1
  6
Continuous
 62
     7
370
     9
100
AcDbLine
 10
88.97459203599001
 20
39.71840427800777
 30
0.0
 11
89.21099432887482
 21
40.0560217413805
 31
0.0
  0
ARC
  5
129
330
1F
100
AcDbEntity
  8
1
  6
Continuous
 62
     7
370
     9
100
AcDbCircle
 10
86.69981115536197
 20
56.31321888815418
 30
0.0
 40
16.75
100
AcDbArc
 50
274.1942615943676
 51
277.8053344278518
  0
LINE
  5
12A
330
1F
100
AcDbEntity
  8
1
  6
Continuous
 62
     7
370
     9
100
AcDbLine
 10
86.64290221568027
 20
39.5633155638784
 30
0.0
 11
86.92399112701725
 21
39.86474651713115
 31
0.0
  0
LINE
  5
12B
330
1F
100
AcDbEntity
  8
1
  6
Continuous
 62
     7
370
     9
100
AcDbLine
 10
87.92487787557363
 20
39.60807861544083
 30
0.0
 11
87.62344488556144
 21
39.88916942608674
 31
0.0
  0
LINE
  5
12C
330
1F
100
AcDbEntity
  8
1
  6
Continuous
 62
     7
370
     9
100
AcDbLine
 10
85.58804943673911
 20
39.60015555790247
 30
0.0
 11
85.32867025163375
 21
39.92046217605346
 31
0.0
  0
ARC
  5
12D
330
1F
100
AcDbEntity
  8
1
  6
Continuous
 62
     7
370
     9
100
AcDbCircle
 10
86.69981115536197
 20
56.31321888815418
 30
0.0
 40
16.75
100
AcDbArc
 50
266.1942615943674
 51
269.8053344278515
  0
LINE
  5
12E
330
1F
100
AcDbEntity
  8
1
  6
Continuous
 62
     7
370
     9
100
AcDbLine
 10
91.26200583398321
 20
40.19649218220175
 30
0.0
 11
91.44912020668849
 21
40.56372481580419
 31
0.0
  0
LINE
  5
12F
330
1F
100
AcDbEntity
  8
1
  6
Continuous
 62
     7
370
     9
100
AcDbLine
 10
90.23786178419192
 20
39.94114822657212
 30
0.0
 11
89.9002420395486
 21
40.17755211681981
 31
0.0
  0
ARC
  5
130
330
1F
100
AcDbEntity
  8
1
  6
Continuous
 62
     7
370
     9
100
AcDbCircle
 10
86.69981115536197
 20
56.31321888815418
 30
0.0
 40
16.75
100
AcDbArc
 50
282.1942615943676
 51
285.8053344278517
  0
LINE
  5
131
330
1F
100
AcDbEntity
  8
1
  6
Continuous
 62
     7
370
     9
100
AcDbLine
 10
92.48198156179299
 20
40.59288157017676
 30
0.0
 11
92.11474644681121
 21
40.77999720720797
 31
0.0
  0
LINE
  5
132
330
1F
100
AcDbEntity
  8
1
  6
Continuous
 62
     7
370
     9
100
AcDbLine
 10
98.11765824492346
 20
38.65660467291423
 30
0.0
 11
96.26765824492344
 21
41.86089866691663
 31
0.0
  0
LINE
  5
133
330
1F
100
AcDbEntity
  8
1
  6
Continuous
 62
     7
370
     9
100
AcDbLine
 10
98.9055482192669
 20
39.1114931616932
 30
0.0
 11
97.05554821926691
 21
42.31578715569563
 31
0.0
  0
LINE
  5
134
330
1F
100
AcDbEntity
  8
1
  6
Continuous
 62
     7
370
     9
100
AcDbLine
 10
98.84708936245468
 20
39.07774192497615
 30
0.0
 11
96.99708936245466
 21
42.28203591897858
 31
0.0
  0
LINE
  5
135
330
1F
100
AcDbEntity
  8
1
  6
Continuous
 62
     7
370
     9
100
AcDbLine
 10
98.7565681090926
 20
39.02547945498017
 30
0.0
 11
96.90656810909258
 21
42.2297734489826
 31
0.0
  0
LINE
  5
136
330
1F
100
AcDbEntity
  8
1
  6
Continuous
 62
     7
370
     9
100
AcDbLine
 10
98.63574635241093
 20
38.95572298123605
 30
0.0
 11
96.78574635241091
 21
42.16001697523848
 31
0.0
  0
LINE
  5
137
330
1F
100
AcDbEntity
  8
1
  6
Continuous
 62
     7
370
     9
100
AcDbLine
 10
98.48697575047078
 20
38.8698302341584
 30
0.0
 11
96.63697575047078
 21
42.07412422816083
 31
0.0
  0
LINE
  5
138
330
1F
100
AcDbEntity
  8
1
  6
Continuous
 62
     7
370
     9
100
AcDbLine
 10
98.31315195381487
 20
38.76947301836753
 30
0.0
 11
96.46315195381484
 21
41.97376701236996
 31
0.0
  0
LINE
  5
139
330
1F
100
AcDbEntity
  8
1
  6
Continuous
 62
     7
370
     9
100
AcDbLine
 10
97.0818619629309
 20
42.33097940268343
 30
0.0
 11
98.9318619629309
 21
39.126685408681
 31
0.0
  0
LINE
  5
13A
330
1F
100
AcDbEntity
  8
1
  6
Continuous
 62
     7
370
     9
100
AcDbLine
 10
97.90429968646933
 20
38.53342205175682
 30
0.0
 11
96.0542996864693
 21
41.73771604575921
 31
0.0
  0
LINE
  5
13B
330
1F
100
AcDbEntity
  8
1
  6
Continuous
 62
     7
370
     9
100
AcDbLine
 10
98.82205434179556
 20
38.71687778754566
 30
0.0
 11
95.87756796892845
 21
37.01687778754567
 31
0.0
  0
LINE
  5
13C
330
1F
100
AcDbEntity
  8
1
  6
Continuous
 62
     7
370
     9
100
AcDbLine
 10
98.9318619629309
 20
39.126685408681
 30
0.0
 11
95.46776034779313
 21
37.126685408681
 31
0.0
  0
LINE
  5
13D
330
1F
100
AcDbEntity
  8
1
  6
Continuous
 62
     7
370
     9
100
AcDbLine
 10
97.4228466986468
 20
43.44546816250482
 30
0.0
 11
97.44441721527201
 21
43.85705813865582
 31
0.0
  0
LINE
  5
13E
330
1F
100
AcDbEntity
  8
1
  6
Continuous
 62
     7
370
     9
100
AcDbLine
 10
96.08593274857878
 20
41.75597940268341
 30
0.0
 11
95.80014221510936
 21
42.25098312697463
 31
0.0
  0
LINE
  5
13F
330
1F
100
AcDbEntity
  8
1
  6
Continuous
 62
     7
370
     9
100
AcDbLine
 10
95.6811055680387
 20
42.17465988545445
 30
0.0
 11
96.08593274857878
 21
41.75597940268341
 31
0.0
  0
LINE
  5
140
330
1F
100
AcDbEntity
  8
1
  6
Continuous
 62
     7
370
     9
100
AcDbLine
 10
95.87756796892845
 20
37.01687778754567
 30
0.0
 11
95.46776034779313
 21
37.126685408681
 31
0.0
  0
LINE
  5
141
330
1F
100
AcDbEntity
  8
1
  6
Continuous
 62
     7
370
     9
100
AcDbLine
 10
97.67722906010101
 20
38.402322764498
 30
0.0
 11
95.82722906010099
 21
41.60661675850042
 31
0.0
  0
LINE
  5
142
330
1F
100
AcDbEntity
  8
1
  6
Continuous
 62
     7
370
     9
100
AcDbLine
 10
97.44086603727177
 20
38.26585850964108
 30
0.0
 11
95.59086603727175
 21
41.47015250364348
 31
0.0
  0
LINE
  5
143
330
1F
100
AcDbEntity
  8
1
  6
Continuous
 62
     7
370
     9
100
AcDbLine
 10
95.349811155362
 20
41.33097940268343
 30
0.0
 11
97.19981115536203
 21
38.126685408681
 31
0.0
  0
LINE
  5
144
330
1F
100
AcDbEntity
  8
1
  6
Continuous
 62
     7
370
     9
100
AcDbLine
 10
94.45351521826683
 20
41.46591026655906
 30
0.0
 11
94.61368956214523
 21
40.90597940268341
 31
0.0
  0
LINE
  5
145
330
1F
100
AcDbEntity
  8
1
  6
Continuous
 62
     7
370
     9
100
AcDbLine
 10
94.61368956214523
 20
40.90597940268341
 30
0.0
 11
94.32789902867583
 21
41.40098312697464
 31
0.0
  0
LINE
  5
146
330
1F
100
AcDbEntity
  8
1
  6
Continuous
 62
     7
370
     9
100
AcDbLine
 10
95.49407409145712
 20
37.14187765566879
 30
0.0
 11
93.6440740914571
 21
40.34617164967119
 31
0.0
  0
LINE
  5
147
330
1F
100
AcDbEntity
  8
1
  6
Continuous
 62
     7
370
     9
100
AcDbLine
 10
95.55253294826935
 20
37.17562889238584
 30
0.0
 11
93.70253294826935
 21
40.37992288638827
 31
0.0
  0
LINE
  5
148
330
1F
100
AcDbEntity
  8
1
  6
Continuous
 62
     7
370
     9
100
AcDbLine
 10
95.64305420163146
 20
37.22789136238183
 30
0.0
 11
93.79305420163143
 21
40.43218535638425
 31
0.0
  0
LINE
  5
149
330
1F
100
AcDbEntity
  8
1
  6
Continuous
 62
     7
370
     9
100
AcDbLine
 10
95.76387595831312
 20
37.29764783612595
 30
0.0
 11
93.9138759583131
 21
40.50194183012837
 31
0.0
  0
LINE
  5
14A
330
1F
100
AcDbEntity
  8
1
  6
Continuous
 62
     7
370
     9
100
AcDbLine
 10
95.91264656025325
 20
37.3835405832036
 30
0.0
 11
94.06264656025323
 21
40.58783457720602
 31
0.0
  0
LINE
  5
14B
330
1F
100
AcDbEntity
  8
1
  6
Continuous
 62
     7
370
     9
100
AcDbLine
 10
96.08647035690916
 20
37.48389779899446
 30
0.0
 11
94.23647035690917
 21
40.68819179299686
 31
0.0
  0
LINE
  5
14C
330
1F
100
AcDbEntity
  8
1
  6
Continuous
 62
     7
370
     9
100
AcDbLine
 10
96.28196406580057
 20
37.59676614444777
 30
0.0
 11
94.43196406580057
 21
40.8010601384502
 31
0.0
  0
LINE
  5
14D
330
1F
100
AcDbEntity
  8
1
  6
Continuous
 62
     7
370
     9
100
AcDbLine
 10
96.4953226242547
 20
37.71994876560518
 30
0.0
 11
94.6453226242547
 21
40.92424275960761
 31
0.0
  0
LINE
  5
14E
330
1F
100
AcDbEntity
  8
1
  6
Continuous
 62
     7
370
     9
100
AcDbLine
 10
96.72239325062301
 20
37.851048052864
 30
0.0
 11
94.87239325062302
 21
41.05534204686643
 31
0.0
  0
LINE
  5
14F
330
1F
100
AcDbEntity
  8
1
  6
Continuous
 62
     7
370
     9
100
AcDbLine
 10
96.95875627345225
 20
37.98751230772092
 30
0.0
 11
95.10875627345226
 21
41.19180630172335
 31
0.0
  0
LINE
  5
150
330
1F
100
AcDbEntity
  8
1
  6
Continuous
 62
     7
370
     9
100
AcDbLine
 10
93.61776034779314
 20
40.33097940268343
 30
0.0
 11
95.46776034779313
 21
37.126685408681
 31
0.0
  0
LINE
  5
151
330
1F
100
AcDbEntity
  8
1
  6
Continuous
 62
     7
370
     9
100
AcDbLine
 10
97.0818619629309
 20
42.33097940268343
 30
0.0
 11
93.61776034779314
 21
40.33097940268343
 31
0.0
  0
LINE
  5
152
330
1F
100
AcDbEntity
  8
1
  6
Continuous
 62
     7
370
     9
100
AcDbLine
 10
101.7295773021568
 20
48.91939514311807
 30
0.0
 11
101.5818742244155
 21
49.30417481576362
 31
0.0
  0
ARC
  5
153
330
1F
100
AcDbEntity
  8
1
  6
Continuous
 62
     7
370
     9
100
AcDbCircle
 10
86.69981115536197
 20
56.31321888815418
 30
0.0
 40
16.75
100
AcDbArc
 50
330.1942615943682
 51
333.8053344278517
  0
LINE
  5
154
330
1F
100
AcDbEntity
  8
1
  6
Continuous
 62
     7
370
     9
100
AcDbLine
 10
100.5542872726371
 20
46.89961216618767
 30
0.0
 11
100.4615726113235
 21
47.30120348486
 31
0.0
  0
LINE
  5
155
330
1F
100
AcDbEntity
  8
1
  6
Continuous
 62
     7
370
     9
100
AcDbLine
 10
99.1093356247276
 20
45.0630543362814
 30
0.0
 11
99.0734139652628
 21
45.4736407827659
 31
0.0
  0
LINE
  5
156
330
1F
100
AcDbEntity
  8
1
  6
Continuous
 62
     7
370
     9
100
AcDbLine
 10
99.93387934522818
 20
46.04570024215354
 30
0.0
 11
99.523290124424
 21
46.00977833996723
 31
0.0
  0
ARC
  5
157
330
1F
100
AcDbEntity
  8
1
  6
Continuous
 62
     7
370
     9
100
AcDbCircle
 10
86.69981115536197
 20
56.31321888815418
 30
0.0
 40
16.75
100
AcDbArc
 50
314.1942615943672
 51
317.805334427852
  0
LINE
  5
158
330
1F
100
AcDbEntity
  8
1
  6
Continuous
 62
     7
370
     9
100
AcDbLine
 10
98.37612389420585
 20
44.30379671951042
 30
0.0
 11
97.96453113695432
 21
44.32536738188696
 31
0.0
  0
ARC
  5
159
330
1F
100
AcDbEntity
  8
1
  6
Continuous
 62
     7
370
     9
100
AcDbCircle
 10
86.69981115536197
 20
56.31321888815418
 30
0.0
 40
16.75
100
AcDbArc
 50
322.1942615943683
 51
325.8053344278522
  0
LINE
  5
15A
330
1F
100
AcDbEntity
  8
1
  6
Continuous
 62
     7
370
     9
100
AcDbLine
 10
101.2340487124642
 20
47.98744933611169
 30
0.0
 11
100.832454680252
 21
47.89473404832805
 31
0.0
  0
LINE
  5
15B
330
1F
100
AcDbEntity
  8
1
  6
Continuous
 62
     7
370
     9
100
AcDbLine
 10
98.82205434179556
 20
38.71687778754566
 30
0.0
 11
98.9318619629309
 21
39.126685408681
 31
0.0
  0
ARC
  5
15C
330
1F
100
AcDbEntity
  8
1
  6
Continuous
 62
     7
370
     9
100
AcDbCircle
 10
86.69981115536197
 20
56.31321888815418
 30
0.0
 40
16.75
100
AcDbArc
 50
50.19426159436744
 51
69.80533442785233
  0
LINE
  5
15D
330
1F
100
AcDbEntity
  8
1
  6
Continuous
 62
     7
370
     9
100
AcDbLine
 10
88.97470904169583
 20
72.90801745899418
 30
0.0
 11
89.21111293194352
 21
72.57039771435086
 31
0.0
  0
ARC
  5
15E
330
1F
100
AcDbEntity
  8
1
  6
Continuous
 62
     7
370
     9
100
AcDbCircle
 10
86.69981115536197
 20
56.31321888815418
 30
0.0
 40
16.75
100
AcDbArc
 50
82.19426159436787
 51
85.80533442785207
  0
LINE
  5
15F
330
1F
100
AcDbEntity
  8
1
  6
Continuous
 62
     7
370
     9
100
AcDbLine
 10
86.64302031493463
 20
73.06312261326389
 30
0.0
 11
86.92411112558057
 21
72.7616896232517
 31
0.0
  0
LINE
  5
160
330
1F
100
AcDbEntity
  8
1
  6
Continuous
 62
     7
370
     9
100
AcDbLine
 10
87.9249956591834
 20
73.01835052282249
 30
0.0
 11
87.62356470593068
 21
72.73726161148545
 31
0.0
  0
LINE
  5
161
330
1F
100
AcDbEntity
  8
1
  6
Continuous
 62
     7
370
     9
100
AcDbLine
 10
85.58816727627041
 20
73.02629005673595
 30
0.0
 11
85.32878984377018
 21
72.70598560287203
 31
0.0
  0
ARC
  5
162
330
1F
100
AcDbEntity
  8
1
  6
Continuous
 62
     7
370
     9
100
AcDbCircle
 10
86.69981115536197
 20
56.31321888815418
 30
0.0
 40
16.75
100
AcDbArc
 50
90.19426159436733
 51
93.80533442785188
  0
LINE
  5
163
330
1F
100
AcDbEntity
  8
1
  6
Continuous
 62
     7
370
     9
100
AcDbLine
 10
91.26211946875756
 20
72.4299134268467
 30
0.0
 11
91.4492351057888
 21
72.06267831186494
 31
0.0
  0
LINE
  5
164
330
1F
100
AcDbEntity
  8
1
  6
Continuous
 62
     7
370
     9
100
AcDbLine
 10
90.23797721935617
 20
72.68526460344583
 30
0.0
 11
89.90035975598343
 21
72.44886231056097
 31
0.0
  0
ARC
  5
165
330
1F
100
AcDbEntity
  8
1
  6
Continuous
 62
     7
370
     9
100
AcDbCircle
 10
86.69981115536197
 20
56.31321888815418
 30
0.0
 40
16.75
100
AcDbArc
 50
74.19426159436836
 51
77.80533442785233
  0
LINE
  5
166
330
1F
100
AcDbEntity
  8
1
  6
Continuous
 62
     7
370
     9
100
AcDbLine
 10
92.48209240169757
 20
72.033515437147
 30
0.0
 11
92.11485976809516
 21
71.8464010644417
 31
0.0
  0
ARC
  5
167
330
1F
100
AcDbEntity
  8
1
  6
Continuous
 62
     7
370
     9
100
AcDbCircle
 10
86.69981115536197
 20
56.31321888815418
 30
0.0
 40
16.75
100
AcDbArc
 50
42.19426159436708
 51
45.80533442785276
  0
LINE
  5
168
330
1F
100
AcDbEntity
  8
1
  6
Continuous
 62
     7
370
     9
100
AcDbLine
 10
101.7296294337295
 20
63.70693666199759
 30
0.0
 11
101.5819253579632
 21
63.3221543894079
 31
0.0
  0
ARC
  5
169
330
1F
100
AcDbEntity
  8
1
  6
Continuous
 62
     7
370
     9
100
AcDbCircle
 10
86.69981115536197
 20
56.31321888815418
 30
0.0
 40
16.75
100
AcDbArc
 50
26.19426159436884
 51
29.8053344278533
  0
LINE
  5
16A
330
1F
100
AcDbEntity
  8
1
  6
Continuous
 62
     7
370
     9
100
AcDbLine
 10
100.5543536452084
 20
65.72672792554499
 30
0.0
 11
100.4616383574248
 21
65.32513389333278
 31
0.0
  0
ARC
  5
16B
330
1F
100
AcDbEntity
  8
1
  6
Continuous
 62
     7
370
     9
100
AcDbCircle
 10
86.69981115536197
 20
56.31321888815418
 30
0.0
 40
16.75
100
AcDbArc
 50
34.19426159436787
 51
37.80533442785275
  0
LINE
  5
16C
330
1F
100
AcDbEntity
  8
1
  6
Continuous
 62
     7
370
     9
100
AcDbLine
 10
99.93395173852795
 20
66.58064422389435
 30
0.0
 11
99.52336529204345
 21
66.61656588335913
 31
0.0
  0
LINE
  5
16D
330
1F
100
AcDbEntity
  8
1
  6
Continuous
 62
     7
370
     9
100
AcDbLine
 10
101.2341074149591
 20
64.63888596282521
 30
0.0
 11
100.8325160962868
 21
64.73160062413882
 31
0.0
  0
LINE
  5
16E
330
1F
100
AcDbEntity
  8
1
  6
Continuous
 62
     7
370
     9
100
AcDbLine
 10
99.10941494643097
 20
67.5632959433874
 30
0.0
 11
99.07349304424469
 21
67.15270672258322
 31
0.0
  0
LINE
  5
16F
330
1F
100
AcDbEntity
  8
1
  6
Continuous
 62
     7
370
     9
100
AcDbLine
 10
97.42293742557544
 20
69.18089400812269
 30
0.0
 11
97.44450808795202
 21
68.7693012508712
 31
0.0
  0
LINE
  5
170
330
1F
100
AcDbEntity
  8
1
  6
Continuous
 62
     7
370
     9
100
AcDbLine
 10
98.37620856925727
 20
68.32255872982654
 30
0.0
 11
97.96461859310628
 21
68.30098821320126
 31
0.0
  0
LINE
  5
171
330
1F
100
AcDbEntity
  8
1
  6
Continuous
 62
     7
370
     9
100
AcDbLine
 10
107.699811155362
 20
54.3436033821298
 30
0.0
 11
103.999811155362
 21
54.3436033821298
 31
0.0
  0
LINE
  5
172
330
1F
100
AcDbEntity
  8
1
  6
Continuous
 62
     7
370
     9
100
AcDbLine
 10
107.699811155362
 20
54.4111058555639
 30
0.0
 11
103.999811155362
 21
54.4111058555639
 31
0.0
  0
LINE
  5
173
330
1F
100
AcDbEntity
  8
1
  6
Continuous
 62
     7
370
     9
100
AcDbLine
 10
107.699811155362
 20
54.51563079555589
 30
0.0
 11
103.999811155362
 21
54.51563079555586
 31
0.0
  0
LINE
  5
174
330
1F
100
AcDbEntity
  8
1
  6
Continuous
 62
     7
370
     9
100
AcDbLine
 10
107.699811155362
 20
54.65514374304414
 30
0.0
 11
103.999811155362
 21
54.65514374304411
 31
0.0
  0
LINE
  5
175
330
1F
100
AcDbEntity
  8
1
  6
Continuous
 62
     7
370
     9
100
AcDbLine
 10
107.699811155362
 20
54.82692923719941
 30
0.0
 11
103.999811155362
 21
54.82692923719941
 31
0.0
  0
LINE
  5
176
330
1F
100
AcDbEntity
  8
1
  6
Continuous
 62
     7
370
     9
100
AcDbLine
 10
107.699811155362
 20
55.02764366878114
 30
0.0
 11
103.999811155362
 21
55.02764366878114
 31
0.0
  0
LINE
  5
177
330
1F
100
AcDbEntity
  8
1
  6
Continuous
 62
     7
370
     9
100
AcDbLine
 10
107.699811155362
 20
55.25338035968778
 30
0.0
 11
103.999811155362
 21
55.25338035968778
 31
0.0
  0
LINE
  5
178
330
1F
100
AcDbEntity
  8
1
  6
Continuous
 62
     7
370
     9
100
AcDbLine
 10
107.699811155362
 20
55.4997456020026
 30
0.0
 11
103.999811155362
 21
55.49974560200258
 31
0.0
  0
LINE
  5
179
330
1F
100
AcDbEntity
  8
1
  6
Continuous
 62
     7
370
     9
100
AcDbLine
 10
107.699811155362
 20
55.76194417652022
 30
0.0
 11
103.999811155362
 21
55.76194417652022
 31
0.0
  0
LINE
  5
17A
330
1F
100
AcDbEntity
  8
1
  6
Continuous
 62
     7
370
     9
100
AcDbLine
 10
107.699811155362
 20
56.03487268623408
 30
0.0
 11
103.999811155362
 21
56.03487268623405
 31
0.0
  0
LINE
  5
17B
330
1F
100
AcDbEntity
  8
1
  6
Continuous
 62
     7
370
     9
100
AcDbLine
 10
107.699811155362
 20
58.28283439417865
 30
0.0
 11
103.999811155362
 21
58.28283439417862
 31
0.0
  0
LINE
  5
17C
330
1F
100
AcDbEntity
  8
1
  6
Continuous
 62
     7
370
     9
100
AcDbLine
 10
107.699811155362
 20
58.21533192074452
 30
0.0
 11
103.999811155362
 21
58.21533192074452
 31
0.0
  0
LINE
  5
17D
330
1F
100
AcDbEntity
  8
1
  6
Continuous
 62
     7
370
     9
100
AcDbLine
 10
107.699811155362
 20
58.11080698075256
 30
0.0
 11
103.999811155362
 21
58.11080698075256
 31
0.0
  0
LINE
  5
17E
330
1F
100
AcDbEntity
  8
1
  6
Continuous
 62
     7
370
     9
100
AcDbLine
 10
107.699811155362
 20
57.97129403326431
 30
0.0
 11
103.999811155362
 21
57.97129403326431
 31
0.0
  0
LINE
  5
17F
330
1F
100
AcDbEntity
  8
1
  6
Continuous
 62
     7
370
     9
100
AcDbLine
 10
107.699811155362
 20
57.79950853910901
 30
0.0
 11
103.999811155362
 21
57.79950853910901
 31
0.0
  0
LINE
  5
180
330
1F
100
AcDbEntity
  8
1
  6
Continuous
 62
     7
370
     9
100
AcDbLine
 10
107.699811155362
 20
57.59879410752731
 30
0.0
 11
103.999811155362
 21
57.59879410752728
 31
0.0
  0
LINE
  5
181
330
1F
100
AcDbEntity
  8
1
  6
Continuous
 62
     7
370
     9
100
AcDbLine
 10
107.699811155362
 20
57.37305741662064
 30
0.0
 11
103.999811155362
 21
57.37305741662064
 31
0.0
  0
LINE
  5
182
330
1F
100
AcDbEntity
  8
1
  6
Continuous
 62
     7
370
     9
100
AcDbLine
 10
107.699811155362
 20
57.12669217430584
 30
0.0
 11
103.999811155362
 21
57.12669217430584
 31
0.0
  0
LINE
  5
183
330
1F
100
AcDbEntity
  8
1
  6
Continuous
 62
     7
370
     9
100
AcDbLine
 10
107.699811155362
 20
56.86449359978823
 30
0.0
 11
103.999811155362
 21
56.8644935997882
 31
0.0
  0
LINE
  5
184
330
1F
100
AcDbEntity
  8
1
  6
Continuous
 62
     7
370
     9
100
AcDbLine
 10
107.699811155362
 20
56.59156509007437
 30
0.0
 11
103.999811155362
 21
56.59156509007437
 31
0.0
  0
LINE
  5
185
330
1F
100
AcDbEntity
  8
1
  6
Continuous
 62
     7
370
     9
100
AcDbLine
 10
103.999811155362
 20
56.31321888815421
 30
0.0
 11
107.699811155362
 21
56.31321888815421
 31
0.0
  0
LINE
  5
186
330
1F
100
AcDbEntity
  8
1
  6
Continuous
 62
     7
370
     9
100
AcDbLine
 10
103.999811155362
 20
58.31321888815421
 30
0.0
 11
107.699811155362
 21
58.31321888815421
 31
0.0
  0
LINE
  5
187
330
1F
100
AcDbEntity
  8
1
  6
Continuous
 62
     7
370
     9
100
AcDbLine
 10
103.999811155362
 20
54.31321888815421
 30
0.0
 11
107.699811155362
 21
54.31321888815421
 31
0.0
  0
LINE
  5
188
330
1F
100
AcDbEntity
  8
1
  6
Continuous
 62
     7
370
     9
100
AcDbLine
 10
102.6123669056271
 20
61.5432350922116
 30
0.0
 11
102.4125489337019
 21
61.18275392849711
 31
0.0
  0
ARC
  5
189
330
1F
100
AcDbEntity
  8
1
  6
Continuous
 62
     7
370
     9
100
AcDbCircle
 10
86.69981115536197
 20
56.31321888815418
 30
0.0
 40
16.75
100
AcDbArc
 50
18.1942615943685
 51
21.80533442785196
  0
ARC
  5
18A
330
1F
100
AcDbEntity
  8
1
  6
Continuous
 62
     7
370
     9
100
AcDbCircle
 10
86.69981115536197
 20
56.31321888815418
 30
0.0
 40
16.75
100
AcDbArc
 50
10.19426159436831
 51
13.80533442785197
  0
LINE
  5
18B
330
1F
100
AcDbEntity
  8
1
  6
Continuous
 62
     7
370
     9
100
AcDbLine
 10
102.9659382850072
 20
60.31016875051404
 30
0.0
 11
102.6054595570361
 21
60.50998537228458
 31
0.0
  0
LINE
  5
18C
330
1F
100
AcDbEntity
  8
1
  6
Continuous
 62
     7
370
     9
100
AcDbLine
 10
103.4348096309435
 20
57.02196850704956
 30
0.0
 11
103.999811155362
 21
57.1632188881542
 31
0.0
  0
LINE
  5
18D
330
1F
100
AcDbEntity
  8
1
  6
Continuous
 62
     7
370
     9
100
AcDbLine
 10
103.999811155362
 20
57.1632188881542
 30
0.0
 11
103.4282300884232
 21
57.1632188881542
 31
0.0
  0
LINE
  5
18E
330
1F
100
AcDbEntity
  8
1
  6
Continuous
 62
     7
370
     9
100
AcDbLine
 10
103.3639053606672
 20
58.00746335596676
 30
0.0
 11
103.034743885772
 21
58.25550431851184
 31
0.0
  0
LINE
  5
18F
330
1F
100
AcDbEntity
  8
1
  6
Continuous
 62
     7
370
     9
100
AcDbLine
 10
103.999811155362
 20
55.46321888815419
 30
0.0
 11
103.4282300884232
 21
55.46321888815419
 31
0.0
  0
LINE
  5
190
330
1F
100
AcDbEntity
  8
1
  6
Continuous
 62
     7
370
     9
100
AcDbLine
 10
103.4348096309435
 20
55.60446926925883
 30
0.0
 11
103.999811155362
 21
55.46321888815419
 31
0.0
  0
LINE
  5
191
330
1F
100
AcDbEntity
  8
1
  6
Continuous
 62
     7
370
     9
100
AcDbLine
 10
103.185363677645
 20
53.34858433478215
 30
0.0
 11
102.9373227150999
 21
53.67774580967733
 31
0.0
  0
LINE
  5
192
330
1F
100
AcDbEntity
  8
1
  6
Continuous
 62
     7
370
     9
100
AcDbLine
 10
103.3638934145717
 20
54.61885692614868
 30
0.0
 11
103.0347297155428
 21
54.37081428759865
 31
0.0
  0
LINE
  5
193
330
1F
100
AcDbEntity
  8
1
  6
Continuous
 62
     7
370
     9
100
AcDbLine
 10
102.6123300297347
 20
51.08309048889578
 30
0.0
 11
102.4125134079642
 21
51.44356921686688
 31
0.0
  0
LINE
  5
194
330
1F
100
AcDbEntity
  8
1
  6
Continuous
 62
     7
370
     9
100
AcDbLine
 10
102.9659101031392
 20
52.31615433762198
 30
0.0
 11
102.6054289394246
 21
52.11633636569681
 31
0.0
  0
ARC
  5
195
330
1F
100
AcDbEntity
  8
1
  6
Continuous
 62
     7
370
     9
100
AcDbCircle
 10
86.69981115536197
 20
56.31321888815418
 30
0.0
 40
16.75
100
AcDbArc
 50
346.1942615943678
 51
349.8053344278518
  0
LINE
  5
196
330
1F
100
AcDbEntity
  8
1
  6
Continuous
 62
     7
370
     9
100
AcDbLine
 10
103.999811155362
 20
58.31321888815421
 30
0.0
 11
103.999811155362
 21
54.31321888815421
 31
0.0
  0
ARC
  5
197
330
1F
100
AcDbEntity
  8
1
  6
Continuous
 62
     7
370
     9
100
AcDbCircle
 10
86.69981115536197
 20
56.31321888815418
 30
0.0
 40
16.75
100
AcDbArc
 50
354.1942615943669
 51
5.805334427851585
  0
LINE
  5
198
330
1F
100
AcDbEntity
  8
1
  6
Continuous
 62
     7
370
     9
100
AcDbLine
 10
103.1853845801097
 20
59.27773720606893
 30
0.0
 11
102.9373419415596
 21
58.94857350704001
 31
0.0
  0
ARC
  5
199
330
1F
100
AcDbEntity
  8
1
  6
Continuous
 62
     7
370
     9
100
AcDbCircle
 10
86.69981115536197
 20
56.31321888815418
 30
0.0
 40
16.75
100
AcDbArc
 50
338.1942615943672
 51
341.8053344278517
  0
LINE
  5
19A
330
1F
100
AcDbEntity
  8
1
  6
Continuous
 62
     7
370
     9
100
AcDbLine
 10
107.999811155362
 20
58.0132188881542
 30
0.0
 11
107.699811155362
 21
58.31321888815421
 31
0.0
  0
LINE
  5
19B
330
1F
100
AcDbEntity
  8
1
  6
Continuous
 62
     7
370
     9
100
AcDbLine
 10
107.999811155362
 20
54.61321888815419
 30
0.0
 11
107.699811155362
 21
54.31321888815421
 31
0.0
  0
LINE
  5
19C
330
1F
100
AcDbEntity
  8
1
  6
Continuous
 62
     7
370
     9
100
AcDbLine
 10
107.999811155362
 20
58.0132188881542
 30
0.0
 11
107.999811155362
 21
54.61321888815419
 31
0.0
  0
LINE
  5
19D
330
1F
100
AcDbEntity
  8
1
  6
Continuous
 62
     7
370
     9
100
AcDbLine
 10
107.699811155362
 20
58.31321888815421
 30
0.0
 11
107.699811155362
 21
54.31321888815421
 31
0.0
  0
LINE
  5
19E
330
1F
100
AcDbEntity
  8
1
  6
Continuous
 62
     7
370
     9
100
AcDbLine
 10
136.6939374655881
 20
72.31321888815418
 30
0.0
 11
136.4939374655881
 21
72.11321888815417
 31
0.0
  0
LINE
  5
19F
330
1F
100
AcDbEntity
  8
1
  6
Continuous
 62
     7
370
     9
100
AcDbLine
 10
136.4939374655881
 20
71.56321888815421
 30
0.0
 11
136.793937465588
 21
71.26321888815414
 31
0.0
  0
LINE
  5
1A0
330
1F
100
AcDbEntity
  8
1
  6
Continuous
 62
     7
370
     9
100
AcDbLine
 10
136.4939374655881
 20
71.56321888815421
 30
0.0
 11
139.6233127757616
 21
71.56321888815421
 31
0.0
  0
LINE
  5
1A1
330
1F
100
AcDbEntity
  8
1
  6
Continuous
 62
     7
370
     9
100
AcDbLine
 10
136.6939374655881
 20
40.31321888815418
 30
0.0
 11
136.4939374655881
 21
40.5132188881542
 31
0.0
  0
LINE
  5
1A2
330
1F
100
AcDbEntity
  8
1
  6
Continuous
 62
     7
370
     9
100
AcDbLine
 10
136.4939374655881
 20
56.31321888815418
 30
0.0
 11
136.4939374655881
 21
40.5132188881542
 31
0.0
  0
LINE
  5
1A3
330
1F
100
AcDbEntity
  8
1
  6
Continuous
 62
     7
370
     9
100
AcDbLine
 10
136.4939374655881
 20
56.31321888815418
 30
0.0
 11
136.4939374655881
 21
72.11321888815417
 31
0.0
  0
LINE
  5
1A4
330
1F
100
AcDbEntity
  8
1
  6
Continuous
 62
     7
370
     9
100
AcDbLine
 10
136.8939374655881
 20
39.86321888815419
 30
0.0
 11
136.8939374655881
 21
56.31321888815418
 31
0.0
  0
LINE
  5
1A5
330
1F
100
AcDbEntity
  8
1
  6
Continuous
 62
     7
370
     9
100
AcDbLine
 10
143.1939374655881
 20
39.86321888815422
 30
0.0
 11
143.193937465588
 21
56.31321888815421
 31
0.0
  0
LINE
  5
1A6
330
1F
100
AcDbEntity
  8
1
  6
Continuous
 62
     7
370
     9
100
AcDbLine
 10
144.4939374655881
 20
56.31321888815418
 30
0.0
 11
144.4939374655881
 21
39.71321888815419
 31
0.0
  0
LINE
  5
1A7
330
1F
100
AcDbEntity
  8
1
  6
Continuous
 62
     7
370
     9
100
AcDbLine
 10
143.6939374655881
 20
56.31321888815418
 30
0.0
 11
143.6939374655881
 21
40.01321888815417
 31
0.0
  0
LINE
  5
1A8
330
1F
100
AcDbEntity
  8
1
  6
Continuous
 62
     7
370
     9
100
AcDbLine
 10
144.4939374655881
 20
39.71321888815419
 30
0.0
 11
147.3939374655879
 21
39.71321888815419
 31
0.0
  0
LINE
  5
1A9
330
1F
100
AcDbEntity
  8
1
  6
Continuous
 62
     7
370
     9
100
AcDbLine
 10
136.8939374655881
 20
49.30428338690047
 30
0.0
 11
143.193937465588
 21
49.30428338690047
 31
0.0
  0
LINE
  5
1AA
330
1F
100
AcDbEntity
  8
1
  6
Continuous
 62
     7
370
     9
100
AcDbLine
 10
142.8939374655881
 20
48.91950111431083
 30
0.0
 11
137.193937465588
 21
48.91950111431083
 31
0.0
  0
LINE
  5
1AB
330
1F
100
AcDbEntity
  8
1
  6
Continuous
 62
     7
370
     9
100
AcDbLine
 10
137.193937465588
 20
47.98755181348318
 30
0.0
 11
142.8939374655881
 21
47.98755181348318
 31
0.0
  0
LINE
  5
1AC
330
1F
100
AcDbEntity
  8
1
  6
Continuous
 62
     7
370
     9
100
AcDbLine
 10
143.1939374655881
 20
47.8948371521696
 30
0.0
 11
136.8939374655881
 21
47.8948371521696
 31
0.0
  0
LINE
  5
1AD
330
1F
100
AcDbEntity
  8
1
  6
Continuous
 62
     7
370
     9
100
AcDbLine
 10
136.8939374655881
 20
47.30130388297559
 30
0.0
 11
143.1939374655881
 21
47.30130388297559
 31
0.0
  0
LINE
  5
1AE
330
1F
100
AcDbEntity
  8
1
  6
Continuous
 62
     7
370
     9
100
AcDbLine
 10
142.8939374655881
 20
46.89970985076343
 30
0.0
 11
137.193937465588
 21
46.8997098507634
 31
0.0
  0
LINE
  5
1AF
330
1F
100
AcDbEntity
  8
1
  6
Continuous
 62
     7
370
     9
100
AcDbLine
 10
142.8939374655881
 20
46.04579355241407
 30
0.0
 11
137.193937465588
 21
46.04579355241404
 31
0.0
  0
LINE
  5
1B0
330
1F
100
AcDbEntity
  8
1
  6
Continuous
 62
     7
370
     9
100
AcDbLine
 10
136.8939374655881
 20
46.00987189294926
 30
0.0
 11
143.1939374655881
 21
46.00987189294926
 31
0.0
  0
LINE
  5
1B1
330
1F
100
AcDbEntity
  8
1
  6
Continuous
 62
     7
370
     9
100
AcDbLine
 10
143.1939374655881
 20
45.47373105372515
 30
0.0
 11
136.8939374655881
 21
45.47373105372515
 31
0.0
  0
LINE
  5
1B2
330
1F
100
AcDbEntity
  8
1
  6
Continuous
 62
     7
370
     9
100
AcDbLine
 10
137.1939374655881
 20
45.06314183292096
 30
0.0
 11
142.8939374655881
 21
45.06314183292096
 31
0.0
  0
LINE
  5
1B3
330
1F
100
AcDbEntity
  8
1
  6
Continuous
 62
     7
370
     9
100
AcDbLine
 10
137.1939374655881
 20
44.30387904648185
 30
0.0
 11
142.8939374655881
 21
44.30387904648185
 31
0.0
  0
LINE
  5
1B4
330
1F
100
AcDbEntity
  8
1
  6
Continuous
 62
     7
370
     9
100
AcDbLine
 10
136.8939374655881
 20
43.85713652543717
 30
0.0
 11
143.1939374655881
 21
43.85713652543717
 31
0.0
  0
LINE
  5
1B5
330
1F
100
AcDbEntity
  8
1
  6
Continuous
 62
     7
370
     9
100
AcDbLine
 10
137.1939374655881
 20
43.44554376818564
 30
0.0
 11
142.8939374655881
 21
43.44554376818564
 31
0.0
  0
LINE
  5
1B6
330
1F
100
AcDbEntity
  8
1
  6
Continuous
 62
     7
370
     9
100
AcDbLine
 10
137.1939374655881
 20
40.59292233916136
 30
0.0
 11
142.8939374655881
 21
40.59292233916136
 31
0.0
  0
LINE
  5
1B7
330
1F
100
AcDbEntity
  8
1
  6
Continuous
 62
     7
370
     9
100
AcDbLine
 10
136.8939374655881
 20
40.56375946444342
 30
0.0
 11
143.1939374655881
 21
40.56375946444342
 31
0.0
  0
LINE
  5
1B8
330
1F
100
AcDbEntity
  8
1
  6
Continuous
 62
     7
370
     9
100
AcDbLine
 10
137.1939374655881
 20
40.1965243494617
 30
0.0
 11
142.8939374655881
 21
40.1965243494617
 31
0.0
  0
LINE
  5
1B9
330
1F
100
AcDbEntity
  8
1
  6
Continuous
 62
     7
370
     9
100
AcDbLine
 10
137.1939374655881
 20
39.94117317286253
 30
0.0
 11
142.8939374655881
 21
39.94117317286253
 31
0.0
  0
LINE
  5
1BA
330
1F
100
AcDbEntity
  8
1
  6
Continuous
 62
     7
370
     9
100
AcDbLine
 10
137.1939374655881
 20
39.71842031731418
 30
0.0
 11
142.8939374655881
 21
39.71842031731418
 31
0.0
  0
LINE
  5
1BB
330
1F
100
AcDbEntity
  8
1
  6
Continuous
 62
     7
370
     9
100
AcDbLine
 10
137.1939374655881
 20
39.60808725348588
 30
0.0
 11
142.8939374655881
 21
39.60808725348588
 31
0.0
  0
LINE
  5
1BC
330
1F
100
AcDbEntity
  8
1
  6
Continuous
 62
     7
370
     9
100
AcDbLine
 10
137.1939374655881
 20
39.56321888815418
 30
0.0
 11
142.8939374655881
 21
39.56321888815418
 31
0.0
  0
LINE
  5
1BD
330
1F
100
AcDbEntity
  8
1
  6
Continuous
 62
     7
370
     9
100
AcDbLine
 10
137.193937465588
 20
48.91950111431083
 30
0.0
 11
136.8939374655881
 21
49.30428338690047
 31
0.0
  0
LINE
  5
1BE
330
1F
100
AcDbEntity
  8
1
  6
Continuous
 62
     7
370
     9
100
AcDbLine
 10
136.8939374655881
 20
47.30130388297559
 30
0.0
 11
137.193937465588
 21
46.89970985076337
 31
0.0
  0
LINE
  5
1BF
330
1F
100
AcDbEntity
  8
1
  6
Continuous
 62
     7
370
     9
100
AcDbLine
 10
136.8939374655881
 20
47.8948371521696
 30
0.0
 11
137.193937465588
 21
47.98755181348318
 31
0.0
  0
LINE
  5
1C0
330
1F
100
AcDbEntity
  8
1
  6
Continuous
 62
     7
370
     9
100
AcDbLine
 10
137.193937465588
 20
47.98755181348318
 30
0.0
 11
137.193937465588
 21
48.91950111431083
 31
0.0
  0
LINE
  5
1C1
330
1F
100
AcDbEntity
  8
1
  6
Continuous
 62
     7
370
     9
100
AcDbLine
 10
137.1939374655881
 20
45.06314183292096
 30
0.0
 11
136.8939374655881
 21
45.47373105372515
 31
0.0
  0
LINE
  5
1C2
330
1F
100
AcDbEntity
  8
1
  6
Continuous
 62
     7
370
     9
100
AcDbLine
 10
137.193937465588
 20
46.04579355241404
 30
0.0
 11
136.8939374655881
 21
46.00987189294926
 31
0.0
  0
LINE
  5
1C3
330
1F
100
AcDbEntity
  8
1
  6
Continuous
 62
     7
370
     9
100
AcDbLine
 10
137.1939374655881
 20
44.30387904648185
 30
0.0
 11
136.8939374655881
 21
44.3254495631071
 31
0.0
  0
LINE
  5
1C4
330
1F
100
AcDbEntity
  8
1
  6
Continuous
 62
     7
370
     9
100
AcDbLine
 10
136.8939374655881
 20
43.85713652543717
 30
0.0
 11
137.1939374655881
 21
43.44554376818564
 31
0.0
  0
LINE
  5
1C5
330
1F
100
AcDbEntity
  8
1
  6
Continuous
 62
     7
370
     9
100
AcDbLine
 10
137.1939374655881
 20
44.30387904648185
 30
0.0
 11
137.1939374655881
 21
45.06314183292096
 31
0.0
  0
LINE
  5
1C6
330
1F
100
AcDbEntity
  8
1
  6
Continuous
 62
     7
370
     9
100
AcDbLine
 10
137.193937465588
 20
46.04579355241404
 30
0.0
 11
137.193937465588
 21
46.8997098507634
 31
0.0
  0
LINE
  5
1C7
330
1F
100
AcDbEntity
  8
1
  6
Continuous
 62
     7
370
     9
100
AcDbLine
 10
137.1939374655881
 20
40.59292233916136
 30
0.0
 11
136.8939374655881
 21
40.78003671186667
 31
0.0
  0
LINE
  5
1C8
330
1F
100
AcDbEntity
  8
1
  6
Continuous
 62
     7
370
     9
100
AcDbLine
 10
136.8939374655881
 20
40.05604006195748
 30
0.0
 11
137.0481687155985
 21
40.05604006195748
 31
0.0
  0
LINE
  5
1C9
330
1F
100
AcDbEntity
  8
1
  6
Continuous
 62
     7
370
     9
100
AcDbLine
 10
137.1939374655881
 20
39.56321888815418
 30
0.0
 11
136.8939374655881
 21
39.86321888815419
 31
0.0
  0
LINE
  5
1CA
330
1F
100
AcDbEntity
  8
1
  6
Continuous
 62
     7
370
     9
100
AcDbLine
 10
137.1939374655881
 20
39.94117317286253
 30
0.0
 11
137.1939374655881
 21
40.1965243494617
 31
0.0
  0
LINE
  5
1CB
330
1F
100
AcDbEntity
  8
1
  6
Continuous
 62
     7
370
     9
100
AcDbLine
 10
136.8939374655881
 20
40.05604006195748
 30
0.0
 11
137.0481687155985
 21
40.05604006195748
 31
0.0
  0
LINE
  5
1CC
330
1F
100
AcDbEntity
  8
1
  6
Continuous
 62
     7
370
     9
100
AcDbLine
 10
136.8939374655881
 20
40.05604006195748
 30
0.0
 11
137.1939374655881
 21
39.71842031731418
 31
0.0
  0
LINE
  5
1CD
330
1F
100
AcDbEntity
  8
1
  6
Continuous
 62
     7
370
     9
100
AcDbLine
 10
137.1939374655881
 20
39.94117317286253
 30
0.0
 11
136.8939374655881
 21
40.17757546574737
 31
0.0
  0
LINE
  5
1CE
330
1F
100
AcDbEntity
  8
1
  6
Continuous
 62
     7
370
     9
100
AcDbLine
 10
136.8939374655881
 20
40.56375946444342
 30
0.0
 11
137.1939374655881
 21
40.1965243494617
 31
0.0
  0
LINE
  5
1CF
330
1F
100
AcDbEntity
  8
1
  6
Continuous
 62
     7
370
     9
100
AcDbLine
 10
136.8939374655881
 20
39.88917616482289
 30
0.0
 11
137.1939374655881
 21
39.60808725348588
 31
0.0
  0
LINE
  5
1D0
330
1F
100
AcDbEntity
  8
1
  6
Continuous
 62
     7
370
     9
100
AcDbLine
 10
137.1939374655881
 20
39.60808725348588
 30
0.0
 11
137.1939374655881
 21
39.71842031731418
 31
0.0
  0
LINE
  5
1D1
330
1F
100
AcDbEntity
  8
1
  6
Continuous
 62
     7
370
     9
100
AcDbLine
 10
136.6939374655881
 20
40.31321888815418
 30
0.0
 11
136.8939374655881
 21
40.31321888815418
 31
0.0
  0
LINE
  5
1D2
330
1F
100
AcDbEntity
  8
1
  6
Continuous
 62
     7
370
     9
100
AcDbLine
 10
137.1939374655881
 20
39.56321888815418
 30
0.0
 11
136.8939374655881
 21
39.86321888815417
 31
0.0
  0
LINE
  5
1D3
330
1F
100
AcDbEntity
  8
1
  6
Continuous
 62
     7
370
     9
100
AcDbLine
 10
137.1939374655881
 20
40.59292233916136
 30
0.0
 11
137.1939374655881
 21
43.44554376818564
 31
0.0
  0
LINE
  5
1D4
330
1F
100
AcDbEntity
  8
1
  6
Continuous
 62
     7
370
     9
100
AcDbLine
 10
142.8939374655881
 20
48.91950111431083
 30
0.0
 11
143.193937465588
 21
49.30428338690047
 31
0.0
  0
LINE
  5
1D5
330
1F
100
AcDbEntity
  8
1
  6
Continuous
 62
     7
370
     9
100
AcDbLine
 10
143.193937465588
 20
47.30130388297562
 30
0.0
 11
142.8939374655881
 21
46.8997098507634
 31
0.0
  0
LINE
  5
1D6
330
1F
100
AcDbEntity
  8
1
  6
Continuous
 62
     7
370
     9
100
AcDbLine
 10
143.193937465588
 20
47.8948371521696
 30
0.0
 11
142.8939374655881
 21
47.98755181348321
 31
0.0
  0
LINE
  5
1D7
330
1F
100
AcDbEntity
  8
1
  6
Continuous
 62
     7
370
     9
100
AcDbLine
 10
142.8939374655881
 20
47.98755181348321
 30
0.0
 11
142.8939374655881
 21
48.91950111431083
 31
0.0
  0
LINE
  5
1D8
330
1F
100
AcDbEntity
  8
1
  6
Continuous
 62
     7
370
     9
100
AcDbLine
 10
142.8939374655881
 20
45.06314183292096
 30
0.0
 11
143.1939374655881
 21
45.47373105372515
 31
0.0
  0
LINE
  5
1D9
330
1F
100
AcDbEntity
  8
1
  6
Continuous
 62
     7
370
     9
100
AcDbLine
 10
142.8939374655881
 20
46.04579355241407
 30
0.0
 11
143.193937465588
 21
46.00987189294926
 31
0.0
  0
LINE
  5
1DA
330
1F
100
AcDbEntity
  8
1
  6
Continuous
 62
     7
370
     9
100
AcDbLine
 10
142.8939374655881
 20
44.30387904648188
 30
0.0
 11
143.1939374655881
 21
44.32544956310713
 31
0.0
  0
LINE
  5
1DB
330
1F
100
AcDbEntity
  8
1
  6
Continuous
 62
     7
370
     9
100
AcDbLine
 10
142.8939374655881
 20
44.30387904648188
 30
0.0
 11
143.1939374655881
 21
44.32544956310713
 31
0.0
  0
LINE
  5
1DC
330
1F
100
AcDbEntity
  8
1
  6
Continuous
 62
     7
370
     9
100
AcDbLine
 10
143.1939374655881
 20
43.85713652543717
 30
0.0
 11
142.8939374655881
 21
43.44554376818567
 31
0.0
  0
LINE
  5
1DD
330
1F
100
AcDbEntity
  8
1
  6
Continuous
 62
     7
370
     9
100
AcDbLine
 10
142.8939374655881
 20
44.30387904648188
 30
0.0
 11
142.8939374655881
 21
45.06314183292096
 31
0.0
  0
LINE
  5
1DE
330
1F
100
AcDbEntity
  8
1
  6
Continuous
 62
     7
370
     9
100
AcDbLine
 10
142.8939374655881
 20
46.04579355241407
 30
0.0
 11
142.8939374655881
 21
46.89970985076343
 31
0.0
  0
LINE
  5
1DF
330
1F
100
AcDbEntity
  8
1
  6
Continuous
 62
     7
370
     9
100
AcDbLine
 10
142.8939374655881
 20
40.59292233916139
 30
0.0
 11
143.1939374655881
 21
40.78003671186667
 31
0.0
  0
LINE
  5
1E0
330
1F
100
AcDbEntity
  8
1
  6
Continuous
 62
     7
370
     9
100
AcDbLine
 10
144.4939374655881
 20
39.71321888815419
 30
0.0
 11
143.9939374655881
 21
39.71321888815419
 31
0.0
  0
LINE
  5
1E1
330
1F
100
AcDbEntity
  8
1
  6
Continuous
 62
     7
370
     9
100
AcDbLine
 10
143.0397062155776
 20
40.05604006195748
 30
0.0
 11
143.1939374655881
 21
40.05604006195748
 31
0.0
  0
LINE
  5
1E2
330
1F
100
AcDbEntity
  8
1
  6
Continuous
 62
     7
370
     9
100
AcDbLine
 10
142.8939374655881
 20
39.56321888815421
 30
0.0
 11
143.1939374655881
 21
39.86321888815422
 31
0.0
  0
LINE
  5
1E3
330
1F
100
AcDbEntity
  8
1
  6
Continuous
 62
     7
370
     9
100
AcDbLine
 10
142.8939374655881
 20
39.94117317286253
 30
0.0
 11
142.8939374655881
 21
40.1965243494617
 31
0.0
  0
LINE
  5
1E4
330
1F
100
AcDbEntity
  8
1
  6
Continuous
 62
     7
370
     9
100
AcDbLine
 10
143.1939374655881
 20
40.0560400619575
 30
0.0
 11
142.8939374655881
 21
39.71842031731421
 31
0.0
  0
LINE
  5
1E5
330
1F
100
AcDbEntity
  8
1
  6
Continuous
 62
     7
370
     9
100
AcDbLine
 10
142.8939374655881
 20
39.94117317286253
 30
0.0
 11
143.1939374655881
 21
40.1775754657474
 31
0.0
  0
LINE
  5
1E6
330
1F
100
AcDbEntity
  8
1
  6
Continuous
 62
     7
370
     9
100
AcDbLine
 10
143.1939374655881
 20
40.56375946444342
 30
0.0
 11
142.8939374655881
 21
40.1965243494617
 31
0.0
  0
LINE
  5
1E7
330
1F
100
AcDbEntity
  8
1
  6
Continuous
 62
     7
370
     9
100
AcDbLine
 10
143.1939374655881
 20
39.88917616482291
 30
0.0
 11
142.8939374655881
 21
39.60808725348591
 31
0.0
  0
LINE
  5
1E8
330
1F
100
AcDbEntity
  8
1
  6
Continuous
 62
     7
370
     9
100
AcDbLine
 10
142.8939374655881
 20
39.60808725348591
 30
0.0
 11
142.8939374655881
 21
39.71842031731421
 31
0.0
  0
LINE
  5
1E9
330
1F
100
AcDbEntity
  8
1
  6
Continuous
 62
     7
370
     9
100
AcDbLine
 10
143.1939374655881
 20
40.5132188881542
 30
0.0
 11
143.6939374655881
 21
40.5132188881542
 31
0.0
  0
LINE
  5
1EA
330
1F
100
AcDbEntity
  8
1
  6
Continuous
 62
     7
370
     9
100
AcDbLine
 10
142.8939374655881
 20
39.56321888815418
 30
0.0
 11
143.1939374655881
 21
39.86321888815417
 31
0.0
  0
LINE
  5
1EB
330
1F
100
AcDbEntity
  8
1
  6
Continuous
 62
     7
370
     9
100
AcDbLine
 10
143.9939374655881
 20
39.71321888815419
 30
0.0
 11
143.6939374655881
 21
40.01321888815417
 31
0.0
  0
LINE
  5
1EC
330
1F
100
AcDbEntity
  8
1
  6
Continuous
 62
     7
370
     9
100
AcDbLine
 10
142.8939374655881
 20
40.59292233916139
 30
0.0
 11
142.8939374655881
 21
43.44554376818567
 31
0.0
  0
LINE
  5
1ED
330
1F
100
AcDbEntity
  8
1
  6
Continuous
 62
     7
370
     9
100
AcDbLine
 10
149.1155912636677
 20
42.32124747142495
 30
0.0
 11
149.1155912636677
 21
39.11695347742253
 31
0.0
  0
LINE
  5
1EE
330
1F
100
AcDbEntity
  8
1
  6
Continuous
 62
     7
370
     9
100
AcDbLine
 10
148.8426627539539
 20
42.29224109862179
 30
0.0
 11
148.8426627539539
 21
39.08794710461933
 31
0.0
  0
LINE
  5
1EF
330
1F
100
AcDbEntity
  8
1
  6
Continuous
 62
     7
370
     9
100
AcDbLine
 10
148.5804641794363
 20
42.24452486032601
 30
0.0
 11
148.5804641794363
 21
39.04023086632361
 31
0.0
  0
LINE
  5
1F0
330
1F
100
AcDbEntity
  8
1
  6
Continuous
 62
     7
370
     9
100
AcDbLine
 10
148.3340989371215
 20
42.17902749883984
 30
0.0
 11
148.3340989371215
 21
38.97473350483747
 31
0.0
  0
LINE
  5
1F1
330
1F
100
AcDbEntity
  8
1
  6
Continuous
 62
     7
370
     9
100
AcDbLine
 10
149.3939374655879
 20
39.12668540868091
 30
0.0
 11
149.3939374655879
 21
42.33097940268345
 31
0.0
  0
LINE
  5
1F2
330
1F
100
AcDbEntity
  8
1
  6
Continuous
 62
     7
370
     9
100
AcDbLine
 10
148.1083622462148
 20
42.0970238458024
 30
0.0
 11
148.1083622462148
 21
38.89272985179997
 31
0.0
  0
LINE
  5
1F3
330
1F
100
AcDbEntity
  8
1
  6
Continuous
 62
     7
370
     9
100
AcDbLine
 10
147.9076478146331
 20
42.00011000904243
 30
0.0
 11
147.9076478146331
 21
38.79581601503992
 31
0.0
  0
LINE
  5
1F4
330
1F
100
AcDbEntity
  8
1
  6
Continuous
 62
     7
370
     9
100
AcDbLine
 10
147.7358623204778
 20
41.89017230615434
 30
0.0
 11
147.7358623204778
 21
38.68587831215177
 31
0.0
  0
LINE
  5
1F5
330
1F
100
AcDbEntity
  8
1
  6
Continuous
 62
     7
370
     9
100
AcDbLine
 10
147.5963493729896
 20
41.76935054947248
 30
0.0
 11
147.5963493729896
 21
38.56505655547005
 31
0.0
  0
LINE
  5
1F6
330
1F
100
AcDbEntity
  8
1
  6
Continuous
 62
     7
370
     9
100
AcDbLine
 10
147.3939374655879
 20
41.33097940268337
 30
0.0
 11
147.3939374655879
 21
38.12668540868094
 31
0.0
  0
LINE
  5
1F7
330
1F
100
AcDbEntity
  8
1
  6
Continuous
 62
     7
370
     9
100
AcDbLine
 10
147.4918244329976
 20
41.6399963970583
 30
0.0
 11
147.4918244329976
 21
38.4357024030559
 31
0.0
  0
LINE
  5
1F8
330
1F
100
AcDbEntity
  8
1
  6
Continuous
 62
     7
370
     9
100
AcDbLine
 10
147.4243219595635
 20
41.50462758035025
 30
0.0
 11
147.4243219595635
 21
38.30033358634802
 31
0.0
  0
LINE
  5
1F9
330
1F
100
AcDbEntity
  8
1
  6
Continuous
 62
     7
370
     9
100
AcDbLine
 10
149.6722836675081
 20
42.32124747142495
 30
0.0
 11
149.6722836675081
 21
39.11695347742253
 31
0.0
  0
LINE
  5
1FA
330
1F
100
AcDbEntity
  8
1
  6
Continuous
 62
     7
370
     9
100
AcDbLine
 10
149.9452121772219
 20
42.29224109862179
 30
0.0
 11
149.9452121772219
 21
39.08794710461933
 31
0.0
  0
LINE
  5
1FB
330
1F
100
AcDbEntity
  8
1
  6
Continuous
 62
     7
370
     9
100
AcDbLine
 10
150.2074107517395
 20
42.24452486032601
 30
0.0
 11
150.2074107517395
 21
39.04023086632361
 31
0.0
  0
LINE
  5
1FC
330
1F
100
AcDbEntity
  8
1
  6
Continuous
 62
     7
370
     9
100
AcDbLine
 10
150.4537759940543
 20
42.17902749883984
 30
0.0
 11
150.4537759940543
 21
38.97473350483747
 31
0.0
  0
LINE
  5
1FD
330
1F
100
AcDbEntity
  8
1
  6
Continuous
 62
     7
370
     9
100
AcDbLine
 10
150.679512684961
 20
42.0970238458024
 30
0.0
 11
150.679512684961
 21
38.89272985179997
 31
0.0
  0
LINE
  5
1FE
330
1F
100
AcDbEntity
  8
1
  6
Continuous
 62
     7
370
     9
100
AcDbLine
 10
150.8802271165427
 20
42.00011000904243
 30
0.0
 11
150.8802271165427
 21
38.79581601503992
 31
0.0
  0
LINE
  5
1FF
330
1F
100
AcDbEntity
  8
1
  6
Continuous
 62
     7
370
     9
100
AcDbLine
 10
151.052012610698
 20
41.89017230615434
 30
0.0
 11
151.052012610698
 21
38.68587831215177
 31
0.0
  0
LINE
  5
200
330
1F
100
AcDbEntity
  8
1
  6
Continuous
 62
     7
370
     9
100
AcDbLine
 10
151.1915255581862
 20
41.76935054947248
 30
0.0
 11
151.1915255581862
 21
38.56505655547005
 31
0.0
  0
LINE
  5
201
330
1F
100
AcDbEntity
  8
1
  6
Continuous
 62
     7
370
     9
100
AcDbLine
 10
151.3939374655879
 20
41.33097940268337
 30
0.0
 11
151.3939374655879
 21
38.12668540868094
 31
0.0
  0
LINE
  5
202
330
1F
100
AcDbEntity
  8
1
  6
Continuous
 62
     7
370
     9
100
AcDbLine
 10
151.2960504981782
 20
41.6399963970583
 30
0.0
 11
151.2960504981782
 21
38.4357024030559
 31
0.0
  0
LINE
  5
203
330
1F
100
AcDbEntity
  8
1
  6
Continuous
 62
     7
370
     9
100
AcDbLine
 10
151.3635529716123
 20
41.50462758035025
 30
0.0
 11
151.3635529716123
 21
38.30033358634802
 31
0.0
  0
LINE
  5
204
330
1F
100
AcDbEntity
  8
1
  6
Continuous
 62
     7
370
     9
100
AcDbLine
 10
142.8939374655881
 20
68.32255872982648
 30
0.0
 11
142.8939374655881
 21
67.5632959433874
 31
0.0
  0
LINE
  5
205
330
1F
100
AcDbEntity
  8
1
  6
Continuous
 62
     7
370
     9
100
AcDbLine
 10
143.1939374655881
 20
72.76321888815414
 30
0.0
 11
143.193937465588
 21
56.31321888815415
 31
0.0
  0
LINE
  5
206
330
1F
100
AcDbEntity
  8
1
  6
Continuous
 62
     7
370
     9
100
AcDbLine
 10
144.4939374655881
 20
56.31321888815418
 30
0.0
 11
144.4939374655881
 21
72.91321888815418
 31
0.0
  0
LINE
  5
207
330
1F
100
AcDbEntity
  8
1
  6
Continuous
 62
     7
370
     9
100
AcDbLine
 10
143.6939374655881
 20
56.31321888815418
 30
0.0
 11
143.6939374655881
 21
72.6132188881542
 31
0.0
  0
LINE
  5
208
330
1F
100
AcDbEntity
  8
1
  6
Continuous
 62
     7
370
     9
100
AcDbLine
 10
137.1939374655881
 20
68.32255872982651
 30
0.0
 11
137.1939374655881
 21
67.5632959433874
 31
0.0
  0
LINE
  5
209
330
1F
100
AcDbEntity
  8
1
  6
Continuous
 62
     7
370
     9
100
AcDbLine
 10
136.8939374655881
 20
69.36325429659075
 30
0.0
 11
136.8939374655881
 21
56.31321888815418
 31
0.0
  0
LINE
  5
20A
330
1F
100
AcDbEntity
  8
1
  6
Continuous
 62
     7
370
     9
100
AcDbLine
 10
142.8939374655881
 20
54.6189744203416
 30
0.0
 11
137.193937465588
 21
54.6189744203416
 31
0.0
  0
LINE
  5
20B
330
1F
100
AcDbEntity
  8
1
  6
Continuous
 62
     7
370
     9
100
AcDbLine
 10
136.8939374655881
 20
54.37093345779655
 30
0.0
 11
143.193937465588
 21
54.37093345779655
 31
0.0
  0
LINE
  5
20C
330
1F
100
AcDbEntity
  8
1
  6
Continuous
 62
     7
370
     9
100
AcDbLine
 10
143.193937465588
 20
53.67786426926835
 30
0.0
 11
136.8939374655881
 21
53.67786426926835
 31
0.0
  0
LINE
  5
20D
330
1F
100
AcDbEntity
  8
1
  6
Continuous
 62
     7
370
     9
100
AcDbLine
 10
137.193937465588
 20
53.34870057023946
 30
0.0
 11
142.8939374655881
 21
53.34870057023946
 31
0.0
  0
LINE
  5
20E
330
1F
100
AcDbEntity
  8
1
  6
Continuous
 62
     7
370
     9
100
AcDbLine
 10
137.193937465588
 20
52.31626902579433
 30
0.0
 11
142.8939374655881
 21
52.31626902579433
 31
0.0
  0
LINE
  5
20F
330
1F
100
AcDbEntity
  8
1
  6
Continuous
 62
     7
370
     9
100
AcDbLine
 10
143.1939374655881
 20
52.11645240402382
 30
0.0
 11
136.8939374655881
 21
52.11645240402379
 31
0.0
  0
LINE
  5
210
330
1F
100
AcDbEntity
  8
1
  6
Continuous
 62
     7
370
     9
100
AcDbLine
 10
136.8939374655881
 20
51.44368384781126
 30
0.0
 11
143.193937465588
 21
51.44368384781126
 31
0.0
  0
LINE
  5
211
330
1F
100
AcDbEntity
  8
1
  6
Continuous
 62
     7
370
     9
100
AcDbLine
 10
142.8939374655881
 20
51.08320268409676
 30
0.0
 11
137.193937465588
 21
51.08320268409676
 31
0.0
  0
LINE
  5
212
330
1F
100
AcDbEntity
  8
1
  6
Continuous
 62
     7
370
     9
100
AcDbLine
 10
142.8939374655881
 20
58.00746335596676
 30
0.0
 11
137.193937465588
 21
58.00746335596676
 31
0.0
  0
LINE
  5
213
330
1F
100
AcDbEntity
  8
1
  6
Continuous
 62
     7
370
     9
100
AcDbLine
 10
136.8939374655881
 20
58.25550431851181
 30
0.0
 11
143.193937465588
 21
58.25550431851181
 31
0.0
  0
LINE
  5
214
330
1F
100
AcDbEntity
  8
1
  6
Continuous
 62
     7
370
     9
100
AcDbLine
 10
143.193937465588
 20
58.94857350704001
 30
0.0
 11
136.8939374655881
 21
58.94857350704001
 31
0.0
  0
LINE
  5
215
330
1F
100
AcDbEntity
  8
1
  6
Continuous
 62
     7
370
     9
100
AcDbLine
 10
137.193937465588
 20
59.27773720606891
 30
0.0
 11
142.8939374655881
 21
59.27773720606891
 31
0.0
  0
LINE
  5
216
330
1F
100
AcDbEntity
  8
1
  6
Continuous
 62
     7
370
     9
100
AcDbLine
 10
137.193937465588
 20
60.31016875051404
 30
0.0
 11
142.8939374655881
 21
60.31016875051404
 31
0.0
  0
LINE
  5
217
330
1F
100
AcDbEntity
  8
1
  6
Continuous
 62
     7
370
     9
100
AcDbLine
 10
143.1939374655881
 20
60.50998537228455
 30
0.0
 11
136.8939374655881
 21
60.50998537228458
 31
0.0
  0
LINE
  5
218
330
1F
100
AcDbEntity
  8
1
  6
Continuous
 62
     7
370
     9
100
AcDbLine
 10
136.8939374655881
 20
61.18275392849711
 30
0.0
 11
143.193937465588
 21
61.18275392849711
 31
0.0
  0
LINE
  5
219
330
1F
100
AcDbEntity
  8
1
  6
Continuous
 62
     7
370
     9
100
AcDbLine
 10
142.8939374655881
 20
61.5432350922116
 30
0.0
 11
137.193937465588
 21
61.5432350922116
 31
0.0
  0
LINE
  5
21A
330
1F
100
AcDbEntity
  8
1
  6
Continuous
 62
     7
370
     9
100
AcDbLine
 10
137.193937465588
 20
62.53507806245352
 30
0.0
 11
142.8939374655881
 21
62.53507806245352
 31
0.0
  0
LINE
  5
21B
330
1F
100
AcDbEntity
  8
1
  6
Continuous
 62
     7
370
     9
100
AcDbLine
 10
143.193937465588
 20
62.68278114019481
 30
0.0
 11
136.8939374655881
 21
62.68278114019483
 31
0.0
  0
LINE
  5
21C
330
1F
100
AcDbEntity
  8
1
  6
Continuous
 62
     7
370
     9
100
AcDbLine
 10
136.8939374655881
 20
63.3221543894079
 30
0.0
 11
143.193937465588
 21
63.3221543894079
 31
0.0
  0
LINE
  5
21D
330
1F
100
AcDbEntity
  8
1
  6
Continuous
 62
     7
370
     9
100
AcDbLine
 10
142.8939374655881
 20
63.70693666199753
 30
0.0
 11
137.193937465588
 21
63.70693666199753
 31
0.0
  0
LINE
  5
21E
330
1F
100
AcDbEntity
  8
1
  6
Continuous
 62
     7
370
     9
100
AcDbLine
 10
137.193937465588
 20
64.63888596282519
 30
0.0
 11
142.8939374655881
 21
64.63888596282519
 31
0.0
  0
LINE
  5
21F
330
1F
100
AcDbEntity
  8
1
  6
Continuous
 62
     7
370
     9
100
AcDbLine
 10
143.1939374655881
 20
64.73160062413876
 30
0.0
 11
136.8939374655881
 21
64.73160062413876
 31
0.0
  0
LINE
  5
220
330
1F
100
AcDbEntity
  8
1
  6
Continuous
 62
     7
370
     9
100
AcDbLine
 10
136.8939374655881
 20
65.32513389333278
 30
0.0
 11
143.1939374655881
 21
65.32513389333278
 31
0.0
  0
LINE
  5
221
330
1F
100
AcDbEntity
  8
1
  6
Continuous
 62
     7
370
     9
100
AcDbLine
 10
142.8939374655881
 20
65.72672792554494
 30
0.0
 11
137.193937465588
 21
65.72672792554496
 31
0.0
  0
LINE
  5
222
330
1F
100
AcDbEntity
  8
1
  6
Continuous
 62
     7
370
     9
100
AcDbLine
 10
142.8939374655881
 20
66.5806442238943
 30
0.0
 11
137.193937465588
 21
66.58064422389432
 31
0.0
  0
LINE
  5
223
330
1F
100
AcDbEntity
  8
1
  6
Continuous
 62
     7
370
     9
100
AcDbLine
 10
136.8939374655881
 20
66.6165658833591
 30
0.0
 11
143.1939374655881
 21
66.6165658833591
 31
0.0
  0
LINE
  5
224
330
1F
100
AcDbEntity
  8
1
  6
Continuous
 62
     7
370
     9
100
AcDbLine
 10
143.1939374655881
 20
67.15270672258322
 30
0.0
 11
136.8939374655881
 21
67.15270672258322
 31
0.0
  0
LINE
  5
225
330
1F
100
AcDbEntity
  8
1
  6
Continuous
 62
     7
370
     9
100
AcDbLine
 10
137.1939374655881
 20
67.5632959433874
 30
0.0
 11
142.8939374655881
 21
67.5632959433874
 31
0.0
  0
CIRCLE
  5
226
330
1F
100
AcDbEntity
  8
1
  6
Continuous
 62
     7
370
     9
100
AcDbCircle
 10
141.693937465588
 20
56.31321888815415
 30
0.0
 40
0.75
  0
LINE
  5
227
330
1F
100
AcDbEntity
  8
1
  6
Continuous
 62
     7
370
     9
100
AcDbLine
 10
137.193937465588
 20
50.09135971385484
 30
0.0
 11
142.8939374655881
 21
50.09135971385484
 31
0.0
  0
LINE
  5
228
330
1F
100
AcDbEntity
  8
1
  6
Continuous
 62
     7
370
     9
100
AcDbLine
 10
143.193937465588
 20
49.94365663611356
 30
0.0
 11
136.8939374655881
 21
49.94365663611353
 31
0.0
  0
LINE
  5
229
330
1F
100
AcDbEntity
  8
1
  6
Continuous
 62
     7
370
     9
100
AcDbLine
 10
137.193937465588
 20
66.58064422389432
 30
0.0
 11
137.193937465588
 21
65.72672792554496
 31
0.0
  0
LINE
  5
22A
330
1F
100
AcDbEntity
  8
1
  6
Continuous
 62
     7
370
     9
100
AcDbLine
 10
137.193937465588
 20
66.58064422389432
 30
0.0
 11
136.8939374655881
 21
66.6165658833591
 31
0.0
  0
LINE
  5
22B
330
1F
100
AcDbEntity
  8
1
  6
Continuous
 62
     7
370
     9
100
AcDbLine
 10
136.8939374655881
 20
65.32513389333278
 30
0.0
 11
137.193937465588
 21
65.72672792554499
 31
0.0
  0
LINE
  5
22C
330
1F
100
AcDbEntity
  8
1
  6
Continuous
 62
     7
370
     9
100
AcDbLine
 10
137.193937465588
 20
64.63888596282519
 30
0.0
 11
137.193937465588
 21
63.70693666199753
 31
0.0
  0
LINE
  5
22D
330
1F
100
AcDbEntity
  8
1
  6
Continuous
 62
     7
370
     9
100
AcDbLine
 10
137.193937465588
 20
63.70693666199753
 30
0.0
 11
136.8939374655881
 21
63.3221543894079
 31
0.0
  0
LINE
  5
22E
330
1F
100
AcDbEntity
  8
1
  6
Continuous
 62
     7
370
     9
100
AcDbLine
 10
136.8939374655881
 20
64.73160062413876
 30
0.0
 11
137.193937465588
 21
64.63888596282519
 31
0.0
  0
LINE
  5
22F
330
1F
100
AcDbEntity
  8
1
  6
Continuous
 62
     7
370
     9
100
AcDbLine
 10
137.193937465588
 20
62.53507806245352
 30
0.0
 11
137.193937465588
 21
61.5432350922116
 31
0.0
  0
LINE
  5
230
330
1F
100
AcDbEntity
  8
1
  6
Continuous
 62
     7
370
     9
100
AcDbLine
 10
136.8939374655881
 20
61.18275392849711
 30
0.0
 11
137.193937465588
 21
61.5432350922116
 31
0.0
  0
LINE
  5
231
330
1F
100
AcDbEntity
  8
1
  6
Continuous
 62
     7
370
     9
100
AcDbLine
 10
137.193937465588
 20
62.53507806245352
 30
0.0
 11
136.8939374655881
 21
62.68278114019483
 31
0.0
  0
LINE
  5
232
330
1F
100
AcDbEntity
  8
1
  6
Continuous
 62
     7
370
     9
100
AcDbLine
 10
137.193937465588
 20
60.31016875051404
 30
0.0
 11
137.193937465588
 21
59.27773720606891
 31
0.0
  0
LINE
  5
233
330
1F
100
AcDbEntity
  8
1
  6
Continuous
 62
     7
370
     9
100
AcDbLine
 10
136.8939374655881
 20
60.50998537228458
 30
0.0
 11
137.193937465588
 21
60.31016875051404
 31
0.0
  0
LINE
  5
234
330
1F
100
AcDbEntity
  8
1
  6
Continuous
 62
     7
370
     9
100
AcDbLine
 10
136.8939374655881
 20
58.25550431851181
 30
0.0
 11
137.193937465588
 21
58.00746335596676
 31
0.0
  0
LINE
  5
235
330
1F
100
AcDbEntity
  8
1
  6
Continuous
 62
     7
370
     9
100
AcDbLine
 10
137.193937465588
 20
58.00746335596676
 30
0.0
 11
137.193937465588
 21
56.31321888815418
 31
0.0
  0
LINE
  5
236
330
1F
100
AcDbEntity
  8
1
  6
Continuous
 62
     7
370
     9
100
AcDbLine
 10
136.8939374655881
 20
54.37093345779655
 30
0.0
 11
137.193937465588
 21
54.6189744203416
 31
0.0
  0
LINE
  5
237
330
1F
100
AcDbEntity
  8
1
  6
Continuous
 62
     7
370
     9
100
AcDbLine
 10
137.193937465588
 20
53.34870057023946
 30
0.0
 11
136.8939374655881
 21
53.67786426926835
 31
0.0
  0
LINE
  5
238
330
1F
100
AcDbEntity
  8
1
  6
Continuous
 62
     7
370
     9
100
AcDbLine
 10
136.8939374655881
 20
51.44368384781126
 30
0.0
 11
137.193937465588
 21
51.08320268409676
 31
0.0
  0
LINE
  5
239
330
1F
100
AcDbEntity
  8
1
  6
Continuous
 62
     7
370
     9
100
AcDbLine
 10
136.8939374655881
 20
52.11645240402379
 30
0.0
 11
137.193937465588
 21
52.31626902579433
 31
0.0
  0
LINE
  5
23A
330
1F
100
AcDbEntity
  8
1
  6
Continuous
 62
     7
370
     9
100
AcDbLine
 10
137.193937465588
 20
52.31626902579433
 30
0.0
 11
137.193937465588
 21
53.34870057023946
 31
0.0
  0
LINE
  5
23B
330
1F
100
AcDbEntity
  8
1
  6
Continuous
 62
     7
370
     9
100
AcDbLine
 10
137.193937465588
 20
54.6189744203416
 30
0.0
 11
137.193937465588
 21
56.31321888815418
 31
0.0
  0
LINE
  5
23C
330
1F
100
AcDbEntity
  8
1
  6
Continuous
 62
     7
370
     9
100
AcDbLine
 10
137.193937465588
 20
59.27773720606891
 30
0.0
 11
136.8939374655881
 21
58.94857350704001
 31
0.0
  0
LINE
  5
23D
330
1F
100
AcDbEntity
  8
1
  6
Continuous
 62
     7
370
     9
100
AcDbLine
 10
137.1939374655881
 20
67.5632959433874
 30
0.0
 11
136.8939374655881
 21
67.15270672258322
 31
0.0
  0
LINE
  5
23E
330
1F
100
AcDbEntity
  8
1
  6
Continuous
 62
     7
370
     9
100
AcDbLine
 10
137.193937465588
 20
50.09135971385484
 30
0.0
 11
136.8939374655881
 21
49.94365663611353
 31
0.0
  0
LINE
  5
23F
330
1F
100
AcDbEntity
  8
1
  6
Continuous
 62
     7
370
     9
100
AcDbLine
 10
137.193937465588
 20
50.09135971385484
 30
0.0
 11
137.193937465588
 21
51.08320268409676
 31
0.0
  0
LINE
  5
240
330
1F
100
AcDbEntity
  8
1
  6
Continuous
 62
     7
370
     9
100
AcDbLine
 10
142.8939374655881
 20
66.5806442238943
 30
0.0
 11
143.193937465588
 21
66.6165658833591
 31
0.0
  0
LINE
  5
241
330
1F
100
AcDbEntity
  8
1
  6
Continuous
 62
     7
370
     9
100
AcDbLine
 10
143.193937465588
 20
65.32513389333275
 30
0.0
 11
142.8939374655881
 21
65.72672792554496
 31
0.0
  0
LINE
  5
242
330
1F
100
AcDbEntity
  8
1
  6
Continuous
 62
     7
370
     9
100
AcDbLine
 10
142.8939374655881
 20
66.5806442238943
 30
0.0
 11
142.8939374655881
 21
65.72672792554494
 31
0.0
  0
LINE
  5
243
330
1F
100
AcDbEntity
  8
1
  6
Continuous
 62
     7
370
     9
100
AcDbLine
 10
142.8939374655881
 20
64.63888596282516
 30
0.0
 11
142.8939374655881
 21
63.70693666199753
 31
0.0
  0
LINE
  5
244
330
1F
100
AcDbEntity
  8
1
  6
Continuous
 62
     7
370
     9
100
AcDbLine
 10
142.8939374655881
 20
63.70693666199753
 30
0.0
 11
143.193937465588
 21
63.3221543894079
 31
0.0
  0
LINE
  5
245
330
1F
100
AcDbEntity
  8
1
  6
Continuous
 62
     7
370
     9
100
AcDbLine
 10
143.193937465588
 20
64.73160062413876
 30
0.0
 11
142.8939374655881
 21
64.63888596282516
 31
0.0
  0
LINE
  5
246
330
1F
100
AcDbEntity
  8
1
  6
Continuous
 62
     7
370
     9
100
AcDbLine
 10
142.8939374655881
 20
62.53507806245349
 30
0.0
 11
142.8939374655881
 21
61.5432350922116
 31
0.0
  0
LINE
  5
247
330
1F
100
AcDbEntity
  8
1
  6
Continuous
 62
     7
370
     9
100
AcDbLine
 10
143.193937465588
 20
61.18275392849708
 30
0.0
 11
142.8939374655881
 21
61.5432350922116
 31
0.0
  0
LINE
  5
248
330
1F
100
AcDbEntity
  8
1
  6
Continuous
 62
     7
370
     9
100
AcDbLine
 10
142.8939374655881
 20
62.53507806245352
 30
0.0
 11
143.193937465588
 21
62.68278114019481
 31
0.0
  0
LINE
  5
249
330
1F
100
AcDbEntity
  8
1
  6
Continuous
 62
     7
370
     9
100
AcDbLine
 10
142.8939374655881
 20
60.31016875051401
 30
0.0
 11
142.8939374655881
 21
59.27773720606888
 31
0.0
  0
LINE
  5
24A
330
1F
100
AcDbEntity
  8
1
  6
Continuous
 62
     7
370
     9
100
AcDbLine
 10
143.193937465588
 20
60.50998537228455
 30
0.0
 11
142.8939374655881
 21
60.31016875051401
 31
0.0
  0
LINE
  5
24B
330
1F
100
AcDbEntity
  8
1
  6
Continuous
 62
     7
370
     9
100
AcDbLine
 10
143.193937465588
 20
58.25550431851178
 30
0.0
 11
142.8939374655881
 21
58.00746335596676
 31
0.0
  0
LINE
  5
24C
330
1F
100
AcDbEntity
  8
1
  6
Continuous
 62
     7
370
     9
100
AcDbLine
 10
142.8939374655881
 20
58.00746335596676
 30
0.0
 11
142.8939374655881
 21
56.31321888815415
 31
0.0
  0
LINE
  5
24D
330
1F
100
AcDbEntity
  8
1
  6
Continuous
 62
     7
370
     9
100
AcDbLine
 10
143.193937465588
 20
54.37093345779658
 30
0.0
 11
142.8939374655881
 21
54.6189744203416
 31
0.0
  0
LINE
  5
24E
330
1F
100
AcDbEntity
  8
1
  6
Continuous
 62
     7
370
     9
100
AcDbLine
 10
142.8939374655881
 20
53.34870057023949
 30
0.0
 11
143.193937465588
 21
53.67786426926835
 31
0.0
  0
LINE
  5
24F
330
1F
100
AcDbEntity
  8
1
  6
Continuous
 62
     7
370
     9
100
AcDbLine
 10
143.193937465588
 20
51.44368384781129
 30
0.0
 11
142.8939374655881
 21
51.08320268409676
 31
0.0
  0
LINE
  5
250
330
1F
100
AcDbEntity
  8
1
  6
Continuous
 62
     7
370
     9
100
AcDbLine
 10
143.193937465588
 20
52.11645240402382
 30
0.0
 11
142.8939374655881
 21
52.31626902579436
 31
0.0
  0
LINE
  5
251
330
1F
100
AcDbEntity
  8
1
  6
Continuous
 62
     7
370
     9
100
AcDbLine
 10
142.8939374655881
 20
52.31626902579436
 30
0.0
 11
142.8939374655881
 21
53.34870057023949
 31
0.0
  0
LINE
  5
252
330
1F
100
AcDbEntity
  8
1
  6
Continuous
 62
     7
370
     9
100
AcDbLine
 10
142.8939374655881
 20
54.6189744203416
 30
0.0
 11
142.8939374655881
 21
56.31321888815421
 31
0.0
  0
LINE
  5
253
330
1F
100
AcDbEntity
  8
1
  6
Continuous
 62
     7
370
     9
100
AcDbLine
 10
142.8939374655881
 20
59.27773720606888
 30
0.0
 11
143.193937465588
 21
58.94857350704001
 31
0.0
  0
LINE
  5
254
330
1F
100
AcDbEntity
  8
1
  6
Continuous
 62
     7
370
     9
100
AcDbLine
 10
142.8939374655881
 20
67.5632959433874
 30
0.0
 11
143.1939374655881
 21
67.15270672258322
 31
0.0
  0
LINE
  5
255
330
1F
100
AcDbEntity
  8
1
  6
Continuous
 62
     7
370
     9
100
AcDbLine
 10
142.8939374655881
 20
50.09135971385484
 30
0.0
 11
143.193937465588
 21
49.94365663611356
 31
0.0
  0
LINE
  5
256
330
1F
100
AcDbEntity
  8
1
  6
Continuous
 62
     7
370
     9
100
AcDbLine
 10
142.8939374655881
 20
50.09135971385487
 30
0.0
 11
142.8939374655881
 21
51.08320268409676
 31
0.0
  0
LINE
  5
257
330
1F
100
AcDbEntity
  8
1
  6
Continuous
 62
     7
370
     9
100
AcDbLine
 10
137.1939374655881
 20
68.32255872982651
 30
0.0
 11
142.8939374655881
 21
68.32255872982651
 31
0.0
  0
LINE
  5
258
330
1F
100
AcDbEntity
  8
1
  6
Continuous
 62
     7
370
     9
100
AcDbLine
 10
136.8939374655881
 20
68.7693012508712
 30
0.0
 11
143.1939374655881
 21
68.7693012508712
 31
0.0
  0
LINE
  5
259
330
1F
100
AcDbEntity
  8
1
  6
Continuous
 62
     7
370
     9
100
AcDbLine
 10
137.1939374655881
 20
69.18089400812272
 30
0.0
 11
142.8939374655881
 21
69.18089400812272
 31
0.0
  0
LINE
  5
25A
330
1F
100
AcDbEntity
  8
1
  6
Continuous
 62
     7
370
     9
100
AcDbLine
 10
137.1939374655881
 20
73.06321888815418
 30
0.0
 11
142.8939374655881
 21
73.06321888815418
 31
0.0
  0
LINE
  5
25B
330
1F
100
AcDbEntity
  8
1
  6
Continuous
 62
     7
370
     9
100
AcDbLine
 10
140.23352535999
 20
72.06267831186494
 30
0.0
 11
143.1939374655881
 21
72.06267831186494
 31
0.0
  0
LINE
  5
25C
330
1F
100
AcDbEntity
  8
1
  6
Continuous
 62
     7
370
     9
100
AcDbLine
 10
140.6132153305807
 20
73.01835052282249
 30
0.0
 11
142.8939374655881
 21
73.01835052282249
 31
0.0
  0
LINE
  5
25D
330
1F
100
AcDbEntity
  8
1
  6
Continuous
 62
     7
370
     9
100
AcDbLine
 10
140.6072606580793
 20
72.90801745899418
 30
0.0
 11
142.8939374655881
 21
72.90801745899418
 31
0.0
  0
LINE
  5
25E
330
1F
100
AcDbEntity
  8
1
  6
Continuous
 62
     7
370
     9
100
AcDbLine
 10
140.562803180155
 20
72.68526460344583
 30
0.0
 11
142.8939374655881
 21
72.68526460344583
 31
0.0
  0
LINE
  5
25F
330
1F
100
AcDbEntity
  8
1
  6
Continuous
 62
     7
370
     9
100
AcDbLine
 10
140.464466424097
 20
72.42991342684667
 30
0.0
 11
142.8939374655881
 21
72.42991342684667
 31
0.0
  0
LINE
  5
260
330
1F
100
AcDbEntity
  8
1
  6
Continuous
 62
     7
370
     9
100
AcDbLine
 10
140.2098798698605
 20
72.033515437147
 30
0.0
 11
142.8939374655881
 21
72.033515437147
 31
0.0
  0
LINE
  5
261
330
1F
100
AcDbEntity
  8
1
  6
Continuous
 62
     7
370
     9
100
AcDbLine
 10
137.1939374655881
 20
73.06321888815418
 30
0.0
 11
136.8939374655881
 21
72.76321888815417
 31
0.0
  0
LINE
  5
262
330
1F
100
AcDbEntity
  8
1
  6
Continuous
 62
     7
370
     9
100
AcDbLine
 10
136.6939374655881
 20
72.31321888815418
 30
0.0
 11
136.8939374655881
 21
72.31321888815418
 31
0.0
  0
LINE
  5
263
330
1F
100
AcDbEntity
  8
1
  6
Continuous
 62
     7
370
     9
100
AcDbLine
 10
137.1939374655881
 20
73.06321888815418
 30
0.0
 11
136.8939374655881
 21
72.7632188881542
 31
0.0
  0
LINE
  5
264
330
1F
100
AcDbEntity
  8
1
  6
Continuous
 62
     7
370
     9
100
AcDbLine
 10
136.8939374655881
 20
72.76321888815417
 30
0.0
 11
136.8939374655881
 21
72.31321888815418
 31
0.0
  0
LINE
  5
265
330
1F
100
AcDbEntity
  8
1
  6
Continuous
 62
     7
370
     9
100
AcDbLine
 10
136.793937465588
 20
71.26321888815414
 30
0.0
 11
136.793937465588
 21
69.38217115823855
 31
0.0
  0
LINE
  5
266
330
1F
100
AcDbEntity
  8
1
  6
Continuous
 62
     7
370
     9
100
AcDbLine
 10
136.793937465588
 20
71.26321888815414
 30
0.0
 11
139.2012066126703
 21
71.2632188881542
 31
0.0
  0
LINE
  5
267
330
1F
100
AcDbEntity
  8
1
  6
Continuous
 62
     7
370
     9
100
AcDbLine
 10
137.1939374655881
 20
68.32255872982651
 30
0.0
 11
136.8939374655881
 21
68.30098821320126
 31
0.0
  0
LINE
  5
268
330
1F
100
AcDbEntity
  8
1
  6
Continuous
 62
     7
370
     9
100
AcDbLine
 10
136.8939374655881
 20
68.7693012508712
 30
0.0
 11
137.1939374655881
 21
69.18089400812272
 31
0.0
  0
LINE
  5
269
330
1F
100
AcDbEntity
  8
1
  6
Continuous
 62
     7
370
     9
100
AcDbLine
 10
137.1939374655881
 20
69.31835685546329
 30
0.0
 11
137.1939374655881
 21
69.18089400812272
 31
0.0
  0
LINE
  5
26A
330
1F
100
AcDbEntity
  8
1
  6
Continuous
 62
     7
370
     9
100
AcDbLine
 10
144.4939374655881
 20
72.91321888815418
 30
0.0
 11
143.9939374655881
 21
72.91321888815418
 31
0.0
  0
LINE
  5
26B
330
1F
100
AcDbEntity
  8
1
  6
Continuous
 62
     7
370
     9
100
AcDbLine
 10
143.0397062155776
 20
72.57039771435089
 30
0.0
 11
143.1939374655881
 21
72.57039771435089
 31
0.0
  0
LINE
  5
26C
330
1F
100
AcDbEntity
  8
1
  6
Continuous
 62
     7
370
     9
100
AcDbLine
 10
142.8939374655881
 20
73.06321888815415
 30
0.0
 11
143.1939374655881
 21
72.76321888815414
 31
0.0
  0
LINE
  5
26D
330
1F
100
AcDbEntity
  8
1
  6
Continuous
 62
     7
370
     9
100
AcDbLine
 10
142.8939374655881
 20
72.68526460344583
 30
0.0
 11
142.8939374655881
 21
72.42991342684667
 31
0.0
  0
LINE
  5
26E
330
1F
100
AcDbEntity
  8
1
  6
Continuous
 62
     7
370
     9
100
AcDbLine
 10
143.1939374655881
 20
72.57039771435086
 30
0.0
 11
142.8939374655881
 21
72.90801745899415
 31
0.0
  0
LINE
  5
26F
330
1F
100
AcDbEntity
  8
1
  6
Continuous
 62
     7
370
     9
100
AcDbLine
 10
142.8939374655881
 20
72.68526460344583
 30
0.0
 11
143.1939374655881
 21
72.44886231056097
 31
0.0
  0
LINE
  5
270
330
1F
100
AcDbEntity
  8
1
  6
Continuous
 62
     7
370
     9
100
AcDbLine
 10
143.1939374655881
 20
72.06267831186494
 30
0.0
 11
142.8939374655881
 21
72.42991342684667
 31
0.0
  0
LINE
  5
271
330
1F
100
AcDbEntity
  8
1
  6
Continuous
 62
     7
370
     9
100
AcDbLine
 10
142.8939374655881
 20
72.03351543714697
 30
0.0
 11
143.1939374655881
 21
71.8464010644417
 31
0.0
  0
LINE
  5
272
330
1F
100
AcDbEntity
  8
1
  6
Continuous
 62
     7
370
     9
100
AcDbLine
 10
143.1939374655881
 20
72.73726161148545
 30
0.0
 11
142.8939374655881
 21
73.01835052282246
 31
0.0
  0
LINE
  5
273
330
1F
100
AcDbEntity
  8
1
  6
Continuous
 62
     7
370
     9
100
AcDbLine
 10
142.8939374655881
 20
73.01835052282246
 30
0.0
 11
142.8939374655881
 21
72.90801745899415
 31
0.0
  0
LINE
  5
274
330
1F
100
AcDbEntity
  8
1
  6
Continuous
 62
     7
370
     9
100
AcDbLine
 10
143.1939374655881
 20
72.11321888815417
 30
0.0
 11
143.6939374655881
 21
72.11321888815417
 31
0.0
  0
LINE
  5
275
330
1F
100
AcDbEntity
  8
1
  6
Continuous
 62
     7
370
     9
100
AcDbLine
 10
142.8939374655881
 20
73.06321888815418
 30
0.0
 11
143.1939374655881
 21
72.7632188881542
 31
0.0
  0
LINE
  5
276
330
1F
100
AcDbEntity
  8
1
  6
Continuous
 62
     7
370
     9
100
AcDbLine
 10
143.9939374655881
 20
72.91321888815418
 30
0.0
 11
143.6939374655881
 21
72.6132188881542
 31
0.0
  0
LINE
  5
277
330
1F
100
AcDbEntity
  8
1
  6
Continuous
 62
     7
370
     9
100
AcDbLine
 10
142.8939374655881
 20
68.32255872982648
 30
0.0
 11
143.1939374655881
 21
68.30098821320124
 31
0.0
  0
LINE
  5
278
330
1F
100
AcDbEntity
  8
1
  6
Continuous
 62
     7
370
     9
100
AcDbLine
 10
142.8939374655881
 20
68.32255872982648
 30
0.0
 11
143.1939374655881
 21
68.30098821320124
 31
0.0
  0
LINE
  5
279
330
1F
100
AcDbEntity
  8
1
  6
Continuous
 62
     7
370
     9
100
AcDbLine
 10
143.1939374655881
 20
68.7693012508712
 30
0.0
 11
142.8939374655881
 21
69.18089400812269
 31
0.0
  0
LINE
  5
27A
330
1F
100
AcDbEntity
  8
1
  6
Continuous
 62
     7
370
     9
100
AcDbLine
 10
142.8939374655881
 20
72.03351543714697
 30
0.0
 11
142.8939374655881
 21
69.18089400812269
 31
0.0
  0
ARC
  5
27B
330
1F
100
AcDbEntity
  8
1
  6
Continuous
 62
     7
370
     9
100
AcDbCircle
 10
146.843937465588
 20
68.29821888815431
 30
0.0
 40
0.1500000000000057
100
AcDbArc
 50
270.0000000000105
 51
0.0
  0
ARC
  5
27C
330
1F
100
AcDbEntity
  8
1
  6
Continuous
 62
     7
370
     9
100
AcDbCircle
 10
145.643937465588
 20
68.29821888815431
 30
0.0
 40
0.1500000000000057
100
AcDbArc
 50
179.9999999999998
 51
270.0000000000105
  0
LINE
  5
27D
330
1F
100
AcDbEntity
  8
1
  6
Continuous
 62
     7
370
     9
100
AcDbLine
 10
146.8439374655881
 20
68.14821888815428
 30
0.0
 11
145.6439374655881
 21
68.14821888815428
 31
0.0
  0
ARC
  5
27E
330
1F
100
AcDbEntity
  8
1
  6
Continuous
 62
     7
370
     9
100
AcDbCircle
 10
146.8439374655881
 20
63.96821888815427
 30
0.0
 40
0.1500000000000057
100
AcDbArc
 50
0.0000000000027141
 51
89.99999999999991
  0
LINE
  5
27F
330
1F
100
AcDbEntity
  8
1
  6
Continuous
 62
     7
370
     9
100
AcDbLine
 10
146.993937465588
 20
63.96821888815427
 30
0.0
 11
146.993937465588
 21
63.51821888815434
 31
0.0
  0
ARC
  5
280
330
1F
100
AcDbEntity
  8
1
  6
Continuous
 62
     7
370
     9
100
AcDbCircle
 10
146.8439374655881
 20
63.51821888815428
 30
0.0
 40
0.1500000000000057
100
AcDbArc
 50
269.9999999999998
 51
0.0000000000244267
  0
ARC
  5
281
330
1F
100
AcDbEntity
  8
1
  6
Continuous
 62
     7
370
     9
100
AcDbCircle
 10
145.6439374655881
 20
63.51821888815428
 30
0.0
 40
0.1500000000000057
100
AcDbArc
 50
179.9999999999783
 51
269.9999999999998
  0
LINE
  5
282
330
1F
100
AcDbEntity
  8
1
  6
Continuous
 62
     7
370
     9
100
AcDbLine
 10
145.493937465588
 20
63.51821888815434
 30
0.0
 11
145.493937465588
 21
63.96821888815427
 31
0.0
  0
ARC
  5
283
330
1F
100
AcDbEntity
  8
1
  6
Continuous
 62
     7
370
     9
100
AcDbCircle
 10
145.6439374655881
 20
63.96821888815427
 30
0.0
 40
0.1500000000000057
100
AcDbArc
 50
89.99999999999991
 51
179.9999999999998
  0
LINE
  5
284
330
1F
100
AcDbEntity
  8
1
  6
Continuous
 62
     7
370
     9
100
AcDbLine
 10
146.8439374655881
 20
63.3682188881543
 30
0.0
 11
145.6439374655881
 21
63.3682188881543
 31
0.0
  0
LINE
  5
285
330
1F
100
AcDbEntity
  8
1
  6
Continuous
 62
     7
370
     9
100
AcDbLine
 10
146.8439374655881
 20
64.1182188881543
 30
0.0
 11
145.6439374655881
 21
64.1182188881543
 31
0.0
  0
ARC
  5
286
330
1F
100
AcDbEntity
  8
1
  6
Continuous
 62
     7
370
     9
100
AcDbCircle
 10
146.8439374655881
 20
60.26821888815428
 30
0.0
 40
0.1500000000000057
100
AcDbArc
 50
0.0
 51
89.99999999999991
  0
LINE
  5
287
330
1F
100
AcDbEntity
  8
1
  6
Continuous
 62
     7
370
     9
100
AcDbLine
 10
146.993937465588
 20
60.26821888815428
 30
0.0
 11
146.993937465588
 21
59.81821888815429
 31
0.0
  0
ARC
  5
288
330
1F
100
AcDbEntity
  8
1
  6
Continuous
 62
     7
370
     9
100
AcDbCircle
 10
146.8439374655881
 20
59.81821888815429
 30
0.0
 40
0.1500000000000057
100
AcDbArc
 50
269.9999999999998
 51
0.0
  0
ARC
  5
289
330
1F
100
AcDbEntity
  8
1
  6
Continuous
 62
     7
370
     9
100
AcDbCircle
 10
145.6439374655881
 20
59.81821888815429
 30
0.0
 40
0.1500000000000057
100
AcDbArc
 50
179.9999999999998
 51
269.9999999999998
  0
LINE
  5
28A
330
1F
100
AcDbEntity
  8
1
  6
Continuous
 62
     7
370
     9
100
AcDbLine
 10
145.493937465588
 20
59.81821888815429
 30
0.0
 11
145.493937465588
 21
60.26821888815428
 31
0.0
  0
ARC
  5
28B
330
1F
100
AcDbEntity
  8
1
  6
Continuous
 62
     7
370
     9
100
AcDbCircle
 10
145.6439374655881
 20
60.26821888815428
 30
0.0
 40
0.1500000000000057
100
AcDbArc
 50
89.99999999999991
 51
179.9999999999998
  0
LINE
  5
28C
330
1F
100
AcDbEntity
  8
1
  6
Continuous
 62
     7
370
     9
100
AcDbLine
 10
146.8439374655881
 20
59.66821888815431
 30
0.0
 11
145.6439374655881
 21
59.66821888815431
 31
0.0
  0
LINE
  5
28D
330
1F
100
AcDbEntity
  8
1
  6
Continuous
 62
     7
370
     9
100
AcDbLine
 10
146.8439374655881
 20
60.41821888815431
 30
0.0
 11
145.6439374655881
 21
60.41821888815431
 31
0.0
  0
CIRCLE
  5
28E
330
1F
100
AcDbEntity
  8
1
  6
Continuous
 62
     7
370
     9
100
AcDbCircle
 10
152.143937465588
 20
56.13321888815437
 30
0.0
 40
0.25
  0
CIRCLE
  5
28F
330
1F
100
AcDbEntity
  8
1
  6
Continuous
 62
     7
370
     9
100
AcDbCircle
 10
152.1439374655881
 20
53.21321888815436
 30
0.0
 40
0.25
  0
CIRCLE
  5
290
330
1F
100
AcDbEntity
  8
1
  6
Continuous
 62
     7
370
     9
100
AcDbCircle
 10
152.1439374655881
 20
51.75321888815438
 30
0.0
 40
0.25
  0
CIRCLE
  5
291
330
1F
100
AcDbEntity
  8
1
  6
Continuous
 62
     7
370
     9
100
AcDbCircle
 10
152.143937465588
 20
59.03321888815435
 30
0.0
 40
0.25
  0
ARC
  5
292
330
1F
100
AcDbEntity
  8
1
  6
Continuous
 62
     7
370
     9
100
AcDbCircle
 10
146.843937465588
 20
68.7482188881543
 30
0.0
 40
0.1500000000000057
100
AcDbArc
 50
0.0
 51
89.99999999998914
  0
LINE
  5
293
330
1F
100
AcDbEntity
  8
1
  6
Continuous
 62
     7
370
     9
100
AcDbLine
 10
146.993937465588
 20
68.7482188881543
 30
0.0
 11
146.993937465588
 21
68.29821888815431
 31
0.0
  0
LINE
  5
294
330
1F
100
AcDbEntity
  8
1
  6
Continuous
 62
     7
370
     9
100
AcDbLine
 10
145.493937465588
 20
68.29821888815431
 30
0.0
 11
145.493937465588
 21
68.7482188881543
 31
0.0
  0
ARC
  5
295
330
1F
100
AcDbEntity
  8
1
  6
Continuous
 62
     7
370
     9
100
AcDbCircle
 10
145.643937465588
 20
68.7482188881543
 30
0.0
 40
0.1500000000000057
100
AcDbArc
 50
89.99999999998914
 51
179.9999999999998
  0
LINE
  5
296
330
1F
100
AcDbEntity
  8
1
  6
Continuous
 62
     7
370
     9
100
AcDbLine
 10
146.8439374655881
 20
68.89821888815428
 30
0.0
 11
145.6439374655881
 21
68.89821888815428
 31
0.0
  0
LINE
  5
297
330
1F
100
AcDbEntity
  8
1
  6
Continuous
 62
     7
370
     9
100
AcDbLine
 10
161.0939374655881
 20
49.02169397545237
 30
0.0
 11
161.0939374655881
 21
49.98582961374794
 31
0.0
  0
LINE
  5
298
330
1F
100
AcDbEntity
  8
1
  6
Continuous
 62
     7
370
     9
100
AcDbLine
 10
155.4939374655881
 20
49.02169397545237
 30
0.0
 11
155.4939374655881
 21
49.98582961374794
 31
0.0
  0
LINE
  5
299
330
1F
100
AcDbEntity
  8
1
  6
Continuous
 62
     7
370
     9
100
AcDbLine
 10
161.393937465588
 20
39.86321888815419
 30
0.0
 11
161.393937465588
 21
56.31321888815418
 31
0.0
  0
LINE
  5
29A
330
1F
100
AcDbEntity
  8
1
  6
Continuous
 62
     7
370
     9
100
AcDbLine
 10
155.1939374655881
 20
39.86321888815419
 30
0.0
 11
155.1939374655881
 21
56.31321888815418
 31
0.0
  0
LINE
  5
29B
330
1F
100
AcDbEntity
  8
1
  6
Continuous
 62
     7
370
     9
100
AcDbLine
 10
168.1939374655881
 20
56.31321888815418
 30
0.0
 11
168.1939374655881
 21
43.61321888815417
 31
0.0
  0
LINE
  5
29C
330
1F
100
AcDbEntity
  8
1
  6
Continuous
 62
     7
370
     9
100
AcDbLine
 10
161.5939374655881
 20
56.31321888815418
 30
0.0
 11
161.5939374655881
 21
40.31321888815418
 31
0.0
  0
LINE
  5
29D
330
1F
100
AcDbEntity
  8
1
  6
Continuous
 62
     7
370
     9
100
AcDbLine
 10
165.8939374655881
 20
43.61321888815417
 30
0.0
 11
165.8939374655881
 21
56.31321888815418
 31
0.0
  0
LINE
  5
29E
330
1F
100
AcDbEntity
  8
1
  6
Continuous
 62
     7
370
     9
100
AcDbLine
 10
168.6939374655881
 20
56.31321888815418
 30
0.0
 11
168.6939374655881
 21
44.11321888815417
 31
0.0
  0
LINE
  5
29F
330
1F
100
AcDbEntity
  8
1
  6
Continuous
 62
     7
370
     9
100
AcDbLine
 10
164.6939374655881
 20
56.31321888815418
 30
0.0
 11
164.6939374655881
 21
40.61321888815417
 31
0.0
  0
LINE
  5
2A0
330
1F
100
AcDbEntity
  8
1
  6
Continuous
 62
     7
370
     9
100
AcDbLine
 10
154.3939374655881
 20
56.31321888815418
 30
0.0
 11
154.3939374655881
 21
39.71321888815419
 31
0.0
  0
LINE
  5
2A1
330
1F
100
AcDbEntity
  8
1
  6
Continuous
 62
     7
370
     9
100
AcDbLine
 10
154.9939374655881
 20
56.31321888815418
 30
0.0
 11
154.9939374655881
 21
40.01321888815417
 31
0.0
  0
LINE
  5
2A2
330
1F
100
AcDbEntity
  8
1
  6
Continuous
 62
     7
370
     9
100
AcDbLine
 10
161.3939374655881
 20
56.31321888815418
 30
0.0
 11
161.3939374655881
 21
39.86321888815417
 31
0.0
  0
LINE
  5
2A3
330
1F
100
AcDbEntity
  8
1
  6
Continuous
 62
     7
370
     9
100
AcDbLine
 10
169.6225628887967
 20
56.31321888815418
 30
0.0
 11
169.6225628887967
 21
47.5132188881542
 31
0.0
  0
LINE
  5
2A4
330
1F
100
AcDbEntity
  8
1
  6
Continuous
 62
     7
370
     9
100
AcDbLine
 10
161.5939374655881
 20
40.31321888815418
 30
0.0
 11
164.3939374655881
 21
40.31321888815418
 31
0.0
  0
LINE
  5
2A5
330
1F
100
AcDbEntity
  8
1
  6
Continuous
 62
     7
370
     9
100
AcDbLine
 10
155.4939374655881
 20
49.02169397545237
 30
0.0
 11
161.0939374655881
 21
49.02169397545237
 31
0.0
  0
LINE
  5
2A6
330
1F
100
AcDbEntity
  8
1
  6
Continuous
 62
     7
370
     9
100
AcDbLine
 10
161.393937465588
 20
48.90119156811704
 30
0.0
 11
155.1939374655881
 21
48.90119156811704
 31
0.0
  0
LINE
  5
2A7
330
1F
100
AcDbEntity
  8
1
  6
Continuous
 62
     7
370
     9
100
AcDbLine
 10
155.1939374655881
 20
48.28312825311582
 30
0.0
 11
161.3939374655881
 21
48.28312825311582
 31
0.0
  0
LINE
  5
2A8
330
1F
100
AcDbEntity
  8
1
  6
Continuous
 62
     7
370
     9
100
AcDbLine
 10
161.093937465588
 20
47.88898263854949
 30
0.0
 11
155.4939374655881
 21
47.88898263854949
 31
0.0
  0
LINE
  5
2A9
330
1F
100
AcDbEntity
  8
1
  6
Continuous
 62
     7
370
     9
100
AcDbLine
 10
155.4939374655881
 20
46.99397146460851
 30
0.0
 11
161.093937465588
 21
46.99397146460851
 31
0.0
  0
LINE
  5
2AA
330
1F
100
AcDbEntity
  8
1
  6
Continuous
 62
     7
370
     9
100
AcDbLine
 10
161.393937465588
 20
46.92949624582687
 30
0.0
 11
155.1939374655881
 21
46.92949624582687
 31
0.0
  0
LINE
  5
2AB
330
1F
100
AcDbEntity
  8
1
  6
Continuous
 62
     7
370
     9
100
AcDbLine
 10
161.393937465588
 20
46.36318434976442
 30
0.0
 11
155.1939374655881
 21
46.36318434976442
 31
0.0
  0
LINE
  5
2AC
330
1F
100
AcDbEntity
  8
1
  6
Continuous
 62
     7
370
     9
100
AcDbLine
 10
155.4939374655881
 20
45.95610383952285
 30
0.0
 11
161.093937465588
 21
45.95610383952285
 31
0.0
  0
LINE
  5
2AD
330
1F
100
AcDbEntity
  8
1
  6
Continuous
 62
     7
370
     9
100
AcDbLine
 10
155.1939374655881
 20
45.14763750437717
 30
0.0
 11
161.3939374655881
 21
45.14763750437717
 31
0.0
  0
LINE
  5
2AE
330
1F
100
AcDbEntity
  8
1
  6
Continuous
 62
     7
370
     9
100
AcDbLine
 10
161.3939374655881
 20
44.63690655070624
 30
0.0
 11
155.1939374655881
 21
44.63690655070624
 31
0.0
  0
LINE
  5
2AF
330
1F
100
AcDbEntity
  8
1
  6
Continuous
 62
     7
370
     9
100
AcDbLine
 10
161.093937465588
 20
44.22481450387409
 30
0.0
 11
155.4939374655881
 21
44.22481450387409
 31
0.0
  0
LINE
  5
2B0
330
1F
100
AcDbEntity
  8
1
  6
Continuous
 62
     7
370
     9
100
AcDbLine
 10
161.0939374655881
 20
43.51862888512045
 30
0.0
 11
155.4939374655881
 21
43.51862888512045
 31
0.0
  0
LINE
  5
2B1
330
1F
100
AcDbEntity
  8
1
  6
Continuous
 62
     7
370
     9
100
AcDbLine
 10
161.393937465588
 20
43.13789488968806
 30
0.0
 11
155.1939374655881
 21
43.13789488968806
 31
0.0
  0
LINE
  5
2B2
330
1F
100
AcDbEntity
  8
1
  6
Continuous
 62
     7
370
     9
100
AcDbLine
 10
161.093937465588
 20
42.72881220920914
 30
0.0
 11
155.4939374655881
 21
42.72881220920914
 31
0.0
  0
LINE
  5
2B3
330
1F
100
AcDbEntity
  8
1
  6
Continuous
 62
     7
370
     9
100
AcDbLine
 10
155.4939374655881
 20
42.13865240664236
 30
0.0
 11
161.093937465588
 21
42.13865240664236
 31
0.0
  0
LINE
  5
2B4
330
1F
100
AcDbEntity
  8
1
  6
Continuous
 62
     7
370
     9
100
AcDbLine
 10
161.3939374655881
 20
41.89532592359112
 30
0.0
 11
155.1939374655881
 21
41.89532592359112
 31
0.0
  0
LINE
  5
2B5
330
1F
100
AcDbEntity
  8
1
  6
Continuous
 62
     7
370
     9
100
AcDbLine
 10
161.093937465588
 20
41.49721493851629
 30
0.0
 11
155.4939374655881
 21
41.49721493851629
 31
0.0
  0
LINE
  5
2B6
330
1F
100
AcDbEntity
  8
1
  6
Continuous
 62
     7
370
     9
100
AcDbLine
 10
161.0939374655881
 20
41.0345677413965
 30
0.0
 11
155.4939374655881
 21
41.0345677413965
 31
0.0
  0
LINE
  5
2B7
330
1F
100
AcDbEntity
  8
1
  6
Continuous
 62
     7
370
     9
100
AcDbLine
 10
161.393937465588
 20
40.93338484393922
 30
0.0
 11
155.1939374655881
 21
40.93338484393922
 31
0.0
  0
LINE
  5
2B8
330
1F
100
AcDbEntity
  8
1
  6
Continuous
 62
     7
370
     9
100
AcDbLine
 10
161.093937465588
 20
40.55399433174844
 30
0.0
 11
155.4939374655881
 21
40.55399433174844
 31
0.0
  0
LINE
  5
2B9
330
1F
100
AcDbEntity
  8
1
  6
Continuous
 62
     7
370
     9
100
AcDbLine
 10
161.093937465588
 20
40.2278646415142
 30
0.0
 11
155.4939374655881
 21
40.2278646415142
 31
0.0
  0
LINE
  5
2BA
330
1F
100
AcDbEntity
  8
1
  6
Continuous
 62
     7
370
     9
100
AcDbLine
 10
161.093937465588
 20
39.9175091051188
 30
0.0
 11
155.4939374655881
 21
39.9175091051188
 31
0.0
  0
LINE
  5
2BB
330
1F
100
AcDbEntity
  8
1
  6
Continuous
 62
     7
370
     9
100
AcDbLine
 10
161.0939374655881
 20
39.73424466522349
 30
0.0
 11
155.4939374655881
 21
39.73424466522349
 31
0.0
  0
LINE
  5
2BC
330
1F
100
AcDbEntity
  8
1
  6
Continuous
 62
     7
370
     9
100
AcDbLine
 10
161.093937465588
 20
39.60014771957245
 30
0.0
 11
155.4939374655881
 21
39.60014771957245
 31
0.0
  0
LINE
  5
2BD
330
1F
100
AcDbEntity
  8
1
  6
Continuous
 62
     7
370
     9
100
AcDbLine
 10
161.093937465588
 20
39.56321888815418
 30
0.0
 11
155.4939374655881
 21
39.56321888815418
 31
0.0
  0
LINE
  5
2BE
330
1F
100
AcDbEntity
  8
1
  6
Continuous
 62
     7
370
     9
100
AcDbLine
 10
155.4939374655881
 20
49.02169397545237
 30
0.0
 11
155.1939374655881
 21
48.90119156811704
 31
0.0
  0
LINE
  5
2BF
330
1F
100
AcDbEntity
  8
1
  6
Continuous
 62
     7
370
     9
100
AcDbLine
 10
155.4939374655881
 20
46.99397146460851
 30
0.0
 11
155.1939374655881
 21
46.92949624582687
 31
0.0
  0
LINE
  5
2C0
330
1F
100
AcDbEntity
  8
1
  6
Continuous
 62
     7
370
     9
100
AcDbLine
 10
155.4939374655881
 20
47.88898263854949
 30
0.0
 11
155.1939374655881
 21
48.28312825311582
 31
0.0
  0
LINE
  5
2C1
330
1F
100
AcDbEntity
  8
1
  6
Continuous
 62
     7
370
     9
100
AcDbLine
 10
155.4939374655881
 20
46.99397146460851
 30
0.0
 11
155.4939374655881
 21
47.88898263854949
 31
0.0
  0
LINE
  5
2C2
330
1F
100
AcDbEntity
  8
1
  6
Continuous
 62
     7
370
     9
100
AcDbLine
 10
155.4939374655881
 20
45.95610383952285
 30
0.0
 11
155.1939374655881
 21
46.36318434976442
 31
0.0
  0
LINE
  5
2C3
330
1F
100
AcDbEntity
  8
1
  6
Continuous
 62
     7
370
     9
100
AcDbLine
 10
155.4939374655881
 20
45.14763750437717
 30
0.0
 11
155.4939374655881
 21
45.95610383952285
 31
0.0
  0
LINE
  5
2C4
330
1F
100
AcDbEntity
  8
1
  6
Continuous
 62
     7
370
     9
100
AcDbLine
 10
155.4939374655881
 20
43.51862888512045
 30
0.0
 11
155.1939374655881
 21
43.56885792241602
 31
0.0
  0
LINE
  5
2C5
330
1F
100
AcDbEntity
  8
1
  6
Continuous
 62
     7
370
     9
100
AcDbLine
 10
155.4939374655881
 20
42.72881220920914
 30
0.0
 11
155.1939374655881
 21
43.13789488968806
 31
0.0
  0
LINE
  5
2C6
330
1F
100
AcDbEntity
  8
1
  6
Continuous
 62
     7
370
     9
100
AcDbLine
 10
155.4939374655881
 20
44.22481450387409
 30
0.0
 11
155.1939374655881
 21
44.63690655070624
 31
0.0
  0
LINE
  5
2C7
330
1F
100
AcDbEntity
  8
1
  6
Continuous
 62
     7
370
     9
100
AcDbLine
 10
155.4939374655881
 20
43.51862888512045
 30
0.0
 11
155.4939374655881
 21
44.22481450387409
 31
0.0
  0
LINE
  5
2C8
330
1F
100
AcDbEntity
  8
1
  6
Continuous
 62
     7
370
     9
100
AcDbLine
 10
155.4939374655881
 20
42.13865240664236
 30
0.0
 11
155.1939374655881
 21
42.24532592359111
 31
0.0
  0
LINE
  5
2C9
330
1F
100
AcDbEntity
  8
1
  6
Continuous
 62
     7
370
     9
100
AcDbLine
 10
155.1939374655881
 20
41.89532592359112
 30
0.0
 11
155.4939374655881
 21
41.49721493851629
 31
0.0
  0
LINE
  5
2CA
330
1F
100
AcDbEntity
  8
1
  6
Continuous
 62
     7
370
     9
100
AcDbLine
 10
155.4939374655881
 20
41.0345677413965
 30
0.0
 11
155.1939374655881
 21
41.19560945933034
 31
0.0
  0
LINE
  5
2CB
330
1F
100
AcDbEntity
  8
1
  6
Continuous
 62
     7
370
     9
100
AcDbLine
 10
155.4939374655881
 20
41.0345677413965
 30
0.0
 11
155.4939374655881
 21
41.49721493851629
 31
0.0
  0
LINE
  5
2CC
330
1F
100
AcDbEntity
  8
1
  6
Continuous
 62
     7
370
     9
100
AcDbLine
 10
155.1939374655881
 20
40.81321888815418
 30
0.0
 11
154.9939374655881
 21
40.81321888815418
 31
0.0
  0
LINE
  5
2CD
330
1F
100
AcDbEntity
  8
1
  6
Continuous
 62
     7
370
     9
100
AcDbLine
 10
155.1939374655881
 20
40.44014006657579
 30
0.0
 11
155.4939374655881
 21
40.2278646415142
 31
0.0
  0
LINE
  5
2CE
330
1F
100
AcDbEntity
  8
1
  6
Continuous
 62
     7
370
     9
100
AcDbLine
 10
155.4939374655881
 20
39.73424466522346
 30
0.0
 11
155.1939374655881
 21
39.99362209772369
 31
0.0
  0
LINE
  5
2CF
330
1F
100
AcDbEntity
  8
1
  6
Continuous
 62
     7
370
     9
100
AcDbLine
 10
155.4939374655881
 20
39.56321888815418
 30
0.0
 11
155.1939374655881
 21
39.86321888815419
 31
0.0
  0
LINE
  5
2D0
330
1F
100
AcDbEntity
  8
1
  6
Continuous
 62
     7
370
     9
100
AcDbLine
 10
155.4939374655881
 20
39.9175091051188
 30
0.0
 11
155.1939374655881
 21
40.27079473965603
 31
0.0
  0
LINE
  5
2D1
330
1F
100
AcDbEntity
  8
1
  6
Continuous
 62
     7
370
     9
100
AcDbLine
 10
155.4939374655881
 20
39.60014771957245
 30
0.0
 11
155.1939374655881
 21
39.86321888815419
 31
0.0
  0
LINE
  5
2D2
330
1F
100
AcDbEntity
  8
1
  6
Continuous
 62
     7
370
     9
100
AcDbLine
 10
155.4939374655881
 20
40.2278646415142
 30
0.0
 11
155.4939374655881
 21
40.55399433174844
 31
0.0
  0
LINE
  5
2D3
330
1F
100
AcDbEntity
  8
1
  6
Continuous
 62
     7
370
     9
100
AcDbLine
 10
155.4939374655881
 20
39.56321888815418
 30
0.0
 11
155.4939374655881
 21
39.60014771957245
 31
0.0
  0
LINE
  5
2D4
330
1F
100
AcDbEntity
  8
1
  6
Continuous
 62
     7
370
     9
100
AcDbLine
 10
155.4939374655881
 20
39.73424466522349
 30
0.0
 11
155.4939374655881
 21
39.9175091051188
 31
0.0
  0
LINE
  5
2D5
330
1F
100
AcDbEntity
  8
1
  6
Continuous
 62
     7
370
     9
100
AcDbLine
 10
155.4939374655881
 20
39.56321888815418
 30
0.0
 11
155.1939374655881
 21
39.86321888815417
 31
0.0
  0
LINE
  5
2D6
330
1F
100
AcDbEntity
  8
1
  6
Continuous
 62
     7
370
     9
100
AcDbLine
 10
154.3939374655881
 20
39.71321888815419
 30
0.0
 11
154.6939374655881
 21
39.71321888815419
 31
0.0
  0
LINE
  5
2D7
330
1F
100
AcDbEntity
  8
1
  6
Continuous
 62
     7
370
     9
100
AcDbLine
 10
154.6939374655881
 20
39.71321888815419
 30
0.0
 11
154.9939374655881
 21
40.01321888815417
 31
0.0
  0
LINE
  5
2D8
330
1F
100
AcDbEntity
  8
1
  6
Continuous
 62
     7
370
     9
100
AcDbLine
 10
155.4939374655881
 20
39.56321888815418
 30
0.0
 11
155.1939374655881
 21
39.86321888815417
 31
0.0
  0
LINE
  5
2D9
330
1F
100
AcDbEntity
  8
1
  6
Continuous
 62
     7
370
     9
100
AcDbLine
 10
155.1939374655881
 20
40.93338484393922
 30
0.0
 11
155.4939374655881
 21
40.55399433174844
 31
0.0
  0
LINE
  5
2DA
330
1F
100
AcDbEntity
  8
1
  6
Continuous
 62
     7
370
     9
100
AcDbLine
 10
155.4939374655881
 20
42.13865240664236
 30
0.0
 11
155.4939374655881
 21
42.72881220920914
 31
0.0
  0
LINE
  5
2DB
330
1F
100
AcDbEntity
  8
1
  6
Continuous
 62
     7
370
     9
100
AcDbLine
 10
161.0939374655881
 20
49.02169397545237
 30
0.0
 11
161.393937465588
 21
48.90119156811704
 31
0.0
  0
LINE
  5
2DC
330
1F
100
AcDbEntity
  8
1
  6
Continuous
 62
     7
370
     9
100
AcDbLine
 10
161.093937465588
 20
46.99397146460851
 30
0.0
 11
161.393937465588
 21
46.92949624582687
 31
0.0
  0
LINE
  5
2DD
330
1F
100
AcDbEntity
  8
1
  6
Continuous
 62
     7
370
     9
100
AcDbLine
 10
161.093937465588
 20
47.88898263854949
 30
0.0
 11
161.393937465588
 21
48.28312825311582
 31
0.0
  0
LINE
  5
2DE
330
1F
100
AcDbEntity
  8
1
  6
Continuous
 62
     7
370
     9
100
AcDbLine
 10
161.093937465588
 20
46.99397146460851
 30
0.0
 11
161.093937465588
 21
47.88898263854949
 31
0.0
  0
LINE
  5
2DF
330
1F
100
AcDbEntity
  8
1
  6
Continuous
 62
     7
370
     9
100
AcDbLine
 10
161.093937465588
 20
45.95610383952285
 30
0.0
 11
161.393937465588
 21
46.36318434976442
 31
0.0
  0
LINE
  5
2E0
330
1F
100
AcDbEntity
  8
1
  6
Continuous
 62
     7
370
     9
100
AcDbLine
 10
161.093937465588
 20
45.14763750437717
 30
0.0
 11
161.093937465588
 21
45.95610383952285
 31
0.0
  0
LINE
  5
2E1
330
1F
100
AcDbEntity
  8
1
  6
Continuous
 62
     7
370
     9
100
AcDbLine
 10
161.093937465588
 20
43.51862888512045
 30
0.0
 11
161.393937465588
 21
43.56885792241602
 31
0.0
  0
LINE
  5
2E2
330
1F
100
AcDbEntity
  8
1
  6
Continuous
 62
     7
370
     9
100
AcDbLine
 10
161.093937465588
 20
42.72881220920914
 30
0.0
 11
161.393937465588
 21
43.13789488968806
 31
0.0
  0
LINE
  5
2E3
330
1F
100
AcDbEntity
  8
1
  6
Continuous
 62
     7
370
     9
100
AcDbLine
 10
161.093937465588
 20
44.22481450387409
 30
0.0
 11
161.393937465588
 21
44.63690655070624
 31
0.0
  0
LINE
  5
2E4
330
1F
100
AcDbEntity
  8
1
  6
Continuous
 62
     7
370
     9
100
AcDbLine
 10
161.093937465588
 20
43.51862888512045
 30
0.0
 11
161.093937465588
 21
44.22481450387409
 31
0.0
  0
LINE
  5
2E5
330
1F
100
AcDbEntity
  8
1
  6
Continuous
 62
     7
370
     9
100
AcDbLine
 10
161.093937465588
 20
42.13865240664236
 30
0.0
 11
161.393937465588
 21
42.24532592359111
 31
0.0
  0
LINE
  5
2E6
330
1F
100
AcDbEntity
  8
1
  6
Continuous
 62
     7
370
     9
100
AcDbLine
 10
161.393937465588
 20
41.89532592359112
 30
0.0
 11
161.093937465588
 21
41.49721493851629
 31
0.0
  0
LINE
  5
2E7
330
1F
100
AcDbEntity
  8
1
  6
Continuous
 62
     7
370
     9
100
AcDbLine
 10
161.093937465588
 20
41.0345677413965
 30
0.0
 11
161.393937465588
 21
41.19560945933034
 31
0.0
  0
LINE
  5
2E8
330
1F
100
AcDbEntity
  8
1
  6
Continuous
 62
     7
370
     9
100
AcDbLine
 10
161.093937465588
 20
41.0345677413965
 30
0.0
 11
161.093937465588
 21
41.49721493851629
 31
0.0
  0
LINE
  5
2E9
330
1F
100
AcDbEntity
  8
1
  6
Continuous
 62
     7
370
     9
100
AcDbLine
 10
161.5939374655881
 20
41.06321888815418
 30
0.0
 11
161.3939374655881
 21
41.06321888815418
 31
0.0
  0
LINE
  5
2EA
330
1F
100
AcDbEntity
  8
1
  6
Continuous
 62
     7
370
     9
100
AcDbLine
 10
161.393937465588
 20
40.44014006657579
 30
0.0
 11
161.093937465588
 21
40.2278646415142
 31
0.0
  0
LINE
  5
2EB
330
1F
100
AcDbEntity
  8
1
  6
Continuous
 62
     7
370
     9
100
AcDbLine
 10
161.093937465588
 20
39.73424466522346
 30
0.0
 11
161.393937465588
 21
39.99362209772369
 31
0.0
  0
LINE
  5
2EC
330
1F
100
AcDbEntity
  8
1
  6
Continuous
 62
     7
370
     9
100
AcDbLine
 10
161.093937465588
 20
39.56321888815418
 30
0.0
 11
161.393937465588
 21
39.86321888815419
 31
0.0
  0
LINE
  5
2ED
330
1F
100
AcDbEntity
  8
1
  6
Continuous
 62
     7
370
     9
100
AcDbLine
 10
161.093937465588
 20
39.9175091051188
 30
0.0
 11
161.393937465588
 21
40.27079473965603
 31
0.0
  0
LINE
  5
2EE
330
1F
100
AcDbEntity
  8
1
  6
Continuous
 62
     7
370
     9
100
AcDbLine
 10
161.093937465588
 20
39.60014771957245
 30
0.0
 11
161.393937465588
 21
39.86321888815419
 31
0.0
  0
LINE
  5
2EF
330
1F
100
AcDbEntity
  8
1
  6
Continuous
 62
     7
370
     9
100
AcDbLine
 10
161.093937465588
 20
40.2278646415142
 30
0.0
 11
161.093937465588
 21
40.55399433174844
 31
0.0
  0
LINE
  5
2F0
330
1F
100
AcDbEntity
  8
1
  6
Continuous
 62
     7
370
     9
100
AcDbLine
 10
161.093937465588
 20
39.9175091051188
 30
0.0
 11
161.093937465588
 21
39.73424466522346
 31
0.0
  0
LINE
  5
2F1
330
1F
100
AcDbEntity
  8
1
  6
Continuous
 62
     7
370
     9
100
AcDbLine
 10
161.093937465588
 20
39.56321888815418
 30
0.0
 11
161.093937465588
 21
39.60014771957245
 31
0.0
  0
LINE
  5
2F2
330
1F
100
AcDbEntity
  8
1
  6
Continuous
 62
     7
370
     9
100
AcDbLine
 10
161.093937465588
 20
39.56321888815418
 30
0.0
 11
161.393937465588
 21
39.86321888815417
 31
0.0
  0
LINE
  5
2F3
330
1F
100
AcDbEntity
  8
1
  6
Continuous
 62
     7
370
     9
100
AcDbLine
 10
161.0939374655881
 20
39.56321888815418
 30
0.0
 11
161.3939374655881
 21
39.86321888815417
 31
0.0
  0
LINE
  5
2F4
330
1F
100
AcDbEntity
  8
1
  6
Continuous
 62
     7
370
     9
100
AcDbLine
 10
161.393937465588
 20
40.93338484393922
 30
0.0
 11
161.093937465588
 21
40.55399433174844
 31
0.0
  0
LINE
  5
2F5
330
1F
100
AcDbEntity
  8
1
  6
Continuous
 62
     7
370
     9
100
AcDbLine
 10
161.093937465588
 20
42.13865240664236
 30
0.0
 11
161.093937465588
 21
42.72881220920914
 31
0.0
  0
LINE
  5
2F6
330
1F
100
AcDbEntity
  8
1
  6
Continuous
 62
     7
370
     9
100
AcDbLine
 10
165.8939374655881
 20
43.61321888815417
 30
0.0
 11
168.1939374655881
 21
43.61321888815417
 31
0.0
  0
LINE
  5
2F7
330
1F
100
AcDbEntity
  8
1
  6
Continuous
 62
     7
370
     9
100
AcDbLine
 10
165.8939374655881
 20
44.11321888815417
 30
0.0
 11
168.6939374655881
 21
44.11321888815417
 31
0.0
  0
LINE
  5
2F8
330
1F
100
AcDbEntity
  8
1
  6
Continuous
 62
     7
370
     9
100
AcDbLine
 10
164.6939374655881
 20
44.11321888815417
 30
0.0
 11
165.8939374655881
 21
44.11321888815417
 31
0.0
  0
LINE
  5
2F9
330
1F
100
AcDbEntity
  8
1
  6
Continuous
 62
     7
370
     9
100
AcDbLine
 10
164.3939374655881
 20
40.31321888815418
 30
0.0
 11
164.6939374655881
 21
40.61321888815417
 31
0.0
  0
LINE
  5
2FA
330
1F
100
AcDbEntity
  8
1
  6
Continuous
 62
     7
370
     9
100
AcDbLine
 10
169.4225628887966
 20
47.31321888815418
 30
0.0
 11
169.6225628887967
 21
47.5132188881542
 31
0.0
  0
LINE
  5
2FB
330
1F
100
AcDbEntity
  8
1
  6
Continuous
 62
     7
370
     9
100
AcDbLine
 10
168.6939374655881
 20
47.31321888815418
 30
0.0
 11
169.4225628887966
 21
47.31321888815418
 31
0.0
  0
LINE
  5
2FC
330
1F
100
AcDbEntity
  8
1
  6
Continuous
 62
     7
370
     9
100
AcDbLine
 10
168.1939374655881
 20
43.61321888815417
 30
0.0
 11
168.6939374655881
 21
44.11321888815417
 31
0.0
  0
LINE
  5
2FD
330
1F
100
AcDbEntity
  8
1
  6
Continuous
 62
     7
370
     9
100
AcDbLine
 10
161.5939374655881
 20
72.31321888815418
 30
0.0
 11
164.3939374655881
 21
72.31321888815418
 31
0.0
  0
LINE
  5
2FE
330
1F
100
AcDbEntity
  8
1
  6
Continuous
 62
     7
370
     9
100
AcDbLine
 10
161.093937465588
 20
68.40162327243428
 30
0.0
 11
161.393937465588
 21
67.98953122560212
 31
0.0
  0
LINE
  5
2FF
330
1F
100
AcDbEntity
  8
1
  6
Continuous
 62
     7
370
     9
100
AcDbLine
 10
155.4939374655881
 20
68.40162327243428
 30
0.0
 11
155.1939374655881
 21
67.98953122560212
 31
0.0
  0
LINE
  5
300
330
1F
100
AcDbEntity
  8
1
  6
Continuous
 62
     7
370
     9
100
AcDbLine
 10
161.393937465588
 20
72.76321888815417
 30
0.0
 11
161.393937465588
 21
56.31321888815418
 31
0.0
  0
LINE
  5
301
330
1F
100
AcDbEntity
  8
1
  6
Continuous
 62
     7
370
     9
100
AcDbLine
 10
155.1939374655881
 20
72.76321888815417
 30
0.0
 11
155.1939374655881
 21
56.31321888815418
 31
0.0
  0
LINE
  5
302
330
1F
100
AcDbEntity
  8
1
  6
Continuous
 62
     7
370
     9
100
AcDbLine
 10
161.5939374655881
 20
56.31321888815418
 30
0.0
 11
161.5939374655881
 21
72.31321888815418
 31
0.0
  0
LINE
  5
303
330
1F
100
AcDbEntity
  8
1
  6
Continuous
 62
     7
370
     9
100
AcDbLine
 10
154.3939374655881
 20
56.31321888815418
 30
0.0
 11
154.3939374655881
 21
72.91321888815418
 31
0.0
  0
LINE
  5
304
330
1F
100
AcDbEntity
  8
1
  6
Continuous
 62
     7
370
     9
100
AcDbLine
 10
154.9939374655881
 20
56.31321888815418
 30
0.0
 11
154.9939374655881
 21
72.6132188881542
 31
0.0
  0
LINE
  5
305
330
1F
100
AcDbEntity
  8
1
  6
Continuous
 62
     7
370
     9
100
AcDbLine
 10
161.3939374655881
 20
56.31321888815418
 30
0.0
 11
161.3939374655881
 21
72.7632188881542
 31
0.0
  0
LINE
  5
306
330
1F
100
AcDbEntity
  8
1
  6
Continuous
 62
     7
370
     9
100
AcDbLine
 10
155.1939374655881
 20
67.47880027193119
 30
0.0
 11
161.3939374655881
 21
67.47880027193119
 31
0.0
  0
LINE
  5
307
330
1F
100
AcDbEntity
  8
1
  6
Continuous
 62
     7
370
     9
100
AcDbLine
 10
161.3939374655881
 20
67.98953122560212
 30
0.0
 11
155.1939374655881
 21
67.98953122560212
 31
0.0
  0
LINE
  5
308
330
1F
100
AcDbEntity
  8
1
  6
Continuous
 62
     7
370
     9
100
AcDbLine
 10
155.4939374655881
 20
59.16576471149767
 30
0.0
 11
161.0939374655881
 21
59.16576471149767
 31
0.0
  0
LINE
  5
309
330
1F
100
AcDbEntity
  8
1
  6
Continuous
 62
     7
370
     9
100
AcDbLine
 10
161.3939374655881
 20
59.39024031494338
 30
0.0
 11
155.1939374655881
 21
59.39024031494338
 31
0.0
  0
LINE
  5
30A
330
1F
100
AcDbEntity
  8
1
  6
Continuous
 62
     7
370
     9
100
AcDbLine
 10
161.3939374655881
 20
60.07494363545706
 30
0.0
 11
155.1939374655881
 21
60.07494363545706
 31
0.0
  0
LINE
  5
30B
330
1F
100
AcDbEntity
  8
1
  6
Continuous
 62
     7
370
     9
100
AcDbLine
 10
155.4939374655881
 20
60.42060575243423
 30
0.0
 11
161.0939374655881
 21
60.42060575243423
 31
0.0
  0
LINE
  5
30C
330
1F
100
AcDbEntity
  8
1
  6
Continuous
 62
     7
370
     9
100
AcDbLine
 10
161.0939374655881
 20
61.43510005157307
 30
0.0
 11
155.4939374655881
 21
61.43510005157307
 31
0.0
  0
LINE
  5
30D
330
1F
100
AcDbEntity
  8
1
  6
Continuous
 62
     7
370
     9
100
AcDbLine
 10
155.1939374655881
 20
61.60928420517271
 30
0.0
 11
161.393937465588
 21
61.60928420517271
 31
0.0
  0
LINE
  5
30E
330
1F
100
AcDbEntity
  8
1
  6
Continuous
 62
     7
370
     9
100
AcDbLine
 10
155.1939374655881
 20
62.26706903972286
 30
0.0
 11
161.393937465588
 21
62.26706903972286
 31
0.0
  0
LINE
  5
30F
330
1F
100
AcDbEntity
  8
1
  6
Continuous
 62
     7
370
     9
100
AcDbLine
 10
161.0939374655881
 20
62.64060816256043
 30
0.0
 11
155.4939374655881
 21
62.64060816256043
 31
0.0
  0
LINE
  5
310
330
1F
100
AcDbEntity
  8
1
  6
Continuous
 62
     7
370
     9
100
AcDbLine
 10
155.4939374655881
 20
63.604743800856
 30
0.0
 11
161.0939374655881
 21
63.604743800856
 31
0.0
  0
LINE
  5
311
330
1F
100
AcDbEntity
  8
1
  6
Continuous
 62
     7
370
     9
100
AcDbLine
 10
161.393937465588
 20
63.72524620819132
 30
0.0
 11
155.1939374655881
 21
63.72524620819132
 31
0.0
  0
LINE
  5
312
330
1F
100
AcDbEntity
  8
1
  6
Continuous
 62
     7
370
     9
100
AcDbLine
 10
155.1939374655881
 20
64.34330952319254
 30
0.0
 11
161.3939374655881
 21
64.34330952319254
 31
0.0
  0
LINE
  5
313
330
1F
100
AcDbEntity
  8
1
  6
Continuous
 62
     7
370
     9
100
AcDbLine
 10
161.093937465588
 20
64.73745513775887
 30
0.0
 11
155.4939374655881
 21
64.73745513775887
 31
0.0
  0
LINE
  5
314
330
1F
100
AcDbEntity
  8
1
  6
Continuous
 62
     7
370
     9
100
AcDbLine
 10
155.4939374655881
 20
65.63246631169986
 30
0.0
 11
161.093937465588
 21
65.63246631169986
 31
0.0
  0
LINE
  5
315
330
1F
100
AcDbEntity
  8
1
  6
Continuous
 62
     7
370
     9
100
AcDbLine
 10
161.393937465588
 20
65.6969415304815
 30
0.0
 11
155.1939374655881
 21
65.6969415304815
 31
0.0
  0
LINE
  5
316
330
1F
100
AcDbEntity
  8
1
  6
Continuous
 62
     7
370
     9
100
AcDbLine
 10
161.393937465588
 20
66.26325342654394
 30
0.0
 11
155.1939374655881
 21
66.26325342654394
 31
0.0
  0
LINE
  5
317
330
1F
100
AcDbEntity
  8
1
  6
Continuous
 62
     7
370
     9
100
AcDbLine
 10
155.4939374655881
 20
66.67033393678551
 30
0.0
 11
161.093937465588
 21
66.67033393678551
 31
0.0
  0
LINE
  5
318
330
1F
100
AcDbEntity
  8
1
  6
Continuous
 62
     7
370
     9
100
AcDbLine
 10
155.4939374655881
 20
53.46067306481069
 30
0.0
 11
161.0939374655881
 21
53.46067306481069
 31
0.0
  0
LINE
  5
319
330
1F
100
AcDbEntity
  8
1
  6
Continuous
 62
     7
370
     9
100
AcDbLine
 10
161.3939374655881
 20
53.23619746136498
 30
0.0
 11
155.1939374655881
 21
53.23619746136498
 31
0.0
  0
LINE
  5
31A
330
1F
100
AcDbEntity
  8
1
  6
Continuous
 62
     7
370
     9
100
AcDbLine
 10
161.3939374655881
 20
52.5514941408513
 30
0.0
 11
155.1939374655881
 21
52.5514941408513
 31
0.0
  0
LINE
  5
31B
330
1F
100
AcDbEntity
  8
1
  6
Continuous
 62
     7
370
     9
100
AcDbLine
 10
155.4939374655881
 20
52.20583202387414
 30
0.0
 11
161.0939374655881
 21
52.20583202387414
 31
0.0
  0
LINE
  5
31C
330
1F
100
AcDbEntity
  8
1
  6
Continuous
 62
     7
370
     9
100
AcDbLine
 10
161.0939374655881
 20
51.19133772473529
 30
0.0
 11
155.4939374655881
 21
51.19133772473529
 31
0.0
  0
LINE
  5
31D
330
1F
100
AcDbEntity
  8
1
  6
Continuous
 62
     7
370
     9
100
AcDbLine
 10
155.1939374655881
 20
51.01715357113565
 30
0.0
 11
161.393937465588
 21
51.01715357113565
 31
0.0
  0
CIRCLE
  5
31E
330
1F
100
AcDbEntity
  8
1
  6
Continuous
 62
     7
370
     9
100
AcDbCircle
 10
159.3939374655881
 20
56.31321888815418
 30
0.0
 40
2.000000000000028
  0
CIRCLE
  5
31F
330
1F
100
AcDbEntity
  8
1
  6
Continuous
 62
     7
370
     9
100
AcDbCircle
 10
159.3939374655881
 20
56.31321888815418
 30
0.0
 40
1.700000000000031
  0
LINE
  5
320
330
1F
100
AcDbEntity
  8
1
  6
Continuous
 62
     7
370
     9
100
AcDbLine
 10
155.1939374655881
 20
50.35936873658551
 30
0.0
 11
161.393937465588
 21
50.35936873658551
 31
0.0
  0
LINE
  5
321
330
1F
100
AcDbEntity
  8
1
  6
Continuous
 62
     7
370
     9
100
AcDbLine
 10
161.0939374655881
 20
49.98582961374794
 30
0.0
 11
155.4939374655881
 21
49.98582961374794
 31
0.0
  0
LINE
  5
322
330
1F
100
AcDbEntity
  8
1
  6
Continuous
 62
     7
370
     9
100
AcDbLine
 10
155.4939374655881
 20
66.67033393678551
 30
0.0
 11
155.1939374655881
 21
66.26325342654394
 31
0.0
  0
LINE
  5
323
330
1F
100
AcDbEntity
  8
1
  6
Continuous
 62
     7
370
     9
100
AcDbLine
 10
155.4939374655881
 20
65.63246631169986
 30
0.0
 11
155.1939374655881
 21
65.6969415304815
 31
0.0
  0
LINE
  5
324
330
1F
100
AcDbEntity
  8
1
  6
Continuous
 62
     7
370
     9
100
AcDbLine
 10
155.4939374655881
 20
64.73745513775887
 30
0.0
 11
155.1939374655881
 21
64.34330952319254
 31
0.0
  0
LINE
  5
325
330
1F
100
AcDbEntity
  8
1
  6
Continuous
 62
     7
370
     9
100
AcDbLine
 10
155.4939374655881
 20
63.604743800856
 30
0.0
 11
155.1939374655881
 21
63.72524620819132
 31
0.0
  0
LINE
  5
326
330
1F
100
AcDbEntity
  8
1
  6
Continuous
 62
     7
370
     9
100
AcDbLine
 10
155.4939374655881
 20
65.63246631169986
 30
0.0
 11
155.4939374655881
 21
64.73745513775887
 31
0.0
  0
LINE
  5
327
330
1F
100
AcDbEntity
  8
1
  6
Continuous
 62
     7
370
     9
100
AcDbLine
 10
155.4939374655881
 20
61.43510005157307
 30
0.0
 11
155.1939374655881
 21
61.60928420517271
 31
0.0
  0
LINE
  5
328
330
1F
100
AcDbEntity
  8
1
  6
Continuous
 62
     7
370
     9
100
AcDbLine
 10
155.1939374655881
 20
62.26706903972286
 30
0.0
 11
155.4939374655881
 21
62.64060816256043
 31
0.0
  0
LINE
  5
329
330
1F
100
AcDbEntity
  8
1
  6
Continuous
 62
     7
370
     9
100
AcDbLine
 10
155.4939374655881
 20
59.16576471149767
 30
0.0
 11
155.1939374655881
 21
59.39024031494338
 31
0.0
  0
LINE
  5
32A
330
1F
100
AcDbEntity
  8
1
  6
Continuous
 62
     7
370
     9
100
AcDbLine
 10
155.1939374655881
 20
60.07494363545706
 30
0.0
 11
155.4939374655881
 21
60.42060575243423
 31
0.0
  0
LINE
  5
32B
330
1F
100
AcDbEntity
  8
1
  6
Continuous
 62
     7
370
     9
100
AcDbLine
 10
155.4939374655881
 20
61.43510005157307
 30
0.0
 11
155.4939374655881
 21
60.42060575243423
 31
0.0
  0
LINE
  5
32C
330
1F
100
AcDbEntity
  8
1
  6
Continuous
 62
     7
370
     9
100
AcDbLine
 10
155.4939374655881
 20
63.604743800856
 30
0.0
 11
155.4939374655881
 21
62.64060816256043
 31
0.0
  0
ARC
  5
32D
330
1F
100
AcDbEntity
  8
1
  6
Continuous
 62
     7
370
     9
100
AcDbCircle
 10
156.7939374655881
 20
56.31321888815418
 30
0.0
 40
0.75
100
AcDbArc
 50
31.57854603590141
 51
328.4214539640982
  0
LINE
  5
32E
330
1F
100
AcDbEntity
  8
1
  6
Continuous
 62
     7
370
     9
100
AcDbLine
 10
155.4939374655881
 20
53.46067306481069
 30
0.0
 11
155.1939374655881
 21
53.23619746136498
 31
0.0
  0
LINE
  5
32F
330
1F
100
AcDbEntity
  8
1
  6
Continuous
 62
     7
370
     9
100
AcDbLine
 10
155.1939374655881
 20
52.5514941408513
 30
0.0
 11
155.4939374655881
 21
52.20583202387414
 31
0.0
  0
LINE
  5
330
330
1F
100
AcDbEntity
  8
1
  6
Continuous
 62
     7
370
     9
100
AcDbLine
 10
155.4939374655881
 20
51.19133772473529
 30
0.0
 11
155.1939374655881
 21
51.01715357113565
 31
0.0
  0
LINE
  5
331
330
1F
100
AcDbEntity
  8
1
  6
Continuous
 62
     7
370
     9
100
AcDbLine
 10
155.4939374655881
 20
51.19133772473529
 30
0.0
 11
155.4939374655881
 21
52.20583202387414
 31
0.0
  0
LINE
  5
332
330
1F
100
AcDbEntity
  8
1
  6
Continuous
 62
     7
370
     9
100
AcDbLine
 10
155.4939374655881
 20
53.46067306481069
 30
0.0
 11
155.4939374655881
 21
56.31321888815418
 31
0.0
  0
LINE
  5
333
330
1F
100
AcDbEntity
  8
1
  6
Continuous
 62
     7
370
     9
100
AcDbLine
 10
155.4939374655881
 20
59.16576471149767
 30
0.0
 11
155.4939374655881
 21
56.31321888815418
 31
0.0
  0
LINE
  5
334
330
1F
100
AcDbEntity
  8
1
  6
Continuous
 62
     7
370
     9
100
AcDbLine
 10
155.4939374655881
 20
67.47880027193119
 30
0.0
 11
155.4939374655881
 21
66.67033393678551
 31
0.0
  0
LINE
  5
335
330
1F
100
AcDbEntity
  8
1
  6
Continuous
 62
     7
370
     9
100
AcDbLine
 10
155.1939374655881
 20
50.35936873658551
 30
0.0
 11
155.4939374655881
 21
49.98582961374794
 31
0.0
  0
LINE
  5
336
330
1F
100
AcDbEntity
  8
1
  6
Continuous
 62
     7
370
     9
100
AcDbLine
 10
161.093937465588
 20
66.67033393678551
 30
0.0
 11
161.393937465588
 21
66.26325342654394
 31
0.0
  0
LINE
  5
337
330
1F
100
AcDbEntity
  8
1
  6
Continuous
 62
     7
370
     9
100
AcDbLine
 10
161.093937465588
 20
65.63246631169986
 30
0.0
 11
161.393937465588
 21
65.6969415304815
 31
0.0
  0
LINE
  5
338
330
1F
100
AcDbEntity
  8
1
  6
Continuous
 62
     7
370
     9
100
AcDbLine
 10
161.093937465588
 20
64.73745513775887
 30
0.0
 11
161.393937465588
 21
64.34330952319254
 31
0.0
  0
LINE
  5
339
330
1F
100
AcDbEntity
  8
1
  6
Continuous
 62
     7
370
     9
100
AcDbLine
 10
161.0939374655881
 20
63.604743800856
 30
0.0
 11
161.393937465588
 21
63.72524620819132
 31
0.0
  0
LINE
  5
33A
330
1F
100
AcDbEntity
  8
1
  6
Continuous
 62
     7
370
     9
100
AcDbLine
 10
161.093937465588
 20
65.63246631169986
 30
0.0
 11
161.093937465588
 21
64.73745513775887
 31
0.0
  0
LINE
  5
33B
330
1F
100
AcDbEntity
  8
1
  6
Continuous
 62
     7
370
     9
100
AcDbLine
 10
161.0939374655881
 20
61.43510005157307
 30
0.0
 11
161.393937465588
 21
61.60928420517271
 31
0.0
  0
LINE
  5
33C
330
1F
100
AcDbEntity
  8
1
  6
Continuous
 62
     7
370
     9
100
AcDbLine
 10
161.393937465588
 20
62.26706903972286
 30
0.0
 11
161.0939374655881
 21
62.64060816256043
 31
0.0
  0
LINE
  5
33D
330
1F
100
AcDbEntity
  8
1
  6
Continuous
 62
     7
370
     9
100
AcDbLine
 10
161.0939374655881
 20
59.16576471149767
 30
0.0
 11
161.393937465588
 21
59.39024031494338
 31
0.0
  0
LINE
  5
33E
330
1F
100
AcDbEntity
  8
1
  6
Continuous
 62
     7
370
     9
100
AcDbLine
 10
161.393937465588
 20
60.07494363545706
 30
0.0
 11
161.0939374655881
 21
60.42060575243423
 31
0.0
  0
LINE
  5
33F
330
1F
100
AcDbEntity
  8
1
  6
Continuous
 62
     7
370
     9
100
AcDbLine
 10
161.0939374655881
 20
61.43510005157307
 30
0.0
 11
161.0939374655881
 21
60.42060575243423
 31
0.0
  0
LINE
  5
340
330
1F
100
AcDbEntity
  8
1
  6
Continuous
 62
     7
370
     9
100
AcDbLine
 10
161.0939374655881
 20
63.604743800856
 30
0.0
 11
161.0939374655881
 21
62.64060816256043
 31
0.0
  0
LINE
  5
341
330
1F
100
AcDbEntity
  8
1
  6
Continuous
 62
     7
370
     9
100
AcDbLine
 10
161.0939374655881
 20
53.46067306481069
 30
0.0
 11
161.393937465588
 21
53.23619746136498
 31
0.0
  0
LINE
  5
342
330
1F
100
AcDbEntity
  8
1
  6
Continuous
 62
     7
370
     9
100
AcDbLine
 10
161.393937465588
 20
52.5514941408513
 30
0.0
 11
161.0939374655881
 21
52.20583202387414
 31
0.0
  0
LINE
  5
343
330
1F
100
AcDbEntity
  8
1
  6
Continuous
 62
     7
370
     9
100
AcDbLine
 10
161.0939374655881
 20
51.19133772473529
 30
0.0
 11
161.393937465588
 21
51.01715357113565
 31
0.0
  0
LINE
  5
344
330
1F
100
AcDbEntity
  8
1
  6
Continuous
 62
     7
370
     9
100
AcDbLine
 10
161.0939374655881
 20
51.19133772473529
 30
0.0
 11
161.0939374655881
 21
52.20583202387414
 31
0.0
  0
LINE
  5
345
330
1F
100
AcDbEntity
  8
1
  6
Continuous
 62
     7
370
     9
100
AcDbLine
 10
161.0939374655881
 20
53.46067306481069
 30
0.0
 11
161.0939374655881
 21
55.25965351286888
 31
0.0
  0
LINE
  5
346
330
1F
100
AcDbEntity
  8
1
  6
Continuous
 62
     7
370
     9
100
AcDbLine
 10
161.0939374655881
 20
59.16576471149767
 30
0.0
 11
161.0939374655881
 21
57.36678426343948
 31
0.0
  0
LINE
  5
347
330
1F
100
AcDbEntity
  8
1
  6
Continuous
 62
     7
370
     9
100
AcDbLine
 10
161.093937465588
 20
67.47880027193119
 30
0.0
 11
161.093937465588
 21
66.67033393678551
 31
0.0
  0
LINE
  5
348
330
1F
100
AcDbEntity
  8
1
  6
Continuous
 62
     7
370
     9
100
AcDbLine
 10
161.393937465588
 20
50.35936873658551
 30
0.0
 11
161.0939374655881
 21
49.98582961374794
 31
0.0
  0
LINE
  5
349
330
1F
100
AcDbEntity
  8
1
  6
Continuous
 62
     7
370
     9
100
AcDbLine
 10
161.093937465588
 20
68.40162327243428
 30
0.0
 11
155.4939374655881
 21
68.40162327243428
 31
0.0
  0
LINE
  5
34A
330
1F
100
AcDbEntity
  8
1
  6
Continuous
 62
     7
370
     9
100
AcDbLine
 10
161.0939374655881
 20
69.10780889118791
 30
0.0
 11
155.4939374655881
 21
69.10780889118791
 31
0.0
  0
LINE
  5
34B
330
1F
100
AcDbEntity
  8
1
  6
Continuous
 62
     7
370
     9
100
AcDbLine
 10
161.393937465588
 20
69.48854288662031
 30
0.0
 11
155.1939374655881
 21
69.48854288662031
 31
0.0
  0
LINE
  5
34C
330
1F
100
AcDbEntity
  8
1
  6
Continuous
 62
     7
370
     9
100
AcDbLine
 10
161.093937465588
 20
69.89762556709923
 30
0.0
 11
155.4939374655881
 21
69.89762556709923
 31
0.0
  0
LINE
  5
34D
330
1F
100
AcDbEntity
  8
1
  6
Continuous
 62
     7
370
     9
100
AcDbLine
 10
155.4939374655881
 20
70.487785369666
 30
0.0
 11
161.093937465588
 21
70.487785369666
 31
0.0
  0
LINE
  5
34E
330
1F
100
AcDbEntity
  8
1
  6
Continuous
 62
     7
370
     9
100
AcDbLine
 10
161.3939374655881
 20
70.73111185271725
 30
0.0
 11
155.1939374655881
 21
70.73111185271725
 31
0.0
  0
LINE
  5
34F
330
1F
100
AcDbEntity
  8
1
  6
Continuous
 62
     7
370
     9
100
AcDbLine
 10
161.093937465588
 20
71.12922283779207
 30
0.0
 11
155.4939374655881
 21
71.12922283779207
 31
0.0
  0
LINE
  5
350
330
1F
100
AcDbEntity
  8
1
  6
Continuous
 62
     7
370
     9
100
AcDbLine
 10
161.0939374655881
 20
71.59187003491186
 30
0.0
 11
155.4939374655881
 21
71.59187003491186
 31
0.0
  0
LINE
  5
351
330
1F
100
AcDbEntity
  8
1
  6
Continuous
 62
     7
370
     9
100
AcDbLine
 10
161.393937465588
 20
71.69305293236914
 30
0.0
 11
155.1939374655881
 21
71.69305293236914
 31
0.0
  0
LINE
  5
352
330
1F
100
AcDbEntity
  8
1
  6
Continuous
 62
     7
370
     9
100
AcDbLine
 10
161.093937465588
 20
72.07244344455992
 30
0.0
 11
155.4939374655881
 21
72.07244344455992
 31
0.0
  0
LINE
  5
353
330
1F
100
AcDbEntity
  8
1
  6
Continuous
 62
     7
370
     9
100
AcDbLine
 10
161.093937465588
 20
72.39857313479416
 30
0.0
 11
155.4939374655881
 21
72.39857313479416
 31
0.0
  0
LINE
  5
354
330
1F
100
AcDbEntity
  8
1
  6
Continuous
 62
     7
370
     9
100
AcDbLine
 10
161.093937465588
 20
72.70892867118957
 30
0.0
 11
155.4939374655881
 21
72.70892867118957
 31
0.0
  0
LINE
  5
355
330
1F
100
AcDbEntity
  8
1
  6
Continuous
 62
     7
370
     9
100
AcDbLine
 10
161.0939374655881
 20
72.89219311108488
 30
0.0
 11
155.4939374655881
 21
72.89219311108488
 31
0.0
  0
LINE
  5
356
330
1F
100
AcDbEntity
  8
1
  6
Continuous
 62
     7
370
     9
100
AcDbLine
 10
161.093937465588
 20
73.02629005673592
 30
0.0
 11
155.4939374655881
 21
73.02629005673592
 31
0.0
  0
LINE
  5
357
330
1F
100
AcDbEntity
  8
1
  6
Continuous
 62
     7
370
     9
100
AcDbLine
 10
161.093937465588
 20
73.06321888815418
 30
0.0
 11
155.4939374655881
 21
73.06321888815418
 31
0.0
  0
LINE
  5
358
330
1F
100
AcDbEntity
  8
1
  6
Continuous
 62
     7
370
     9
100
AcDbLine
 10
155.4939374655881
 20
71.59187003491186
 30
0.0
 11
155.1939374655881
 21
71.43082831697802
 31
0.0
  0
LINE
  5
359
330
1F
100
AcDbEntity
  8
1
  6
Continuous
 62
     7
370
     9
100
AcDbLine
 10
155.1939374655881
 20
71.69305293236914
 30
0.0
 11
155.4939374655881
 21
72.07244344455992
 31
0.0
  0
LINE
  5
35A
330
1F
100
AcDbEntity
  8
1
  6
Continuous
 62
     7
370
     9
100
AcDbLine
 10
155.1939374655881
 20
72.18629770973257
 30
0.0
 11
155.4939374655881
 21
72.39857313479416
 31
0.0
  0
LINE
  5
35B
330
1F
100
AcDbEntity
  8
1
  6
Continuous
 62
     7
370
     9
100
AcDbLine
 10
155.4939374655881
 20
72.89219311108491
 30
0.0
 11
155.1939374655881
 21
72.63281567858468
 31
0.0
  0
LINE
  5
35C
330
1F
100
AcDbEntity
  8
1
  6
Continuous
 62
     7
370
     9
100
AcDbLine
 10
155.4939374655881
 20
73.06321888815418
 30
0.0
 11
155.1939374655881
 21
72.76321888815417
 31
0.0
  0
LINE
  5
35D
330
1F
100
AcDbEntity
  8
1
  6
Continuous
 62
     7
370
     9
100
AcDbLine
 10
155.4939374655881
 20
72.70892867118957
 30
0.0
 11
155.1939374655881
 21
72.35564303665234
 31
0.0
  0
LINE
  5
35E
330
1F
100
AcDbEntity
  8
1
  6
Continuous
 62
     7
370
     9
100
AcDbLine
 10
155.4939374655881
 20
73.02629005673592
 30
0.0
 11
155.1939374655881
 21
72.76321888815417
 31
0.0
  0
LINE
  5
35F
330
1F
100
AcDbEntity
  8
1
  6
Continuous
 62
     7
370
     9
100
AcDbLine
 10
155.4939374655881
 20
72.39857313479416
 30
0.0
 11
155.4939374655881
 21
72.07244344455992
 31
0.0
  0
LINE
  5
360
330
1F
100
AcDbEntity
  8
1
  6
Continuous
 62
     7
370
     9
100
AcDbLine
 10
155.4939374655881
 20
73.06321888815418
 30
0.0
 11
155.4939374655881
 21
73.02629005673592
 31
0.0
  0
LINE
  5
361
330
1F
100
AcDbEntity
  8
1
  6
Continuous
 62
     7
370
     9
100
AcDbLine
 10
155.4939374655881
 20
72.89219311108488
 30
0.0
 11
155.4939374655881
 21
72.70892867118957
 31
0.0
  0
LINE
  5
362
330
1F
100
AcDbEntity
  8
1
  6
Continuous
 62
     7
370
     9
100
AcDbLine
 10
155.4939374655881
 20
73.06321888815418
 30
0.0
 11
155.1939374655881
 21
72.7632188881542
 31
0.0
  0
LINE
  5
363
330
1F
100
AcDbEntity
  8
1
  6
Continuous
 62
     7
370
     9
100
AcDbLine
 10
155.1939374655881
 20
71.81321888815418
 30
0.0
 11
154.9939374655881
 21
71.81321888815418
 31
0.0
  0
LINE
  5
364
330
1F
100
AcDbEntity
  8
1
  6
Continuous
 62
     7
370
     9
100
AcDbLine
 10
154.3939374655881
 20
72.91321888815418
 30
0.0
 11
154.6939374655881
 21
72.91321888815418
 31
0.0
  0
LINE
  5
365
330
1F
100
AcDbEntity
  8
1
  6
Continuous
 62
     7
370
     9
100
AcDbLine
 10
154.6939374655881
 20
72.91321888815418
 30
0.0
 11
154.9939374655881
 21
72.6132188881542
 31
0.0
  0
LINE
  5
366
330
1F
100
AcDbEntity
  8
1
  6
Continuous
 62
     7
370
     9
100
AcDbLine
 10
155.4939374655881
 20
73.06321888815418
 30
0.0
 11
155.1939374655881
 21
72.7632188881542
 31
0.0
  0
LINE
  5
367
330
1F
100
AcDbEntity
  8
1
  6
Continuous
 62
     7
370
     9
100
AcDbLine
 10
155.4939374655881
 20
69.89762556709923
 30
0.0
 11
155.1939374655881
 21
69.48854288662031
 31
0.0
  0
LINE
  5
368
330
1F
100
AcDbEntity
  8
1
  6
Continuous
 62
     7
370
     9
100
AcDbLine
 10
155.4939374655881
 20
70.487785369666
 30
0.0
 11
155.1939374655881
 21
70.38111185271725
 31
0.0
  0
LINE
  5
369
330
1F
100
AcDbEntity
  8
1
  6
Continuous
 62
     7
370
     9
100
AcDbLine
 10
155.1939374655881
 20
70.73111185271725
 30
0.0
 11
155.4939374655881
 21
71.12922283779207
 31
0.0
  0
LINE
  5
36A
330
1F
100
AcDbEntity
  8
1
  6
Continuous
 62
     7
370
     9
100
AcDbLine
 10
155.4939374655881
 20
70.487785369666
 30
0.0
 11
155.4939374655881
 21
69.89762556709923
 31
0.0
  0
LINE
  5
36B
330
1F
100
AcDbEntity
  8
1
  6
Continuous
 62
     7
370
     9
100
AcDbLine
 10
155.4939374655881
 20
69.10780889118791
 30
0.0
 11
155.1939374655881
 21
69.05757985389235
 31
0.0
  0
LINE
  5
36C
330
1F
100
AcDbEntity
  8
1
  6
Continuous
 62
     7
370
     9
100
AcDbLine
 10
155.4939374655881
 20
69.10780889118791
 30
0.0
 11
155.4939374655881
 21
68.40162327243428
 31
0.0
  0
LINE
  5
36D
330
1F
100
AcDbEntity
  8
1
  6
Continuous
 62
     7
370
     9
100
AcDbLine
 10
155.4939374655881
 20
71.59187003491186
 30
0.0
 11
155.4939374655881
 21
71.12922283779207
 31
0.0
  0
LINE
  5
36E
330
1F
100
AcDbEntity
  8
1
  6
Continuous
 62
     7
370
     9
100
AcDbLine
 10
161.093937465588
 20
71.59187003491186
 30
0.0
 11
161.393937465588
 21
71.43082831697802
 31
0.0
  0
LINE
  5
36F
330
1F
100
AcDbEntity
  8
1
  6
Continuous
 62
     7
370
     9
100
AcDbLine
 10
161.393937465588
 20
71.69305293236914
 30
0.0
 11
161.093937465588
 21
72.07244344455992
 31
0.0
  0
LINE
  5
370
330
1F
100
AcDbEntity
  8
1
  6
Continuous
 62
     7
370
     9
100
AcDbLine
 10
161.393937465588
 20
72.18629770973257
 30
0.0
 11
161.093937465588
 21
72.39857313479416
 31
0.0
  0
LINE
  5
371
330
1F
100
AcDbEntity
  8
1
  6
Continuous
 62
     7
370
     9
100
AcDbLine
 10
161.093937465588
 20
72.89219311108491
 30
0.0
 11
161.393937465588
 21
72.63281567858468
 31
0.0
  0
LINE
  5
372
330
1F
100
AcDbEntity
  8
1
  6
Continuous
 62
     7
370
     9
100
AcDbLine
 10
161.093937465588
 20
73.06321888815418
 30
0.0
 11
161.393937465588
 21
72.76321888815417
 31
0.0
  0
LINE
  5
373
330
1F
100
AcDbEntity
  8
1
  6
Continuous
 62
     7
370
     9
100
AcDbLine
 10
161.093937465588
 20
72.70892867118957
 30
0.0
 11
161.393937465588
 21
72.35564303665234
 31
0.0
  0
LINE
  5
374
330
1F
100
AcDbEntity
  8
1
  6
Continuous
 62
     7
370
     9
100
AcDbLine
 10
161.093937465588
 20
73.02629005673592
 30
0.0
 11
161.393937465588
 21
72.76321888815417
 31
0.0
  0
LINE
  5
375
330
1F
100
AcDbEntity
  8
1
  6
Continuous
 62
     7
370
     9
100
AcDbLine
 10
161.093937465588
 20
72.39857313479416
 30
0.0
 11
161.093937465588
 21
72.07244344455992
 31
0.0
  0
LINE
  5
376
330
1F
100
AcDbEntity
  8
1
  6
Continuous
 62
     7
370
     9
100
AcDbLine
 10
161.093937465588
 20
72.70892867118957
 30
0.0
 11
161.093937465588
 21
72.89219311108491
 31
0.0
  0
LINE
  5
377
330
1F
100
AcDbEntity
  8
1
  6
Continuous
 62
     7
370
     9
100
AcDbLine
 10
161.093937465588
 20
73.06321888815418
 30
0.0
 11
161.093937465588
 21
73.02629005673592
 31
0.0
  0
LINE
  5
378
330
1F
100
AcDbEntity
  8
1
  6
Continuous
 62
     7
370
     9
100
AcDbLine
 10
161.093937465588
 20
73.06321888815418
 30
0.0
 11
161.393937465588
 21
72.7632188881542
 31
0.0
  0
LINE
  5
379
330
1F
100
AcDbEntity
  8
1
  6
Continuous
 62
     7
370
     9
100
AcDbLine
 10
161.0939374655881
 20
73.06321888815418
 30
0.0
 11
161.3939374655881
 21
72.7632188881542
 31
0.0
  0
LINE
  5
37A
330
1F
100
AcDbEntity
  8
1
  6
Continuous
 62
     7
370
     9
100
AcDbLine
 10
161.5939374655881
 20
71.56321888815418
 30
0.0
 11
161.3939374655881
 21
71.56321888815418
 31
0.0
  0
LINE
  5
37B
330
1F
100
AcDbEntity
  8
1
  6
Continuous
 62
     7
370
     9
100
AcDbLine
 10
161.093937465588
 20
69.89762556709923
 30
0.0
 11
161.393937465588
 21
69.48854288662031
 31
0.0
  0
LINE
  5
37C
330
1F
100
AcDbEntity
  8
1
  6
Continuous
 62
     7
370
     9
100
AcDbLine
 10
161.093937465588
 20
70.487785369666
 30
0.0
 11
161.393937465588
 21
70.38111185271725
 31
0.0
  0
LINE
  5
37D
330
1F
100
AcDbEntity
  8
1
  6
Continuous
 62
     7
370
     9
100
AcDbLine
 10
161.393937465588
 20
70.73111185271725
 30
0.0
 11
161.093937465588
 21
71.12922283779207
 31
0.0
  0
LINE
  5
37E
330
1F
100
AcDbEntity
  8
1
  6
Continuous
 62
     7
370
     9
100
AcDbLine
 10
161.093937465588
 20
70.487785369666
 30
0.0
 11
161.093937465588
 21
69.89762556709923
 31
0.0
  0
LINE
  5
37F
330
1F
100
AcDbEntity
  8
1
  6
Continuous
 62
     7
370
     9
100
AcDbLine
 10
161.093937465588
 20
69.10780889118791
 30
0.0
 11
161.393937465588
 21
69.05757985389235
 31
0.0
  0
LINE
  5
380
330
1F
100
AcDbEntity
  8
1
  6
Continuous
 62
     7
370
     9
100
AcDbLine
 10
161.093937465588
 20
69.10780889118791
 30
0.0
 11
161.093937465588
 21
68.40162327243428
 31
0.0
  0
LINE
  5
381
330
1F
100
AcDbEntity
  8
1
  6
Continuous
 62
     7
370
     9
100
AcDbLine
 10
161.093937465588
 20
71.59187003491186
 30
0.0
 11
161.093937465588
 21
71.12922283779207
 31
0.0
  0
LINE
  5
382
330
1F
100
AcDbEntity
  8
1
  6
Continuous
 62
     7
370
     9
100
AcDbLine
 10
168.1939374655881
 20
56.31321888815418
 30
0.0
 11
168.1939374655881
 21
69.0132188881542
 31
0.0
  0
LINE
  5
383
330
1F
100
AcDbEntity
  8
1
  6
Continuous
 62
     7
370
     9
100
AcDbLine
 10
168.6939374655881
 20
56.31321888815418
 30
0.0
 11
168.6939374655881
 21
68.5132188881542
 31
0.0
  0
LINE
  5
384
330
1F
100
AcDbEntity
  8
1
  6
Continuous
 62
     7
370
     9
100
AcDbLine
 10
165.8939374655881
 20
69.0132188881542
 30
0.0
 11
165.8939374655881
 21
56.31321888815418
 31
0.0
  0
LINE
  5
385
330
1F
100
AcDbEntity
  8
1
  6
Continuous
 62
     7
370
     9
100
AcDbLine
 10
164.6939374655881
 20
56.31321888815418
 30
0.0
 11
164.6939374655881
 21
72.0132188881542
 31
0.0
  0
LINE
  5
386
330
1F
100
AcDbEntity
  8
1
  6
Continuous
 62
     7
370
     9
100
AcDbLine
 10
169.4225628887966
 20
65.31321888815418
 30
0.0
 11
169.6225628887967
 21
65.11321888815417
 31
0.0
  0
LINE
  5
387
330
1F
100
AcDbEntity
  8
1
  6
Continuous
 62
     7
370
     9
100
AcDbLine
 10
168.6939374655881
 20
65.31321888815418
 30
0.0
 11
169.4225628887966
 21
65.31321888815418
 31
0.0
  0
LINE
  5
388
330
1F
100
AcDbEntity
  8
1
  6
Continuous
 62
     7
370
     9
100
AcDbLine
 10
169.6225628887967
 20
56.31321888815418
 30
0.0
 11
169.6225628887967
 21
65.11321888815417
 31
0.0
  0
LINE
  5
389
330
1F
100
AcDbEntity
  8
1
  6
Continuous
 62
     7
370
     9
100
AcDbLine
 10
165.8939374655881
 20
69.0132188881542
 30
0.0
 11
168.1939374655881
 21
69.0132188881542
 31
0.0
  0
LINE
  5
38A
330
1F
100
AcDbEntity
  8
1
  6
Continuous
 62
     7
370
     9
100
AcDbLine
 10
165.8939374655881
 20
68.5132188881542
 30
0.0
 11
168.6939374655881
 21
68.5132188881542
 31
0.0
  0
LINE
  5
38B
330
1F
100
AcDbEntity
  8
1
  6
Continuous
 62
     7
370
     9
100
AcDbLine
 10
164.3939374655881
 20
72.31321888815418
 30
0.0
 11
164.6939374655881
 21
72.0132188881542
 31
0.0
  0
LINE
  5
38C
330
1F
100
AcDbEntity
  8
1
  6
Continuous
 62
     7
370
     9
100
AcDbLine
 10
164.6939374655881
 20
68.5132188881542
 30
0.0
 11
165.8939374655881
 21
68.5132188881542
 31
0.0
  0
LINE
  5
38D
330
1F
100
AcDbEntity
  8
1
  6
Continuous
 62
     7
370
     9
100
AcDbLine
 10
168.1939374655881
 20
69.0132188881542
 30
0.0
 11
168.6939374655881
 21
68.5132188881542
 31
0.0
  0
LINE
  5
38E
330
1F
100
AcDbEntity
  8
25
  6
Continuous
 62
     7
370
     9
100
AcDbLine
 10
182.5547787427058
 20
56.64806016527186
 30
0.0
 11
181.8850961884704
 21
55.97837761103651
 31
0.0
  0
LINE
  5
38F
330
1F
100
AcDbEntity
  8
25
  6
Continuous
 62
     7
370
     9
100
AcDbLine
 10
182.5547787427058
 20
55.97837761103651
 30
0.0
 11
181.8850961884704
 21
56.64806016527186
 31
0.0
  0
INSERT
  5
390
330
1F
100
AcDbEntity
  8
25
  6
Continuous
 62
     7
370
     9
100
AcDbBlockReference
  2
MARK_OPEN
 10
137.9899537964714
 20
71.56321888815421
 30
0.0
 50
316.1794809424779
  0
POLYLINE
  5
391
330
1F
100
AcDbEntity
  8
25
  6
Continuous
 62
     7
370
     9
100
AcDb2dPolyline
 66
     1
 10
0.0
 20
0.0
 30
0.0
  0
VERTEX
  5
392
330
391
100
AcDbEntity
  8
25
  6
Continuous
 62
     7
370
     9
100
AcDbVertex
100
AcDb2dVertex
 10
137.9899537964714
 20
71.56321888815421
 30
0.0
  0
VERTEX
  5
393
330
391
100
AcDbEntity
  8
25
  6
Continuous
 62
     7
370
     9
100
AcDbVertex
100
AcDb2dVertex
 10
131.7936723866295
 20
77.50950029799614
 30
0.0
  0
VERTEX
  5
394
330
391
100
AcDbEntity
  8
25
  6
Continuous
 62
     7
370
     9
100
AcDbVertex
100
AcDb2dVertex
 10
119.8119800590567
 20
77.50950029799614
 30
0.0
  0
SEQEND
  5
395
330
391
100
AcDbEntity
  8
25
  6
Continuous
 62
     7
370
     9
  0
INSERT
  5
396
330
1F
100
AcDbEntity
  8
25
  6
Continuous
 62
     7
370
     9
100
AcDbBlockReference
  2
MARK_OPEN
 10
141.7398838254829
 20
73.06321888815418
 30
0.0
 50
313.5445872475235
  0
POLYLINE
  5
397
330
1F
100
AcDbEntity
  8
25
  6
Continuous
 62
     7
370
     9
100
AcDb2dPolyline
 66
     1
 10
0.0
 20
0.0
 30
0.0
  0
VERTEX
  5
398
330
397
100
AcDbEntity
  8
25
  6
Continuous
 62
     7
370
     9
100
AcDbVertex
100
AcDb2dVertex
 10
141.7398838254829
 20
73.06321888815418
 30
0.0
  0
VERTEX
  5
399
330
397
100
AcDbEntity
  8
25
  6
Continuous
 62
     7
370
     9
100
AcDbVertex
100
AcDb2dVertex
 10
134.1024677702467
 20
81.09884316088991
 30
0.0
  0
VERTEX
  5
39A
330
397
100
AcDbEntity
  8
25
  6
Continuous
 62
     7
370
     9
100
AcDbVertex
100
AcDb2dVertex
 10
123.150097910854
 20
81.20734335543827
 30
0.0
  0
SEQEND
  5
39B
330
397
100
AcDbEntity
  8
25
  6
Continuous
 62
     7
370
     9
  0
INSERT
  5
39C
330
1F
100
AcDbEntity
  8
25
  6
Continuous
 62
     7
370
     9
100
AcDbBlockReference
  2
MARK_OPEN
 10
149.0591246248778
 20
72.9132188881542
 30
0.0
 50
312.3382688001404
  0
POLYLINE
  5
39D
330
1F
100
AcDbEntity
  8
25
  6
Continuous
 62
     7
370
     9
100
AcDb2dPolyline
 66
     1
 10
0.0
 20
0.0
 30
0.0
  0
VERTEX
  5
39E
330
39D
100
AcDbEntity
  8
25
  6
Continuous
 62
     7
370
     9
100
AcDbVertex
100
AcDb2dVertex
 10
149.0591246248778
 20
72.9132188881542
 30
0.0
  0
VERTEX
  5
39F
330
39D
100
AcDbEntity
  8
25
  6
Continuous
 62
     7
370
     9
100
AcDbVertex
100
AcDb2dVertex
 10
137.3210303153708
 20
85.79591973060303
 30
0.0
  0
VERTEX
  5
3A0
330
39D
100
AcDbEntity
  8
25
  6
Continuous
 62
     7
370
     9
100
AcDbVertex
100
AcDb2dVertex
 10
123.3819486903886
 20
85.79591973060303
 30
0.0
  0
SEQEND
  5
3A1
330
39D
100
AcDbEntity
  8
25
  6
Continuous
 62
     7
370
     9
  0
INSERT
  5
3A2
330
1F
100
AcDbEntity
  8
25
  6
Continuous
 62
     7
370
     9
100
AcDbBlockReference
  2
MARK_OPEN
 10
166.7350755820701
 20
69.01321888815417
 30
0.0
 50
229.9999999999999
  0
POLYLINE
  5
3A3
330
1F
100
AcDbEntity
  8
25
  6
Continuous
 62
     7
370
     9
100
AcDb2dPolyline
 66
     1
 10
0.0
 20
0.0
 30
0.0
  0
VERTEX
  5
3A4
330
3A3
100
AcDbEntity
  8
25
  6
Continuous
 62
     7
370
     9
100
AcDbVertex
100
AcDb2dVertex
 10
166.7350755820701
 20
69.01321888815417
 30
0.0
  0
VERTEX
  5
3A5
330
3A3
100
AcDbEntity
  8
25
  6
Continuous
 62
     7
370
     9
100
AcDbVertex
100
AcDb2dVertex
 10
175.8479025084818
 20
79.87346311639453
 30
0.0
  0
VERTEX
  5
3A6
330
3A3
100
AcDbEntity
  8
25
  6
Continuous
 62
     7
370
     9
100
AcDbVertex
100
AcDb2dVertex
 10
187.9913297465507
 20
79.87346311639453
 30
0.0
  0
SEQEND
  5
3A7
330
3A3
100
AcDbEntity
  8
25
  6
Continuous
 62
     7
370
     9
  0
INSERT
  5
3A8
330
1F
100
AcDbEntity
  8
25
  6
Continuous
 62
     7
370
     9
100
AcDbBlockReference
  2
MARK_OPEN
 10
157.723683275131
 20
73.06321888815418
 30
0.0
 50
229.9999999999999
  0
POLYLINE
  5
3A9
330
1F
100
AcDbEntity
  8
25
  6
Continuous
 62
     7
370
     9
100
AcDb2dPolyline
 66
     1
 10
0.0
 20
0.0
 30
0.0
  0
VERTEX
  5
3AA
330
3A9
100
AcDbEntity
  8
25
  6
Continuous
 62
     7
370
     9
100
AcDbVertex
100
AcDb2dVertex
 10
157.723683275131
 20
73.06321888815418
 30
0.0
  0
VERTEX
  5
3AB
330
3A9
100
AcDbEntity
  8
25
  6
Continuous
 62
     7
370
     9
100
AcDbVertex
100
AcDb2dVertex
 10
166.8365102015426
 20
83.92346311639454
 30
0.0
  0
VERTEX
  5
3AC
330
3A9
100
AcDbEntity
  8
25
  6
Continuous
 62
     7
370
     9
100
AcDbVertex
100
AcDb2dVertex
 10
180.4082498917924
 20
83.92346311639454
 30
0.0
  0
SEQEND
  5
3AD
330
3A9
100
AcDbEntity
  8
25
  6
Continuous
 62
     7
370
     9
  0
MTEXT
  5
3AE
330
1F
100
AcDbEntity
  8
25
  6
Continuous
 62
     7
370
     9
100
AcDbMText
 10
171.2835827605886
 20
25.23258048235334
 30
0.0
 40
1.25
 41
7.097318799424426
 46
1.25
 71
     1
 72
     1
  1
{\fＭＳ 明朝;\T0.761675;(IN AIR)}
 73
     1
 44
1.0
1001
ACAD
1000
ACAD_MTEXT_DEFINED_HEIGHT_BEGIN
1070
    46
1040
1.25
1000
ACAD_MTEXT_DEFINED_HEIGHT_END
  0
MTEXT
  5
3AF
330
1F
100
AcDbEntity
  8
25
  6
Continuous
 62
     7
370
     9
100
AcDbMText
 10
180.1955352789633
 20
80.18596311639453
 30
0.0
 40
1.5
 41
7.4245522677
 46
1.5
 71
     7
 72
     1
  1
{\fＭＳ ゴシック;\T0.772570;1-32UNF}
 73
     1
 44
1.0
1001
ACAD
1000
ACAD_MTEXT_DEFINED_HEIGHT_BEGIN
1070
    46
1040
1.5
1000
ACAD_MTEXT_DEFINED_HEIGHT_END
  0
MTEXT
  5
3B0
330
1F
100
AcDbEntity
  8
25
  6
Continuous
 62
     7
370
     9
100
AcDbMText
 10
130.1384521500007
 20
77.82200029799614
 30
0.0
 40
1.5
 41
11.69384870595
 46
1.5
 71
     9
 72
     1
  1
{\fＭＳ ゴシック;\T0.764137;M30.5 P=0.5}
 73
     1
 44
1.0
1001
ACAD
1000
ACAD_MTEXT_DEFINED_HEIGHT_BEGIN
1070
    46
1040
1.5
1000
ACAD_MTEXT_DEFINED_HEIGHT_END
  0
DIMENSION
  5
3BB
330
1F
100
AcDbEntity
  8
25
  6
Continuous
 62
     7
370
     9
100
AcDbDimension
280
     0
  2
Dim1
 10
188.617453362413
 20
65.31321888815425
 30
0.0
 11
187.117453362413
 21
56.4800858901356
 31
0.0
 70
   160
  1
φ<>
 71
     5
 42
-1.0
 73
     0
 74
     0
 75
     0
  3
Standard
100
AcDbAlignedDimension
 13
169.4225628887966
 23
47.31321888815418
 33
0.0
 14
169.4225628887966
 24
65.31321888815418
 34
0.0
 50
89.99999999999991
100
AcDbRotatedDimension
1001
ACAD
1000
DSTYLE
1002
{
1070
   279
1070
     2
1070
   340
1005
3B1
1070
   140
1040
2.0
1070
    40
1040
1.0
1070
   147
1040
0.0
1070
    76
1070
     0
1070
    75
1070
     0
1070
   344
1005
51
1070
   343
1005
51
1070
   173
1070
     1
1070
   289
1070
     2
1070
   288
1070
     1
1070
    77
1070
     1
1070
   172
1070
     1
1070
   174
1070
     0
1070
    74
1070
     0
1070
    73
1070
     0
1070
   284
1070
     8
1070
    78
1070
     8
1070
    42
1040
2.0
1070
    44
1040
1.0
1070
    43
1040
10.0
1070
   271
1070
     2
1070
    41
1040
1.0
1002
}
  0
DIMENSION
  5
3C5
330
1F
100
AcDbEntity
  8
25
  6
Continuous
 62
     7
370
     9
100
AcDbDimension
280
     0
  2
Dim2
 10
193.207381419967
 20
72.31321888815398
 30
0.0
 11
191.707381419967
 21
56.4800858901356
 31
0.0
 70
   160
  1
φ<>
 71
     5
 42
-1.0
 73
     0
 74
     0
 75
     0
  3
Standard
100
AcDbAlignedDimension
 13
164.3939374655881
 23
40.31321888815418
 33
0.0
 14
164.3939374655881
 24
72.31321888815418
 34
0.0
 50
89.99999999999991
100
AcDbRotatedDimension
1001
ACAD
1000
DSTYLE
1002
{
1070
   279
1070
     2
1070
   340
1005
3B1
1070
   140
1040
2.0
1070
    40
1040
1.0
1070
   147
1040
0.0
1070
    76
1070
     0
1070
    75
1070
     0
1070
   344
1005
51
1070
   343
1005
51
1070
   173
1070
     1
1070
   289
1070
     2
1070
   288
1070
     1
1070
    77
1070
     1
1070
   172
1070
     1
1070
   174
1070
     0
1070
    74
1070
     0
1070
    73
1070
     0
1070
   284
1070
     8
1070
    78
1070
     8
1070
    42
1040
2.0
1070
    44
1040
1.0
1070
    43
1040
10.0
1070
   271
1070
     2
1070
    41
1040
1.0
1002
}
  0
DIMENSION
  5
3CF
330
1F
100
AcDbEntity
  8
25
  6
Continuous
 62
     7
370
     9
100
AcDbDimension
280
     0
  2
Dim3
 10
124.7574576259422
 20
72.31321888815422
 30
0.0
 11
123.2574576259422
 21
56.32181250884062
 31
0.0
 70
   160
  1
φ<>
 71
     5
 42
-1.0
 73
     0
 74
     0
 75
     0
  3
Standard
100
AcDbAlignedDimension
 13
136.6939374655881
 23
40.31321888815418
 33
0.0
 14
136.6939374655881
 24
72.31321888815418
 34
0.0
 50
89.99999999999991
100
AcDbRotatedDimension
1001
ACAD
1000
DSTYLE
1002
{
1070
   279
1070
     2
1070
   340
1005
3B1
1070
   140
1040
2.0
1070
    40
1040
1.0
1070
   147
1040
0.0
1070
    76
1070
     0
1070
    75
1070
     0
1070
   344
1005
51
1070
   343
1005
51
1070
   173
1070
     1
1070
   289
1070
     2
1070
   288
1070
     1
1070
    77
1070
     1
1070
   172
1070
     1
1070
   174
1070
     0
1070
    74
1070
     0
1070
    73
1070
     0
1070
   284
1070
     8
1070
    78
1070
     8
1070
    42
1040
2.0
1070
    44
1040
1.0
1070
    43
1040
10.0
1070
   271
1070
     2
1070
    41
1040
1.0
1002
}
  0
DIMENSION
  5
3D9
330
1F
100
AcDbEntity
  8
25
  6
Continuous
 62
     7
370
     9
100
AcDbDimension
280
     0
  2
Dim4
 10
120.8678612894476
 20
73.06321888815424
 30
0.0
 11
119.3678612894476
 21
56.16353912754565
 31
0.0
 70
   160
  1
φ<>
 71
     5
 42
-1.0
 73
     0
 74
     0
 75
     0
  3
Standard
100
AcDbAlignedDimension
 13
137.1939374655881
 23
39.56321888815418
 33
0.0
 14
137.1939374655881
 24
73.06321888815418
 34
0.0
 50
89.99999999999991
100
AcDbRotatedDimension
1001
ACAD
1000
DSTYLE
1002
{
1070
   279
1070
     2
1070
   340
1005
3B1
1070
   140
1040
2.0
1070
    40
1040
1.0
1070
   147
1040
0.0
1070
    76
1070
     0
1070
    75
1070
     0
1070
   344
1005
51
1070
   343
1005
51
1070
   173
1070
     1
1070
   289
1070
     2
1070
   288
1070
     1
1070
    77
1070
     1
1070
   172
1070
     1
1070
   174
1070
     0
1070
    74
1070
     0
1070
    73
1070
     0
1070
   284
1070
     8
1070
    78
1070
     8
1070
    42
1040
2.0
1070
    44
1040
1.0
1070
    43
1040
10.0
1070
   271
1070
     2
1070
    41
1040
1.0
1002
}
  0
HATCH
  5
3DA
330
1F
100
AcDbEntity
  8
1
  6
Continuous
 62
     7
370
     9
100
AcDbHatch
 10
0.0
 20
0.0
 30
0.0
210
0.0
220
0.0
230
1.0
  2
SOLID
 70
     1
 71
     0
 91
        1
 92
        0
 93
        8
 72
     2
 10
146.843937465588
 20
68.7482188881543
 40
0.1500000000000057
 50
0.0
 51
89.99999999999991
 73
     1
 72
     1
 10
146.843937465588
 20
68.89821888815428
 11
145.643937465588
 21
68.89821888815428
 72
     2
 10
145.643937465588
 20
68.7482188881543
 40
0.1500000000000057
 50
89.99999999999991
 51
179.9999999999998
 73
     1
 72
     1
 10
145.493937465588
 20
68.7482188881543
 11
145.493937465588
 21
68.29821888815431
 72
     2
 10
145.643937465588
 20
68.29821888815431
 40
0.1500000000000057
 50
179.9999999999998
 51
270.0000000000001
 73
     1
 72
     1
 10
145.643937465588
 20
68.14821888815428
 11
146.843937465588
 21
68.14821888815428
 72
     2
 10
146.843937465588
 20
68.29821888815431
 40
0.1500000000000057
 50
270.0000000000001
 51
360.0
 73
     1
 72
     1
 10
146.993937465588
 20
68.29821888815431
 11
146.993937465588
 21
68.7482188881543
 97
        0
 75
     0
 76
     1
 98
        0
  0
HATCH
  5
3DB
330
1F
100
AcDbEntity
  8
1
  6
Continuous
 62
     7
370
     9
100
AcDbHatch
 10
0.0
 20
0.0
 30
0.0
210
0.0
220
0.0
230
1.0
  2
SOLID
 70
     1
 71
     0
 91
        1
 92
        0
 93
        8
 72
     2
 10
146.8439374655881
 20
63.96821888815427
 40
0.1500000000000057
 50
0.0
 51
89.99999999999991
 73
     1
 72
     1
 10
146.8439374655881
 20
64.1182188881543
 11
145.6439374655881
 21
64.1182188881543
 72
     2
 10
145.6439374655881
 20
63.96821888815427
 40
0.1500000000000057
 50
89.99999999999991
 51
179.9999999999998
 73
     1
 72
     1
 10
145.493937465588
 20
63.96821888815427
 11
145.493937465588
 21
63.51821888815428
 72
     2
 10
145.6439374655881
 20
63.51821888815428
 40
0.1500000000000057
 50
179.9999999999998
 51
270.0000000000001
 73
     1
 72
     1
 10
145.6439374655881
 20
63.3682188881543
 11
146.8439374655881
 21
63.3682188881543
 72
     2
 10
146.8439374655881
 20
63.51821888815428
 40
0.1500000000000057
 50
270.0000000000001
 51
360.0
 73
     1
 72
     1
 10
146.993937465588
 20
63.51821888815428
 11
146.993937465588
 21
63.96821888815427
 97
        0
 75
     0
 76
     1
 98
        0
  0
HATCH
  5
3DC
330
1F
100
AcDbEntity
  8
1
  6
Continuous
 62
     7
370
     9
100
AcDbHatch
 10
0.0
 20
0.0
 30
0.0
210
0.0
220
0.0
230
1.0
  2
SOLID
 70
     1
 71
     0
 91
        1
 92
        0
 93
        8
 72
     2
 10
146.8439374655881
 20
60.26821888815428
 40
0.1500000000000057
 50
0.0
 51
89.99999999999991
 73
     1
 72
     1
 10
146.8439374655881
 20
60.41821888815431
 11
145.6439374655881
 21
60.41821888815431
 72
     2
 10
145.6439374655881
 20
60.26821888815428
 40
0.1500000000000057
 50
89.99999999999991
 51
179.9999999999998
 73
     1
 72
     1
 10
145.493937465588
 20
60.26821888815428
 11
145.493937465588
 21
59.81821888815429
 72
     2
 10
145.6439374655881
 20
59.81821888815429
 40
0.1500000000000057
 50
179.9999999999998
 51
270.0000000000001
 73
     1
 72
     1
 10
145.6439374655881
 20
59.66821888815431
 11
146.8439374655881
 21
59.66821888815431
 72
     2
 10
146.8439374655881
 20
59.81821888815429
 40
0.1500000000000057
 50
270.0000000000001
 51
360.0
 73
     1
 72
     1
 10
146.993937465588
 20
59.81821888815429
 11
146.993937465588
 21
60.26821888815428
 97
        0
 75
     0
 76
     1
 98
        0
  0
HATCH
  5
3DD
330
1F
100
AcDbEntity
  8
1
  6
Continuous
 62
     7
370
     9
100
AcDbHatch
 10
0.0
 20
0.0
 30
0.0
210
0.0
220
0.0
230
1.0
  2
SOLID
 70
     1
 71
     0
 91
        1
 92
        0
 93
        1
 72
     2
 10
152.143937465588
 20
59.03321888815435
 40
0.25
 50
0.0
 51
360.0
 73
     1
 97
        0
 75
     0
 76
     1
 98
        0
  0
HATCH
  5
3DE
330
1F
100
AcDbEntity
  8
1
  6
Continuous
 62
     7
370
     9
100
AcDbHatch
 10
0.0
 20
0.0
 30
0.0
210
0.0
220
0.0
230
1.0
  2
SOLID
 70
     1
 71
     0
 91
        1
 92
        0
 93
        1
 72
     2
 10
152.143937465588
 20
56.13321888815437
 40
0.25
 50
0.0
 51
360.0
 73
     1
 97
        0
 75
     0
 76
     1
 98
        0
  0
HATCH
  5
3DF
330
1F
100
AcDbEntity
  8
1
  6
Continuous
 62
     7
370
     9
100
AcDbHatch
 10
0.0
 20
0.0
 30
0.0
210
0.0
220
0.0
230
1.0
  2
SOLID
 70
     1
 71
     0
 91
        1
 92
        0
 93
        1
 72
     2
 10
141.693937465588
 20
56.31321888815415
 40
0.75
 50
0.0
 51
360.0
 73
     1
 97
        0
 75
     0
 76
     1
 98
        0
  0
HATCH
  5
3E0
330
1F
100
AcDbEntity
  8
1
  6
Continuous
 62
     7
370
     9
100
AcDbHatch
 10
0.0
 20
0.0
 30
0.0
210
0.0
220
0.0
230
1.0
  2
SOLID
 70
     1
 71
     0
 91
        1
 92
        0
 93
        1
 72
     2
 10
152.1439374655881
 20
53.21321888815436
 40
0.25
 50
0.0
 51
360.0
 73
     1
 97
        0
 75
     0
 76
     1
 98
        0
  0
HATCH
  5
3E1
330
1F
100
AcDbEntity
  8
1
  6
Continuous
 62
     7
370
     9
100
AcDbHatch
 10
0.0
 20
0.0
 30
0.0
210
0.0
220
0.0
230
1.0
  2
SOLID
 70
     1
 71
     0
 91
        1
 92
        0
 93
        1
 72
     2
 10
152.1439374655881
 20
51.75321888815438
 40
0.25
 50
0.0
 51
360.0
 73
     1
 97
        0
 75
     0
 76
     1
 98
        0
  0
HATCH
  5
3E2
330
1F
100
AcDbEntity
  8
1
  6
Continuous
 62
     7
370
     9
100
AcDbHatch
 10
0.0
 20
0.0
 30
0.0
210
0.0
220
0.0
230
1.0
  2
SOLID
 70
     1
 71
     0
 91
        1
 92
        0
 93
        2
 72
     2
 10
159.3939374655881
 20
56.31321888815418
 40
2.000000000000028
 50
168.6749353986465
 51
191.3250646013535
 73
     1
 72
     2
 10
156.7939374655881
 20
56.31321888815418
 40
0.75
 50
31.57854603590095
 51
328.421453964099
 73
     0
 97
        0
 75
     0
 76
     1
 98
        0
  0
MTEXT
  5
3E3
330
1F
100
AcDbEntity
  8
1
  6
Continuous
 62
     7
370
     9
100
AcDbMText
 10
144.3872405714187
 20
58.0828700628007
 30
0.0
 40
3.5
 41
5.850570570570571
 46
3.5
 71
     7
 72
     1
  1
{\fＭＳ 明朝;\T0.750000;∞}
 11
1.615544574432587E-15
 21
-1.0
 31
0.0
 73
     1
 44
1.0
1001
ACAD
1000
ACAD_MTEXT_DEFINED_HEIGHT_BEGIN
1070
    46
1040
3.5
1000
ACAD_MTEXT_DEFINED_HEIGHT_END
  0
DIMENSION
  5
3EB
330
1F
100
AcDbEntity
  8
25
  6
Continuous
 62
     7
370
     9
100
AcDbDimension
280
     0
  2
Dim5
 10
82.6021020636083
 20
46.64581074536028
 30
0.0
 11
93.69331911683959
 21
76.65607240629097
 31
0.0
 70
   163
  1
<>
 71
     5
 42
-1.0
 73
     0
 74
     0
 75
     0
  3
Standard
100
AcDbDiametricDimension
 15
90.79752024711566
 25
65.98062703094809
 35
0.0
 40
0.0
1001
ACAD
1000
DSTYLE
1002
{
1070
   340
1005
3B1
1070
   140
1040
2.0
1070
    40
1040
1.0
1070
   147
1040
0.0
1070
    76
1070
     1
1070
    75
1070
     1
1070
   344
1005
51
1070
   343
1005
51
1070
   173
1070
     1
1070
   289
1070
     2
1070
   288
1070
     1
1070
    77
1070
     1
1070
   172
1070
     1
1070
   174
1070
     0
1070
    74
1070
     0
1070
    73
1070
     0
1070
   284
1070
     8
1070
    78
1070
     8
1070
    42
1040
0.0
1070
    44
1040
0.0
1070
    43
1040
10.0
1070
   271
1070
     2
1070
    41
1040
1.0
1002
}
  0
DIMENSION
  5
3F5
330
1F
100
AcDbEntity
  8
25
  6
Continuous
 62
     7
370
     9
100
AcDbDimension
280
     0
  2
Dim6
 10
164.6939374655889
 20
31.50696140013326
 30
0.0
 11
166.6939374655881
 21
33.00696140013329
 31
0.0
 70
   160
  1
<>
 71
     5
 42
-1.0
 73
     0
 74
     0
 75
     0
  3
Standard
100
AcDbAlignedDimension
 13
168.6939374655881
 23
44.11321888815417
 33
0.0
 14
164.6939374655881
 24
40.61321888815417
 34
0.0
 50
-179.9999999999992
100
AcDbRotatedDimension
1001
ACAD
1000
DSTYLE
1002
{
1070
   279
1070
     2
1070
   340
1005
3B1
1070
   140
1040
2.0
1070
    40
1040
1.0
1070
   147
1040
0.0
1070
    76
1070
     0
1070
    75
1070
     0
1070
   344
1005
51
1070
   343
1005
51
1070
   173
1070
     1
1070
   289
1070
     2
1070
   288
1070
     1
1070
    77
1070
     1
1070
   172
1070
     1
1070
   174
1070
     0
1070
    74
1070
     0
1070
    73
1070
     0
1070
   284
1070
     8
1070
    78
1070
     8
1070
    42
1040
2.0
1070
    44
1040
1.0
1070
    43
1040
10.0
1070
   271
1070
     2
1070
    41
1040
1.0
1002
}
  0
DIMENSION
  5
3FF
330
1F
100
AcDbEntity
  8
25
  6
Continuous
 62
     7
370
     9
100
AcDbDimension
280
     0
  2
Dim7
 10
155.1939374655889
 20
31.50696140013326
 30
0.0
 11
158.2939374655881
 21
33.00696140013326
 31
0.0
 70
   160
  1
<>
 71
     5
 42
-1.0
 73
     0
 74
     0
 75
     0
  3
Standard
100
AcDbAlignedDimension
 13
161.393937465588
 23
39.86321888815417
 33
0.0
 14
155.1939374655881
 24
39.86321888815417
 34
0.0
 50
179.9999999999998
100
AcDbRotatedDimension
1001
ACAD
1000
DSTYLE
1002
{
1070
   279
1070
     2
1070
   340
1005
3B1
1070
   140
1040
2.0
1070
    40
1040
1.0
1070
   147
1040
0.0
1070
    76
1070
     0
1070
    75
1070
     0
1070
   344
1005
51
1070
   343
1005
51
1070
   173
1070
     1
1070
   289
1070
     2
1070
   288
1070
     1
1070
    77
1070
     1
1070
   172
1070
     1
1070
   174
1070
     0
1070
    74
1070
     0
1070
    73
1070
     0
1070
   284
1070
     8
1070
    78
1070
     8
1070
    42
1040
2.0
1070
    44
1040
1.0
1070
    43
1040
10.0
1070
   271
1070
     2
1070
    41
1040
1.0
1002
}
  0
DIMENSION
  5
409
330
1F
100
AcDbEntity
  8
25
  6
Continuous
 62
     7
370
     9
100
AcDbDimension
280
     0
  2
Dim8
 10
164.6939374655889
 20
25.3125440426092
 30
0.0
 11
173.4569374655881
 21
26.8125440426092
 31
0.0
 70
   160
  1
<>
 71
     5
 42
-1.0
 73
     0
 74
     0
 75
     0
  3
Standard
100
AcDbAlignedDimension
 13
182.2199374655881
 23
56.31321888815418
 33
0.0
 14
164.6939374655881
 24
30.88196140013332
 34
0.0
 50
179.9999999999998
100
AcDbRotatedDimension
1001
ACAD
1000
DSTYLE
1002
{
1070
   279
1070
     2
1070
   340
1005
3B1
1070
   140
1040
2.0
1070
    40
1040
1.0
1070
   147
1040
0.0
1070
    76
1070
     0
1070
    75
1070
     0
1070
   344
1005
51
1070
   343
1005
51
1070
   173
1070
     1
1070
   289
1070
     2
1070
   288
1070
     1
1070
    77
1070
     1
1070
   172
1070
     1
1070
   174
1070
     0
1070
    74
1070
     0
1070
    73
1070
     0
1070
   284
1070
     8
1070
    78
1070
     8
1070
    42
1040
2.0
1070
    44
1040
1.0
1070
    43
1040
10.0
1070
   271
1070
     2
1070
    41
1040
1.0
1002
}
  0
DIMENSION
  5
413
330
1F
100
AcDbEntity
  8
25
  6
Continuous
 62
     7
370
     9
100
AcDbDimension
280
     0
  2
Dim9
 10
136.8939374655889
 20
31.50696140013332
 30
0.0
 11
140.0439374655881
 21
33.00696140013329
 31
0.0
 70
   160
  1
<>
 71
     5
 42
-1.0
 73
     0
 74
     0
 75
     0
  3
Standard
100
AcDbAlignedDimension
 13
143.1939374655881
 23
39.86321888815417
 33
0.0
 14
136.8939374655881
 24
39.86321888815417
 34
0.0
 50
179.9999999999995
100
AcDbRotatedDimension
1001
ACAD
1000
DSTYLE
1002
{
1070
   279
1070
     2
1070
   340
1005
3B1
1070
   140
1040
2.0
1070
    40
1040
1.0
1070
   147
1040
0.0
1070
    76
1070
     0
1070
    75
1070
     0
1070
   344
1005
51
1070
   343
1005
51
1070
   173
1070
     1
1070
   289
1070
     2
1070
   288
1070
     1
1070
    77
1070
     1
1070
   172
1070
     1
1070
   174
1070
     0
1070
    74
1070
     0
1070
    73
1070
     0
1070
   284
1070
     8
1070
    78
1070
     8
1070
    42
1040
2.0
1070
    44
1040
1.0
1070
    43
1040
10.0
1070
   271
1070
     2
1070
    41
1040
1.0
1002
}
  0
DIMENSION
  5
41D
330
1F
100
AcDbEntity
  8
25
  6
Continuous
 62
     7
370
     9
100
AcDbDimension
280
     0
  2
Dim10
 10
136.4939374655889
 20
25.31254404260915
 30
0.0
 11
150.5939374655881
 21
26.81254404260918
 31
0.0
 70
   160
  1
<>
 71
     5
 42
-1.0
 73
     0
 74
     0
 75
     0
  3
Standard
100
AcDbAlignedDimension
 13
164.6939374655881
 23
30.88196140013332
 33
0.0
 14
136.4939374655881
 24
30.88196140013332
 34
0.0
 50
-179.9999999999999
100
AcDbRotatedDimension
1001
ACAD
1000
DSTYLE
1002
{
1070
   279
1070
     2
1070
   340
1005
3B1
1070
   140
1040
2.0
1070
    40
1040
1.0
1070
   147
1040
0.0
1070
    76
1070
     0
1070
    75
1070
     0
1070
   344
1005
51
1070
   343
1005
51
1070
   173
1070
     1
1070
   289
1070
     2
1070
   288
1070
     1
1070
    77
1070
     1
1070
   172
1070
     1
1070
   174
1070
     0
1070
    74
1070
     0
1070
    73
1070
     0
1070
   284
1070
     8
1070
    78
1070
     8
1070
    42
1040
2.0
1070
    44
1040
1.0
1070
    43
1040
10.0
1070
   271
1070
     2
1070
    41
1040
1.0
1002
}
  0
DIMENSION
  5
427
330
1F
100
AcDbEntity
  8
25
  6
Continuous
 62
     7
370
     9
100
AcDbDimension
280
     0
  2
Dim11
 10
143.1939374655889
 20
31.50696140013326
 30
0.0
 11
149.1939374655881
 21
33.00696140013326
 31
0.0
 70
   160
  1
<>
 71
     5
 42
-1.0
 73
     0
 74
     0
 75
     0
  3
Standard
100
AcDbAlignedDimension
 13
155.1939374655881
 23
39.86321888815417
 33
0.0
 14
143.1939374655881
 24
39.86321888815417
 34
0.0
 50
179.9999999999998
100
AcDbRotatedDimension
1001
ACAD
1000
DSTYLE
1002
{
1070
   279
1070
     2
1070
   340
1005
3B1
1070
   140
1040
2.0
1070
    40
1040
1.0
1070
   147
1040
0.0
1070
    76
1070
     0
1070
    75
1070
     0
1070
   344
1005
51
1070
   343
1005
51
1070
   173
1070
     1
1070
   289
1070
     2
1070
   288
1070
     1
1070
    77
1070
     1
1070
   172
1070
     1
1070
   174
1070
     0
1070
    74
1070
     0
1070
    73
1070
     0
1070
   284
1070
     8
1070
    78
1070
     8
1070
    42
1040
2.0
1070
    44
1040
1.0
1070
    43
1040
10.0
1070
   271
1070
     2
1070
    41
1040
1.0
1002
}
  0
DIMENSION
  5
431
330
1F
100
AcDbEntity
  8
25
  6
Continuous
 62
     7
370
     9
100
AcDbDimension
280
     0
  2
Dim12
 10
168.6939374655886
 20
31.50696140013332
 30
0.0
 11
174.2006806077772
 21
33.00696140013331
 31
0.0
 70
   160
  1
(0.8)
 71
     5
 42
-1.0
 73
     0
 74
     0
 75
     0
  3
Standard
100
AcDbAlignedDimension
 13
169.6225628887967
 23
47.5132188881542
 33
0.0
 14
168.6939374655881
 24
44.11321888815417
 34
0.0
 50
179.9999999999998
100
AcDbRotatedDimension
1001
ACAD
1000
DSTYLE
1002
{
1070
   279
1070
     2
1070
   340
1005
3B1
1070
   140
1040
2.0
1070
    40
1040
1.0
1070
   147
1040
0.0
1070
    76
1070
     0
1070
    75
1070
     0
1070
   344
1005
51
1070
   343
1005
51
1070
   173
1070
     1
1070
   289
1070
     2
1070
   288
1070
     1
1070
    77
1070
     1
1070
   172
1070
     1
1070
   174
1070
     0
1070
    74
1070
     0
1070
    73
1070
     0
1070
   284
1070
     8
1070
    78
1070
     8
1070
    42
1040
2.0
1070
    44
1040
1.0
1070
    43
1040
10.0
1070
   271
1070
     2
1070
    41
1040
1.0
1002
}
  0
DIMENSION
  5
43B
330
1F
100
AcDbEntity
  8
25
  6
Continuous
 62
     7
370
     9
100
AcDbDimension
280
     0
  2
Dim13
 10
161.3939374655887
 20
31.5069614001333
 30
0.0
 11
163.0411407499515
 21
33.00696140013329
 31
0.0
 70
   160
  1
<>
 71
     5
 42
-1.0
 73
     0
 74
     0
 75
     0
  3
Standard
100
AcDbAlignedDimension
 13
164.6939374655881
 23
40.61321888815417
 33
0.0
 14
161.393937465588
 24
39.86321888815417
 34
0.0
 50
179.9999999999998
100
AcDbRotatedDimension
1001
ACAD
1000
DSTYLE
1002
{
1070
   279
1070
     2
1070
   340
1005
3B1
1070
   140
1040
2.0
1070
    40
1040
1.0
1070
   147
1040
0.0
1070
    76
1070
     0
1070
    75
1070
     0
1070
   344
1005
51
1070
   343
1005
51
1070
   173
1070
     1
1070
   289
1070
     2
1070
   288
1070
     1
1070
    77
1070
     1
1070
   172
1070
     1
1070
   174
1070
     0
1070
    74
1070
     0
1070
    73
1070
     0
1070
   284
1070
     8
1070
    78
1070
     8
1070
    42
1040
2.0
1070
    44
1040
1.0
1070
    43
1040
10.0
1070
   271
1070
     2
1070
    41
1040
1.0
1002
}
  0
DIMENSION
  5
445
330
1F
100
AcDbEntity
  8
25
  6
Continuous
 62
     7
370
     9
100
AcDbDimension
280
     0
  2
Dim14
 10
136.4939374655889
 20
31.5069614001334
 30
0.0
 11
133.1622816972759
 21
33.11883764593257
 31
0.0
 70
   160
  1
(0.4)
 71
     5
 42
-1.0
 73
     0
 74
     0
 75
     0
  3
Standard
100
AcDbAlignedDimension
 13
136.8939374655881
 23
39.86321888815417
 33
0.0
 14
136.4939374655881
 24
40.5132188881542
 34
0.0
 50
179.9999999999944
100
AcDbRotatedDimension
1001
ACAD
1000
DSTYLE
1002
{
1070
   279
1070
     2
1070
   340
1005
3B1
1070
   140
1040
2.0
1070
    40
1040
1.0
1070
   147
1040
0.0
1070
    76
1070
     0
1070
    75
1070
     0
1070
   344
1005
51
1070
   343
1005
51
1070
   173
1070
     1
1070
   289
1070
     2
1070
   288
1070
     1
1070
    77
1070
     1
1070
   172
1070
     1
1070
   174
1070
     0
1070
    74
1070
     0
1070
    73
1070
     0
1070
   284
1070
     8
1070
    78
1070
     8
1070
    42
1040
2.0
1070
    44
1040
1.0
1070
    43
1040
10.0
1070
   271
1070
     2
1070
    41
1040
1.0
1002
}
  0
POLYLINE
  5
446
330
1F
100
AcDbEntity
  8
1
  6
Continuous
 62
     7
370
     9
100
AcDb2dPolyline
 66
     1
 10
0.0
 20
0.0
 30
0.0
 70
     2
  0
VERTEX
  5
447
330
446
100
AcDbEntity
  8
1
  6
Continuous
 62
     7
370
     9
100
AcDbVertex
100
AcDb2dVertex
 10
139.2012066126703
 20
71.2632188881542
 30
0.0
  0
VERTEX
  5
448
330
446
100
AcDbEntity
  8
1
  6
Continuous
 62
     7
370
     9
100
AcDbVertex
100
AcDb2dVertex
 10
139.2036410208462
 20
71.26493569563914
 30
0.0
  0
VERTEX
  5
449
330
446
100
AcDbEntity
  8
1
  6
Continuous
 62
     7
370
     9
100
AcDbVertex
100
AcDb2dVertex
 10
139.2108790539088
 20
71.27004018659561
 30
0.0
  0
VERTEX
  5
44A
330
446
100
AcDbEntity
  8
1
  6
Continuous
 62
     7
370
     9
100
AcDbVertex
100
AcDb2dVertex
 10
139.222733741835
 20
71.27840087654796
 30
0.0
  0
VERTEX
  5
44B
330
446
100
AcDbEntity
  8
1
  6
Continuous
 62
     7
370
     9
100
AcDbVertex
100
AcDb2dVertex
 10
139.2389194976101
 20
71.28981769545742
 30
0.0
  0
VERTEX
  5
44C
330
446
100
AcDbEntity
  8
1
  6
Continuous
 62
     7
370
     9
100
AcDbVertex
100
AcDb2dVertex
 10
139.2590826198242
 20
71.30404427167551
 30
0.0
  0
VERTEX
  5
44D
330
446
100
AcDbEntity
  8
1
  6
Continuous
 62
     7
370
     9
100
AcDbVertex
100
AcDb2dVertex
 10
139.2828293812764
 20
71.32080831399314
 30
0.0
  0
VERTEX
  5
44E
330
446
100
AcDbEntity
  8
1
  6
Continuous
 62
     7
370
     9
100
AcDbVertex
100
AcDb2dVertex
 10
139.3097422003479
 20
71.33982306297521
 30
0.0
  0
VERTEX
  5
44F
330
446
100
AcDbEntity
  8
1
  6
Continuous
 62
     7
370
     9
100
AcDbVertex
100
AcDb2dVertex
 10
139.3393774741059
 20
71.3607850689921
 30
0.0
  0
VERTEX
  5
450
330
446
100
AcDbEntity
  8
1
  6
Continuous
 62
     7
370
     9
100
AcDbVertex
100
AcDb2dVertex
 10
139.3712438570547
 20
71.38335741283454
 30
0.0
  0
VERTEX
  5
451
330
446
100
AcDbEntity
  8
1
  6
Continuous
 62
     7
370
     9
100
AcDbVertex
100
AcDb2dVertex
 10
139.4047658073015
 20
71.40714195986033
 30
0.0
  0
VERTEX
  5
452
330
446
100
AcDbEntity
  8
1
  6
Continuous
 62
     7
370
     9
100
AcDbVertex
100
AcDb2dVertex
 10
139.4392425339251
 20
71.43164817544378
 30
0.0
  0
VERTEX
  5
453
330
446
100
AcDbEntity
  8
1
  6
Continuous
 62
     7
370
     9
100
AcDbVertex
100
AcDb2dVertex
 10
139.4738156237919
 20
71.45626835993244
 30
0.0
  0
VERTEX
  5
454
330
446
100
AcDbEntity
  8
1
  6
Continuous
 62
     7
370
     9
100
AcDbVertex
100
AcDb2dVertex
 10
139.5074586424126
 20
71.48026917371715
 30
0.0
  0
VERTEX
  5
455
330
446
100
AcDbEntity
  8
1
  6
Continuous
 62
     7
370
     9
100
AcDbVertex
100
AcDb2dVertex
 10
139.5389986653034
 20
71.50280684968014
 30
0.0
  0
VERTEX
  5
456
330
446
100
AcDbEntity
  8
1
  6
Continuous
 62
     7
370
     9
100
AcDbVertex
100
AcDb2dVertex
 10
139.567173590044
 20
71.52296896559369
 30
0.0
  0
VERTEX
  5
457
330
446
100
AcDbEntity
  8
1
  6
Continuous
 62
     7
370
     9
100
AcDbVertex
100
AcDb2dVertex
 10
139.5907214863135
 20
71.53984002242329
 30
0.0
  0
VERTEX
  5
458
330
446
100
AcDbEntity
  8
1
  6
Continuous
 62
     7
370
     9
100
AcDbVertex
100
AcDb2dVertex
 10
139.6084908505443
 20
71.55258259721064
 30
0.0
  0
VERTEX
  5
459
330
446
100
AcDbEntity
  8
1
  6
Continuous
 62
     7
370
     9
100
AcDbVertex
100
AcDb2dVertex
 10
139.6195551487682
 20
71.56052177470313
 30
0.0
  0
VERTEX
  5
45A
330
446
100
AcDbEntity
  8
1
  6
Continuous
 62
     7
370
     9
100
AcDbVertex
100
AcDb2dVertex
 10
139.6233127757616
 20
71.56321888815421
 30
0.0
  0
VERTEX
  5
45B
330
446
100
AcDbEntity
  8
1
  6
Continuous
 62
     7
370
     9
100
AcDbVertex
100
AcDb2dVertex
 10
139.6270885018894
 20
71.56592942570599
 30
0.0
  0
VERTEX
  5
45C
330
446
100
AcDbEntity
  8
1
  6
Continuous
 62
     7
370
     9
100
AcDbVertex
100
AcDb2dVertex
 10
139.6384169842874
 20
71.57406527200985
 30
0.0
  0
VERTEX
  5
45D
330
446
100
AcDbEntity
  8
1
  6
Continuous
 62
     7
370
     9
100
AcDbVertex
100
AcDb2dVertex
 10
139.657273579914
 20
71.58762296288145
 30
0.0
  0
VERTEX
  5
45E
330
446
100
AcDbEntity
  8
1
  6
Continuous
 62
     7
370
     9
100
AcDbVertex
100
AcDb2dVertex
 10
139.6835300531597
 20
71.60654684795252
 30
0.0
  0
VERTEX
  5
45F
330
446
100
AcDbEntity
  8
1
  6
Continuous
 62
     7
370
     9
100
AcDbVertex
100
AcDb2dVertex
 10
139.7168498952847
 20
71.63066736409648
 30
0.0
  0
VERTEX
  5
460
330
446
100
AcDbEntity
  8
1
  6
Continuous
 62
     7
370
     9
100
AcDbVertex
100
AcDb2dVertex
 10
139.7565871775123
 20
71.65963764653483
 30
0.0
  0
VERTEX
  5
461
330
446
100
AcDbEntity
  8
1
  6
Continuous
 62
     7
370
     9
100
AcDbVertex
100
AcDb2dVertex
 10
139.8017203282627
 20
71.69288491744928
 30
0.0
  0
VERTEX
  5
462
330
446
100
AcDbEntity
  8
1
  6
Continuous
 62
     7
370
     9
100
AcDbVertex
100
AcDb2dVertex
 10
139.8508450681142
 20
71.72959014386521
 30
0.0
  0
VERTEX
  5
463
330
446
100
AcDbEntity
  8
1
  6
Continuous
 62
     7
370
     9
100
AcDbVertex
100
AcDb2dVertex
 10
139.9022372717734
 20
71.76870340651884
 30
0.0
  0
VERTEX
  5
464
330
446
100
AcDbEntity
  8
1
  6
Continuous
 62
     7
370
     9
100
AcDbVertex
100
AcDb2dVertex
 10
139.9539799850973
 20
71.80899470148961
 30
0.0
  0
VERTEX
  5
465
330
446
100
AcDbEntity
  8
1
  6
Continuous
 62
     7
370
     9
100
AcDbVertex
100
AcDb2dVertex
 10
140.0041332176125
 20
71.84913231689619
 30
0.0
  0
VERTEX
  5
466
330
446
100
AcDbEntity
  8
1
  6
Continuous
 62
     7
370
     9
100
AcDbVertex
100
AcDb2dVertex
 10
140.0509142769238
 20
71.88777524430279
 30
0.0
  0
VERTEX
  5
467
330
446
100
AcDbEntity
  8
1
  6
Continuous
 62
     7
370
     9
100
AcDbVertex
100
AcDb2dVertex
 10
140.0928530118906
 20
71.9236635844767
 30
0.0
  0
VERTEX
  5
468
330
446
100
AcDbEntity
  8
1
  6
Continuous
 62
     7
370
     9
100
AcDbVertex
100
AcDb2dVertex
 10
140.1288913076076
 20
71.95569210360868
 30
0.0
  0
VERTEX
  5
469
330
446
100
AcDbEntity
  8
1
  6
Continuous
 62
     7
370
     9
100
AcDbVertex
100
AcDb2dVertex
 10
140.1584084350794
 20
71.98295661648129
 30
0.0
  0
VERTEX
  5
46A
330
446
100
AcDbEntity
  8
1
  6
Continuous
 62
     7
370
     9
100
AcDbVertex
100
AcDb2dVertex
 10
140.1811705486667
 20
72.00476955748623
 30
0.0
  0
VERTEX
  5
46B
330
446
100
AcDbEntity
  8
1
  6
Continuous
 62
     7
370
     9
100
AcDbVertex
100
AcDb2dVertex
 10
140.1972198077198
 20
72.02064828945828
 30
0.0
  0
VERTEX
  5
46C
330
446
100
AcDbEntity
  8
1
  6
Continuous
 62
     7
370
     9
100
AcDbVertex
100
AcDb2dVertex
 10
140.2067321951068
 20
72.03028564121118
 30
0.0
  0
VERTEX
  5
46D
330
446
100
AcDbEntity
  8
1
  6
Continuous
 62
     7
370
     9
100
AcDbVertex
100
AcDb2dVertex
 10
140.2098798698605
 20
72.03351543714702
 30
0.0
  0
VERTEX
  5
46E
330
446
100
AcDbEntity
  8
1
  6
Continuous
 62
     7
370
     9
100
AcDbVertex
100
AcDb2dVertex
 10
140.2130008265531
 20
72.03673892155976
 30
0.0
  0
VERTEX
  5
46F
330
446
100
AcDbEntity
  8
1
  6
Continuous
 62
     7
370
     9
100
AcDbVertex
100
AcDb2dVertex
 10
140.2221218872197
 20
72.04628389921369
 30
0.0
  0
VERTEX
  5
470
330
446
100
AcDbEntity
  8
1
  6
Continuous
 62
     7
370
     9
100
AcDbVertex
100
AcDb2dVertex
 10
140.2365500724342
 20
72.06178050638029
 30
0.0
  0
VERTEX
  5
471
330
446
100
AcDbEntity
  8
1
  6
Continuous
 62
     7
370
     9
100
AcDbVertex
100
AcDb2dVertex
 10
140.2552327533015
 20
72.08263388473671
 30
0.0
  0
VERTEX
  5
472
330
446
100
AcDbEntity
  8
1
  6
Continuous
 62
     7
370
     9
100
AcDbVertex
100
AcDb2dVertex
 10
140.2768919760975
 20
72.10805548560657
 30
0.0
  0
VERTEX
  5
473
330
446
100
AcDbEntity
  8
1
  6
Continuous
 62
     7
370
     9
100
AcDbVertex
100
AcDb2dVertex
 10
140.3001782403209
 20
72.1371046593469
 30
0.0
  0
VERTEX
  5
474
330
446
100
AcDbEntity
  8
1
  6
Continuous
 62
     7
370
     9
100
AcDbVertex
100
AcDb2dVertex
 10
140.3238180535015
 20
72.16873811872696
 30
0.0
  0
VERTEX
  5
475
330
446
100
AcDbEntity
  8
1
  6
Continuous
 62
     7
370
     9
100
AcDbVertex
100
AcDb2dVertex
 10
140.3467323603387
 20
72.20186406688964
 30
0.0
  0
VERTEX
  5
476
330
446
100
AcDbEntity
  8
1
  6
Continuous
 62
     7
370
     9
100
AcDbVertex
100
AcDb2dVertex
 10
140.3681100460209
 20
72.23539709792618
 30
0.0
  0
VERTEX
  5
477
330
446
100
AcDbEntity
  8
1
  6
Continuous
 62
     7
370
     9
100
AcDbVertex
100
AcDb2dVertex
 10
140.3874304527389
 20
72.26830957517764
 30
0.0
  0
VERTEX
  5
478
330
446
100
AcDbEntity
  8
1
  6
Continuous
 62
     7
370
     9
100
AcDbVertex
100
AcDb2dVertex
 10
140.4044390189719
 20
72.29967522789472
 30
0.0
  0
VERTEX
  5
479
330
446
100
AcDbEntity
  8
1
  6
Continuous
 62
     7
370
     9
100
AcDbVertex
100
AcDb2dVertex
 10
140.4190885487969
 20
72.32870128848973
 30
0.0
  0
VERTEX
  5
47A
330
446
100
AcDbEntity
  8
1
  6
Continuous
 62
     7
370
     9
100
AcDbVertex
100
AcDb2dVertex
 10
140.4314635442327
 20
72.35474663748818
 30
0.0
  0
VERTEX
  5
47B
330
446
100
AcDbEntity
  8
1
  6
Continuous
 62
     7
370
     9
100
AcDbVertex
100
AcDb2dVertex
 10
140.4417056677732
 20
72.37732503650126
 30
0.0
  0
VERTEX
  5
47C
330
446
100
AcDbEntity
  8
1
  6
Continuous
 62
     7
370
     9
100
AcDbVertex
100
AcDb2dVertex
 10
140.4499549619918
 20
72.39609440714439
 30
0.0
  0
VERTEX
  5
47D
330
446
100
AcDbEntity
  8
1
  6
Continuous
 62
     7
370
     9
100
AcDbVertex
100
AcDb2dVertex
 10
140.456315100225
 20
72.4108349721396
 30
0.0
  0
VERTEX
  5
47E
330
446
100
AcDbEntity
  8
1
  6
Continuous
 62
     7
370
     9
100
AcDbVertex
100
AcDb2dVertex
 10
140.460843467447
 20
72.42142060098828
 30
0.0
  0
VERTEX
  5
47F
330
446
100
AcDbEntity
  8
1
  6
Continuous
 62
     7
370
     9
100
AcDbVertex
100
AcDb2dVertex
 10
140.4635602336539
 20
72.42778861607003
 30
0.0
  0
VERTEX
  5
480
330
446
100
AcDbEntity
  8
1
  6
Continuous
 62
     7
370
     9
100
AcDbVertex
100
AcDb2dVertex
 10
140.464466424097
 20
72.42991342684667
 30
0.0
  0
VERTEX
  5
481
330
446
100
AcDbEntity
  8
1
  6
Continuous
 62
     7
370
     9
100
AcDbVertex
100
AcDb2dVertex
 10
140.4653689712468
 20
72.43202949650573
 30
0.0
  0
VERTEX
  5
482
330
446
100
AcDbEntity
  8
1
  6
Continuous
 62
     7
370
     9
100
AcDbVertex
100
AcDb2dVertex
 10
140.4680307133059
 20
72.43826899869252
 30
0.0
  0
VERTEX
  5
483
330
446
100
AcDbEntity
  8
1
  6
Continuous
 62
     7
370
     9
100
AcDbVertex
100
AcDb2dVertex
 10
140.4723180043355
 20
72.44831842209061
 30
0.0
  0
VERTEX
  5
484
330
446
100
AcDbEntity
  8
1
  6
Continuous
 62
     7
370
     9
100
AcDbVertex
100
AcDb2dVertex
 10
140.4780210754425
 20
72.46169489619989
 30
0.0
  0
VERTEX
  5
485
330
446
100
AcDbEntity
  8
1
  6
Continuous
 62
     7
370
     9
100
AcDbVertex
100
AcDb2dVertex
 10
140.484871719477
 20
72.47779785262696
 30
0.0
  0
VERTEX
  5
486
330
446
100
AcDbEntity
  8
1
  6
Continuous
 62
     7
370
     9
100
AcDbVertex
100
AcDb2dVertex
 10
140.4925647991363
 20
72.49596749697453
 30
0.0
  0
VERTEX
  5
487
330
446
100
AcDbEntity
  8
1
  6
Continuous
 62
     7
370
     9
100
AcDbVertex
100
AcDb2dVertex
 10
140.5007809752267
 20
72.51553994610417
 30
0.0
  0
VERTEX
  5
488
330
446
100
AcDbEntity
  8
1
  6
Continuous
 62
     7
370
     9
100
AcDbVertex
100
AcDb2dVertex
 10
140.5092080911909
 20
72.53589031055819
 30
0.0
  0
VERTEX
  5
489
330
446
100
AcDbEntity
  8
1
  6
Continuous
 62
     7
370
     9
100
AcDbVertex
100
AcDb2dVertex
 10
140.5175590622658
 20
72.55645821611992
 30
0.0
  0
VERTEX
  5
48A
330
446
100
AcDbEntity
  8
1
  6
Continuous
 62
     7
370
     9
100
AcDbVertex
100
AcDb2dVertex
 10
140.5255848055151
 20
72.57675448380034
 30
0.0
  0
VERTEX
  5
48B
330
446
100
AcDbEntity
  8
1
  6
Continuous
 62
     7
370
     9
100
AcDbVertex
100
AcDb2dVertex
 10
140.5330815708779
 20
72.59635193062032
 30
0.0
  0
VERTEX
  5
48C
330
446
100
AcDbEntity
  8
1
  6
Continuous
 62
     7
370
     9
100
AcDbVertex
100
AcDb2dVertex
 10
140.5398928418614
 20
72.61486654185371
 30
0.0
  0
VERTEX
  5
48D
330
446
100
AcDbEntity
  8
1
  6
Continuous
 62
     7
370
     9
100
AcDbVertex
100
AcDb2dVertex
 10
140.5459066355782
 20
72.63193687562996
 30
0.0
  0
VERTEX
  5
48E
330
446
100
AcDbEntity
  8
1
  6
Continuous
 62
     7
370
     9
100
AcDbVertex
100
AcDb2dVertex
 10
140.5510494577751
 20
72.64720918551421
 30
0.0
  0
VERTEX
  5
48F
330
446
100
AcDbEntity
  8
1
  6
Continuous
 62
     7
370
     9
100
AcDbVertex
100
AcDb2dVertex
 10
140.5552783292254
 20
72.66033355951393
 30
0.0
  0
VERTEX
  5
490
330
446
100
AcDbEntity
  8
1
  6
Continuous
 62
     7
370
     9
100
AcDbVertex
100
AcDb2dVertex
 10
140.5585722223671
 20
72.67097297885532
 30
0.0
  0
VERTEX
  5
491
330
446
100
AcDbEntity
  8
1
  6
Continuous
 62
     7
370
     9
100
AcDbVertex
100
AcDb2dVertex
 10
140.5609240018651
 20
72.67882347749882
 30
0.0
  0
VERTEX
  5
492
330
446
100
AcDbEntity
  8
1
  6
Continuous
 62
     7
370
     9
100
AcDbVertex
100
AcDb2dVertex
 10
140.5623336415332
 20
72.68364047256132
 30
0.0
  0
VERTEX
  5
493
330
446
100
AcDbEntity
  8
1
  6
Continuous
 62
     7
370
     9
100
AcDbVertex
100
AcDb2dVertex
 10
140.562803180155
 20
72.68526460344584
 30
0.0
  0
VERTEX
  5
494
330
446
100
AcDbEntity
  8
1
  6
Continuous
 62
     7
370
     9
100
AcDbVertex
100
AcDb2dVertex
 10
140.5632703897613
 20
72.68689071097722
 30
0.0
  0
VERTEX
  5
495
330
446
100
AcDbEntity
  8
1
  6
Continuous
 62
     7
370
     9
100
AcDbVertex
100
AcDb2dVertex
 10
140.564645543822
 20
72.69173580076888
 30
0.0
  0
VERTEX
  5
496
330
446
100
AcDbEntity
  8
1
  6
Continuous
 62
     7
370
     9
100
AcDbVertex
100
AcDb2dVertex
 10
140.5668515138982
 20
72.69969591539366
 30
0.0
  0
VERTEX
  5
497
330
446
100
AcDbEntity
  8
1
  6
Continuous
 62
     7
370
     9
100
AcDbVertex
100
AcDb2dVertex
 10
140.5697671515493
 20
72.71058522628638
 30
0.0
  0
VERTEX
  5
498
330
446
100
AcDbEntity
  8
1
  6
Continuous
 62
     7
370
     9
100
AcDbVertex
100
AcDb2dVertex
 10
140.5732375309937
 20
72.72412245267878
 30
0.0
  0
VERTEX
  5
499
330
446
100
AcDbEntity
  8
1
  6
Continuous
 62
     7
370
     9
100
AcDbVertex
100
AcDb2dVertex
 10
140.577086689864
 20
72.73992091539914
 30
0.0
  0
VERTEX
  5
49A
330
446
100
AcDbEntity
  8
1
  6
Continuous
 62
     7
370
     9
100
AcDbVertex
100
AcDb2dVertex
 10
140.5811315147482
 20
72.75748824172122
 30
0.0
  0
VERTEX
  5
49B
330
446
100
AcDbEntity
  8
1
  6
Continuous
 62
     7
370
     9
100
AcDbVertex
100
AcDb2dVertex
 10
140.5851953417201
 20
72.77623997297873
 30
0.0
  0
VERTEX
  5
49C
330
446
100
AcDbEntity
  8
1
  6
Continuous
 62
     7
370
     9
100
AcDbVertex
100
AcDb2dVertex
 10
140.5891199344844
 20
72.79552824663818
 30
0.0
  0
VERTEX
  5
49D
330
446
100
AcDbEntity
  8
1
  6
Continuous
 62
     7
370
     9
100
AcDbVertex
100
AcDb2dVertex
 10
140.5927747445471
 20
72.81468306880649
 30
0.0
  0
VERTEX
  5
49E
330
446
100
AcDbEntity
  8
1
  6
Continuous
 62
     7
370
     9
100
AcDbVertex
100
AcDb2dVertex
 10
140.5960627111291
 20
72.83306036699986
 30
0.0
  0
VERTEX
  5
49F
330
446
100
AcDbEntity
  8
1
  6
Continuous
 62
     7
370
     9
100
AcDbVertex
100
AcDb2dVertex
 10
140.5989222740615
 20
72.85008886565221
 30
0.0
  0
VERTEX
  5
4A0
330
446
100
AcDbEntity
  8
1
  6
Continuous
 62
     7
370
     9
100
AcDbVertex
100
AcDb2dVertex
 10
140.6013256977438
 20
72.86530744122147
 30
0.0
  0
VERTEX
  5
4A1
330
446
100
AcDbEntity
  8
1
  6
Continuous
 62
     7
370
     9
100
AcDbVertex
100
AcDb2dVertex
 10
140.603274189539
 20
72.87838615863012
 30
0.0
  0
VERTEX
  5
4A2
330
446
100
AcDbEntity
  8
1
  6
Continuous
 62
     7
370
     9
100
AcDbVertex
100
AcDb2dVertex
 10
140.6047906028047
 20
72.8891273717576
 30
0.0
  0
VERTEX
  5
4A3
330
446
100
AcDbEntity
  8
1
  6
Continuous
 62
     7
370
     9
100
AcDbVertex
100
AcDb2dVertex
 10
140.6059107177276
 20
72.89744739285406
 30
0.0
  0
VERTEX
  5
4A4
330
446
100
AcDbEntity
  8
1
  6
Continuous
 62
     7
370
     9
100
AcDbVertex
100
AcDb2dVertex
 10
140.6066741812742
 20
72.9033433635673
 30
0.0
  0
VERTEX
  5
4A5
330
446
100
AcDbEntity
  8
1
  6
Continuous
 62
     7
370
     9
100
AcDbVertex
100
AcDb2dVertex
 10
140.6071161629692
 20
72.90685313735348
 30
0.0
  0
VERTEX
  5
4A6
330
446
100
AcDbEntity
  8
1
  6
Continuous
 62
     7
370
     9
100
AcDbVertex
100
AcDb2dVertex
 10
140.6072606580793
 20
72.9080174589942
 30
0.0
  0
VERTEX
  5
4A7
330
446
100
AcDbEntity
  8
1
  6
Continuous
 62
     7
370
     9
100
AcDbVertex
100
AcDb2dVertex
 10
140.6074030515032
 20
72.90917345984164
 30
0.0
  0
VERTEX
  5
4A8
330
446
100
AcDbEntity
  8
1
  6
Continuous
 62
     7
370
     9
100
AcDbVertex
100
AcDb2dVertex
 10
140.6078140652117
 20
72.91256122763629
 30
0.0
  0
VERTEX
  5
4A9
330
446
100
AcDbEntity
  8
1
  6
Continuous
 62
     7
370
     9
100
AcDbVertex
100
AcDb2dVertex
 10
140.6084477770332
 20
72.91795071847758
 30
0.0
  0
VERTEX
  5
4AA
330
446
100
AcDbEntity
  8
1
  6
Continuous
 62
     7
370
     9
100
AcDbVertex
100
AcDb2dVertex
 10
140.6092357457314
 20
72.92499208155748
 30
0.0
  0
VERTEX
  5
4AB
330
446
100
AcDbEntity
  8
1
  6
Continuous
 62
     7
370
     9
100
AcDbVertex
100
AcDb2dVertex
 10
140.6100975250014
 20
72.9332594894531
 30
0.0
  0
VERTEX
  5
4AC
330
446
100
AcDbEntity
  8
1
  6
Continuous
 62
     7
370
     9
100
AcDbVertex
100
AcDb2dVertex
 10
140.6109524829388
 20
72.94230091882947
 30
0.0
  0
VERTEX
  5
4AD
330
446
100
AcDbEntity
  8
1
  6
Continuous
 62
     7
370
     9
100
AcDbVertex
100
AcDb2dVertex
 10
140.6117307813388
 20
72.95168529420013
 30
0.0
  0
VERTEX
  5
4AE
330
446
100
AcDbEntity
  8
1
  6
Continuous
 62
     7
370
     9
100
AcDbVertex
100
AcDb2dVertex
 10
140.6123816396946
 20
72.96103946108273
 30
0.0
  0
VERTEX
  5
4AF
330
446
100
AcDbEntity
  8
1
  6
Continuous
 62
     7
370
     9
100
AcDbVertex
100
AcDb2dVertex
 10
140.6128776516404
 20
72.97006998773549
 30
0.0
  0
VERTEX
  5
4B0
330
446
100
AcDbEntity
  8
1
  6
Continuous
 62
     7
370
     9
100
AcDbVertex
100
AcDb2dVertex
 10
140.613214783766
 20
72.97856820024745
 30
0.0
  0
VERTEX
  5
4B1
330
446
100
AcDbEntity
  8
1
  6
Continuous
 62
     7
370
     9
100
AcDbVertex
100
AcDb2dVertex
 10
140.6134085706112
 20
72.98640035084448
 30
0.0
  0
VERTEX
  5
4B2
330
446
100
AcDbEntity
  8
1
  6
Continuous
 62
     7
370
     9
100
AcDbVertex
100
AcDb2dVertex
 10
140.613487729545
 20
72.99348762825599
 30
0.0
  0
VERTEX
  5
4B3
330
446
100
AcDbEntity
  8
1
  6
Continuous
 62
     7
370
     9
100
AcDbVertex
100
AcDb2dVertex
 10
140.6134868067047
 20
72.9997822533888
 30
0.0
  0
VERTEX
  5
4B4
330
446
100
AcDbEntity
  8
1
  6
Continuous
 62
     7
370
     9
100
AcDbVertex
100
AcDb2dVertex
 10
140.6134394622958
 20
73.00524589414123
 30
0.0
  0
VERTEX
  5
4B5
330
446
100
AcDbEntity
  8
1
  6
Continuous
 62
     7
370
     9
100
AcDbVertex
100
AcDb2dVertex
 10
140.6133736365733
 20
73.00983518393937
 30
0.0
  0
VERTEX
  5
4B6
330
446
100
AcDbEntity
  8
1
  6
Continuous
 62
     7
370
     9
100
AcDbVertex
100
AcDb2dVertex
 10
140.6133092180272
 20
73.01349668061596
 30
0.0
  0
VERTEX
  5
4B7
330
446
100
AcDbEntity
  8
1
  6
Continuous
 62
     7
370
     9
100
AcDbVertex
100
AcDb2dVertex
 10
140.6132581297366
 20
73.01617081771697
 30
0.0
  0
VERTEX
  5
4B8
330
446
100
AcDbEntity
  8
1
  6
Continuous
 62
     7
370
     9
100
AcDbVertex
100
AcDb2dVertex
 10
140.613226139183
 20
73.01780199514513
 30
0.0
  0
VERTEX
  5
4B9
330
446
100
AcDbEntity
  8
1
  6
Continuous
 62
     7
370
     9
100
AcDbVertex
100
AcDb2dVertex
 10
140.6132153305807
 20
73.01835052282249
 30
0.0
  0
SEQEND
  5
4BA
330
446
100
AcDbEntity
  8
1
  6
Continuous
 62
     7
370
     9
  0
LINE
  5
4BB
330
1F
100
AcDbEntity
  8
1
  6
Continuous
 62
     7
370
     9
100
AcDbLine
 10
138.6290933984278
 20
69.08344367378388
 30
0.0
 11
139.2012066126703
 21
71.2632188881542
 31
0.0
  0
INSERT
  5
4C7
330
1F
100
AcDbEntity
  8
0
100
AcDbBlockReference
  2
*G30
 10
0.0
 20
0.0
 30
0.0
  0
MTEXT
  5
4C8
330
1F
100
AcDbEntity
  8
1
  6
Continuous
 62
     7
370
     9
100
AcDbMText
 10
153.2604377991209
 20
50.07842760045662
 30
0.0
 40
2.200000000000003
 41
1.758812000000002
 46
2.200000000000003
 71
     1
 72
     1
  1
{\fＭＳ ゴシック;\T0.750000;4}
 11
-1.608122649676637E-16
 21
-1.0
 31
0.0
 73
     1
 44
1.0
1001
ACAD
1000
ACAD_MTEXT_DEFINED_HEIGHT_BEGIN
1070
    46
1040
2.200000000000003
1000
ACAD_MTEXT_DEFINED_HEIGHT_END
  0
MTEXT
  5
4C9
330
1F
100
AcDbEntity
  8
1
  6
Continuous
 62
     7
370
     9
100
AcDbMText
 10
153.260437799121
 20
51.44937765646551
 30
0.0
 40
2.200000000000003
 41
0.8403560000000011
 46
2.200000000000003
 71
     1
 72
     1
  1
{\fＭＳ ゴシック;\T0.750000;1}
 11
-1.608122649676637E-16
 21
-1.0
 31
0.0
 73
     1
 44
1.0
1001
ACAD
1000
ACAD_MTEXT_DEFINED_HEIGHT_BEGIN
1070
    46
1040
2.200000000000003
1000
ACAD_MTEXT_DEFINED_HEIGHT_END
  0
MTEXT
  5
4CA
330
1F
100
AcDbEntity
  8
1
  6
Continuous
 62
     7
370
     9
100
AcDbMText
 10
153.2604377991209
 20
60.55692129714242
 30
0.0
 40
2.200000000000003
 41
1.583868000000002
 46
2.200000000000003
 71
     1
 72
     1
  1
{\fＭＳ ゴシック;\T0.750000;6}
 11
-1.608122649676637E-16
 21
-1.0
 31
0.0
 73
     1
 44
1.0
1001
ACAD
1000
ACAD_MTEXT_DEFINED_HEIGHT_BEGIN
1070
    46
1040
2.200000000000003
1000
ACAD_MTEXT_DEFINED_HEIGHT_END
  0
MTEXT
  5
4CB
330
1F
100
AcDbEntity
  8
1
  6
Continuous
 62
     7
370
     9
100
AcDbMText
 10
153.2604377991209
 20
58.16911356693583
 30
0.0
 40
2.200000000000003
 41
1.649472000000002
 46
2.200000000000003
 71
     1
 72
     1
  1
{\fＭＳ ゴシック;\T0.750000;8}
 11
-1.608122649676637E-16
 21
-1.0
 31
0.0
 73
     1
 44
1.0
1001
ACAD
1000
ACAD_MTEXT_DEFINED_HEIGHT_BEGIN
1070
    46
1040
2.200000000000003
1000
ACAD_MTEXT_DEFINED_HEIGHT_END
  0
MTEXT
  5
4CC
330
1F
100
AcDbEntity
  8
1
  6
Continuous
 62
     7
370
     9
100
AcDbMText
 10
153.2604377991209
 20
55.24915978589206
 30
0.0
 40
2.200000000000003
 41
1.758812000000002
 46
2.200000000000003
 71
     1
 72
     1
  1
{\fＭＳ ゴシック;\T0.750000;4}
 11
-1.608122649676637E-16
 21
-1.0
 31
0.0
 73
     1
 44
1.0
1001
ACAD
1000
ACAD_MTEXT_DEFINED_HEIGHT_BEGIN
1070
    46
1040
2.200000000000003
1000
ACAD_MTEXT_DEFINED_HEIGHT_END
  0
MTEXT
  5
4CD
330
1F
100
AcDbEntity
  8
1
  6
Continuous
 62
     7
370
     9
100
AcDbMText
 10
153.2604377991209
 20
61.52368046372908
 30
0.0
 40
2.200000000000003
 41
0.8403560000000011
 46
2.200000000000003
 71
     1
 72
     1
  1
{\fＭＳ ゴシック;\T0.750000;1}
 11
-1.608122649676637E-16
 21
-1.0
 31
0.0
 73
     1
 44
1.0
1001
ACAD
1000
ACAD_MTEXT_DEFINED_HEIGHT_BEGIN
1070
    46
1040
2.200000000000003
1000
ACAD_MTEXT_DEFINED_HEIGHT_END
  0
MTEXT
  5
4CE
330
1F
100
AcDbEntity
  8
1
  6
Continuous
 62
     7
370
     9
100
AcDbMText
 10
153.2604377991209
 20
50.59207027575087
 30
0.0
 40
2.200000000000003
 41
0.3623840000000004
 46
2.200000000000003
 71
     1
 72
     1
  1
{\fＭＳ ゴシック;\T0.750000;.}
 11
-1.608122649676637E-16
 21
-1.0
 31
0.0
 73
     1
 44
1.0
1001
ACAD
1000
ACAD_MTEXT_DEFINED_HEIGHT_BEGIN
1070
    46
1040
2.200000000000003
1000
ACAD_MTEXT_DEFINED_HEIGHT_END
  0
MTEXT
  5
4CF
330
1F
100
AcDbEntity
  8
1
  6
Continuous
 62
     7
370
     9
100
AcDbMText
 10
153.2604377991209
 20
64.52676945158356
 30
0.0
 40
2.200000000000003
 41
1.743192000000002
 46
2.200000000000003
 71
     1
 72
     1
  1
{\fＭＳ ゴシック;\T0.750000;C}
 11
-1.608122649676637E-16
 21
-1.0
 31
0.0
 73
     1
 44
1.0
1001
ACAD
1000
ACAD_MTEXT_DEFINED_HEIGHT_BEGIN
1070
    46
1040
2.200000000000003
1000
ACAD_MTEXT_DEFINED_HEIGHT_END
  0
LINE
  5
4D0
330
1F
100
AcDbEntity
  8
1
  6
Continuous
 62
     7
370
     9
100
AcDbLine
 10
123.5055130389329
 20
81.20382241786612
 30
0.0
 11
121.5046728049659
 21
81.20382241786612
 31
0.0
  0
MTEXT
  5
4D1
330
1F
100
AcDbEntity
  8
25
  6
Continuous
 62
     7
370
     9
100
AcDbMText
 10
134.7421677369138
 20
86.53175066485048
 30
0.0
 40
1.5
 41
10.608112117575
 46
1.5
 71
     9
 72
     1
  1
{\fＭＳ ゴシック;\T0.792205;Index Ring}
 73
     1
 44
1.0
1001
ACAD
1000
ACAD_MTEXT_DEFINED_HEIGHT_BEGIN
1070
    46
1040
1.5
1000
ACAD_MTEXT_DEFINED_HEIGHT_END
  0
MTEXT
  5
4D2
330
1F
100
AcDbEntity
  8
25
  6
Continuous
 62
     7
370
     9
100
AcDbMText
 10
131.545696309269
 20
81.95498475708632
 30
0.0
 40
1.5
 41
10.63382586417
 46
1.5
 71
     9
 72
     1
  1
{\fＭＳ ゴシック;\T0.760398;Focus Ring}
 73
     1
 44
1.0
1001
ACAD
1000
ACAD_MTEXT_DEFINED_HEIGHT_BEGIN
1070
    46
1040
1.5
1000
ACAD_MTEXT_DEFINED_HEIGHT_END
  0
MTEXT
  5
4D3
330
1F
100
AcDbEntity
  8
25
  6
Continuous
 62
     7
370
     9
100
AcDbMText
 10
169.1042355840955
 20
84.71557371732501
 30
0.0
 40
1.5
 41
9.540533557679998
 46
1.5
 71
     7
 72
     1
  1
{\fＭＳ ゴシック;\T0.794866;Iris Ring}
 73
     1
 44
1.0
1001
ACAD
1000
ACAD_MTEXT_DEFINED_HEIGHT_BEGIN
1070
    46
1040
1.5
1000
ACAD_MTEXT_DEFINED_HEIGHT_END
  0
ELLIPSE
  5
4D4
330
1F
100
AcDbEntity
  8
1
  6
Continuous
 62
     7
370
     9
100
AcDbEllipse
 10
149.3939374655879
 20
38.12668540868094
 30
0.0
 11
2.0
 21
0.0
 31
0.0
210
0.0
220
0.0
230
1.0
 40
0.500000000000032
 41
-0.7570309778359539
 42
3.897427277039635
  0
VIEWPORT
  5
3F
330
1B
100
AcDbEntity
 67
     1
  8
0
100
AcDbViewport
 10
210.0
 20
148.5
 30
0.0
 40
420.0
 41
297.0
 68
     1
 69
     1
 12
210.0
 22
148.5
 13
0.0
 23
0.0
 14
0.5
 24
0.5
 15
0.5
 25
0.5
 16
0.0
 26
0.0
 36
1.0
 17
0.0
 27
0.0
 37
0.0
 42
50.0
 43
0.0
 44
0.0
 45
9.0
 50
0.0
 51
0.0
 72
   100
 90
   557152
  1

281
     0
 71
     1
 74
     0
110
0.0
120
0.0
130
0.0
111
1.0
121
0.0
131
0.0
112
0.0
122
1.0
132
0.0
 79
     0
146
0.0
170
     0
 61
     5
292
     1
282
     1
141
0.0
142
0.0
 63
   256
  0
ENDSEC
  0
SECTION
  2
OBJECTS
  0
DICTIONARY
  5
C
330
0
100
AcDbDictionary
281
     1
  3
ACAD_GROUP
350
D
  3
ACAD_LAYOUT
350
1A
  3
ACAD_MATERIAL
350
3B
  3
ACAD_MLEADERSTYLE
350
4D6
  3
ACAD_MLINESTYLE
350
17
  3
ACAD_PLOTSETTINGS
350
19
  3
ACAD_PLOTSTYLENAME
350
E
  3
ACAD_TABLESTYLE
350
4D5
  3
ACAD_VISUALSTYLE
350
2A
  0
DICTIONARY
  5
D
102
{ACAD_REACTORS
330
C
102
}
330
C
100
AcDbDictionary
281
     1
  0
DICTIONARY
  5
1A
102
{ACAD_REACTORS
330
C
102
}
330
C
100
AcDbDictionary
281
     1
  3
Layout1
350
1E
  3
Layout2
350
26
  3
Model
350
22
  0
DICTIONARY
  5
3B
102
{ACAD_REACTORS
330
C
102
}
330
C
100
AcDbDictionary
281
     1
  3
ByBlock
350
3D
  3
ByLayer
350
3C
  3
Global
350
3E
  0
DICTIONARY
  5
4D6
102
{ACAD_REACTORS
330
C
102
}
330
C
100
AcDbDictionary
281
     1
  0
DICTIONARY
  5
17
102
{ACAD_REACTORS
330
C
102
}
330
C
100
AcDbDictionary
281
     1
  3
Standard
350
18
  0
DICTIONARY
  5
19
102
{ACAD_REACTORS
330
C
102
}
330
C
100
AcDbDictionary
281
     1
  0
ACDBDICTIONARYWDFLT
  5
E
102
{ACAD_REACTORS
330
C
102
}
330
C
100
AcDbDictionary
281
     1
  3
Normal
350
F
100
AcDbDictionaryWithDefault
340
F
  0
DICTIONARY
  5
4D5
102
{ACAD_REACTORS
330
C
102
}
330
C
100
AcDbDictionary
281
     1
  0
DICTIONARY
  5
2A
102
{ACAD_REACTORS
330
C
102
}
330
C
100
AcDbDictionary
281
     1
  3
2dWireframe
350
2F
  3
3D Hidden
350
31
  3
3dWireframe
350
30
  3
Basic
350
32
  3
Brighten
350
36
  3
ColorChange
350
3A
  3
Conceptual
350
34
  3
Dim
350
35
  3
Facepattern
350
39
  3
Flat
350
2B
  3
FlatWithEdges
350
2C
  3
Gouraud
350
2D
  3
GouraudWithEdges
350
2E
  3
Linepattern
350
38
  3
Realistic
350
33
  3
Thicken
350
37
  0
LAYOUT
  5
1E
102
{ACAD_REACTORS
330
1A
102
}
330
1A
100
AcDbPlotSettings
  1

  2
none_device
  4

  6

 40
0.0
 41
0.0
 42
0.0
 43
0.0
 44
0.0
 45
0.0
 46
0.0
 47
0.0
 48
0.0
 49
0.0
140
0.0
141
0.0
142
1.0
143
1.0
 70
   688
 72
     0
 73
     0
 74
     5
  7

 75
    16
 76
     0
 77
     2
 78
   300
147
1.0
148
0.0
149
0.0
100
AcDbLayout
  1
Layout1
 70
     1
 71
     1
 10
0.0
 20
0.0
 11
420.0
 21
297.0
 12
0.0
 22
0.0
 32
0.0
 14
0.0
 24
0.0
 34
0.0
 15
420.0
 25
297.0
 35
0.0
146
0.0
 13
0.0
 23
0.0
 33
0.0
 16
1.0
 26
0.0
 36
0.0
 17
0.0
 27
1.0
 37
0.0
 76
     0
330
1B
331
3F
  0
LAYOUT
  5
26
102
{ACAD_REACTORS
330
1A
102
}
330
1A
100
AcDbPlotSettings
  1

  2
none_device
  4

  6

 40
0.0
 41
0.0
 42
0.0
 43
0.0
 44
0.0
 45
0.0
 46
0.0
 47
0.0
 48
0.0
 49
0.0
140
0.0
141
0.0
142
1.0
143
1.0
 70
   688
 72
     0
 73
     0
 74
     5
  7

 75
    16
 76
     0
 77
     2
 78
   300
147
1.0
148
0.0
149
0.0
100
AcDbLayout
  1
Layout2
 70
     1
 71
     2
 10
0.0
 20
0.0
 11
0.0
 21
0.0
 12
0.0
 22
0.0
 32
0.0
 14
0.0
 24
0.0
 34
0.0
 15
0.0
 25
0.0
 35
0.0
146
0.0
 13
0.0
 23
0.0
 33
0.0
 16
1.0
 26
0.0
 36
0.0
 17
0.0
 27
1.0
 37
0.0
 76
     0
330
23
  0
LAYOUT
  5
22
102
{ACAD_REACTORS
330
1A
102
}
330
1A
100
AcDbPlotSettings
  1

  2
none_device
  4

  6

 40
0.0
 41
0.0
 42
0.0
 43
0.0
 44
0.0
 45
0.0
 46
0.0
 47
0.0
 48
0.0
 49
0.0
140
0.0
141
0.0
142
1.0
143
1.0
 70
  1712
 72
     0
 73
     0
 74
     0
  7

 75
     0
 76
     0
 77
     2
 78
   300
147
1.0
148
0.0
149
0.0
100
AcDbLayout
  1
Model
 70
     1
 71
     0
 10
0.0
 20
0.0
 11
420.0
 21
297.0
 12
0.0
 22
0.0
 32
0.0
 14
65.05354704967812
 24
23.98258048235334
 34
0.0
 15
194.207381419967
 25
88.03175066485048
 35
0.0
146
0.0
 13
0.0
 23
0.0
 33
0.0
 16
1.0
 26
0.0
 36
0.0
 17
0.0
 27
1.0
 37
0.0
 76
     0
330
1F
331
29
  0
MATERIAL
  5
3D
102
{ACAD_REACTORS
330
3B
102
}
330
3B
100
AcDbMaterial
  1
ByBlock
 72
     1
 94
      127
  0
MATERIAL
  5
3C
102
{ACAD_REACTORS
330
3B
102
}
330
3B
100
AcDbMaterial
  1
ByLayer
 72
     1
 94
      127
  0
MATERIAL
  5
3E
102
{ACAD_REACTORS
330
3B
102
}
330
3B
100
AcDbMaterial
  1
Global
 72
     1
 94
      127
  0
MLINESTYLE
  5
18
102
{ACAD_REACTORS
330
17
102
}
330
17
100
AcDbMlineStyle
  2
Standard
 70
     0
  3

 62
   256
 51
90.0
 52
90.0
 71
     2
 49
0.5
 62
   256
  6
BYLAYER
 49
-0.5
 62
   256
  6
BYLAYER
  0
ACDBPLACEHOLDER
  5
F
102
{ACAD_REACTORS
330
E
102
}
330
E
  0
VISUALSTYLE
  5
2F
102
{ACAD_REACTORS
330
2A
102
}
330
2A
100
AcDbVisualStyle
  2
2dWireframe
 70
     4
177
     2
291
     0
 71
     0
176
     1
 72
     2
176
     1
 73
     0
176
     1
 90
        0
176
     1
 40
-0.6
176
     1
 41
-30.0
176
     1
 62
     5
 63
     7
421
 16777215
176
     1
 74
     1
176
     1
 91
        4
176
     1
 64
     7
176
     1
 65
   257
176
     1
 75
     1
176
     1
175
     1
176
     1
 42
1.0
176
     1
 92
        0
176
     1
 66
   257
176
     1
 43
1.0
176
     1
 76
     1
176
     1
 77
     6
176
     1
 78
     2
176
     1
 67
     7
176
     1
 79
     5
176
     1
170
     0
176
     1
171
     0
176
     1
290
     0
176
     1
 93
        1
176
     1
 44
0.0
176
     1
173
     0
176
     1
  0
VISUALSTYLE
  5
31
102
{ACAD_REACTORS
330
2A
102
}
330
2A
100
AcDbVisualStyle
  2
3D Hidden
 70
     6
177
     2
291
     0
 71
     1
176
     1
 72
     2
176
     1
 73
     2
176
     1
 90
        0
176
     1
 40
-0.6
176
     1
 41
-30.0
176
     1
 62
     5
 63
     7
421
 16777215
176
     1
 74
     2
176
     1
 91
        2
176
     1
 64
     7
176
     1
 65
   257
176
     1
 75
     2
176
     1
175
     1
176
     1
 42
40.0
176
     1
 92
        0
176
     1
 66
   257
176
     1
 43
1.0
176
     1
 76
     1
176
     1
 77
     6
176
     1
 78
     2
176
     1
 67
     7
176
     1
 79
     3
176
     1
170
     0
176
     1
171
     0
176
     1
290
     0
176
     1
 93
        1
176
     1
 44
0.0
176
     1
173
     0
176
     1
  0
VISUALSTYLE
  5
30
102
{ACAD_REACTORS
330
2A
102
}
330
2A
100
AcDbVisualStyle
  2
3dWireframe
 70
     5
177
     2
291
     0
 71
     0
176
     1
 72
     2
176
     1
 73
     0
176
     1
 90
        0
176
     1
 40
-0.6
176
     1
 41
-30.0
176
     1
 62
     5
 63
     7
421
 16777215
176
     1
 74
     1
176
     1
 91
        4
176
     1
 64
     7
176
     1
 65
   257
176
     1
 75
     1
176
     1
175
     1
176
     1
 42
1.0
176
     1
 92
        0
176
     1
 66
   257
176
     1
 43
1.0
176
     1
 76
     1
176
     1
 77
     6
176
     1
 78
     2
176
     1
 67
     7
176
     1
 79
     5
176
     1
170
     0
176
     1
171
     0
176
     1
290
     0
176
     1
 93
        1
176
     1
 44
0.0
176
     1
173
     0
176
     1
  0
VISUALSTYLE
  5
32
102
{ACAD_REACTORS
330
2A
102
}
330
2A
100
AcDbVisualStyle
  2
Basic
 70
     7
177
     2
291
     1
 71
     1
176
     1
 72
     0
176
     1
 73
     1
176
     1
 90
        0
176
     1
 40
-0.6
176
     1
 41
-30.0
176
     1
 62
     5
 63
     7
421
 16777215
176
     1
 74
     0
176
     1
 91
        4
176
     1
 64
     7
176
     1
 65
   257
176
     1
 75
     1
176
     1
175
     1
176
     1
 42
1.0
176
     1
 92
        8
176
     1
 66
     7
176
     1
 43
1.0
176
     1
 76
     1
176
     1
 77
     6
176
     1
 78
     2
176
     1
 67
     7
176
     1
 79
     5
176
     1
170
     0
176
     1
171
     0
176
     1
290
     0
176
     1
 93
        1
176
     1
 44
0.0
176
     1
173
     0
176
     1
  0
VISUALSTYLE
  5
36
102
{ACAD_REACTORS
330
2A
102
}
330
2A
100
AcDbVisualStyle
  2
Brighten
 70
    12
177
     2
291
     1
 71
     2
176
     1
 72
     2
176
     1
 73
     0
176
     1
 90
        0
176
     1
 40
-0.6
176
     1
 41
-30.0
176
     1
 62
     5
 63
     7
421
 16777215
176
     1
 74
     1
176
     1
 91
        4
176
     1
 64
     7
176
     1
 65
   257
176
     1
 75
     1
176
     1
175
     1
176
     1
 42
1.0
176
     1
 92
        8
176
     1
 66
     7
176
     1
 43
1.0
176
     1
 76
     1
176
     1
 77
     6
176
     1
 78
     2
176
     1
 67
     7
176
     1
 79
     5
176
     1
170
     0
176
     1
171
     0
176
     1
290
     0
176
     1
 93
        1
176
     1
 44
50.0
176
     1
173
     0
176
     1
  0
VISUALSTYLE
  5
3A
102
{ACAD_REACTORS
330
2A
102
}
330
2A
100
AcDbVisualStyle
  2
ColorChange
 70
    16
177
     2
291
     1
 71
     2
176
     1
 72
     2
176
     1
 73
     3
176
     1
 90
        0
176
     1
 40
-0.6
176
     1
 41
-30.0
176
     1
 62
     5
 63
     8
421
  8421504
176
     1
 74
     1
176
     1
 91
        4
176
     1
 64
     7
176
     1
 65
   257
176
     1
 75
     1
176
     1
175
     1
176
     1
 42
1.0
176
     1
 92
        8
176
     1
 66
     8
424
  8421504
176
     1
 43
1.0
176
     1
 76
     1
176
     1
 77
     6
176
     1
 78
     2
176
     1
 67
     7
176
     1
 79
     5
176
     1
170
     0
176
     1
171
     0
176
     1
290
     0
176
     1
 93
        1
176
     1
 44
0.0
176
     1
173
     0
176
     1
  0
VISUALSTYLE
  5
34
102
{ACAD_REACTORS
330
2A
102
}
330
2A
100
AcDbVisualStyle
  2
Conceptual
 70
     9
177
     2
291
     0
 71
     3
176
     1
 72
     2
176
     1
 73
     0
176
     1
 90
        0
176
     1
 40
-0.6
176
     1
 41
-30.0
176
     1
 62
     5
 63
     7
421
 16777215
176
     1
 74
     2
176
     1
 91
        2
176
     1
 64
     7
176
     1
 65
   257
176
     1
 75
     1
176
     1
175
     1
176
     1
 42
40.0
176
     1
 92
        8
176
     1
 66
     7
176
     1
 43
1.0
176
     1
 76
     1
176
     1
 77
     6
176
     1
 78
     2
176
     1
 67
     7
176
     1
 79
     3
176
     1
170
     0
176
     1
171
     0
176
     1
290
     0
176
     1
 93
        1
176
     1
 44
0.0
176
     1
173
     0
176
     1
  0
VISUALSTYLE
  5
35
102
{ACAD_REACTORS
330
2A
102
}
330
2A
100
AcDbVisualStyle
  2
Dim
 70
    11
177
     2
291
     1
 71
     2
176
     1
 72
     2
176
     1
 73
     0
176
     1
 90
        0
176
     1
 40
-0.6
176
     1
 41
-30.0
176
     1
 62
     5
 63
     7
421
 16777215
176
     1
 74
     1
176
     1
 91
        4
176
     1
 64
     7
176
     1
 65
   257
176
     1
 75
     1
176
     1
175
     1
176
     1
 42
1.0
176
     1
 92
        8
176
     1
 66
     7
176
     1
 43
1.0
176
     1
 76
     1
176
     1
 77
     6
176
     1
 78
     2
176
     1
 67
     7
176
     1
 79
     5
176
     1
170
     0
176
     1
171
     0
176
     1
290
     0
176
     1
 93
        1
176
     1
 44
-50.0
176
     1
173
     0
176
     1
  0
VISUALSTYLE
  5
39
102
{ACAD_REACTORS
330
2A
102
}
330
2A
100
AcDbVisualStyle
  2
Facepattern
 70
    15
177
     2
291
     1
 71
     2
176
     1
 72
     2
176
     1
 73
     0
176
     1
 90
        0
176
     1
 40
-0.6
176
     1
 41
-30.0
176
     1
 62
     5
 63
     7
421
 16777215
176
     1
 74
     1
176
     1
 91
        4
176
     1
 64
     7
176
     1
 65
   257
176
     1
 75
     1
176
     1
175
     1
176
     1
 42
1.0
176
     1
 92
        8
176
     1
 66
     7
176
     1
 43
1.0
176
     1
 76
     1
176
     1
 77
     6
176
     1
 78
     2
176
     1
 67
     7
176
     1
 79
     5
176
     1
170
     0
176
     1
171
     0
176
     1
290
     0
176
     1
 93
        1
176
     1
 44
0.0
176
     1
173
     0
176
     1
  0
VISUALSTYLE
  5
2B
102
{ACAD_REACTORS
330
2A
102
}
330
2A
100
AcDbVisualStyle
  2
Flat
 70
     0
177
     2
291
     1
 71
     2
176
     1
 72
     1
176
     1
 73
     1
176
     1
 90
        2
176
     1
 40
-0.6
176
     1
 41
30.0
176
     1
 62
     5
 63
     7
421
 16777215
176
     1
 74
     0
176
     1
 91
        4
176
     1
 64
     7
176
     1
 65
   257
176
     1
 75
     1
176
     1
175
     1
176
     1
 42
1.0
176
     1
 92
        8
176
     1
 66
     7
176
     1
 43
1.0
176
     1
 76
     1
176
     1
 77
     6
176
     1
 78
     2
176
     1
 67
     7
176
     1
 79
     5
176
     1
170
     0
176
     1
171
     0
176
     1
290
     0
176
     1
 93
       13
176
     1
 44
0.0
176
     1
173
     0
176
     1
  0
VISUALSTYLE
  5
2C
102
{ACAD_REACTORS
330
2A
102
}
330
2A
100
AcDbVisualStyle
  2
FlatWithEdges
 70
     1
177
     2
291
     1
 71
     2
176
     1
 72
     1
176
     1
 73
     1
176
     1
 90
        2
176
     1
 40
-0.6
176
     1
 41
30.0
176
     1
 62
     5
 63
     7
421
 16777215
176
     1
 74
     1
176
     1
 91
        4
176
     1
 64
     7
176
     1
 65
   257
176
     1
 75
     1
176
     1
175
     1
176
     1
 42
1.0
176
     1
 92
        0
176
     1
 66
   257
176
     1
 43
1.0
176
     1
 76
     1
176
     1
 77
     6
176
     1
 78
     2
176
     1
 67
     7
176
     1
 79
     5
176
     1
170
     0
176
     1
171
     0
176
     1
290
     0
176
     1
 93
       13
176
     1
 44
0.0
176
     1
173
     0
176
     1
  0
VISUALSTYLE
  5
2D
102
{ACAD_REACTORS
330
2A
102
}
330
2A
100
AcDbVisualStyle
  2
Gouraud
 70
     2
177
     2
291
     1
 71
     2
176
     1
 72
     2
176
     1
 73
     1
176
     1
 90
        2
176
     1
 40
-0.6
176
     1
 41
30.0
176
     1
 62
     5
 63
     7
421
 16777215
176
     1
 74
     0
176
     1
 91
        4
176
     1
 64
     7
176
     1
 65
   257
176
     1
 75
     1
176
     1
175
     1
176
     1
 42
1.0
176
     1
 92
        0
176
     1
 66
     7
176
     1
 43
1.0
176
     1
 76
     1
176
     1
 77
     6
176
     1
 78
     2
176
     1
 67
     7
176
     1
 79
     5
176
     1
170
     0
176
     1
171
     0
176
     1
290
     0
176
     1
 93
       13
176
     1
 44
0.0
176
     1
173
     0
176
     1
  0
VISUALSTYLE
  5
2E
102
{ACAD_REACTORS
330
2A
102
}
330
2A
100
AcDbVisualStyle
  2
GouraudWithEdges
 70
     3
177
     2
291
     1
 71
     2
176
     1
 72
     2
176
     1
 73
     1
176
     1
 90
        2
176
     1
 40
-0.6
176
     1
 41
30.0
176
     1
 62
     5
 63
     7
421
 16777215
176
     1
 74
     1
176
     1
 91
        4
176
     1
 64
     7
176
     1
 65
   257
176
     1
 75
     1
176
     1
175
     1
176
     1
 42
1.0
176
     1
 92
        0
176
     1
 66
   257
176
     1
 43
1.0
176
     1
 76
     1
176
     1
 77
     6
176
     1
 78
     2
176
     1
 67
     7
176
     1
 79
     5
176
     1
170
     0
176
     1
171
     0
176
     1
290
     0
176
     1
 93
       13
176
     1
 44
0.0
176
     1
173
     0
176
     1
  0
VISUALSTYLE
  5
38
102
{ACAD_REACTORS
330
2A
102
}
330
2A
100
AcDbVisualStyle
  2
Linepattern
 70
    14
177
     2
291
     1
 71
     2
176
     1
 72
     2
176
     1
 73
     0
176
     1
 90
        0
176
     1
 40
-0.6
176
     1
 41
-30.0
176
     1
 62
     5
 63
     7
421
 16777215
176
     1
 74
     1
176
     1
 91
        4
176
     1
 64
     7
176
     1
 65
   257
176
     1
 75
     7
176
     1
175
     7
176
     1
 42
1.0
176
     1
 92
        8
176
     1
 66
     7
176
     1
 43
1.0
176
     1
 76
     1
176
     1
 77
     6
176
     1
 78
     2
176
     1
 67
     7
176
     1
 79
     5
176
     1
170
     0
176
     1
171
     0
176
     1
290
     0
176
     1
 93
        1
176
     1
 44
0.0
176
     1
173
     0
176
     1
  0
VISUALSTYLE
  5
33
102
{ACAD_REACTORS
330
2A
102
}
330
2A
100
AcDbVisualStyle
  2
Realistic
 70
     8
177
     2
291
     0
 71
     2
176
     1
 72
     2
176
     1
 73
     0
176
     1
 90
        0
176
     1
 40
-0.6
176
     1
 41
-30.0
176
     1
 62
     5
 63
     7
421
 16777215
176
     1
 74
     1
176
     1
 91
        0
176
     1
 64
     7
176
     1
 65
   257
176
     1
 75
     1
176
     1
175
     1
176
     1
 42
1.0
176
     1
 92
        8
176
     1
 66
     8
424
  7895160
176
     1
 43
1.0
176
     1
 76
     1
176
     1
 77
     6
176
     1
 78
     2
176
     1
 67
     7
176
     1
 79
     5
176
     1
170
     0
176
     1
171
     0
176
     1
290
     0
176
     1
 93
       13
176
     1
 44
0.0
176
     1
173
     0
176
     1
  0
VISUALSTYLE
  5
37
102
{ACAD_REACTORS
330
2A
102
}
330
2A
100
AcDbVisualStyle
  2
Thicken
 70
    13
177
     2
291
     1
 71
     2
176
     1
 72
     2
176
     1
 73
     0
176
     1
 90
        0
176
     1
 40
-0.6
176
     1
 41
-30.0
176
     1
 62
     5
 63
     7
421
 16777215
176
     1
 74
     1
176
     1
 91
        4
176
     1
 64
     7
176
     1
 65
   257
176
     1
 75
     1
176
     1
175
     1
176
     1
 42
1.0
176
     1
 92
       12
176
     1
 66
     7
176
     1
 43
1.0
176
     1
 76
     1
176
     1
 77
     6
176
     1
 78
     2
176
     1
 67
     7
176
     1
 79
     5
176
     1
170
     0
176
     1
171
     0
176
     1
290
     0
176
     1
 93
        1
176
     1
 44
0.0
176
     1
173
     0
176
     1
  0
ENDSEC
  0
EOF
