  0
SECTION
  2
HEADER
  9
$ACADVER
  1
AC1024
  9
$ACADMAINTVER
 70
    10
  9
$DWGCODEPAGE
  3
ANSI_932
  9
$LASTSAVEDBY
  1
Sasaki
  9
$INSBASE
 10
0.0
 20
0.0
 30
0.0
  9
$EXTMIN
 10
58.125
 20
87.24999999999999
 30
0.0
  9
$EXTMAX
 10
374.7500005835159
 20
214.6795754613836
 30
0.0
  9
$LIMMIN
 10
0.0
 20
0.0
  9
$LIMMAX
 10
420.0
 20
297.0
  9
$ORTHOMODE
 70
     1
  9
$REGENMODE
 70
     1
  9
$FILLMODE
 70
     1
  9
$QTEXTMODE
 70
     0
  9
$MIRRTEXT
 70
     1
  9
$LTSCALE
 40
0.1
  9
$ATTMODE
 70
     1
  9
$TEXTSIZE
 40
5.0
  9
$TRACEWID
 40
1.0
  9
$TEXTSTYLE
  7
STYLE1
  9
$CLAYER
  8
寸法
  9
$CELTYPE
  6
BYLAYER
  9
$CECOLOR
 62
   256
  9
$CELTSCALE
 40
1.0
  9
$DISPSILH
 70
     0
  9
$DIMSCALE
 40
0.0
  9
$DIMASZ
 40
2.5
  9
$DIMEXO
 40
0.0
  9
$DIMDLI
 40
0.75
  9
$DIMRND
 40
0.0
  9
$DIMDLE
 40
0.0
  9
$DIMEXE
 40
0.3
  9
$DIMTP
 40
0.0
  9
$DIMTM
 40
0.0
  9
$DIMTXT
 40
2.299999999999999
  9
$DIMCEN
 40
1.0
  9
$DIMTSZ
 40
0.0
  9
$DIMTOL
 70
     0
  9
$DIMLIM
 70
     0
  9
$DIMTIH
 70
     0
  9
$DIMTOH
 70
     0
  9
$DIMSE1
 70
     0
  9
$DIMSE2
 70
     0
  9
$DIMTAD
 70
     0
  9
$DIMZIN
 70
     8
  9
$DIMBLK
  1

  9
$DIMASO
 70
     1
  9
$DIMSHO
 70
     1
  9
$DIMPOST
  1

  9
$DIMAPOST
  1

  9
$DIMALT
 70
     0
  9
$DIMALTD
 70
     4
  9
$DIMALTF
 40
0.0394
  9
$DIMLFAC
 40
1.0
  9
$DIMTOFL
 70
     1
  9
$DIMTVP
 40
0.0
  9
$DIMTIX
 70
     0
  9
$DIMSOXD
 70
     0
  9
$DIMSAH
 70
     1
  9
$DIMBLK1
  1
OPEN
  9
$DIMBLK2
  1
OPEN
  9
$DIMSTYLE
  2
STANDARD
  9
$DIMCLRD
 70
   256
  9
$DIMCLRE
 70
   256
  9
$DIMCLRT
 70
   256
  9
$DIMTFAC
 40
1.0
  9
$DIMGAP
 40
0.5
  9
$DIMJUST
 70
     0
  9
$DIMSD1
 70
     0
  9
$DIMSD2
 70
     0
  9
$DIMTOLJ
 70
     1
  9
$DIMTZIN
 70
     8
  9
$DIMALTZ
 70
     0
  9
$DIMALTTZ
 70
     0
  9
$DIMUPT
 70
     0
  9
$DIMDEC
 70
     2
  9
$DIMTDEC
 70
     2
  9
$DIMALTU
 70
     8
  9
$DIMALTTD
 70
     4
  9
$DIMTXSTY
  7
STYLE1
  9
$DIMAUNIT
 70
     0
  9
$DIMADEC
 70
     2
  9
$DIMALTRND
 40
0.0
  9
$DIMAZIN
 70
     2
  9
$DIMDSEP
 70
    46
  9
$DIMATFIT
 70
     3
  9
$DIMFRAC
 70
     0
  9
$DIMLDRBLK
  1
OPEN
  9
$DIMLUNIT
 70
     2
  9
$DIMLWD
 70
    -1
  9
$DIMLWE
 70
    -1
  9
$DIMTMOVE
 70
     2
  9
$DIMFXL
 40
1.0
  9
$DIMFXLON
 70
     0
  9
$DIMJOGANG
 40
0.7853981633974483
  9
$DIMTFILL
 70
     0
  9
$DIMTFILLCLR
 70
     0
  9
$DIMARCSYM
 70
     0
  9
$DIMLTYPE
  6
BYLAYER
  9
$DIMLTEX1
  6
BYLAYER
  9
$DIMLTEX2
  6
BYLAYER
  9
$DIMTXTDIRECTION
 70
     0
  9
$LUNITS
 70
     2
  9
$LUPREC
 70
     4
  9
$SKETCHINC
 40
1.0
  9
$FILLETRAD
 40
0.5
  9
$AUNITS
 70
     0
  9
$AUPREC
 70
     0
  9
$MENU
  1
acad
  9
$ELEVATION
 40
0.0
  9
$PELEVATION
 40
0.0
  9
$THICKNESS
 40
0.0
  9
$LIMCHECK
 70
     0
  9
$CHAMFERA
 40
0.1
  9
$CHAMFERB
 40
0.1
  9
$CHAMFERC
 40
20.0
  9
$CHAMFERD
 40
0.0
  9
$SKPOLY
 70
     0
  9
$TDCREATE
 40
2458506.748318866
  9
$TDUCREATE
 40
2458506.373318866
  9
$TDUPDATE
 40
2458978.446098889
  9
$TDUUPDATE
 40
2458978.071098889
  9
$TDINDWG
 40
1.9638339468
  9
$TDUSRTIMER
 40
1.9638339468
  9
$USRTIMER
 70
     1
  9
$ANGBASE
 50
0.0
  9
$ANGDIR
 70
     0
  9
$PDMODE
 70
     0
  9
$PDSIZE
 40
0.0
  9
$PLINEWID
 40
0.0
  9
$SPLFRAME
 70
     0
  9
$SPLINETYPE
 70
     6
  9
$SPLINESEGS
 70
     8
  9
$HANDSEED
  5
743D
  9
$SURFTAB1
 70
     6
  9
$SURFTAB2
 70
     6
  9
$SURFTYPE
 70
     6
  9
$SURFU
 70
     6
  9
$SURFV
 70
     6
  9
$UCSBASE
  2

  9
$UCSNAME
  2

  9
$UCSORG
 10
210.0
 20
147.25
 30
0.0
  9
$UCSXDIR
 10
1.0
 20
0.0
 30
0.0
  9
$UCSYDIR
 10
0.0
 20
1.0
 30
0.0
  9
$UCSORTHOREF
  2

  9
$UCSORTHOVIEW
 70
     0
  9
$UCSORGTOP
 10
0.0
 20
0.0
 30
0.0
  9
$UCSORGBOTTOM
 10
0.0
 20
0.0
 30
0.0
  9
$UCSORGLEFT
 10
0.0
 20
0.0
 30
0.0
  9
$UCSORGRIGHT
 10
0.0
 20
0.0
 30
0.0
  9
$UCSORGFRONT
 10
0.0
 20
0.0
 30
0.0
  9
$UCSORGBACK
 10
0.0
 20
0.0
 30
0.0
  9
$PUCSBASE
  2

  9
$PUCSNAME
  2

  9
$PUCSORG
 10
0.0
 20
0.0
 30
0.0
  9
$PUCSXDIR
 10
1.0
 20
0.0
 30
0.0
  9
$PUCSYDIR
 10
0.0
 20
1.0
 30
0.0
  9
$PUCSORTHOREF
  2

  9
$PUCSORTHOVIEW
 70
     0
  9
$PUCSORGTOP
 10
0.0
 20
0.0
 30
0.0
  9
$PUCSORGBOTTOM
 10
0.0
 20
0.0
 30
0.0
  9
$PUCSORGLEFT
 10
0.0
 20
0.0
 30
0.0
  9
$PUCSORGRIGHT
 10
0.0
 20
0.0
 30
0.0
  9
$PUCSORGFRONT
 10
0.0
 20
0.0
 30
0.0
  9
$PUCSORGBACK
 10
0.0
 20
0.0
 30
0.0
  9
$USERI1
 70
     0
  9
$USERI2
 70
     0
  9
$USERI3
 70
     0
  9
$USERI4
 70
     0
  9
$USERI5
 70
     0
  9
$USERR1
 40
0.0
  9
$USERR2
 40
0.0
  9
$USERR3
 40
0.0
  9
$USERR4
 40
0.0
  9
$USERR5
 40
0.0
  9
$WORLDVIEW
 70
     1
  9
$SHADEDGE
 70
     3
  9
$SHADEDIF
 70
    70
  9
$TILEMODE
 70
     1
  9
$MAXACTVP
 70
    48
  9
$PINSBASE
 10
0.0
 20
0.0
 30
0.0
  9
$PLIMCHECK
 70
     0
  9
$PEXTMIN
 10
1.000000000000000E+20
 20
1.000000000000000E+20
 30
1.000000000000000E+20
  9
$PEXTMAX
 10
-1.000000000000000E+20
 20
-1.000000000000000E+20
 30
-1.000000000000000E+20
  9
$PLIMMIN
 10
0.0
 20
0.0
  9
$PLIMMAX
 10
420.0
 20
297.0
  9
$UNITMODE
 70
     0
  9
$VISRETAIN
 70
     1
  9
$PLINEGEN
 70
     0
  9
$PSLTSCALE
 70
     1
  9
$TREEDEPTH
 70
  3020
  9
$CMLSTYLE
  2
STANDARD
  9
$CMLJUST
 70
     0
  9
$CMLSCALE
 40
20.0
  9
$PROXYGRAPHICS
 70
     1
  9
$MEASUREMENT
 70
     1
  9
$CELWEIGHT
370
    -1
  9
$ENDCAPS
280
     0
  9
$JOINSTYLE
280
     0
  9
$LWDISPLAY
290
     0
  9
$INSUNITS
 70
     0
  9
$HYPERLINKBASE
  1

  9
$STYLESHEET
  1
acadlt.ctb
  9
$XEDIT
290
     1
  9
$CEPSNTYPE
380
     0
  9
$PSTYLEMODE
290
     1
  9
$FINGERPRINTGUID
  2
{D37D4BD8-F44B-42D4-AC0A-2D6A1B3E8144}
  9
$VERSIONGUID
  2
{4C7F52AE-4BB7-4084-97CB-29A81443165D}
  9
$EXTNAMES
290
     1
  9
$PSVPSCALE
 40
0.0
  9
$OLESTARTUP
290
     0
  9
$SORTENTS
280
   127
  9
$INDEXCTL
280
     0
  9
$HIDETEXT
280
     0
  9
$XCLIPFRAME
280
     2
  9
$HALOGAP
280
     0
  9
$OBSCOLOR
 70
   257
  9
$OBSLTYPE
280
     0
  9
$INTERSECTIONDISPLAY
280
     0
  9
$INTERSECTIONCOLOR
 70
   257
  9
$DIMASSOC
280
     1
  9
$PROJECTNAME
  1

  9
$CAMERADISPLAY
290
     0
  9
$LENSLENGTH
 40
50.0
  9
$CAMERAHEIGHT
 40
0.0
  9
$STEPSPERSEC
 40
2.0
  9
$STEPSIZE
 40
6.0
  9
$3DDWFPREC
 40
2.0
  9
$PSOLWIDTH
 40
0.25
  9
$PSOLHEIGHT
 40
4.0
  9
$LOFTANG1
 40
1.570796326794896
  9
$LOFTANG2
 40
1.570796326794896
  9
$LOFTMAG1
 40
0.0
  9
$LOFTMAG2
 40
0.0
  9
$LOFTPARAM
 70
     7
  9
$LOFTNORMALS
280
     1
  9
$LATITUDE
 40
37.795
  9
$LONGITUDE
 40
-122.394
  9
$NORTHDIRECTION
 40
0.0
  9
$TIMEZONE
 70
 -8000
  9
$LIGHTGLYPHDISPLAY
280
     1
  9
$TILEMODELIGHTSYNCH
280
     1
  9
$CMATERIAL
347
1B1
  9
$SOLIDHIST
280
     1
  9
$SHOWHIST
280
     1
  9
$DWFFRAME
280
     2
  9
$DGNFRAME
280
     0
  9
$REALWORLDSCALE
290
     1
  9
$INTERFERECOLOR
 62
     1
  9
$INTERFEREOBJVS
345
1D3
  9
$INTERFEREVPVS
346
1D0
  9
$CSHADOW
280
     0
  9
$SHADOWPLANELOCATION
 40
0.0
  0
ENDSEC
  0
SECTION
  2
CLASSES
  0
CLASS
  1
ACDBDICTIONARYWDFLT
  2
AcDbDictionaryWithDefault
  3
ObjectDBX Classes
 90
        0
 91
        1
280
     0
281
     0
  0
CLASS
  1
MATERIAL
  2
AcDbMaterial
  3
ObjectDBX Classes
 90
     1153
 91
        3
280
     0
281
     0
  0
CLASS
  1
VISUALSTYLE
  2
AcDbVisualStyle
  3
ObjectDBX Classes
 90
     4095
 91
       19
280
     0
281
     0
  0
CLASS
  1
TABLESTYLE
  2
AcDbTableStyle
  3
ObjectDBX Classes
 90
     4095
 91
        1
280
     0
281
     0
  0
CLASS
  1
SCALE
  2
AcDbScale
  3
ObjectDBX Classes
 90
     1153
 91
       17
280
     0
281
     0
  0
CLASS
  1
MLEADERSTYLE
  2
AcDbMLeaderStyle
  3
ACDB_MLEADERSTYLE_CLASS
 90
     4095
 91
        1
280
     0
281
     0
  0
CLASS
  1
EXACXREFPANELOBJECT
  2
ExAcXREFPanelObject
  3
EXAC_ESW
 90
     1025
 91
        0
280
     0
281
     0
  0
CLASS
  1
NPOCOLLECTION
  2
AcDbImpNonPersistentObjectsCollection
  3
ObjectDBX Classes
 90
     1153
 91
        0
280
     0
281
     0
  0
CLASS
  1
DICTIONARYVAR
  2
AcDbDictionaryVar
  3
ObjectDBX Classes
 90
        0
 91
        9
280
     0
281
     0
  0
CLASS
  1
SORTENTSTABLE
  2
AcDbSortentsTable
  3
ObjectDBX Classes
 90
        0
 91
        1
280
     0
281
     0
  0
CLASS
  1
MULTILEADER
  2
AcDbMLeader
  3
ACDB_MLEADER_CLASS
 90
     1025
 91
        0
280
     0
281
     1
  0
CLASS
  1
CELLSTYLEMAP
  2
AcDbCellStyleMap
  3
ObjectDBX Classes
 90
     1152
 91
        2
280
     0
281
     0
  0
ENDSEC
  0
SECTION
  2
TABLES
  0
TABLE
  2
VPORT
  5
8
330
0
100
AcDbSymbolTable
 70
     1
  0
VPORT
  5
1AC
330
8
100
AcDbSymbolTableRecord
100
AcDbViewportTableRecord
  2
*ACTIVE
 70
     0
 10
0.0
 20
0.0
 11
1.0
 21
1.0
 12
164.5865171957335
 22
139.5360414353431
 13
0.0
 23
0.0
 14
0.25
 24
0.25
 15
0.5
 25
0.5
 16
0.0
 26
0.0
 36
1.0
 17
0.0
 27
0.0
 37
0.0
 40
132.8338218419969
 41
2.378172588832487
 42
50.0
 43
0.0
 44
0.0
 50
0.0
 51
0.0
 71
     0
 72
   100
 73
     1
 74
     1
 75
     0
 76
     1
 77
     0
 78
     0
281
     0
 65
     1
110
210.0
120
148.5
130
0.0
111
1.0
121
0.0
131
0.0
112
0.0
122
1.0
132
0.0
 79
     0
146
0.0
348
1CF
 60
     3
 61
     5
292
     1
282
     1
141
0.0
142
0.0
 63
   250
421
  3355443
  0
ENDTAB
  0
TABLE
  2
LTYPE
  5
5
330
0
100
AcDbSymbolTable
 70
     3
  0
LTYPE
  5
12
330
5
100
AcDbSymbolTableRecord
100
AcDbLinetypeTableRecord
  2
BYBLOCK
 70
     0
  3

 72
    65
 73
     0
 40
0.0
  0
LTYPE
  5
13
330
5
100
AcDbSymbolTableRecord
100
AcDbLinetypeTableRecord
  2
BYLAYER
 70
     0
  3

 72
    65
 73
     0
 40
0.0
  0
LTYPE
  5
14
330
5
100
AcDbSymbolTableRecord
100
AcDbLinetypeTableRecord
  2
CONTINUOUS
 70
     0
  3
Solid line
 72
    65
 73
     0
 40
0.0
  0
LTYPE
  5
48
330
5
100
AcDbSymbolTableRecord
100
AcDbLinetypeTableRecord
  2
CENTER
 70
     0
  3
Center ____ _ ____ _ ____ _ ____ _ ____ _ ____
 72
    65
 73
     4
 40
50.8
 49
31.75
 74
     0
 49
-6.349999999999999
 74
     0
 49
6.349999999999999
 74
     0
 49
-6.349999999999999
 74
     0
  0
ENDTAB
  0
TABLE
  2
LAYER
  5
2
102
{ACAD_XDICTIONARY
360
21C
102
}
330
0
100
AcDbSymbolTable
 70
    13
  0
LAYER
  5
E
102
{ACAD_XDICTIONARY
360
259
102
}
330
2
100
AcDbSymbolTableRecord
100
AcDbLayerTableRecord
  2
0
 70
     0
 62
     7
  6
CONTINUOUS
370
    -3
390
1AF
347
1C1
  0
LAYER
  5
40
330
2
100
AcDbSymbolTableRecord
100
AcDbLayerTableRecord
  2
DEFPOINTS
 70
     0
 62
     7
  6
CONTINUOUS
290
     0
370
    -3
390
1AF
347
1C1
  0
LAYER
  5
4E
102
{ACAD_XDICTIONARY
360
25B
102
}
330
2
100
AcDbSymbolTableRecord
100
AcDbLayerTableRecord
  2
寸法
 70
     0
 62
     5
  6
CONTINUOUS
370
    -3
390
1AF
347
1C1
  0
LAYER
  5
4F
102
{ACAD_XDICTIONARY
360
25D
102
}
330
2
100
AcDbSymbolTableRecord
100
AcDbLayerTableRecord
  2
CENTER
 70
     0
 62
     7
  6
CENTER
370
    -3
390
1AF
347
1C1
  0
LAYER
  5
269
102
{ACAD_XDICTIONARY
360
26A
102
}
330
2
100
AcDbSymbolTableRecord
100
AcDbLayerTableRecord
  2
DATA
 70
     0
 62
     5
  6
CONTINUOUS
370
    -3
390
1AF
347
1C1
  0
LAYER
  5
2210
330
2
100
AcDbSymbolTableRecord
100
AcDbLayerTableRecord
  2
ツマミ
 70
     0
 62
     7
  6
CONTINUOUS
370
    -3
390
1AF
347
1C1
1001
AcAecLayerStandard
1000

1000

  0
LAYER
  5
5647
330
2
100
AcDbSymbolTableRecord
100
AcDbLayerTableRecord
  2
外観図
 70
     0
 62
     7
  6
CONTINUOUS
370
    -3
390
1AF
347
1C1
1001
AcAecLayerStandard
1000

1000

  0
LAYER
  5
5648
102
{ACAD_XDICTIONARY
360
5649
102
}
330
2
100
AcDbSymbolTableRecord
100
AcDbLayerTableRecord
  2
1
 70
     0
 62
     7
  6
CONTINUOUS
370
    -3
390
1AF
347
1C1
  0
ENDTAB
  0
TABLE
  2
STYLE
  5
3
330
0
100
AcDbSymbolTable
 70
     7
  0
STYLE
  5
F
330
3
100
AcDbSymbolTableRecord
100
AcDbTextStyleTableRecord
  2
STANDARD
 70
     0
 40
0.0
 41
1.0
 50
0.0
 71
     0
 42
2.5
  3
txt
  4

  0
STYLE
  5
26
330
3
100
AcDbSymbolTableRecord
100
AcDbTextStyleTableRecord
  2
STYLE1
 70
     0
 40
0.0
 41
1.0
 50
0.0
 71
     0
 42
5.0
  3

  4

1001
ACAD
1000
MS PMincho
1071
    32786
  0
STYLE
  5
26B
330
3
100
AcDbSymbolTableRecord
100
AcDbTextStyleTableRecord
  2
BASE
 70
     0
 40
0.0
 41
1.0
 50
0.0
 71
     0
 42
2.2
  3

  4

1001
ACAD
1000
MS PMincho
1071
    32786
  0
STYLE
  5
26C
330
3
100
AcDbSymbolTableRecord
100
AcDbTextStyleTableRecord
  2
KANNJI
 70
     0
 40
0.0
 41
1.0
 50
15.0
 71
     0
 42
3.5
  3

  4

1001
ACAD
1000
MS PMincho
1071
    32786
  0
STYLE
  5
564A
330
3
100
AcDbSymbolTableRecord
100
AcDbTextStyleTableRecord
  2
STYLE2
 70
     0
 40
0.0
 41
1.0
 50
0.0
 71
     0
 42
1.25
  3

  4

1001
ACAD
1000
MS PGothic
1071
    32818
  0
STYLE
  5
564B
330
3
100
AcDbSymbolTableRecord
100
AcDbTextStyleTableRecord
  2
シルク文字
 70
     0
 40
0.0
 41
1.0
 50
0.0
 71
     0
 42
2.2
  3
arial.ttf
  4

1001
ACAD
1000
Arial
1071
       34
  0
ENDTAB
  0
TABLE
  2
VIEW
  5
6
330
0
100
AcDbSymbolTable
 70
     0
  0
ENDTAB
  0
TABLE
  2
UCS
  5
7
330
0
100
AcDbSymbolTable
 70
     0
  0
ENDTAB
  0
TABLE
  2
APPID
  5
9
330
0
100
AcDbSymbolTable
 70
    11
  0
APPID
  5
10
330
9
100
AcDbSymbolTableRecord
100
AcDbRegAppTableRecord
  2
ACAD
 70
     0
  0
APPID
  5
5D
330
9
100
AcDbSymbolTableRecord
100
AcDbRegAppTableRecord
  2
CONTENTTABDATA
 70
     0
  0
APPID
  5
5E
330
9
100
AcDbSymbolTableRecord
100
AcDbRegAppTableRecord
  2
CONTENTCURRENTTAB
 70
     0
  0
APPID
  5
217
330
9
100
AcDbSymbolTableRecord
100
AcDbRegAppTableRecord
  2
ACAD_DSTYLE_DIMJAG
 70
     0
  0
APPID
  5
218
330
9
100
AcDbSymbolTableRecord
100
AcDbRegAppTableRecord
  2
ACAD_DSTYLE_DIMTALN
 70
     0
  0
APPID
  5
26D
330
9
100
AcDbSymbolTableRecord
100
AcDbRegAppTableRecord
  2
ACAD_PSEXT
 70
     0
  0
APPID
  5
3A6
330
9
100
AcDbSymbolTableRecord
100
AcDbRegAppTableRecord
  2
ACAD_EXEMPT_FROM_CAD_STANDARDS
 70
     0
  0
APPID
  5
F01
330
9
100
AcDbSymbolTableRecord
100
AcDbRegAppTableRecord
  2
AcAecLayerStandard
 70
     0
  0
APPID
  5
11AD
330
9
100
AcDbSymbolTableRecord
100
AcDbRegAppTableRecord
  2
ACAD_DSTYLE_DIMRADIAL_EXTENSION
 70
     0
  0
APPID
  5
2596
330
9
100
AcDbSymbolTableRecord
100
AcDbRegAppTableRecord
  2
ACAD_MLEADERVER
 70
     0
  0
APPID
  5
646A
330
9
100
AcDbSymbolTableRecord
100
AcDbRegAppTableRecord
  2
AcadAnnoPO
 70
     0
  0
ENDTAB
  0
TABLE
  2
DIMSTYLE
  5
A
330
0
100
AcDbSymbolTable
 70
     1
100
AcDbDimStyleTable
 71
     1
340
1D
  0
DIMSTYLE
105
1D
102
{ACAD_REACTORS
330
5940
330
5941
330
5943
330
59A2
330
59A3
330
5942
102
}
330
A
100
AcDbSymbolTableRecord
100
AcDbDimStyleTableRecord
  2
STANDARD
 70
     0
340
F
  0
ENDTAB
  0
TABLE
  2
BLOCK_RECORD
  5
1
330
0
100
AcDbSymbolTable
 70
    15
  0
BLOCK_RECORD
  5
18
102
{ACAD_XDICTIONARY
360
3B9
102
}
330
1
100
AcDbSymbolTableRecord
100
AcDbBlockTableRecord
  2
*MODEL_SPACE
340
1F6
 70
     0
280
     1
281
     0
  0
BLOCK_RECORD
  5
15
330
1
100
AcDbSymbolTableRecord
100
AcDbBlockTableRecord
  2
*PAPER_SPACE
340
1F7
 70
     0
280
     1
281
     0
  0
BLOCK_RECORD
  5
20
330
1
100
AcDbSymbolTableRecord
100
AcDbBlockTableRecord
  2
_OPEN
340
0
102
{BLKREFS
331
62D5
331
62D6
331
62DF
331
62E0
331
62E9
331
62EA
331
62F3
331
62F4
331
62FD
331
62FE
331
6307
331
6308
102
}
 70
     0
280
     1
281
     0
  0
BLOCK_RECORD
  5
5946
330
1
100
AcDbSymbolTableRecord
100
AcDbBlockTableRecord
  2
*D1
340
0
 70
     0
280
     1
281
     0
  0
BLOCK_RECORD
  5
5953
330
1
100
AcDbSymbolTableRecord
100
AcDbBlockTableRecord
  2
*D2
340
0
 70
     0
280
     1
281
     0
  0
BLOCK_RECORD
  5
5960
330
1
100
AcDbSymbolTableRecord
100
AcDbBlockTableRecord
  2
*D3
340
0
 70
     0
280
     1
281
     0
  0
BLOCK_RECORD
  5
596D
330
1
100
AcDbSymbolTableRecord
100
AcDbBlockTableRecord
  2
*D4
340
0
 70
     0
280
     1
281
     0
  0
BLOCK_RECORD
  5
59A5
330
1
100
AcDbSymbolTableRecord
100
AcDbBlockTableRecord
  2
*D5
340
0
 70
     0
280
     1
281
     0
  0
BLOCK_RECORD
  5
59B2
330
1
100
AcDbSymbolTableRecord
100
AcDbBlockTableRecord
  2
*D6
340
0
 70
     0
280
     1
281
     0
  0
ENDTAB
  0
ENDSEC
  0
SECTION
  2
BLOCKS
  0
BLOCK
  5
19
330
18
100
AcDbEntity
  8
0
100
AcDbBlockBegin
  2
*MODEL_SPACE
 70
     0
 10
0.0
 20
0.0
 30
0.0
  3
*MODEL_SPACE
  1

  0
ENDBLK
  5
1A
330
18
100
AcDbEntity
  8
0
100
AcDbBlockEnd
  0
BLOCK
  5
16
330
15
100
AcDbEntity
 67
     1
  8
0
100
AcDbBlockBegin
  2
*PAPER_SPACE
 70
     0
 10
0.0
 20
0.0
 30
0.0
  3
*PAPER_SPACE
  1

  0
ENDBLK
  5
17
330
15
100
AcDbEntity
 67
     1
  8
0
100
AcDbBlockEnd
  0
BLOCK
  5
21
330
20
100
AcDbEntity
  8
0
100
AcDbBlockBegin
  2
_OPEN
 70
     0
 10
0.0
 20
0.0
 30
0.0
  3
_OPEN
  1

  0
LINE
  5
22
330
20
100
AcDbEntity
  8
0
  6
ByBlock
 62
     0
100
AcDbLine
 10
-1.0
 20
0.1666666666666666
 30
0.0
 11
0.0
 21
0.0
 31
0.0
  0
LINE
  5
23
330
20
100
AcDbEntity
  8
0
  6
ByBlock
 62
     0
100
AcDbLine
 10
0.0
 20
0.0
 30
0.0
 11
-1.0
 21
-0.1666666666666666
 31
0.0
  0
LINE
  5
24
330
20
100
AcDbEntity
  8
0
  6
ByBlock
 62
     0
100
AcDbLine
 10
0.0
 20
0.0
 30
0.0
 11
-1.0
 21
0.0
 31
0.0
  0
ENDBLK
  5
25
330
20
100
AcDbEntity
  8
0
100
AcDbBlockEnd
  0
BLOCK
  5
5947
330
5946
100
AcDbEntity
  8
0
100
AcDbBlockBegin
  2
*D1
 70
     1
 10
0.0
 20
0.0
 30
0.0
  3
*D1
  1

  0
LINE
  5
62D1
330
5946
100
AcDbEntity
  8
寸法
100
AcDbLine
 10
167.5
 20
161.75
 30
0.0
 11
167.5
 21
172.5
 31
0.0
  0
LINE
  5
62D2
330
5946
100
AcDbEntity
  8
寸法
100
AcDbLine
 10
124.0
 20
161.55
 30
0.0
 11
124.0
 21
172.5
 31
0.0
  0
LINE
  5
62D3
330
5946
100
AcDbEntity
  8
寸法
100
AcDbLine
 10
166.25
 20
172.25
 30
0.0
 11
147.7490558591132
 21
172.25
 31
0.0
  0
LINE
  5
62D4
330
5946
100
AcDbEntity
  8
寸法
100
AcDbLine
 10
125.25
 20
172.25
 30
0.0
 11
143.7509441408868
 21
172.25
 31
0.0
  0
INSERT
  5
62D5
330
5946
100
AcDbEntity
  8
寸法
100
AcDbBlockReference
  2
_OPEN
 10
167.5
 20
172.25
 30
0.0
 41
1.25
 42
1.25
 43
1.25
  0
INSERT
  5
62D6
330
5946
100
AcDbEntity
  8
寸法
100
AcDbBlockReference
  2
_OPEN
 10
124.0
 20
172.25
 30
0.0
 41
1.25
 42
1.25
 43
1.25
 50
180.0
  0
MTEXT
  5
62D7
330
5946
100
AcDbEntity
  8
寸法
100
AcDbMText
 10
145.75
 20
172.25
 30
0.0
 40
1.25
 41
0.0
 46
0.0
 71
     5
 72
     1
  1
\A1;43.5
  7
STYLE1
 73
     1
 44
1.0
  0
POINT
  5
62D8
330
5946
100
AcDbEntity
  8
DEFPOINTS
 62
     0
100
AcDbPoint
 10
167.5
 20
161.75
 30
0.0
  0
POINT
  5
62D9
330
5946
100
AcDbEntity
  8
DEFPOINTS
 62
     0
100
AcDbPoint
 10
124.0
 20
161.55
 30
0.0
  0
POINT
  5
62DA
330
5946
100
AcDbEntity
  8
DEFPOINTS
 62
     0
100
AcDbPoint
 10
124.0
 20
172.25
 30
0.0
  0
ENDBLK
  5
5948
330
5946
100
AcDbEntity
  8
0
100
AcDbBlockEnd
  0
BLOCK
  5
5954
330
5953
100
AcDbEntity
  8
0
100
AcDbBlockBegin
  2
*D2
 70
     1
 10
0.0
 20
0.0
 30
0.0
  3
*D2
  1

  0
LINE
  5
62DB
330
5953
100
AcDbEntity
  8
寸法
100
AcDbLine
 10
167.5
 20
161.75
 30
0.0
 11
167.5
 21
167.75
 31
0.0
  0
LINE
  5
62DC
330
5953
100
AcDbEntity
  8
寸法
100
AcDbLine
 10
176.218503649431
 20
154.8
 30
0.0
 11
176.218503649431
 21
167.75
 31
0.0
  0
LINE
  5
62DD
330
5953
100
AcDbEntity
  8
寸法
100
AcDbLine
 10
168.75
 20
167.5
 30
0.0
 11
169.8672184375124
 21
167.5
 31
0.0
  0
LINE
  5
62DE
330
5953
100
AcDbEntity
  8
寸法
100
AcDbLine
 10
174.968503649431
 20
167.5
 30
0.0
 11
173.8512852119186
 21
167.5
 31
0.0
  0
INSERT
  5
62DF
330
5953
100
AcDbEntity
  8
寸法
100
AcDbBlockReference
  2
_OPEN
 10
167.5
 20
167.5
 30
0.0
 41
1.25
 42
1.25
 43
1.25
 50
180.0
  0
INSERT
  5
62E0
330
5953
100
AcDbEntity
  8
寸法
100
AcDbBlockReference
  2
_OPEN
 10
176.218503649431
 20
167.5
 30
0.0
 41
1.25
 42
1.25
 43
1.25
  0
MTEXT
  5
62E1
330
5953
100
AcDbEntity
  8
寸法
100
AcDbMText
 10
171.8592518247155
 20
167.5
 30
0.0
 40
1.25
 41
0.0
 46
0.0
 71
     5
 72
     1
  1
\A1;8.72
  7
STYLE1
 73
     1
 44
1.0
  0
POINT
  5
62E2
330
5953
100
AcDbEntity
  8
DEFPOINTS
 62
     0
100
AcDbPoint
 10
167.5
 20
161.75
 30
0.0
  0
POINT
  5
62E3
330
5953
100
AcDbEntity
  8
DEFPOINTS
 62
     0
100
AcDbPoint
 10
176.218503649431
 20
154.8
 30
0.0
  0
POINT
  5
62E4
330
5953
100
AcDbEntity
  8
DEFPOINTS
 62
     0
100
AcDbPoint
 10
176.218503649431
 20
167.5
 30
0.0
  0
ENDBLK
  5
5955
330
5953
100
AcDbEntity
  8
0
100
AcDbBlockEnd
  0
BLOCK
  5
5961
330
5960
100
AcDbEntity
  8
0
100
AcDbBlockBegin
  2
*D3
 70
     1
 10
0.0
 20
0.0
 30
0.0
  3
*D3
  1

  0
LINE
  5
62E5
330
5960
100
AcDbEntity
  8
寸法
100
AcDbLine
 10
185.0
 20
153.25
 30
0.0
 11
185.0
 21
172.5
 31
0.0
  0
LINE
  5
62E6
330
5960
100
AcDbEntity
  8
寸法
100
AcDbLine
 10
167.5
 20
161.75
 30
0.0
 11
167.5
 21
172.5
 31
0.0
  0
LINE
  5
62E7
330
5960
100
AcDbEntity
  8
寸法
100
AcDbLine
 10
183.75
 20
172.25
 30
0.0
 11
179.0882412523716
 21
172.25
 31
0.0
  0
LINE
  5
62E8
330
5960
100
AcDbEntity
  8
寸法
100
AcDbLine
 10
168.75
 20
172.25
 30
0.0
 11
173.4117587476283
 21
172.25
 31
0.0
  0
INSERT
  5
62E9
330
5960
100
AcDbEntity
  8
寸法
100
AcDbBlockReference
  2
_OPEN
 10
185.0
 20
172.25
 30
0.0
 41
1.25
 42
1.25
 43
1.25
  0
INSERT
  5
62EA
330
5960
100
AcDbEntity
  8
寸法
100
AcDbBlockReference
  2
_OPEN
 10
167.5
 20
172.25
 30
0.0
 41
1.25
 42
1.25
 43
1.25
 50
180.0
  0
MTEXT
  5
62EB
330
5960
100
AcDbEntity
  8
寸法
100
AcDbMText
 10
176.25
 20
172.25
 30
0.0
 40
1.25
 41
0.0
 46
0.0
 71
     5
 72
     1
  1
\A1;17.526
  7
STYLE1
 73
     1
 44
1.0
  0
POINT
  5
62EC
330
5960
100
AcDbEntity
  8
DEFPOINTS
 62
     0
100
AcDbPoint
 10
185.0
 20
153.25
 30
0.0
  0
POINT
  5
62ED
330
5960
100
AcDbEntity
  8
DEFPOINTS
 62
     0
100
AcDbPoint
 10
167.5
 20
161.75
 30
0.0
  0
POINT
  5
62EE
330
5960
100
AcDbEntity
  8
DEFPOINTS
 62
     0
100
AcDbPoint
 10
167.5
 20
172.25
 30
0.0
  0
ENDBLK
  5
5962
330
5960
100
AcDbEntity
  8
0
100
AcDbBlockEnd
  0
BLOCK
  5
596E
330
596D
100
AcDbEntity
  8
0
100
AcDbBlockBegin
  2
*D4
 70
     1
 10
0.0
 20
0.0
 30
0.0
  3
*D4
  1

  0
LINE
  5
62EF
330
596D
100
AcDbEntity
  8
寸法
100
AcDbLine
 10
170.75
 20
160.0
 30
0.0
 11
190.25
 21
160.0
 31
0.0
  0
LINE
  5
62F0
330
596D
100
AcDbEntity
  8
寸法
100
AcDbLine
 10
170.75
 20
134.5
 30
0.0
 11
190.25
 21
134.5
 31
0.0
  0
LINE
  5
62F1
330
596D
100
AcDbEntity
  8
寸法
100
AcDbLine
 10
190.0
 20
158.75
 30
0.0
 11
190.0
 21
151.422510915293
 31
0.0
  0
LINE
  5
62F2
330
596D
100
AcDbEntity
  8
寸法
100
AcDbLine
 10
190.0
 20
135.75
 30
0.0
 11
190.0
 21
143.077489084707
 31
0.0
  0
INSERT
  5
62F3
330
596D
100
AcDbEntity
  8
寸法
100
AcDbBlockReference
  2
_OPEN
 10
190.0
 20
160.0
 30
0.0
 41
1.25
 42
1.25
 43
1.25
 50
90.0
  0
INSERT
  5
62F4
330
596D
100
AcDbEntity
  8
寸法
100
AcDbBlockReference
  2
_OPEN
 10
190.0
 20
134.5
 30
0.0
 41
1.25
 42
1.25
 43
1.25
 50
270.0
  0
MTEXT
  5
62F5
330
596D
100
AcDbEntity
  8
寸法
100
AcDbMText
 10
190.0
 20
147.25
 30
0.0
 40
1.25
 41
0.0
 46
0.0
 71
     5
 72
     1
  1
\A1;1-32 UNF
  7
STYLE1
 11
0.0000000000000001
 21
1.0
 31
0.0
 73
     1
 44
1.0
  0
POINT
  5
62F6
330
596D
100
AcDbEntity
  8
DEFPOINTS
 62
     0
100
AcDbPoint
 10
170.75
 20
160.0
 30
0.0
  0
POINT
  5
62F7
330
596D
100
AcDbEntity
  8
DEFPOINTS
 62
     0
100
AcDbPoint
 10
170.75
 20
134.5
 30
0.0
  0
POINT
  5
62F8
330
596D
100
AcDbEntity
  8
DEFPOINTS
 62
     0
100
AcDbPoint
 10
190.0
 20
134.5
 30
0.0
  0
ENDBLK
  5
596F
330
596D
100
AcDbEntity
  8
0
100
AcDbBlockEnd
  0
BLOCK
  5
59A6
330
59A5
100
AcDbEntity
  8
0
100
AcDbBlockBegin
  2
*D5
 70
     1
 10
0.0
 20
0.0
 30
0.0
  3
*D5
  1

  0
LINE
  5
62F9
330
59A5
100
AcDbEntity
  8
寸法
100
AcDbLine
 10
123.75
 20
160.75
 30
0.0
 11
118.25
 21
160.75
 31
0.0
  0
LINE
  5
62FA
330
59A5
100
AcDbEntity
  8
寸法
100
AcDbLine
 10
123.75
 20
133.75
 30
0.0
 11
118.25
 21
133.75
 31
0.0
  0
LINE
  5
62FB
330
59A5
100
AcDbEntity
  8
寸法
100
AcDbLine
 10
118.5
 20
159.5
 30
0.0
 11
118.5
 21
149.243662957481
 31
0.0
  0
LINE
  5
62FC
330
59A5
100
AcDbEntity
  8
寸法
100
AcDbLine
 10
118.5
 20
135.0
 30
0.0
 11
118.5
 21
145.256337042519
 31
0.0
  0
INSERT
  5
62FD
330
59A5
100
AcDbEntity
  8
寸法
100
AcDbBlockReference
  2
_OPEN
 10
118.5
 20
160.75
 30
0.0
 41
1.25
 42
1.25
 43
1.25
 50
90.0
  0
INSERT
  5
62FE
330
59A5
100
AcDbEntity
  8
寸法
100
AcDbBlockReference
  2
_OPEN
 10
118.5
 20
133.75
 30
0.0
 41
1.25
 42
1.25
 43
1.25
 50
270.0
  0
MTEXT
  5
62FF
330
59A5
100
AcDbEntity
  8
寸法
100
AcDbMText
 10
118.5
 20
147.25
 30
0.0
 40
1.25
 41
0.0
 46
0.0
 71
     5
 72
     1
  1
\A1;M27
  7
STYLE1
 11
0.0000000000000001
 21
1.0
 31
0.0
 73
     1
 44
1.0
  0
POINT
  5
6300
330
59A5
100
AcDbEntity
  8
DEFPOINTS
 62
     0
100
AcDbPoint
 10
123.75
 20
160.75
 30
0.0
  0
POINT
  5
6301
330
59A5
100
AcDbEntity
  8
DEFPOINTS
 62
     0
100
AcDbPoint
 10
123.75
 20
133.75
 30
0.0
  0
POINT
  5
6302
330
59A5
100
AcDbEntity
  8
DEFPOINTS
 62
     0
100
AcDbPoint
 10
118.5
 20
133.75
 30
0.0
  0
ENDBLK
  5
59A7
330
59A5
100
AcDbEntity
  8
0
100
AcDbBlockEnd
  0
BLOCK
  5
59B3
330
59B2
100
AcDbEntity
  8
0
100
AcDbBlockBegin
  2
*D6
 70
     1
 10
0.0
 20
0.0
 30
0.0
  3
*D6
  1

  0
LINE
  5
6303
330
59B2
100
AcDbEntity
  8
寸法
100
AcDbLine
 10
123.75
 20
161.75
 30
0.0
 11
113.25
 21
161.75
 31
0.0
  0
LINE
  5
6304
330
59B2
100
AcDbEntity
  8
寸法
100
AcDbLine
 10
123.75
 20
132.75
 30
0.0
 11
113.25
 21
132.75
 31
0.0
  0
LINE
  5
6305
330
59B2
100
AcDbEntity
  8
寸法
100
AcDbLine
 10
113.5
 20
160.5
 30
0.0
 11
113.5
 21
149.2580950942179
 31
0.0
  0
LINE
  5
6306
330
59B2
100
AcDbEntity
  8
寸法
100
AcDbLine
 10
113.5
 20
134.0
 30
0.0
 11
113.5
 21
145.2419049057821
 31
0.0
  0
INSERT
  5
6307
330
59B2
100
AcDbEntity
  8
寸法
100
AcDbBlockReference
  2
_OPEN
 10
113.5
 20
161.75
 30
0.0
 41
1.25
 42
1.25
 43
1.25
 50
90.0
  0
INSERT
  5
6308
330
59B2
100
AcDbEntity
  8
寸法
100
AcDbBlockReference
  2
_OPEN
 10
113.5
 20
132.75
 30
0.0
 41
1.25
 42
1.25
 43
1.25
 50
270.0
  0
MTEXT
  5
6309
330
59B2
100
AcDbEntity
  8
寸法
100
AcDbMText
 10
113.5
 20
147.25
 30
0.0
 40
1.25
 41
0.0
 46
0.0
 71
     5
 72
     1
  1
\A1;φ29
  7
STYLE1
 11
0.0000000000000001
 21
1.0
 31
0.0
 73
     1
 44
1.0
  0
POINT
  5
630A
330
59B2
100
AcDbEntity
  8
DEFPOINTS
 62
     0
100
AcDbPoint
 10
123.75
 20
161.75
 30
0.0
  0
POINT
  5
630B
330
59B2
100
AcDbEntity
  8
DEFPOINTS
 62
     0
100
AcDbPoint
 10
123.75
 20
132.75
 30
0.0
  0
POINT
  5
630C
330
59B2
100
AcDbEntity
  8
DEFPOINTS
 62
     0
100
AcDbPoint
 10
113.5
 20
132.75
 30
0.0
  0
ENDBLK
  5
59B4
330
59B2
100
AcDbEntity
  8
0
100
AcDbBlockEnd
  0
ENDSEC
  0
SECTION
  2
ENTITIES
  0
LINE
  5
E82
330
18
100
AcDbEntity
  8
CENTER
 62
     7
100
AcDbLine
 10
185.0
 20
147.25
 30
0.0
 11
121.8354543122297
 21
147.25
 31
0.0
  0
LINE
  5
12C1
330
18
100
AcDbEntity
  8
CENTER
  6
Continuous
 62
     7
100
AcDbLine
 10
185.0
 20
141.75
 30
0.0
 11
185.0
 21
152.75
 31
0.0
  0
LWPOLYLINE
  5
1604
102
{ACAD_REACTORS
330
1605
102
}
330
18
100
AcDbEntity
  8
0
 62
     5
100
AcDbPolyline
 90
        3
 70
     1
 43
0.0
 10
125.0
 20
194.5
 10
124.3504809471616
 20
193.375
 10
125.6495190528383
 20
193.375
  0
HATCH
  5
1605
330
18
100
AcDbEntity
  8
0
 62
     5
100
AcDbHatch
 10
0.0
 20
0.0
 30
0.0
210
0.0
220
0.0
230
1.0
  2
SOLID
 70
     1
 71
     1
 91
        1
 92
        1
 93
        3
 72
     1
 10
125.0
 20
194.5
 11
124.3504809471616
 21
193.375
 72
     1
 10
124.3504809471616
 20
193.375
 11
125.6495190528383
 21
193.375
 72
     1
 10
125.6495190528383
 20
193.375
 11
125.0
 21
194.5
 97
        1
330
1604
 75
     0
 76
     1
 98
        1
 10
125.0
 20
152.25
450
        0
451
        0
460
0.0
461
0.0
452
        0
462
0.0
453
        0
470

  0
HATCH
  5
169F
330
18
100
AcDbEntity
  8
0
 62
     5
100
AcDbHatch
 10
0.0
 20
0.0
 30
0.0
210
0.0
220
0.0
230
1.0
  2
SOLID
 70
     1
 71
     1
 91
        2
 92
       16
 93
        6
 72
     2
 10
123.875
 20
98.87500000000001
 40
0.25
 50
0.0
 51
90.0
 73
     1
 72
     1
 10
123.875
 20
99.12500000000001
 11
122.625
 21
99.12500000000001
 72
     2
 10
122.625
 20
98.87500000000001
 40
0.25
 50
90.0
 51
180.0
 73
     1
 72
     1
 10
122.375
 20
98.87500000000001
 11
122.375
 21
98.125
 72
     1
 10
122.375
 20
98.125
 11
124.125
 21
98.125
 72
     1
 10
124.125
 20
98.125
 11
124.125
 21
98.87500000000001
 97
        6
330
178F
330
178C
330
178E
330
1753
330
176D
330
1752
 92
        1
 93
       10
 72
     2
 10
124.375
 20
99.375
 40
0.75
 50
0.0
 51
90.0
 73
     1
 72
     1
 10
124.375
 20
100.125
 11
122.125
 21
100.125
 72
     2
 10
122.125
 20
99.375
 40
0.75
 50
90.0
 51
180.0
 73
     1
 72
     1
 10
121.375
 20
99.375
 11
121.375
 21
96.62500000000001
 72
     1
 10
121.375
 20
96.62500000000001
 11
122.375
 21
96.62500000000001
 72
     1
 10
122.375
 20
96.62500000000001
 11
122.375
 21
97.125
 72
     1
 10
122.375
 20
97.125
 11
124.125
 21
97.125
 72
     1
 10
124.125
 20
97.125
 11
124.125
 21
96.62500000000001
 72
     1
 10
124.125
 20
96.62500000000001
 11
125.125
 21
96.62500000000001
 72
     1
 10
125.125
 20
96.62500000000001
 11
125.125
 21
99.375
 97
       10
330
16A0
330
178D
330
1787
330
1754
330
176A
330
176F
330
176E
330
1770
330
16A1
330
181E
 75
     0
 76
     1
 98
        1
 10
51.75
 20
92.75
450
        0
451
        0
460
0.0
461
0.0
452
        0
462
0.0
453
        0
470

  0
ARC
  5
16A0
102
{ACAD_REACTORS
330
169F
102
}
330
18
100
AcDbEntity
  8
0
 62
     5
100
AcDbCircle
 10
124.375
 20
99.375
 30
0.0
 40
0.75
100
AcDbArc
 50
0.0
 51
90.0
  0
LINE
  5
16A1
102
{ACAD_REACTORS
330
169F
102
}
330
18
100
AcDbEntity
  8
0
 62
     5
100
AcDbLine
 10
124.125
 20
96.62500000000001
 30
0.0
 11
125.125
 21
96.62500000000001
 31
0.0
  0
LINE
  5
16A2
330
18
100
AcDbEntity
  8
0
 62
     5
100
AcDbLine
 10
106.25
 20
105.125
 30
0.0
 11
169.25
 21
105.125
 31
0.0
  0
LINE
  5
16A3
330
18
100
AcDbEntity
  8
0
 62
     5
100
AcDbLine
 10
58.25
 20
101.125
 30
0.0
 11
191.75
 21
101.125
 31
0.0
  0
LINE
  5
16A4
330
18
100
AcDbEntity
  8
0
 62
     5
100
AcDbLine
 10
191.75
 20
103.125
 30
0.0
 11
106.25
 21
103.125
 31
0.0
  0
LINE
  5
16A5
330
18
100
AcDbEntity
  8
0
 62
     5
100
AcDbLine
 10
169.25
 20
107.125
 30
0.0
 11
106.25
 21
107.125
 31
0.0
  0
LINE
  5
16A6
330
18
100
AcDbEntity
  8
0
 62
     5
100
AcDbLine
 10
58.25
 20
109.125
 30
0.0
 11
191.75
 21
109.125
 31
0.0
  0
LWPOLYLINE
  5
16A7
330
18
100
AcDbEntity
  8
0
100
AcDbPolyline
 90
        2
 70
     0
 43
0.25
 10
191.75
 20
95.75000000000001
 10
58.25
 20
95.75000000000001
  0
LWPOLYLINE
  5
16A8
330
18
100
AcDbEntity
  8
0
100
AcDbPolyline
 90
        2
 70
     0
 43
0.25
 10
58.25
 20
188.25
 10
191.75
 20
188.25
  0
LWPOLYLINE
  5
16A9
330
18
100
AcDbEntity
  8
0
100
AcDbPolyline
 90
        2
 70
     0
 43
0.25
 10
58.25
 20
111.25
 10
191.75
 20
111.25
  0
LWPOLYLINE
  5
1730
330
18
100
AcDbEntity
  8
0
100
AcDbPolyline
 90
        2
 70
     0
 43
0.25
 10
58.25
 20
95.75000000000001
 10
58.25
 20
188.25
  0
LINE
  5
1731
330
18
100
AcDbEntity
  8
0
 62
     5
100
AcDbLine
 10
106.25
 20
99.12500000000001
 30
0.0
 11
58.25
 21
99.12500000000001
 31
0.0
  0
LINE
  5
1732
330
18
100
AcDbEntity
  8
0
 62
     5
100
AcDbLine
 10
106.25
 20
103.125
 30
0.0
 11
58.25
 21
103.125
 31
0.0
  0
LINE
  5
1733
330
18
100
AcDbEntity
  8
0
 62
     5
100
AcDbLine
 10
106.25
 20
107.125
 30
0.0
 11
58.25
 21
107.125
 31
0.0
  0
LINE
  5
1734
330
18
100
AcDbEntity
  8
0
 62
     5
100
AcDbLine
 10
58.25
 20
105.125
 30
0.0
 11
106.25
 21
105.125
 31
0.0
  0
TEXT
  5
1735
330
18
100
AcDbEntity
  8
0
 62
     5
100
AcDbText
 10
62.6123595505618
 20
96.875
 30
0.0
 40
1.25
  1
投    影    法
  7
BASE
 72
     1
 11
67.5
 21
96.875
 31
0.0
100
AcDbText
  0
TEXT
  5
1736
330
18
100
AcDbEntity
  8
DATA
100
AcDbText
 10
59.78848314606742
 20
109.375
 30
0.0
 40
1.1
  1
'19
 51
15.0
  7
KANNJI
 72
     2
 11
61.85252808988764
 21
109.1525280898876
 31
0.0
100
AcDbText
 73
     1
  0
LWPOLYLINE
  5
1737
330
18
100
AcDbEntity
  8
0
 62
     5
100
AcDbPolyline
 90
        2
 70
     1
 43
0.2
 10
67.39999999999998
 20
104.0
 42
1.0
 10
67.60000000000002
 20
104.0
 42
1.0
  0
LWPOLYLINE
  5
1738
330
18
100
AcDbEntity
  8
0
 62
     5
100
AcDbPolyline
 90
        2
 70
     1
 43
0.2
 10
67.39999999999998
 20
106.125
 42
1.0
 10
67.60000000000002
 20
106.125
 42
1.0
  0
LWPOLYLINE
  5
1739
330
18
100
AcDbEntity
  8
0
 62
     5
100
AcDbPolyline
 90
        2
 70
     1
 43
0.2
 10
67.39999999999998
 20
100.125
 42
1.0
 10
67.60000000000002
 20
100.125
 42
1.0
  0
LWPOLYLINE
  5
173A
330
18
100
AcDbEntity
  8
0
 62
     5
100
AcDbPolyline
 90
        2
 70
     1
 43
0.2
 10
67.39999999999998
 20
102.0
 42
1.0
 10
67.60000000000002
 20
102.0
 42
1.0
  0
LWPOLYLINE
  5
173B
330
18
100
AcDbEntity
  8
0
 62
     5
100
AcDbPolyline
 90
        2
 70
     1
 43
0.2
 10
62.89999999999998
 20
100.125
 42
1.0
 10
63.10000000000002
 20
100.125
 42
1.0
  0
LWPOLYLINE
  5
173C
330
18
100
AcDbEntity
  8
0
 62
     5
100
AcDbPolyline
 90
        2
 70
     1
 43
0.2
 10
62.89999999999998
 20
102.0
 42
1.0
 10
63.10000000000002
 20
102.0
 42
1.0
  0
LWPOLYLINE
  5
173D
330
18
100
AcDbEntity
  8
0
 62
     5
100
AcDbPolyline
 90
        2
 70
     1
 43
0.2
 10
62.89999999999998
 20
104.0
 42
1.0
 10
63.10000000000002
 20
104.0
 42
1.0
  0
LWPOLYLINE
  5
173E
330
18
100
AcDbEntity
  8
0
 62
     5
100
AcDbPolyline
 90
        2
 70
     1
 43
0.2
 10
62.89999999999998
 20
106.125
 42
1.0
 10
63.10000000000002
 20
106.125
 42
1.0
  0
LWPOLYLINE
  5
173F
330
18
100
AcDbEntity
  8
0
 62
     5
100
AcDbPolyline
 90
        2
 70
     1
 43
0.2
 10
71.89999999999997
 20
100.125
 42
1.0
 10
72.10000000000002
 20
100.125
 42
1.0
  0
LWPOLYLINE
  5
1740
330
18
100
AcDbEntity
  8
0
 62
     5
100
AcDbPolyline
 90
        2
 70
     1
 43
0.2
 10
71.89999999999997
 20
102.125
 42
1.0
 10
72.10000000000002
 20
102.125
 42
1.0
  0
LWPOLYLINE
  5
1741
330
18
100
AcDbEntity
  8
0
 62
     5
100
AcDbPolyline
 90
        2
 70
     1
 43
0.2
 10
71.89999999999997
 20
104.0
 42
1.0
 10
72.10000000000002
 20
104.0
 42
1.0
  0
LWPOLYLINE
  5
1742
330
18
100
AcDbEntity
  8
0
 62
     5
100
AcDbPolyline
 90
        2
 70
     1
 43
0.2
 10
71.89999999999997
 20
106.0
 42
1.0
 10
72.10000000000002
 20
106.0
 42
1.0
  0
LWPOLYLINE
  5
1743
330
18
100
AcDbEntity
  8
0
 62
     5
100
AcDbPolyline
 90
        2
 70
     1
 43
0.2
 10
67.39999999999998
 20
108.125
 42
1.0
 10
67.60000000000002
 20
108.125
 42
1.0
  0
LWPOLYLINE
  5
1744
330
18
100
AcDbEntity
  8
0
 62
     5
100
AcDbPolyline
 90
        2
 70
     1
 43
0.2
 10
67.39999999999998
 20
110.125
 42
1.0
 10
67.60000000000002
 20
110.125
 42
1.0
  0
LWPOLYLINE
  5
1745
330
18
100
AcDbEntity
  8
0
 62
     5
100
AcDbPolyline
 90
        2
 70
     1
 43
0.2
 10
62.89999999999998
 20
108.125
 42
1.0
 10
63.10000000000002
 20
108.125
 42
1.0
  0
LWPOLYLINE
  5
1746
330
18
100
AcDbEntity
  8
0
 62
     5
100
AcDbPolyline
 90
        2
 70
     1
 43
0.2
 10
62.89999999999998
 20
110.125
 42
1.0
 10
63.10000000000002
 20
110.125
 42
1.0
  0
TEXT
  5
1747
330
18
100
AcDbEntity
  8
DATA
100
AcDbText
 10
65.28230337078652
 20
109.375
 30
0.0
 40
1.1
  1
3
 51
15.0
  7
KANNJI
 72
     2
 11
66.07331460674157
 21
109.1525280898876
 31
0.0
100
AcDbText
 73
     1
  0
TEXT
  5
1748
330
18
100
AcDbEntity
  8
DATA
100
AcDbText
 10
70.08567415730336
 20
109.375
 30
0.0
 40
1.1
  1
6
 51
15.0
  7
KANNJI
 72
     2
 11
70.87668539325841
 21
109.1525280898876
 31
0.0
100
AcDbText
 73
     1
  0
LWPOLYLINE
  5
1749
330
18
100
AcDbEntity
  8
0
 62
     5
100
AcDbPolyline
 90
        2
 70
     1
 43
0.2
 10
71.89999999999997
 20
108.125
 42
1.0
 10
72.10000000000002
 20
108.125
 42
1.0
  0
LWPOLYLINE
  5
174A
330
18
100
AcDbEntity
  8
0
 62
     5
100
AcDbPolyline
 90
        2
 70
     1
 43
0.2
 10
71.89999999999997
 20
110.125
 42
1.0
 10
72.10000000000002
 20
110.125
 42
1.0
  0
LINE
  5
174B
330
18
100
AcDbEntity
  8
0
 62
     5
100
AcDbLine
 10
76.75
 20
95.75000000000001
 30
0.0
 11
76.75
 21
111.25
 31
0.0
  0
TEXT
  5
174C
330
18
100
AcDbEntity
  8
0
 62
     5
100
AcDbText
 10
81.11446629213483
 20
96.875
 30
0.0
 40
1.25
  1
第  　 ３  　 角   　法
  7
BASE
 72
     1
 11
88.625
 21
96.875
 31
0.0
100
AcDbText
  0
HATCH
  5
174D
330
18
100
AcDbEntity
  8
0
 62
     5
100
AcDbHatch
 10
0.0
 20
0.0
 30
0.0
210
0.0
220
0.0
230
1.0
  2
SOLID
 70
     1
 71
     1
 91
        2
 92
       16
 93
        8
 72
     2
 10
114.125
 20
98.87500000000001
 40
0.25
 50
90.0
 51
180.0
 73
     1
 72
     1
 10
113.875
 20
98.87500000000001
 11
113.875
 21
97.87500000000001
 72
     2
 10
114.125
 20
97.87500000000001
 40
0.25
 50
180.0
 51
270.0
 73
     1
 72
     1
 10
114.125
 20
97.62500000000001
 11
115.375
 21
97.62500000000001
 72
     2
 10
115.375
 20
97.87500000000001
 40
0.25
 50
270.0
 51
360.0
 73
     1
 72
     1
 10
115.625
 20
97.87500000000001
 11
115.625
 21
98.87500000000001
 72
     2
 10
115.375
 20
98.87500000000001
 40
0.25
 50
0.0
 51
90.0
 73
     1
 72
     1
 10
115.375
 20
99.12500000000001
 11
114.125
 21
99.12500000000001
 97
        8
330
177E
330
1756
330
1764
330
1766
330
1761
330
1755
330
177C
330
1781
 92
        1
 93
        8
 72
     2
 10
115.875
 20
99.375
 40
0.75
 50
0.0
 51
90.0
 73
     1
 72
     1
 10
115.875
 20
100.125
 11
113.625
 21
100.125
 72
     2
 10
113.625
 20
99.375
 40
0.75
 50
90.0
 51
180.0
 73
     1
 72
     1
 10
112.875
 20
99.375
 11
112.875
 21
97.375
 72
     2
 10
113.625
 20
97.375
 40
0.75
 50
180.0
 51
270.0
 73
     1
 72
     1
 10
113.625
 20
96.62500000000001
 11
115.875
 21
96.62500000000001
 72
     2
 10
115.875
 20
97.375
 40
0.75
 50
270.0
 51
360.0
 73
     1
 72
     1
 10
116.625
 20
97.375
 11
116.625
 21
99.375
 97
        8
330
1782
330
177D
330
177F
330
1757
330
1763
330
1762
330
1767
330
1758
 75
     0
 76
     1
 98
        1
 10
51.25
 20
92.75
450
        0
451
        0
460
0.0
461
0.0
452
        0
462
0.0
453
        0
470

  0
HATCH
  5
174E
330
18
100
AcDbEntity
  8
0
 62
     5
100
AcDbHatch
 10
0.0
 20
0.0
 30
0.0
210
0.0
220
0.0
230
1.0
  2
SOLID
 70
     1
 71
     1
 91
        1
 92
        1
 93
       16
 72
     2
 10
119.625
 20
99.12500000000001
 40
0.25
 50
270.0
 51
360.0
 73
     1
 72
     1
 10
119.875
 20
99.12500000000001
 11
119.875
 21
100.125
 72
     1
 10
119.875
 20
100.125
 11
120.875
 21
100.125
 72
     1
 10
120.875
 20
100.125
 11
120.875
 21
98.625
 72
     2
 10
120.125
 20
98.625
 40
0.75
 50
360.0
 51
450.0
 73
     0
 72
     1
 10
120.125
 20
97.87500000000001
 11
119.5
 21
97.87500000000001
 72
     1
 10
119.5
 20
97.87500000000001
 11
119.5
 21
96.62500000000001
 72
     1
 10
119.5
 20
96.62500000000001
 11
118.5
 21
96.62500000000001
 72
     1
 10
118.5
 20
96.62500000000001
 11
118.5
 21
97.87500000000001
 72
     1
 10
118.5
 20
97.87500000000001
 11
117.875
 21
97.87500000000001
 72
     2
 10
117.875
 20
98.625
 40
0.75
 50
90.0
 51
180.0
 73
     0
 72
     1
 10
117.125
 20
98.625
 11
117.125
 21
100.125
 72
     1
 10
117.125
 20
100.125
 11
118.125
 21
100.125
 72
     1
 10
118.125
 20
100.125
 11
118.125
 21
99.12500000000001
 72
     2
 10
118.375
 20
99.12500000000001
 40
0.25
 50
180.0
 51
270.0
 73
     1
 72
     1
 10
118.375
 20
98.87500000000001
 11
119.625
 21
98.87500000000001
 97
       16
330
1789
330
178A
330
1788
330
178B
330
1750
330
176C
330
176B
330
1760
330
1769
330
1768
330
1751
330
1786
330
1785
330
1784
330
1783
330
177B
 75
     0
 76
     1
 98
        1
 10
51.75
 20
92.75
450
        0
451
        0
460
0.0
461
0.0
452
        0
462
0.0
453
        0
470

  0
HATCH
  5
174F
330
18
100
AcDbEntity
  8
0
 62
     5
100
AcDbHatch
 10
0.0
 20
0.0
 30
0.0
210
0.0
220
0.0
230
1.0
  2
SOLID
 70
     1
 71
     1
 91
        1
 92
        1
 93
       12
 72
     2
 10
110.125
 20
97.87500000000001
 40
0.25
 50
180.0
 51
270.0
 73
     1
 72
     1
 10
110.125
 20
97.62500000000001
 11
112.375
 21
97.62500000000001
 72
     1
 10
112.375
 20
97.62500000000001
 11
112.375
 21
96.62500000000001
 72
     1
 10
112.375
 20
96.62500000000001
 11
109.625
 21
96.62500000000001
 72
     2
 10
109.625
 20
97.375
 40
0.75
 50
90.0
 51
180.0
 73
     0
 72
     1
 10
108.875
 20
97.375
 11
108.875
 21
99.375
 72
     2
 10
109.625
 20
99.375
 40
0.75
 50
180.0
 51
270.0
 73
     0
 72
     1
 10
109.625
 20
100.125
 11
112.375
 21
100.125
 72
     1
 10
112.375
 20
100.125
 11
112.375
 21
99.12500000000001
 72
     1
 10
112.375
 20
99.12500000000001
 11
110.125
 21
99.12500000000001
 72
     2
 10
110.125
 20
98.87500000000001
 40
0.25
 50
90.0
 51
180.0
 73
     1
 72
     1
 10
109.875
 20
98.87500000000001
 11
109.875
 21
97.87500000000001
 97
       12
330
175F
330
175C
330
1765
330
175D
330
175E
330
175A
330
1778
330
1777
330
1780
330
1776
330
1779
330
1759
 75
     0
 76
     1
 98
        1
 10
51.25
 20
92.75
450
        0
451
        0
460
0.0
461
0.0
452
        0
462
0.0
453
        0
470

  0
ARC
  5
1750
102
{ACAD_REACTORS
330
174E
102
}
330
18
100
AcDbEntity
  8
0
 62
     5
100
AcDbCircle
 10
120.125
 20
98.625
 30
0.0
 40
0.75
100
AcDbArc
 50
270.0
 51
0.0
  0
ARC
  5
1751
102
{ACAD_REACTORS
330
174E
102
}
330
18
100
AcDbEntity
  8
0
 62
     5
100
AcDbCircle
 10
117.875
 20
98.625
 30
0.0
 40
0.75
100
AcDbArc
 50
180.0
 51
270.0
  0
LINE
  5
1752
102
{ACAD_REACTORS
330
169F
102
}
330
18
100
AcDbEntity
  8
0
 62
     5
100
AcDbLine
 10
124.125
 20
98.125
 30
0.0
 11
124.125
 21
98.87500000000001
 31
0.0
  0
LINE
  5
1753
102
{ACAD_REACTORS
330
169F
102
}
330
18
100
AcDbEntity
  8
0
 62
     5
100
AcDbLine
 10
122.375
 20
98.125
 30
0.0
 11
122.375
 21
98.87500000000001
 31
0.0
  0
LINE
  5
1754
102
{ACAD_REACTORS
330
169F
102
}
330
18
100
AcDbEntity
  8
0
 62
     5
100
AcDbLine
 10
121.375
 20
99.375
 30
0.0
 11
121.375
 21
96.62500000000001
 31
0.0
  0
LINE
  5
1755
102
{ACAD_REACTORS
330
174D
102
}
330
18
100
AcDbEntity
  8
0
 62
     5
100
AcDbLine
 10
115.625
 20
97.87500000000001
 30
0.0
 11
115.625
 21
98.87500000000001
 31
0.0
  0
LINE
  5
1756
102
{ACAD_REACTORS
330
174D
102
}
330
18
100
AcDbEntity
  8
0
 62
     5
100
AcDbLine
 10
113.875
 20
98.87500000000001
 30
0.0
 11
113.875
 21
97.87500000000001
 31
0.0
  0
LINE
  5
1757
102
{ACAD_REACTORS
330
174D
102
}
330
18
100
AcDbEntity
  8
0
 62
     5
100
AcDbLine
 10
112.875
 20
97.375
 30
0.0
 11
112.875
 21
99.375
 31
0.0
  0
LINE
  5
1758
102
{ACAD_REACTORS
330
174D
102
}
330
18
100
AcDbEntity
  8
0
 62
     5
100
AcDbLine
 10
116.625
 20
99.375
 30
0.0
 11
116.625
 21
97.375
 31
0.0
  0
LINE
  5
1759
102
{ACAD_REACTORS
330
174F
102
}
330
18
100
AcDbEntity
  8
0
 62
     5
100
AcDbLine
 10
109.875
 20
97.87500000000001
 30
0.0
 11
109.875
 21
98.87500000000001
 31
0.0
  0
LINE
  5
175A
102
{ACAD_REACTORS
330
174F
102
}
330
18
100
AcDbEntity
  8
0
 62
     5
100
AcDbLine
 10
108.875
 20
99.375
 30
0.0
 11
108.875
 21
97.375
 31
0.0
  0
LINE
  5
175B
330
18
100
AcDbEntity
  8
0
 62
     5
100
AcDbLine
 10
106.25
 20
95.75000000000001
 30
0.0
 11
106.25
 21
111.25
 31
0.0
  0
LINE
  5
175C
102
{ACAD_REACTORS
330
174F
102
}
330
18
100
AcDbEntity
  8
0
 62
     5
100
AcDbLine
 10
112.375
 20
97.62500000000001
 30
0.0
 11
110.125
 21
97.62500000000001
 31
0.0
  0
LINE
  5
175D
102
{ACAD_REACTORS
330
174F
102
}
330
18
100
AcDbEntity
  8
0
 62
     5
100
AcDbLine
 10
109.625
 20
96.62500000000001
 30
0.0
 11
112.375
 21
96.62500000000001
 31
0.0
  0
ARC
  5
175E
102
{ACAD_REACTORS
330
174F
102
}
330
18
100
AcDbEntity
  8
0
 62
     5
100
AcDbCircle
 10
109.625
 20
97.375
 30
0.0
 40
0.75
100
AcDbArc
 50
180.0
 51
270.0
  0
ARC
  5
175F
102
{ACAD_REACTORS
330
174F
102
}
330
18
100
AcDbEntity
  8
0
 62
     5
100
AcDbCircle
 10
110.125
 20
97.87500000000001
 30
0.0
 40
0.25
100
AcDbArc
 50
180.0
 51
270.0
  0
LINE
  5
1760
102
{ACAD_REACTORS
330
174E
102
}
330
18
100
AcDbEntity
  8
0
 62
     5
100
AcDbLine
 10
119.5
 20
96.62500000000001
 30
0.0
 11
118.5
 21
96.62500000000001
 31
0.0
  0
ARC
  5
1761
102
{ACAD_REACTORS
330
174D
102
}
330
18
100
AcDbEntity
  8
0
 62
     5
100
AcDbCircle
 10
115.375
 20
97.87500000000001
 30
0.0
 40
0.25
100
AcDbArc
 50
270.0
 51
0.0
  0
LINE
  5
1762
102
{ACAD_REACTORS
330
174D
102
}
330
18
100
AcDbEntity
  8
0
 62
     5
100
AcDbLine
 10
115.875
 20
96.62500000000001
 30
0.0
 11
113.625
 21
96.62500000000001
 31
0.0
  0
ARC
  5
1763
102
{ACAD_REACTORS
330
174D
102
}
330
18
100
AcDbEntity
  8
0
 62
     5
100
AcDbCircle
 10
113.625
 20
97.375
 30
0.0
 40
0.75
100
AcDbArc
 50
180.0
 51
270.0
  0
ARC
  5
1764
102
{ACAD_REACTORS
330
174D
102
}
330
18
100
AcDbEntity
  8
0
 62
     5
100
AcDbCircle
 10
114.125
 20
97.87500000000001
 30
0.0
 40
0.25
100
AcDbArc
 50
180.0
 51
270.0
  0
LINE
  5
1765
102
{ACAD_REACTORS
330
174F
102
}
330
18
100
AcDbEntity
  8
0
 62
     5
100
AcDbLine
 10
112.375
 20
96.62500000000001
 30
0.0
 11
112.375
 21
97.62500000000001
 31
0.0
  0
LINE
  5
1766
102
{ACAD_REACTORS
330
174D
102
}
330
18
100
AcDbEntity
  8
0
 62
     5
100
AcDbLine
 10
115.375
 20
97.62500000000001
 30
0.0
 11
114.125
 21
97.62500000000001
 31
0.0
  0
ARC
  5
1767
102
{ACAD_REACTORS
330
174D
102
}
330
18
100
AcDbEntity
  8
0
 62
     5
100
AcDbCircle
 10
115.875
 20
97.375
 30
0.0
 40
0.75
100
AcDbArc
 50
270.0
 51
0.0
  0
LINE
  5
1768
102
{ACAD_REACTORS
330
174E
102
}
330
18
100
AcDbEntity
  8
0
 62
     5
100
AcDbLine
 10
118.5
 20
97.87500000000001
 30
0.0
 11
117.875
 21
97.87500000000001
 31
0.0
  0
LINE
  5
1769
102
{ACAD_REACTORS
330
174E
102
}
330
18
100
AcDbEntity
  8
0
 62
     5
100
AcDbLine
 10
118.5
 20
96.62500000000001
 30
0.0
 11
118.5
 21
97.87500000000001
 31
0.0
  0
LINE
  5
176A
102
{ACAD_REACTORS
330
169F
102
}
330
18
100
AcDbEntity
  8
0
 62
     5
100
AcDbLine
 10
121.375
 20
96.62500000000001
 30
0.0
 11
122.375
 21
96.62500000000001
 31
0.0
  0
LINE
  5
176B
102
{ACAD_REACTORS
330
174E
102
}
330
18
100
AcDbEntity
  8
0
 62
     5
100
AcDbLine
 10
119.5
 20
97.87500000000001
 30
0.0
 11
119.5
 21
96.62500000000001
 31
0.0
  0
LINE
  5
176C
102
{ACAD_REACTORS
330
174E
102
}
330
18
100
AcDbEntity
  8
0
 62
     5
100
AcDbLine
 10
120.125
 20
97.87500000000001
 30
0.0
 11
119.5
 21
97.87500000000001
 31
0.0
  0
LINE
  5
176D
102
{ACAD_REACTORS
330
169F
102
}
330
18
100
AcDbEntity
  8
0
 62
     5
100
AcDbLine
 10
124.125
 20
98.125
 30
0.0
 11
122.375
 21
98.125
 31
0.0
  0
LINE
  5
176E
102
{ACAD_REACTORS
330
169F
102
}
330
18
100
AcDbEntity
  8
0
 62
     5
100
AcDbLine
 10
122.375
 20
97.125
 30
0.0
 11
124.125
 21
97.125
 31
0.0
  0
LINE
  5
176F
102
{ACAD_REACTORS
330
169F
102
}
330
18
100
AcDbEntity
  8
0
 62
     5
100
AcDbLine
 10
122.375
 20
96.62500000000001
 30
0.0
 11
122.375
 21
97.125
 31
0.0
  0
LINE
  5
1770
102
{ACAD_REACTORS
330
169F
102
}
330
18
100
AcDbEntity
  8
0
 62
     5
100
AcDbLine
 10
124.125
 20
97.125
 30
0.0
 11
124.125
 21
96.62500000000001
 31
0.0
  0
TEXT
  5
1771
330
18
100
AcDbEntity
  8
0
 62
     5
100
AcDbText
 10
107.2949673958301
 20
101.4525363035154
 30
0.0
 40
1.25
  1
一般面取
  7
BASE
100
AcDbText
  0
TEXT
  5
1772
330
18
100
AcDbEntity
  8
0
 62
     5
100
AcDbText
 10
107.2794943820225
 20
103.5
 30
0.0
 40
1.25
  1
単位個数
  7
BASE
 72
     1
 11
110.875
 21
103.5
 31
0.0
100
AcDbText
  0
TEXT
  5
1773
330
18
100
AcDbEntity
  8
0
 62
     5
100
AcDbText
 10
107.2318380173556
 20
105.4876403054358
 30
0.0
 40
1.25
  1
接　　　点
  7
BASE
100
AcDbText
  0
TEXT
  5
1774
330
18
100
AcDbEntity
  8
0
 62
     5
100
AcDbText
 10
107.2318380173556
 20
107.4421439438921
 30
0.0
 40
1.25
  1
表面処理
  7
BASE
100
AcDbText
  0
TEXT
  5
1775
330
18
100
AcDbEntity
  8
0
 62
     5
100
AcDbText
 10
107.2417257286029
 20
109.4596959448524
 30
0.0
 40
1.25
  1
材　　　質
  7
BASE
 72
     1
 11
110.8302088746703
 21
109.4596959448524
 31
0.0
100
AcDbText
  0
LINE
  5
1776
102
{ACAD_REACTORS
330
174F
102
}
330
18
100
AcDbEntity
  8
0
 62
     5
100
AcDbLine
 10
110.125
 20
99.12500000000001
 30
0.0
 11
112.375
 21
99.12500000000001
 31
0.0
  0
LINE
  5
1777
102
{ACAD_REACTORS
330
174F
102
}
330
18
100
AcDbEntity
  8
0
 62
     5
100
AcDbLine
 10
112.375
 20
100.125
 30
0.0
 11
109.625
 21
100.125
 31
0.0
  0
ARC
  5
1778
102
{ACAD_REACTORS
330
174F
102
}
330
18
100
AcDbEntity
  8
0
 62
     5
100
AcDbCircle
 10
109.625
 20
99.375
 30
0.0
 40
0.75
100
AcDbArc
 50
90.0
 51
180.0
  0
ARC
  5
1779
102
{ACAD_REACTORS
330
174F
102
}
330
18
100
AcDbEntity
  8
0
 62
     5
100
AcDbCircle
 10
110.125
 20
98.87500000000001
 30
0.0
 40
0.25
100
AcDbArc
 50
90.0
 51
180.0
  0
LINE
  5
177A
330
18
100
AcDbEntity
  8
0
 62
     5
100
AcDbLine
 10
115.75
 20
111.25
 30
0.0
 11
115.75
 21
101.125
 31
0.0
  0
LINE
  5
177B
102
{ACAD_REACTORS
330
174E
102
}
330
18
100
AcDbEntity
  8
0
 62
     5
100
AcDbLine
 10
118.375
 20
98.87500000000001
 30
0.0
 11
119.625
 21
98.87500000000001
 31
0.0
  0
ARC
  5
177C
102
{ACAD_REACTORS
330
174D
102
}
330
18
100
AcDbEntity
  8
0
 62
     5
100
AcDbCircle
 10
115.375
 20
98.87500000000001
 30
0.0
 40
0.25
100
AcDbArc
 50
0.0
 51
90.0
  0
LINE
  5
177D
102
{ACAD_REACTORS
330
174D
102
}
330
18
100
AcDbEntity
  8
0
 62
     5
100
AcDbLine
 10
113.625
 20
100.125
 30
0.0
 11
115.875
 21
100.125
 31
0.0
  0
ARC
  5
177E
102
{ACAD_REACTORS
330
174D
102
}
330
18
100
AcDbEntity
  8
0
 62
     5
100
AcDbCircle
 10
114.125
 20
98.87500000000001
 30
0.0
 40
0.25
100
AcDbArc
 50
90.0
 51
180.0
  0
ARC
  5
177F
102
{ACAD_REACTORS
330
174D
102
}
330
18
100
AcDbEntity
  8
0
 62
     5
100
AcDbCircle
 10
113.625
 20
99.375
 30
0.0
 40
0.75
100
AcDbArc
 50
90.0
 51
180.0
  0
LINE
  5
1780
102
{ACAD_REACTORS
330
174F
102
}
330
18
100
AcDbEntity
  8
0
 62
     5
100
AcDbLine
 10
112.375
 20
99.12500000000001
 30
0.0
 11
112.375
 21
100.125
 31
0.0
  0
LINE
  5
1781
102
{ACAD_REACTORS
330
174D
102
}
330
18
100
AcDbEntity
  8
0
 62
     5
100
AcDbLine
 10
115.375
 20
99.12500000000001
 30
0.0
 11
114.125
 21
99.12500000000001
 31
0.0
  0
ARC
  5
1782
102
{ACAD_REACTORS
330
174D
102
}
330
18
100
AcDbEntity
  8
0
 62
     5
100
AcDbCircle
 10
115.875
 20
99.375
 30
0.0
 40
0.75
100
AcDbArc
 50
0.0
 51
90.0
  0
ARC
  5
1783
102
{ACAD_REACTORS
330
174E
102
}
330
18
100
AcDbEntity
  8
0
 62
     5
100
AcDbCircle
 10
118.375
 20
99.12500000000001
 30
0.0
 40
0.25
100
AcDbArc
 50
180.0
 51
270.0
  0
LINE
  5
1784
102
{ACAD_REACTORS
330
174E
102
}
330
18
100
AcDbEntity
  8
0
 62
     5
100
AcDbLine
 10
118.125
 20
100.125
 30
0.0
 11
118.125
 21
99.12500000000001
 31
0.0
  0
LINE
  5
1785
102
{ACAD_REACTORS
330
174E
102
}
330
18
100
AcDbEntity
  8
0
 62
     5
100
AcDbLine
 10
117.125
 20
100.125
 30
0.0
 11
118.125
 21
100.125
 31
0.0
  0
LINE
  5
1786
102
{ACAD_REACTORS
330
174E
102
}
330
18
100
AcDbEntity
  8
0
 62
     5
100
AcDbLine
 10
117.125
 20
100.125
 30
0.0
 11
117.125
 21
98.625
 31
0.0
  0
ARC
  5
1787
102
{ACAD_REACTORS
330
169F
102
}
330
18
100
AcDbEntity
  8
0
 62
     5
100
AcDbCircle
 10
122.125
 20
99.375
 30
0.0
 40
0.75
100
AcDbArc
 50
90.0
 51
180.0
  0
LINE
  5
1788
102
{ACAD_REACTORS
330
174E
102
}
330
18
100
AcDbEntity
  8
0
 62
     5
100
AcDbLine
 10
119.875
 20
100.125
 30
0.0
 11
120.875
 21
100.125
 31
0.0
  0
ARC
  5
1789
102
{ACAD_REACTORS
330
174E
102
}
330
18
100
AcDbEntity
  8
0
 62
     5
100
AcDbCircle
 10
119.625
 20
99.12500000000001
 30
0.0
 40
0.25
100
AcDbArc
 50
270.0
 51
0.0
  0
LINE
  5
178A
102
{ACAD_REACTORS
330
174E
102
}
330
18
100
AcDbEntity
  8
0
 62
     5
100
AcDbLine
 10
119.875
 20
99.12500000000001
 30
0.0
 11
119.875
 21
100.125
 31
0.0
  0
LINE
  5
178B
102
{ACAD_REACTORS
330
174E
102
}
330
18
100
AcDbEntity
  8
0
 62
     5
100
AcDbLine
 10
120.875
 20
100.125
 30
0.0
 11
120.875
 21
98.625
 31
0.0
  0
LINE
  5
178C
102
{ACAD_REACTORS
330
169F
102
}
330
18
100
AcDbEntity
  8
0
 62
     5
100
AcDbLine
 10
123.875
 20
99.12500000000001
 30
0.0
 11
122.625
 21
99.12500000000001
 31
0.0
  0
LINE
  5
178D
102
{ACAD_REACTORS
330
169F
102
}
330
18
100
AcDbEntity
  8
0
 62
     5
100
AcDbLine
 10
124.375
 20
100.125
 30
0.0
 11
122.125
 21
100.125
 31
0.0
  0
ARC
  5
178E
102
{ACAD_REACTORS
330
169F
102
}
330
18
100
AcDbEntity
  8
0
 62
     5
100
AcDbCircle
 10
122.625
 20
98.87500000000001
 30
0.0
 40
0.25
100
AcDbArc
 50
90.0
 51
180.0
  0
ARC
  5
178F
102
{ACAD_REACTORS
330
169F
102
}
330
18
100
AcDbEntity
  8
0
 62
     5
100
AcDbCircle
 10
123.875
 20
98.87500000000001
 30
0.0
 40
0.25
100
AcDbArc
 50
0.0
 51
90.0
  0
LWPOLYLINE
  5
1790
330
18
100
AcDbEntity
  8
0
100
AcDbPolyline
 90
        2
 70
     0
 43
0.375
 10
191.75
 20
95.75000000000001
 10
191.75
 20
188.25
  0
TEXT
  5
1816
330
18
100
AcDbEntity
  8
DATA
100
AcDbText
 10
164.0
 20
96.25
 30
0.0
 40
1.6
  1
  F  A  1  2  -  外 観 図  
 41
1.021391847227322
 51
15.0
  7
STYLE1
 72
     5
 11
189.0
 21
96.25
 31
0.0
100
AcDbText
  0
TEXT
  5
1817
330
18
100
AcDbEntity
  8
DATA
100
AcDbText
 10
174.7708370560873
 20
101.25
 30
0.0
 40
1.25
  1
2   1
 51
15.0
  7
KANNJI
100
AcDbText
  0
TEXT
  5
1818
330
18
100
AcDbEntity
  8
0
 62
     5
100
AcDbText
 10
176.0
 20
101.375
 30
0.0
 40
1.25
  1
／
  7
BASE
100
AcDbText
  0
TEXT
  5
1819
330
18
100
AcDbEntity
  8
0
 62
     5
100
AcDbText
 10
170.5
 20
109.375
 30
0.0
 40
1.25
  1
承　認　　
  7
BASE
100
AcDbText
  0
LINE
  5
181A
330
18
100
AcDbEntity
  8
0
 62
     5
100
AcDbLine
 10
191.75
 20
99.12500000000001
 30
0.0
 11
131.75
 21
99.12500000000001
 31
0.0
  0
HATCH
  5
181B
330
18
100
AcDbEntity
  8
0
 62
     5
100
AcDbHatch
 10
0.0
 20
0.0
 30
0.0
210
0.0
220
0.0
230
1.0
  2
SOLID
 70
     1
 71
     1
 91
        1
 92
        1
 93
        8
 72
     2
 10
126.875
 20
97.87500000000001
 40
0.25
 50
180.0
 51
270.0
 73
     1
 72
     1
 10
126.875
 20
97.62500000000001
 11
129.125
 21
97.62500000000001
 72
     1
 10
129.125
 20
97.62500000000001
 11
129.125
 21
96.62500000000001
 72
     1
 10
129.125
 20
96.62500000000001
 11
126.375
 21
96.62500000000001
 72
     2
 10
126.375
 20
97.375
 40
0.75
 50
90.0
 51
180.0
 73
     0
 72
     1
 10
125.625
 20
97.375
 11
125.625
 21
100.125
 72
     1
 10
125.625
 20
100.125
 11
126.625
 21
100.125
 72
     1
 10
126.625
 20
100.125
 11
126.625
 21
97.87500000000001
 97
        8
330
1823
330
1820
330
1824
330
1821
330
1822
330
181D
330
182A
330
181C
 75
     0
 76
     1
 98
        1
 10
51.75
 20
92.75
450
        0
451
        0
460
0.0
461
0.0
452
        0
462
0.0
453
        0
470

  0
LINE
  5
181C
102
{ACAD_REACTORS
330
181B
102
}
330
18
100
AcDbEntity
  8
0
 62
     5
100
AcDbLine
 10
126.625
 20
97.87500000000001
 30
0.0
 11
126.625
 21
100.125
 31
0.0
  0
LINE
  5
181D
102
{ACAD_REACTORS
330
181B
102
}
330
18
100
AcDbEntity
  8
0
 62
     5
100
AcDbLine
 10
125.625
 20
100.125
 30
0.0
 11
125.625
 21
97.375
 31
0.0
  0
LINE
  5
181E
102
{ACAD_REACTORS
330
169F
102
}
330
18
100
AcDbEntity
  8
0
 62
     5
100
AcDbLine
 10
125.125
 20
96.62500000000001
 30
0.0
 11
125.125
 21
99.375
 31
0.0
  0
LINE
  5
181F
330
18
100
AcDbEntity
  8
0
 62
     5
100
AcDbLine
 10
131.75
 20
95.75000000000001
 30
0.0
 11
131.75
 21
111.25
 31
0.0
  0
LINE
  5
1820
102
{ACAD_REACTORS
330
181B
102
}
330
18
100
AcDbEntity
  8
0
 62
     5
100
AcDbLine
 10
129.125
 20
97.62500000000001
 30
0.0
 11
126.875
 21
97.62500000000001
 31
0.0
  0
LINE
  5
1821
102
{ACAD_REACTORS
330
181B
102
}
330
18
100
AcDbEntity
  8
0
 62
     5
100
AcDbLine
 10
126.375
 20
96.62500000000001
 30
0.0
 11
129.125
 21
96.62500000000001
 31
0.0
  0
ARC
  5
1822
102
{ACAD_REACTORS
330
181B
102
}
330
18
100
AcDbEntity
  8
0
 62
     5
100
AcDbCircle
 10
126.375
 20
97.375
 30
0.0
 40
0.75
100
AcDbArc
 50
180.0
 51
270.0
  0
ARC
  5
1823
102
{ACAD_REACTORS
330
181B
102
}
330
18
100
AcDbEntity
  8
0
 62
     5
100
AcDbCircle
 10
126.875
 20
97.87500000000001
 30
0.0
 40
0.25
100
AcDbArc
 50
180.0
 51
270.0
  0
LINE
  5
1824
102
{ACAD_REACTORS
330
181B
102
}
330
18
100
AcDbEntity
  8
0
 62
     5
100
AcDbLine
 10
129.125
 20
96.62500000000001
 30
0.0
 11
129.125
 21
97.62500000000001
 31
0.0
  0
TEXT
  5
1825
330
18
100
AcDbEntity
  8
0
 62
     5
100
AcDbText
 10
132.7865108421932
 20
107.4421439438921
 30
0.0
 40
1.25
  1
角度公差
  7
BASE
100
AcDbText
  0
TEXT
  5
1826
330
18
100
AcDbEntity
  8
0
 62
     5
100
AcDbText
 10
135.3679775280899
 20
99.50000000000001
 30
0.0
 40
1.25
  1
図    面    番    号
  7
BASE
 72
     1
 11
142.25
 21
99.50000000000001
 31
0.0
100
AcDbText
  0
TEXT
  5
1827
330
18
100
AcDbEntity
  8
0
 62
     5
100
AcDbText
 10
132.9127686702089
 20
103.4070399419718
 30
0.0
 40
1.25
  1
偏　　　芯
  7
BASE
100
AcDbText
  0
TEXT
  5
1828
330
18
100
AcDbEntity
  8
0
 62
     5
100
AcDbText
 10
132.9044943820224
 20
105.5
 30
0.0
 40
1.25
  1
一般仕上
  7
BASE
 72
     1
 11
136.5
 21
105.5
 31
0.0
100
AcDbText
  0
TEXT
  5
1829
330
18
100
AcDbEntity
  8
0
 62
     5
100
AcDbText
 10
132.7794943820225
 20
109.625
 30
0.0
 40
1.25
  1
寸法公差
  7
BASE
 72
     1
 11
136.375
 21
109.625
 31
0.0
100
AcDbText
  0
LINE
  5
182A
102
{ACAD_REACTORS
330
181B
102
}
330
18
100
AcDbEntity
  8
0
 62
     5
100
AcDbLine
 10
126.625
 20
100.125
 30
0.0
 11
125.625
 21
100.125
 31
0.0
  0
LINE
  5
182B
330
18
100
AcDbEntity
  8
0
 62
     5
100
AcDbLine
 10
141.25
 20
111.25
 30
0.0
 11
141.25
 21
101.125
 31
0.0
  0
TEXT
  5
182C
330
18
100
AcDbEntity
  8
0
 62
     5
100
AcDbText
 10
142.0033898812075
 20
107.3790955813883
 30
0.0
 40
1.1
  1
%%p
  7
BASE
100
AcDbText
  0
TEXT
  5
182D
330
18
100
AcDbEntity
  8
0
 62
     5
100
AcDbText
 10
142.0033898812075
 20
109.4596959448524
 30
0.0
 40
1.1
  1
%%p
  7
BASE
100
AcDbText
  0
LINE
  5
182E
330
18
100
AcDbEntity
  8
0
 62
     5
100
AcDbLine
 10
161.75
 20
103.125
 30
0.0
 11
161.75
 21
95.75000000000001
 31
0.0
  0
LINE
  5
182F
330
18
100
AcDbEntity
  8
0
 62
     5
100
AcDbLine
 10
152.25
 20
95.75000000000001
 30
0.0
 11
152.25
 21
103.125
 31
0.0
  0
TEXT
  5
1830
330
18
100
AcDbEntity
  8
0
 62
     5
100
AcDbText
 10
154.1067415730337
 20
96.75
 30
0.0
 40
1.25
  1
部    番
  7
BASE
 72
     1
 11
157.0
 21
96.75
 31
0.0
100
AcDbText
  0
TEXT
  5
1831
330
18
100
AcDbEntity
  8
0
 62
     5
100
AcDbText
 10
154.1067415730337
 20
99.50000000000001
 30
0.0
 40
1.25
  1
名    称
  7
BASE
 72
     1
 11
157.0
 21
99.50000000000001
 31
0.0
100
AcDbText
  0
TEXT
  5
1832
330
18
100
AcDbEntity
  8
0
 62
     5
100
AcDbText
 10
154.1067415730337
 20
101.5
 30
0.0
 40
1.25
  1
尺    度
  7
BASE
 72
     1
 11
157.0
 21
101.5
 31
0.0
100
AcDbText
  0
LINE
  5
1833
330
18
100
AcDbEntity
  8
0
 62
     5
100
AcDbLine
 10
169.25
 20
103.125
 30
0.0
 11
169.25
 21
111.25
 31
0.0
  0
TEXT
  5
1834
330
18
100
AcDbEntity
  8
0
 62
     5
100
AcDbText
 10
185.375
 20
109.375
 30
0.0
 40
1.25
  1
設　計
  7
BASE
100
AcDbText
  0
LINE
  5
1835
330
18
100
AcDbEntity
  8
0
 62
     5
100
AcDbLine
 10
176.75
 20
111.25
 30
0.0
 11
176.75
 21
103.125
 31
0.0
  0
LINE
  5
1836
330
18
100
AcDbEntity
  8
0
 62
     5
100
AcDbLine
 10
184.25
 20
103.125
 30
0.0
 11
184.25
 21
111.25
 31
0.0
  0
TEXT
  5
1837
330
18
100
AcDbEntity
  8
DATA
100
AcDbText
 10
178.5208370560873
 20
104.0
 30
0.0
 40
1.75
  1
A,S
 51
15.0
  7
KANNJI
100
AcDbText
  0
TEXT
  5
1838
330
18
100
AcDbEntity
  8
0
 62
     5
100
AcDbText
 10
178.125
 20
109.375
 30
0.0
 40
1.25
  1
製　図
  7
BASE
100
AcDbText
  0
LINE
  5
1ED6
330
18
100
AcDbEntity
  8
外観図
100
AcDbLine
 10
172.018503649431
 20
147.25
 30
0.0
 11
172.018503649431
 21
154.8
 31
0.0
  0
LINE
  5
1ED7
330
18
100
AcDbEntity
  8
外観図
100
AcDbLine
 10
172.218503649431
 20
155.0
 30
0.0
 11
176.018503649431
 21
155.0
 31
0.0
  0
LINE
  5
1EDB
330
18
100
AcDbEntity
  8
外観図
100
AcDbLine
 10
172.018503649431
 20
154.8
 30
0.0
 11
172.218503649431
 21
155.0
 31
0.0
  0
LINE
  5
1EDC
330
18
100
AcDbEntity
  8
外観図
100
AcDbLine
 10
176.018503649431
 20
155.0
 30
0.0
 11
176.218503649431
 21
154.8
 31
0.0
  0
LINE
  5
1EE6
330
18
100
AcDbEntity
  8
外観図
100
AcDbLine
 10
124.2
 20
161.75
 30
0.0
 11
144.3
 21
161.75
 31
0.0
  0
LINE
  5
1EE7
330
18
100
AcDbEntity
  8
外観図
100
AcDbLine
 10
144.5
 20
161.55
 30
0.0
 11
144.5
 21
147.25
 31
0.0
  0
LINE
  5
1EFB
330
18
100
AcDbEntity
  8
外観図
100
AcDbLine
 10
124.0
 20
147.25
 30
0.0
 11
124.0
 21
161.55
 31
0.0
  0
LINE
  5
1EFF
330
18
100
AcDbEntity
  8
外観図
100
AcDbLine
 10
124.0
 20
161.55
 30
0.0
 11
124.2
 21
161.75
 31
0.0
  0
LINE
  5
1F01
330
18
100
AcDbEntity
  8
外観図
100
AcDbLine
 10
144.3
 20
161.75
 30
0.0
 11
144.5
 21
161.55
 31
0.0
  0
LINE
  5
1F11
330
18
100
AcDbEntity
  8
外観図
100
AcDbLine
 10
144.5
 20
160.75
 30
0.0
 11
145.0
 21
160.75
 31
0.0
  0
LINE
  5
1F12
330
18
100
AcDbEntity
  8
外観図
100
AcDbLine
 10
145.0
 20
147.25
 30
0.0
 11
145.0
 21
161.55
 31
0.0
  0
LINE
  5
1F14
330
18
100
AcDbEntity
  8
外観図
100
AcDbLine
 10
155.5
 20
161.55
 30
0.0
 11
155.4999999999999
 21
147.2499999999999
 31
0.0
  0
LINE
  5
1F15
330
18
100
AcDbEntity
  8
外観図
100
AcDbLine
 10
155.5
 20
161.0
 30
0.0
 11
156.0
 21
161.0
 31
0.0
  0
LINE
  5
1F28
330
18
100
AcDbEntity
  8
外観図
100
AcDbLine
 10
145.0
 20
161.55
 30
0.0
 11
145.2
 21
161.75
 31
0.0
  0
LINE
  5
1F2A
330
18
100
AcDbEntity
  8
外観図
100
AcDbLine
 10
155.3
 20
161.75
 30
0.0
 11
155.5
 21
161.55
 31
0.0
  0
LINE
  5
200E
330
18
100
AcDbEntity
  8
外観図
100
AcDbLine
 10
171.5
 20
147.25
 30
0.0
 11
171.5
 21
159.3
 31
0.0
  0
LINE
  5
200F
330
18
100
AcDbEntity
  8
外観図
100
AcDbLine
 10
171.3
 20
159.5
 30
0.0
 11
170.5
 21
159.5
 31
0.0
  0
LINE
  5
2010
330
18
100
AcDbEntity
  8
外観図
100
AcDbLine
 10
170.5
 20
147.25
 30
0.0
 11
170.5
 21
159.75
 31
0.0
  0
LINE
  5
2011
330
18
100
AcDbEntity
  8
外観図
100
AcDbLine
 10
170.25
 20
160.0
 30
0.0
 11
168.75
 21
160.0
 31
0.0
  0
LINE
  5
2012
330
18
100
AcDbEntity
  8
外観図
100
AcDbLine
 10
168.5
 20
159.75
 30
0.0
 11
168.5
 21
147.25
 31
0.0
  0
LINE
  5
2013
330
18
100
AcDbEntity
  8
外観図
100
AcDbLine
 10
168.5
 20
159.5
 30
0.0
 11
167.5
 21
159.5
 31
0.0
  0
LINE
  5
2014
330
18
100
AcDbEntity
  8
外観図
100
AcDbLine
 10
167.5
 20
147.25
 30
0.0
 11
167.5
 21
161.55
 31
0.0
  0
LINE
  5
2015
330
18
100
AcDbEntity
  8
外観図
100
AcDbLine
 10
167.3
 20
161.75
 30
0.0
 11
162.6
 21
161.75
 31
0.0
  0
LINE
  5
2018
330
18
100
AcDbEntity
  8
外観図
100
AcDbLine
 10
162.5
 20
161.65
 30
0.0
 11
162.5
 21
147.25
 31
0.0
  0
LINE
  5
201D
330
18
100
AcDbEntity
  8
外観図
100
AcDbLine
 10
170.5
 20
159.75
 30
0.0
 11
170.25
 21
160.0
 31
0.0
  0
LINE
  5
201E
330
18
100
AcDbEntity
  8
外観図
100
AcDbLine
 10
168.5
 20
159.75
 30
0.0
 11
168.75
 21
160.0
 31
0.0
  0
LINE
  5
201F
330
18
100
AcDbEntity
  8
外観図
100
AcDbLine
 10
171.3
 20
159.5
 30
0.0
 11
171.5
 21
159.3
 31
0.0
  0
LINE
  5
2022
330
18
100
AcDbEntity
  8
外観図
100
AcDbLine
 10
167.3
 20
161.75
 30
0.0
 11
167.5
 21
161.55
 31
0.0
  0
LINE
  5
2038
330
18
100
AcDbEntity
  8
外観図
 62
   250
100
AcDbLine
 10
168.5
 20
159.75
 30
0.0
 11
170.5
 21
159.75
 31
0.0
  0
LINE
  5
203E
330
18
100
AcDbEntity
  8
外観図
100
AcDbLine
 10
156.0
 20
147.25
 30
0.0
 11
156.0
 21
161.65
 31
0.0
  0
LINE
  5
203F
330
18
100
AcDbEntity
  8
外観図
100
AcDbLine
 10
156.1
 20
161.75
 30
0.0
 11
161.8
 21
161.75
 31
0.0
  0
LINE
  5
2040
330
18
100
AcDbEntity
  8
外観図
100
AcDbLine
 10
162.0
 20
161.55
 30
0.0
 11
162.0
 21
147.25
 31
0.0
  0
LINE
  5
2043
330
18
100
AcDbEntity
  8
外観図
100
AcDbLine
 10
162.0
 20
161.0
 30
0.0
 11
162.5
 21
161.0
 31
0.0
  0
LINE
  5
2045
330
18
100
AcDbEntity
  8
外観図
100
AcDbLine
 10
161.8
 20
161.75
 30
0.0
 11
161.9999999999999
 21
161.5500000000001
 31
0.0
  0
LINE
  5
206A
330
18
100
AcDbEntity
  8
外観図
100
AcDbLine
 10
172.0
 20
153.875
 30
0.0
 11
171.5
 21
153.875
 31
0.0
  0
LINE
  5
22E7
330
18
100
AcDbEntity
  8
外観図
100
AcDbLine
 10
145.1999999999999
 20
161.7499999999999
 30
0.0
 11
155.3
 21
161.75
 31
0.0
  0
LINE
  5
2707
330
18
100
AcDbEntity
  8
外観図
100
AcDbLine
 10
156.1
 20
161.75
 30
0.0
 11
156.0
 21
161.65
 31
0.0
  0
LINE
  5
2709
330
18
100
AcDbEntity
  8
外観図
100
AcDbLine
 10
162.6
 20
161.75
 30
0.0
 11
162.5
 21
161.65
 31
0.0
  0
LINE
  5
27AD
330
18
100
AcDbEntity
  8
外観図
100
AcDbLine
 10
176.218503649431
 20
154.8
 30
0.0
 11
176.2185036494311
 21
147.25
 31
0.0
  0
LINE
  5
2AF1
330
18
100
AcDbEntity
  8
外観図
100
AcDbLine
 10
124.2
 20
132.75
 30
0.0
 11
144.3
 21
132.75
 31
0.0
  0
LINE
  5
2AF2
330
18
100
AcDbEntity
  8
外観図
100
AcDbLine
 10
124.0
 20
132.95
 30
0.0
 11
124.2
 21
132.75
 31
0.0
  0
LINE
  5
2B06
330
18
100
AcDbEntity
  8
外観図
100
AcDbLine
 10
124.0
 20
147.25
 30
0.0
 11
124.0
 21
132.95
 31
0.0
  0
LINE
  5
508A
330
18
100
AcDbEntity
  8
ツマミ
100
AcDbLine
 10
147.75
 20
163.0
 30
0.0
 11
151.25
 21
163.0
 31
0.0
  0
LINE
  5
508B
330
18
100
AcDbEntity
  8
ツマミ
100
AcDbLine
 10
147.75
 20
167.0
 30
0.0
 11
151.25
 21
167.0
 31
0.0
  0
LINE
  5
508C
330
18
100
AcDbEntity
  8
ツマミ
100
AcDbLine
 10
147.5
 20
166.75
 30
0.0
 11
151.4999999999999
 21
166.75
 31
0.0
  0
LINE
  5
508D
330
18
100
AcDbEntity
  8
ツマミ
100
AcDbLine
 10
147.5
 20
163.25
 30
0.0
 11
151.5
 21
163.25
 31
0.0
  0
LINE
  5
508E
330
18
100
AcDbEntity
  8
ツマミ
100
AcDbLine
 10
148.6499999999998
 20
162.2999999999998
 30
0.0
 11
148.8499999999998
 21
162.4999999999998
 31
0.0
  0
LINE
  5
508F
330
18
100
AcDbEntity
  8
ツマミ
100
AcDbLine
 10
147.5
 20
166.75
 30
0.0
 11
147.75
 21
167.0
 31
0.0
  0
LINE
  5
5090
330
18
100
AcDbEntity
  8
ツマミ
100
AcDbLine
 10
148.1
 20
166.75
 30
0.0
 11
148.1
 21
163.25
 31
0.0
  0
LINE
  5
5091
330
18
100
AcDbEntity
  8
ツマミ
100
AcDbLine
 10
147.5
 20
163.25
 30
0.0
 11
147.75
 21
163.0
 31
0.0
  0
LINE
  5
5092
330
18
100
AcDbEntity
  8
ツマミ
100
AcDbLine
 10
147.5
 20
163.25
 30
0.0
 11
147.5
 21
166.75
 31
0.0
  0
LINE
  5
5093
330
18
100
AcDbEntity
  8
ツマミ
100
AcDbLine
 10
148.5
 20
166.75
 30
0.0
 11
148.5
 21
163.25
 31
0.0
  0
LINE
  5
5094
330
18
100
AcDbEntity
  8
ツマミ
100
AcDbLine
 10
150.3499999999999
 20
162.3000000000001
 30
0.0
 11
150.1499999999998
 21
162.5000000000001
 31
0.0
  0
LINE
  5
5095
330
18
100
AcDbEntity
  8
ツマミ
100
AcDbLine
 10
148.8499999999999
 20
162.5
 30
0.0
 11
150.1499999999998
 21
162.5
 31
0.0
  0
LINE
  5
5096
330
18
100
AcDbEntity
  8
ツマミ
100
AcDbLine
 10
151.5
 20
166.75
 30
0.0
 11
151.25
 21
167.0
 31
0.0
  0
LINE
  5
5097
330
18
100
AcDbEntity
  8
ツマミ
100
AcDbLine
 10
151.5
 20
163.25
 30
0.0
 11
151.25
 21
163.0
 31
0.0
  0
LINE
  5
5098
330
18
100
AcDbEntity
  8
ツマミ
100
AcDbLine
 10
150.0
 20
166.75
 30
0.0
 11
150.0
 21
163.25
 31
0.0
  0
LINE
  5
5099
330
18
100
AcDbEntity
  8
ツマミ
100
AcDbLine
 10
150.5
 20
166.75
 30
0.0
 11
150.5
 21
163.25
 31
0.0
  0
LINE
  5
509A
330
18
100
AcDbEntity
  8
ツマミ
100
AcDbLine
 10
150.9
 20
166.75
 30
0.0
 11
150.9
 21
163.25
 31
0.0
  0
LINE
  5
509B
330
18
100
AcDbEntity
  8
ツマミ
100
AcDbLine
 10
151.5
 20
163.25
 30
0.0
 11
151.5
 21
166.75
 31
0.0
  0
LINE
  5
509C
330
18
100
AcDbEntity
  8
ツマミ
100
AcDbLine
 10
149.0
 20
166.75
 30
0.0
 11
149.0
 21
163.25
 31
0.0
  0
LINE
  5
509D
330
18
100
AcDbEntity
  8
ツマミ
100
AcDbLine
 10
148.65
 20
161.75
 30
0.0
 11
148.65
 21
162.3
 31
0.0
  0
LINE
  5
509E
330
18
100
AcDbEntity
  8
ツマミ
100
AcDbLine
 10
148.85
 20
163.0
 30
0.0
 11
148.8500000000001
 21
161.75
 31
0.0
  0
LINE
  5
509F
330
18
100
AcDbEntity
  8
ツマミ
100
AcDbLine
 10
150.3499999999999
 20
162.3000000000001
 30
0.0
 11
150.3499999999998
 21
161.7499999999999
 31
0.0
  0
LINE
  5
50A1
330
18
100
AcDbEntity
  8
ツマミ
100
AcDbLine
 10
150.15
 20
161.75
 30
0.0
 11
150.15
 21
163.0
 31
0.0
  0
LINE
  5
50A2
330
18
100
AcDbEntity
  8
ツマミ
100
AcDbLine
 10
151.25
 20
166.75
 30
0.0
 11
151.25
 21
163.25
 31
0.0
  0
LINE
  5
50A3
330
18
100
AcDbEntity
  8
ツマミ
100
AcDbLine
 10
147.75
 20
166.75
 30
0.0
 11
147.75
 21
163.25
 31
0.0
  0
LINE
  5
50A4
330
18
100
AcDbEntity
  8
ツマミ
100
AcDbLine
 10
148.65
 20
162.3000000000001
 30
0.0
 11
150.3499999999999
 21
162.3000000000002
 31
0.0
  0
LINE
  5
50EC
330
18
100
AcDbEntity
  8
ツマミ
100
AcDbLine
 10
157.25
 20
162.75
 30
0.0
 11
160.75
 21
162.75
 31
0.0
  0
LINE
  5
50ED
330
18
100
AcDbEntity
  8
ツマミ
100
AcDbLine
 10
157.25
 20
166.75
 30
0.0
 11
160.75
 21
166.75
 31
0.0
  0
LINE
  5
50EE
330
18
100
AcDbEntity
  8
ツマミ
100
AcDbLine
 10
157.0
 20
166.5
 30
0.0
 11
160.9999999999999
 21
166.5
 31
0.0
  0
LINE
  5
50EF
330
18
100
AcDbEntity
  8
ツマミ
100
AcDbLine
 10
157.0
 20
163.0
 30
0.0
 11
161.0
 21
163.0
 31
0.0
  0
LINE
  5
50F0
330
18
100
AcDbEntity
  8
ツマミ
100
AcDbLine
 10
158.1499999999998
 20
162.0499999999998
 30
0.0
 11
158.3499999999998
 21
162.2499999999998
 31
0.0
  0
LINE
  5
50F1
330
18
100
AcDbEntity
  8
ツマミ
100
AcDbLine
 10
157.0
 20
166.5
 30
0.0
 11
157.25
 21
166.75
 31
0.0
  0
LINE
  5
50F2
330
18
100
AcDbEntity
  8
ツマミ
100
AcDbLine
 10
157.6
 20
166.5
 30
0.0
 11
157.6
 21
163.0
 31
0.0
  0
LINE
  5
50F3
330
18
100
AcDbEntity
  8
ツマミ
100
AcDbLine
 10
157.0
 20
163.0
 30
0.0
 11
157.25
 21
162.75
 31
0.0
  0
LINE
  5
50F4
330
18
100
AcDbEntity
  8
ツマミ
100
AcDbLine
 10
157.0
 20
163.0
 30
0.0
 11
157.0
 21
166.5
 31
0.0
  0
LINE
  5
50F5
330
18
100
AcDbEntity
  8
ツマミ
100
AcDbLine
 10
158.0
 20
166.5
 30
0.0
 11
158.0
 21
163.0
 31
0.0
  0
LINE
  5
50F6
330
18
100
AcDbEntity
  8
ツマミ
100
AcDbLine
 10
159.8499999999999
 20
162.0500000000001
 30
0.0
 11
159.6499999999998
 21
162.2500000000001
 31
0.0
  0
LINE
  5
50F7
330
18
100
AcDbEntity
  8
ツマミ
100
AcDbLine
 10
158.3499999999999
 20
162.25
 30
0.0
 11
159.6499999999998
 21
162.25
 31
0.0
  0
LINE
  5
50F8
330
18
100
AcDbEntity
  8
ツマミ
100
AcDbLine
 10
161.0
 20
166.5
 30
0.0
 11
160.75
 21
166.75
 31
0.0
  0
LINE
  5
50F9
330
18
100
AcDbEntity
  8
ツマミ
100
AcDbLine
 10
161.0
 20
163.0
 30
0.0
 11
160.75
 21
162.75
 31
0.0
  0
LINE
  5
50FA
330
18
100
AcDbEntity
  8
ツマミ
100
AcDbLine
 10
159.5
 20
166.5
 30
0.0
 11
159.5
 21
163.0
 31
0.0
  0
LINE
  5
50FB
330
18
100
AcDbEntity
  8
ツマミ
100
AcDbLine
 10
160.0
 20
166.5
 30
0.0
 11
160.0
 21
163.0
 31
0.0
  0
LINE
  5
50FC
330
18
100
AcDbEntity
  8
ツマミ
100
AcDbLine
 10
160.4
 20
166.5
 30
0.0
 11
160.4
 21
163.0
 31
0.0
  0
LINE
  5
50FD
330
18
100
AcDbEntity
  8
ツマミ
100
AcDbLine
 10
161.0
 20
163.0
 30
0.0
 11
161.0
 21
166.5
 31
0.0
  0
LINE
  5
50FE
330
18
100
AcDbEntity
  8
ツマミ
100
AcDbLine
 10
158.5
 20
166.5
 30
0.0
 11
158.5
 21
163.0
 31
0.0
  0
LINE
  5
50FF
330
18
100
AcDbEntity
  8
ツマミ
100
AcDbLine
 10
158.15
 20
161.75
 30
0.0
 11
158.15
 21
162.05
 31
0.0
  0
LINE
  5
5100
330
18
100
AcDbEntity
  8
ツマミ
100
AcDbLine
 10
158.35
 20
162.75
 30
0.0
 11
158.3500000000001
 21
161.75
 31
0.0
  0
LINE
  5
5101
330
18
100
AcDbEntity
  8
ツマミ
100
AcDbLine
 10
159.8499999999999
 20
162.0500000000001
 30
0.0
 11
159.8499999999999
 21
161.75
 31
0.0
  0
LINE
  5
5102
330
18
100
AcDbEntity
  8
ツマミ
100
AcDbLine
 10
159.6499999999999
 20
161.75
 30
0.0
 11
159.65
 21
162.75
 31
0.0
  0
LINE
  5
5103
330
18
100
AcDbEntity
  8
ツマミ
100
AcDbLine
 10
160.75
 20
166.5
 30
0.0
 11
160.75
 21
163.0
 31
0.0
  0
LINE
  5
5104
330
18
100
AcDbEntity
  8
ツマミ
100
AcDbLine
 10
157.25
 20
166.5
 30
0.0
 11
157.25
 21
163.0
 31
0.0
  0
LINE
  5
5105
330
18
100
AcDbEntity
  8
ツマミ
100
AcDbLine
 10
158.15
 20
162.0500000000001
 30
0.0
 11
159.8499999999999
 21
162.0500000000002
 31
0.0
  0
LINE
  5
557F
330
18
100
AcDbEntity
  8
外観図
100
AcDbLine
 10
176.018503649431
 20
139.4999999999998
 30
0.0
 11
176.218503649431
 21
139.6999999999998
 31
0.0
  0
LINE
  5
5580
330
18
100
AcDbEntity
  8
外観図
100
AcDbLine
 10
172.018503649431
 20
147.2499999999998
 30
0.0
 11
172.018503649431
 21
139.6999999999998
 31
0.0
  0
LINE
  5
5581
330
18
100
AcDbEntity
  8
外観図
100
AcDbLine
 10
172.218503649431
 20
139.4999999999998
 30
0.0
 11
176.018503649431
 21
139.4999999999998
 31
0.0
  0
LINE
  5
5582
330
18
100
AcDbEntity
  8
外観図
100
AcDbLine
 10
172.018503649431
 20
139.6999999999998
 30
0.0
 11
172.218503649431
 21
139.4999999999998
 31
0.0
  0
LINE
  5
5584
330
18
100
AcDbEntity
  8
外観図
100
AcDbLine
 10
144.4999999999999
 20
132.95
 30
0.0
 11
144.5
 21
147.25
 31
0.0
  0
LINE
  5
5585
330
18
100
AcDbEntity
  8
外観図
100
AcDbLine
 10
144.2999999999999
 20
132.75
 30
0.0
 11
144.4999999999999
 21
132.95
 31
0.0
  0
LINE
  5
5586
330
18
100
AcDbEntity
  8
外観図
100
AcDbLine
 10
144.4999999999999
 20
133.7499999999999
 30
0.0
 11
144.9999999999999
 21
133.75
 31
0.0
  0
LINE
  5
5587
330
18
100
AcDbEntity
  8
外観図
100
AcDbLine
 10
145.0
 20
147.25
 30
0.0
 11
144.9999999999999
 21
132.95
 31
0.0
  0
LINE
  5
5588
330
18
100
AcDbEntity
  8
外観図
100
AcDbLine
 10
145.1999999999999
 20
132.75
 30
0.0
 11
155.3
 21
132.7499999999999
 31
0.0
  0
LINE
  5
558A
330
18
100
AcDbEntity
  8
外観図
100
AcDbLine
 10
144.9999999999999
 20
132.95
 30
0.0
 11
145.1999999999999
 21
132.75
 31
0.0
  0
LINE
  5
558B
330
18
100
AcDbEntity
  8
外観図
100
AcDbLine
 10
155.4999999999999
 20
132.9499999999999
 30
0.0
 11
155.4999999999999
 21
147.2499999999999
 31
0.0
  0
LINE
  5
558C
330
18
100
AcDbEntity
  8
外観図
100
AcDbLine
 10
155.2999999999999
 20
132.7499999999999
 30
0.0
 11
155.4999999999999
 21
132.9499999999999
 31
0.0
  0
LINE
  5
558D
330
18
100
AcDbEntity
  8
外観図
100
AcDbLine
 10
155.4999999999999
 20
133.4999999999999
 30
0.0
 11
155.9999999999999
 21
133.4999999999999
 31
0.0
  0
LINE
  5
558F
330
18
100
AcDbEntity
  8
外観図
100
AcDbLine
 10
171.5
 20
147.2499999999998
 30
0.0
 11
171.4999999999999
 21
135.1999999999998
 31
0.0
  0
LINE
  5
5590
330
18
100
AcDbEntity
  8
外観図
100
AcDbLine
 10
171.2999999999999
 20
134.9999999999998
 30
0.0
 11
171.4999999999999
 21
135.1999999999998
 31
0.0
  0
LINE
  5
5591
330
18
100
AcDbEntity
  8
外観図
100
AcDbLine
 10
171.2999999999999
 20
134.9999999999998
 30
0.0
 11
170.4999999999999
 21
134.9999999999998
 31
0.0
  0
LINE
  5
5592
330
18
100
AcDbEntity
  8
外観図
100
AcDbLine
 10
170.5
 20
147.2499999999998
 30
0.0
 11
170.4999999999999
 21
134.7499999999998
 31
0.0
  0
LINE
  5
5593
330
18
100
AcDbEntity
  8
外観図
100
AcDbLine
 10
170.2499999999999
 20
134.4999999999998
 30
0.0
 11
168.7499999999999
 21
134.4999999999998
 31
0.0
  0
LINE
  5
5594
330
18
100
AcDbEntity
  8
外観図
100
AcDbLine
 10
168.4999999999999
 20
134.7499999999998
 30
0.0
 11
168.7499999999999
 21
134.4999999999998
 31
0.0
  0
LINE
  5
5595
330
18
100
AcDbEntity
  8
外観図
100
AcDbLine
 10
170.4999999999999
 20
134.7499999999998
 30
0.0
 11
170.2499999999999
 21
134.4999999999998
 31
0.0
  0
LINE
  5
5596
330
18
100
AcDbEntity
  8
外観図
100
AcDbLine
 10
168.4999999999999
 20
134.7499999999998
 30
0.0
 11
168.5
 21
147.2499999999998
 31
0.0
  0
LINE
  5
5597
330
18
100
AcDbEntity
  8
外観図
100
AcDbLine
 10
168.4999999999999
 20
134.9999999999998
 30
0.0
 11
167.4999999999999
 21
134.9999999999999
 31
0.0
  0
LINE
  5
5598
330
18
100
AcDbEntity
  8
外観図
100
AcDbLine
 10
167.5
 20
147.2499999999999
 30
0.0
 11
167.4999999999999
 21
132.9499999999999
 31
0.0
  0
LINE
  5
5599
330
18
100
AcDbEntity
  8
外観図
100
AcDbLine
 10
167.2999999999999
 20
132.7499999999999
 30
0.0
 11
167.4999999999999
 21
132.9499999999999
 31
0.0
  0
LINE
  5
559A
330
18
100
AcDbEntity
  8
外観図
100
AcDbLine
 10
167.2999999999999
 20
132.7499999999999
 30
0.0
 11
162.5999999999999
 21
132.7499999999999
 31
0.0
  0
LINE
  5
559B
330
18
100
AcDbEntity
  8
外観図
100
AcDbLine
 10
162.4999999999999
 20
132.8499999999999
 30
0.0
 11
162.5
 21
147.2499999999999
 31
0.0
  0
LINE
  5
559C
330
18
100
AcDbEntity
  8
外観図
100
AcDbLine
 10
162.5999999999999
 20
132.7499999999999
 30
0.0
 11
162.4999999999999
 21
132.8499999999999
 31
0.0
  0
LINE
  5
559D
330
18
100
AcDbEntity
  8
外観図
 62
   250
100
AcDbLine
 10
168.4999999999999
 20
134.7499999999998
 30
0.0
 11
170.4999999999999
 21
134.7499999999998
 31
0.0
  0
LINE
  5
559E
330
18
100
AcDbEntity
  8
外観図
100
AcDbLine
 10
156.0
 20
147.2499999999999
 30
0.0
 11
155.9999999999999
 21
132.8499999999999
 31
0.0
  0
LINE
  5
559F
330
18
100
AcDbEntity
  8
外観図
100
AcDbLine
 10
156.0999999999999
 20
132.7499999999999
 30
0.0
 11
155.9999999999999
 21
132.8499999999999
 31
0.0
  0
LINE
  5
55A0
330
18
100
AcDbEntity
  8
外観図
100
AcDbLine
 10
156.0999999999999
 20
132.7499999999999
 30
0.0
 11
161.7999999999999
 21
132.7499999999999
 31
0.0
  0
LINE
  5
55A1
330
18
100
AcDbEntity
  8
外観図
100
AcDbLine
 10
161.9999999999999
 20
132.9499999999999
 30
0.0
 11
162.0
 21
147.2499999999999
 31
0.0
  0
LINE
  5
55A2
330
18
100
AcDbEntity
  8
外観図
100
AcDbLine
 10
161.7999999999999
 20
132.7499999999999
 30
0.0
 11
161.9999999999999
 21
132.9499999999998
 31
0.0
  0
LINE
  5
55A3
330
18
100
AcDbEntity
  8
外観図
100
AcDbLine
 10
161.9999999999999
 20
133.4999999999999
 30
0.0
 11
162.4999999999999
 21
133.4999999999999
 31
0.0
  0
LINE
  5
55A7
330
18
100
AcDbEntity
  8
外観図
100
AcDbLine
 10
171.9999999999999
 20
140.6249999999998
 30
0.0
 11
171.5
 21
140.6249999999998
 31
0.0
  0
LINE
  5
55B1
330
18
100
AcDbEntity
  8
外観図
100
AcDbLine
 10
176.218503649431
 20
139.6999999999998
 30
0.0
 11
176.2185036494311
 21
147.2499999999998
 31
0.0
  0
DIMENSION
  5
5940
330
18
100
AcDbEntity
  8
寸法
100
AcDbDimension
280
     0
  2
*D1
 10
124.0
 20
172.25
 30
0.0
 11
145.75
 21
172.25
 31
0.0
 70
    32
 71
     5
 42
43.5
 73
     0
 74
     0
 75
     0
  3
STANDARD
100
AcDbAlignedDimension
 13
167.5
 23
161.75
 33
0.0
 14
124.0
 24
161.55
 34
0.0
100
AcDbRotatedDimension
1001
ACAD
1000
DSTYLE
1002
{
1070
    41
1040
1.25
1070
    42
1040
0.0
1070
    43
1040
0.75
1070
    44
1040
0.25
1070
    73
1070
     0
1070
    74
1070
     0
1070
    78
1070
     8
1070
    79
1070
     2
1070
   140
1040
1.25
1070
   141
1040
1.0
1070
   143
1040
0.0394
1070
   147
1040
0.3
1070
   171
1070
     4
1070
   172
1070
     1
1070
   173
1070
     1
1070
   176
1070
   256
1070
   177
1070
   256
1070
   178
1070
   256
1070
   179
1070
     2
1070
   271
1070
     2
1070
   272
1070
     2
1070
   273
1070
     8
1070
   274
1070
     4
1070
   279
1070
     2
1070
   284
1070
     8
1070
   340
1005
26
1070
   341
1005
20
1070
   343
1005
20
1070
   344
1005
20
1070
   345
1005
13
1070
   346
1005
13
1070
   347
1005
13
1070
   371
1070
    -1
1070
   372
1070
    -1
1002
}
  0
DIMENSION
  5
5941
330
18
100
AcDbEntity
  8
寸法
100
AcDbDimension
280
     0
  2
*D2
 10
176.218503649431
 20
167.5
 30
0.0
 11
171.8592518247155
 21
167.5
 31
0.0
 70
    32
 71
     5
 42
8.718503649431028
 73
     0
 74
     0
 75
     0
  3
STANDARD
100
AcDbAlignedDimension
 13
167.5
 23
161.75
 33
0.0
 14
176.218503649431
 24
154.8
 34
0.0
100
AcDbRotatedDimension
1001
ACAD
1000
DSTYLE
1002
{
1070
    41
1040
1.25
1070
    42
1040
0.0
1070
    43
1040
0.75
1070
    44
1040
0.25
1070
    73
1070
     0
1070
    74
1070
     0
1070
    78
1070
     8
1070
    79
1070
     2
1070
   140
1040
1.25
1070
   141
1040
1.0
1070
   143
1040
0.0394
1070
   147
1040
0.3
1070
   171
1070
     4
1070
   172
1070
     1
1070
   173
1070
     1
1070
   176
1070
   256
1070
   177
1070
   256
1070
   178
1070
   256
1070
   179
1070
     2
1070
   271
1070
     2
1070
   272
1070
     2
1070
   273
1070
     8
1070
   274
1070
     4
1070
   279
1070
     2
1070
   284
1070
     8
1070
   340
1005
26
1070
   341
1005
20
1070
   343
1005
20
1070
   344
1005
20
1070
   345
1005
13
1070
   346
1005
13
1070
   347
1005
13
1070
   371
1070
    -1
1070
   372
1070
    -1
1002
}
  0
DIMENSION
  5
5942
330
18
100
AcDbEntity
  8
寸法
100
AcDbDimension
280
     0
  2
*D3
 10
167.5
 20
172.25
 30
0.0
 11
176.25
 21
172.25
 31
0.0
 70
    32
  1
<>26
 71
     5
 42
17.5
 73
     0
 74
     0
 75
     0
  3
STANDARD
100
AcDbAlignedDimension
 13
185.0
 23
153.25
 33
0.0
 14
167.5
 24
161.75
 34
0.0
100
AcDbRotatedDimension
1001
ACAD
1000
DSTYLE
1002
{
1070
    41
1040
1.25
1070
    42
1040
0.0
1070
    43
1040
0.75
1070
    44
1040
0.25
1070
    73
1070
     0
1070
    74
1070
     0
1070
    78
1070
     8
1070
    79
1070
     2
1070
   140
1040
1.25
1070
   141
1040
1.0
1070
   143
1040
0.0394
1070
   147
1040
0.3
1070
   171
1070
     4
1070
   172
1070
     1
1070
   173
1070
     1
1070
   176
1070
   256
1070
   177
1070
   256
1070
   178
1070
   256
1070
   179
1070
     2
1070
   271
1070
     2
1070
   272
1070
     2
1070
   273
1070
     8
1070
   274
1070
     4
1070
   279
1070
     2
1070
   284
1070
     8
1070
   340
1005
26
1070
   341
1005
20
1070
   343
1005
20
1070
   344
1005
20
1070
   345
1005
13
1070
   346
1005
13
1070
   347
1005
13
1070
   371
1070
    -1
1070
   372
1070
    -1
1002
}
  0
DIMENSION
  5
5943
330
18
100
AcDbEntity
  8
寸法
100
AcDbDimension
280
     0
  2
*D4
 10
190.0
 20
134.5
 30
0.0
 11
190.0
 21
147.25
 31
0.0
 70
    32
  1
1-32 UNF
 71
     5
 42
25.5
 73
     0
 74
     0
 75
     0
  3
STANDARD
100
AcDbAlignedDimension
 13
170.75
 23
160.0
 33
0.0
 14
170.75
 24
134.5
 34
0.0
 50
90.0
100
AcDbRotatedDimension
1001
ACAD
1000
DSTYLE
1002
{
1070
    41
1040
1.25
1070
    42
1040
0.0
1070
    43
1040
0.75
1070
    44
1040
0.25
1070
    73
1070
     0
1070
    74
1070
     0
1070
    78
1070
     8
1070
    79
1070
     2
1070
   140
1040
1.25
1070
   141
1040
1.0
1070
   143
1040
0.0394
1070
   147
1040
0.3
1070
   171
1070
     4
1070
   172
1070
     1
1070
   173
1070
     1
1070
   176
1070
   256
1070
   177
1070
   256
1070
   178
1070
   256
1070
   179
1070
     2
1070
   271
1070
     2
1070
   272
1070
     2
1070
   273
1070
     8
1070
   274
1070
     4
1070
   279
1070
     2
1070
   284
1070
     8
1070
   340
1005
26
1070
   341
1005
20
1070
   343
1005
20
1070
   344
1005
20
1070
   345
1005
13
1070
   346
1005
13
1070
   347
1005
13
1070
   371
1070
    -1
1070
   372
1070
    -1
1002
}
  0
TEXT
  5
5944
330
18
100
AcDbEntity
  8
寸法
100
AcDbText
 10
148.0
 20
170.25
 30
0.0
 40
1.25
  1
(Max 44)
  7
STYLE1
100
AcDbText
  0
TEXT
  5
5945
330
18
100
AcDbEntity
  8
寸法
100
AcDbText
 10
179.5
 20
170.5
 30
0.0
 40
1.25
  1
in air
  7
STYLE1
100
AcDbText
  0
DIMENSION
  5
59A2
330
18
100
AcDbEntity
  8
寸法
100
AcDbDimension
280
     0
  2
*D5
 10
118.5
 20
133.75
 30
0.0
 11
118.5
 21
147.25
 31
0.0
 70
    32
  1
M<>
 71
     5
 42
27.0
 73
     0
 74
     0
 75
     0
  3
STANDARD
100
AcDbAlignedDimension
 13
123.75
 23
160.75
 33
0.0
 14
123.75
 24
133.75
 34
0.0
 50
90.0
100
AcDbRotatedDimension
1001
ACAD
1000
DSTYLE
1002
{
1070
    41
1040
1.25
1070
    42
1040
0.0
1070
    43
1040
0.75
1070
    44
1040
0.25
1070
    73
1070
     0
1070
    74
1070
     0
1070
    78
1070
     8
1070
    79
1070
     2
1070
   140
1040
1.25
1070
   141
1040
1.0
1070
   143
1040
0.0394
1070
   147
1040
0.3
1070
   171
1070
     4
1070
   172
1070
     1
1070
   173
1070
     1
1070
   176
1070
   256
1070
   177
1070
   256
1070
   178
1070
   256
1070
   179
1070
     2
1070
   271
1070
     2
1070
   272
1070
     2
1070
   273
1070
     8
1070
   274
1070
     4
1070
   279
1070
     2
1070
   284
1070
     8
1070
   340
1005
26
1070
   341
1005
20
1070
   343
1005
20
1070
   344
1005
20
1070
   345
1005
13
1070
   346
1005
13
1070
   347
1005
13
1070
   371
1070
    -1
1070
   372
1070
    -1
1002
}
  0
DIMENSION
  5
59A3
330
18
100
AcDbEntity
  8
寸法
100
AcDbDimension
280
     0
  2
*D6
 10
113.5
 20
132.75
 30
0.0
 11
113.5
 21
147.25
 31
0.0
 70
    32
  1
φ<>
 71
     5
 42
29.0
 73
     0
 74
     0
 75
     0
  3
STANDARD
100
AcDbAlignedDimension
 13
123.75
 23
161.75
 33
0.0
 14
123.75
 24
132.75
 34
0.0
 50
90.0
100
AcDbRotatedDimension
1001
ACAD
1000
DSTYLE
1002
{
1070
    41
1040
1.25
1070
    42
1040
0.0
1070
    43
1040
0.75
1070
    44
1040
0.25
1070
    73
1070
     0
1070
    74
1070
     0
1070
    78
1070
     8
1070
    79
1070
     2
1070
   140
1040
1.25
1070
   141
1040
1.0
1070
   143
1040
0.0394
1070
   147
1040
0.3
1070
   171
1070
     4
1070
   172
1070
     1
1070
   173
1070
     1
1070
   176
1070
   256
1070
   177
1070
   256
1070
   178
1070
   256
1070
   179
1070
     2
1070
   271
1070
     2
1070
   272
1070
     2
1070
   273
1070
     8
1070
   274
1070
     4
1070
   279
1070
     2
1070
   284
1070
     8
1070
   340
1005
26
1070
   341
1005
20
1070
   343
1005
20
1070
   344
1005
20
1070
   345
1005
13
1070
   346
1005
13
1070
   347
1005
13
1070
   371
1070
    -1
1070
   372
1070
    -1
1002
}
  0
TEXT
  5
59A4
330
18
100
AcDbEntity
  8
寸法
100
AcDbText
 10
120.010054736825
 20
149.2720273096015
 30
0.0
 40
1.0
  1
P=0.5
 50
90.0
  7
STYLE1
100
AcDbText
  0
LINE
  5
59D3
330
18
100
AcDbEntity
  8
CENTER
 62
     7
100
AcDbLine
 10
100.5
 20
147.25
 30
0.0
 11
69.5
 21
147.25
 31
0.0
  0
LINE
  5
59D4
330
18
100
AcDbEntity
  8
CENTER
 62
     7
100
AcDbLine
 10
85.0
 20
166.8292400457462
 30
0.0
 11
85.0
 21
131.75
 31
0.0
  0
LINE
  5
59D5
330
18
100
AcDbEntity
  8
外観図
100
AcDbLine
 10
83.49999999999999
 20
166.25
 30
0.0
 11
86.5
 21
166.25
 31
0.0
  0
LINE
  5
59D6
330
18
100
AcDbEntity
  8
外観図
100
AcDbLine
 10
83.25000000000001
 20
166.0
 30
0.0
 11
86.75
 21
166.0
 31
0.0
  0
LINE
  5
59D7
330
18
100
AcDbEntity
  8
外観図
100
AcDbLine
 10
83.25000000000001
 20
163.0
 30
0.0
 11
86.75
 21
163.0
 31
0.0
  0
LINE
  5
59D8
330
18
100
AcDbEntity
  8
外観図
100
AcDbLine
 10
84.14999999999997
 20
162.75
 30
0.0
 11
84.35
 21
162.55
 31
0.0
  0
LINE
  5
59D9
330
18
100
AcDbEntity
  8
外観図
100
AcDbLine
 10
84.14999999999997
 20
162.75
 30
0.0
 11
85.84999999999999
 21
162.75
 31
0.0
  0
LINE
  5
59DA
330
18
100
AcDbEntity
  8
外観図
100
AcDbLine
 10
84.15
 20
161.7250647666945
 30
0.0
 11
84.14999999999997
 21
162.75
 31
0.0
  0
LINE
  5
59DB
330
18
100
AcDbEntity
  8
外観図
100
AcDbLine
 10
83.25000000000001
 20
166.0
 30
0.0
 11
83.49999999999999
 21
166.25
 31
0.0
  0
LINE
  5
59DC
330
18
100
AcDbEntity
  8
外観図
100
AcDbLine
 10
84.14999999999997
 20
162.75
 30
0.0
 11
83.49999999999999
 21
162.75
 31
0.0
  0
LINE
  5
59DD
330
18
100
AcDbEntity
  8
外観図
100
AcDbLine
 10
83.25000000000001
 20
163.0
 30
0.0
 11
83.49999999999999
 21
162.75
 31
0.0
  0
LINE
  5
59DE
330
18
100
AcDbEntity
  8
外観図
100
AcDbLine
 10
83.25000000000001
 20
163.0
 30
0.0
 11
83.25000000000001
 21
166.0
 31
0.0
  0
LINE
  5
59DF
330
18
100
AcDbEntity
  8
外観図
100
AcDbLine
 10
83.60000000000002
 20
166.0
 30
0.0
 11
83.60000000000002
 21
163.0
 31
0.0
  0
LINE
  5
59E0
330
18
100
AcDbEntity
  8
外観図
100
AcDbLine
 10
84.0
 20
166.0
 30
0.0
 11
84.0
 21
163.0
 31
0.0
  0
LINE
  5
59E1
330
18
100
AcDbEntity
  8
外観図
100
AcDbLine
 10
85.84999999999999
 20
162.75
 30
0.0
 11
85.84999999999997
 21
161.7250647666945
 31
0.0
  0
LINE
  5
59E2
330
18
100
AcDbEntity
  8
外観図
100
AcDbLine
 10
85.85000000000002
 20
162.75
 30
0.0
 11
85.65000000000001
 21
162.55
 31
0.0
  0
LINE
  5
59E3
330
18
100
AcDbEntity
  8
外観図
100
AcDbLine
 10
85.64999999999997
 20
161.73542370799
 30
0.0
 11
85.65000000000001
 21
162.55
 31
0.0
  0
LINE
  5
59E4
330
18
100
AcDbEntity
  8
外観図
100
AcDbLine
 10
84.35000000000002
 20
162.5499999999999
 30
0.0
 11
84.35
 21
161.73542370799
 31
0.0
  0
LINE
  5
59E5
330
18
100
AcDbEntity
  8
外観図
100
AcDbLine
 10
84.35000000000002
 20
162.5499999999999
 30
0.0
 11
85.65000000000001
 21
162.55
 31
0.0
  0
LINE
  5
59E6
330
18
100
AcDbEntity
  8
外観図
100
AcDbLine
 10
86.75
 20
166.0
 30
0.0
 11
86.5
 21
166.25
 31
0.0
  0
LINE
  5
59E7
330
18
100
AcDbEntity
  8
外観図
100
AcDbLine
 10
86.5
 20
162.75
 30
0.0
 11
85.84999999999999
 21
162.75
 31
0.0
  0
LINE
  5
59E8
330
18
100
AcDbEntity
  8
外観図
100
AcDbLine
 10
86.75
 20
163.0
 30
0.0
 11
86.5
 21
162.75
 31
0.0
  0
LINE
  5
59E9
330
18
100
AcDbEntity
  8
外観図
100
AcDbLine
 10
85.5
 20
166.0
 30
0.0
 11
85.5
 21
163.0
 31
0.0
  0
LINE
  5
59EA
330
18
100
AcDbEntity
  8
外観図
100
AcDbLine
 10
86.0
 20
166.0
 30
0.0
 11
86.0
 21
163.0
 31
0.0
  0
LINE
  5
59EB
330
18
100
AcDbEntity
  8
外観図
100
AcDbLine
 10
86.39999999999998
 20
166.0
 30
0.0
 11
86.39999999999998
 21
163.0
 31
0.0
  0
LINE
  5
59EC
330
18
100
AcDbEntity
  8
外観図
100
AcDbLine
 10
86.75
 20
163.0
 30
0.0
 11
86.75
 21
166.0
 31
0.0
  0
LINE
  5
59ED
330
18
100
AcDbEntity
  8
外観図
100
AcDbLine
 10
84.50000000000001
 20
166.0
 30
0.0
 11
84.50000000000001
 21
163.0
 31
0.0
  0
ARC
  5
59EE
330
18
100
AcDbEntity
  8
外観図
100
AcDbCircle
 10
85.0
 20
147.25
 30
0.0
 40
6.751920510726492
100
AcDbArc
 50
159.9098276409206
 51
224.8155339988672
  0
ARC
  5
59EF
330
18
100
AcDbEntity
  8
外観図
100
AcDbCircle
 10
85.0
 20
147.25
 30
0.0
 40
7.449891040530545
100
AcDbArc
 50
159.9098276409206
 51
224.8155339988672
  0
ARC
  5
59F0
330
18
100
AcDbEntity
  8
外観図
100
AcDbCircle
 10
85.0
 20
147.25
 30
0.0
 40
6.751920510726492
100
AcDbArc
 50
325.2187327064279
 51
31.16236278900518
  0
ARC
  5
59F1
330
18
100
AcDbEntity
  8
外観図
100
AcDbCircle
 10
85.0
 20
147.25
 30
0.0
 40
7.449891040530545
100
AcDbArc
 50
325.2187327064279
 51
31.16236278900518
  0
LINE
  5
59F2
330
18
100
AcDbEntity
  8
外観図
100
AcDbLine
 10
80.21032485328142
 20
142.491067076321
 30
0.0
 11
79.71519874887403
 21
141.9991189070905
 31
0.0
  0
LINE
  5
59F3
330
18
100
AcDbEntity
  8
外観図
100
AcDbLine
 10
90.54559375442867
 20
143.3984002681988
 30
0.0
 11
91.11886190897926
 21
143.0002464242477
 31
0.0
  0
LINE
  5
59F4
330
18
100
AcDbEntity
  8
外観図
100
AcDbLine
 10
78.65891235151394
 20
149.5692753216008
 30
0.0
 11
78.00341110582889
 21
149.8090272295813
 31
0.0
  0
ARC
  5
59F5
330
18
100
AcDbEntity
  8
外観図
100
AcDbCircle
 10
85.0
 20
147.25
 30
0.0
 40
7.449891040530545
100
AcDbArc
 50
147.4332305272292
 51
152.7725653950318
  0
ARC
  5
59F6
330
18
100
AcDbEntity
  8
外観図
100
AcDbCircle
 10
85.0
 20
147.25
 30
0.0
 40
6.751920510726492
100
AcDbArc
 50
147.4332305272292
 51
152.7725653950318
  0
LINE
  5
59F7
330
18
100
AcDbEntity
  8
外観図
100
AcDbLine
 10
78.9962098247183
 20
150.3391639830802
 30
0.0
 11
78.37557624308527
 21
150.6585020763674
 31
0.0
  0
LINE
  5
59F8
330
18
100
AcDbEntity
  8
外観図
100
AcDbLine
 10
79.30971951545906
 20
150.8844378644326
 30
0.0
 11
78.72149456846521
 21
151.2601428979483
 31
0.0
  0
LINE
  5
59F9
330
18
100
AcDbEntity
  8
外観図
100
AcDbLine
 10
90.77764784664509
 20
150.7438826459007
 30
0.0
 11
91.37490427496615
 21
151.1050579763209
 31
0.0
  0
CIRCLE
  5
59FC
330
18
100
AcDbEntity
  8
外観図
100
AcDbCircle
 10
85.0
 20
147.25
 30
0.0
 40
13.25
  0
CIRCLE
  5
59FD
330
18
100
AcDbEntity
  8
外観図
100
AcDbCircle
 10
85.0
 20
147.25
 30
0.0
 40
13.5
  0
CIRCLE
  5
59FE
330
18
100
AcDbEntity
  8
外観図
100
AcDbCircle
 10
85.0
 20
147.25
 30
0.0
 40
14.5
  0
CIRCLE
  5
5A05
330
18
100
AcDbEntity
  8
外観図
100
AcDbCircle
 10
85.0
 20
147.25
 30
0.0
 40
9.599999999999994
  0
CIRCLE
  5
5A06
330
18
100
AcDbEntity
  8
外観図
100
AcDbCircle
 10
85.0
 20
147.25
 30
0.0
 40
11.0
  0
CIRCLE
  5
5A07
330
18
100
AcDbEntity
  8
外観図
100
AcDbCircle
 10
85.0
 20
147.25
 30
0.0
 40
12.0
  0
CIRCLE
  5
5A08
330
18
100
AcDbEntity
  8
外観図
100
AcDbCircle
 10
85.0
 20
147.25
 30
0.0
 40
12.25
  0
CIRCLE
  5
5A09
330
18
100
AcDbEntity
  8
外観図
100
AcDbCircle
 10
85.0
 20
147.25
 30
0.0
 40
13.0
  0
LINE
  5
5A0D
330
18
100
AcDbEntity
  8
外観図
100
AcDbLine
 10
96.00000000000001
 20
147.5999999999999
 30
0.0
 11
96.96492412394047
 21
147.5999999999999
 31
0.0
  0
LINE
  5
5A0E
330
18
100
AcDbEntity
  8
外観図
100
AcDbLine
 10
96.00000000000001
 20
146.9
 30
0.0
 11
95.99999999999999
 21
147.5999999999999
 31
0.0
  0
LINE
  5
5A0F
330
18
100
AcDbEntity
  8
外観図
100
AcDbLine
 10
96.00000000000001
 20
146.9
 30
0.0
 11
96.96492412394047
 21
146.9
 31
0.0
  0
LINE
  5
5A11
330
18
100
AcDbEntity
  8
外観図
100
AcDbLine
 10
73.99999999999998
 20
147.5999999999999
 30
0.0
 11
73.03507587605953
 21
147.5999999999999
 31
0.0
  0
LINE
  5
5A12
330
18
100
AcDbEntity
  8
外観図
100
AcDbLine
 10
73.99999999999998
 20
146.9
 30
0.0
 11
74.00000000000002
 21
147.5999999999999
 31
0.0
  0
LINE
  5
5A13
330
18
100
AcDbEntity
  8
外観図
100
AcDbLine
 10
73.99999999999998
 20
146.9
 30
0.0
 11
73.03507587605953
 21
146.9
 31
0.0
  0
LINE
  5
5A28
330
18
100
AcDbEntity
  8
ツマミ
100
AcDbLine
 10
149.5
 20
166.75
 30
0.0
 11
149.5
 21
163.25
 31
0.0
  0
LINE
  5
5A29
330
18
100
AcDbEntity
  8
ツマミ
100
AcDbLine
 10
159.0
 20
166.5
 30
0.0
 11
159.0
 21
163.0
 31
0.0
  0
LINE
  5
5A2A
330
18
100
AcDbEntity
  8
外観図
 62
   250
100
AcDbLine
 10
168.75
 20
160.0
 30
0.0
 11
168.7499999999999
 21
134.4999999999998
 31
0.0
  0
LINE
  5
5A2B
330
18
100
AcDbEntity
  8
外観図
 62
   250
100
AcDbLine
 10
170.2499999999999
 20
134.4999999999998
 30
0.0
 11
170.25
 21
160.0
 31
0.0
  0
TEXT
  5
5A2C
330
18
100
AcDbEntity
  8
寸法
100
AcDbText
 10
81.5
 20
115.25
 30
0.0
 40
1.25
  1
f = 12mm  F2.8  2/3"
 51
15.0
  7
STYLE1
100
AcDbText
  0
TEXT
  5
5A97
330
18
100
AcDbEntity
  8
1
 62
     5
100
AcDbText
 10
142.25
 20
151.9188830832196
 30
0.0
 40
2.0
  1
m
 50
270.0
 41
0.75
  7
シルク文字
 72
     1
 11
142.25
 21
151.0460999999999
 31
0.0
100
AcDbText
  0
TEXT
  5
5A98
330
18
100
AcDbEntity
  8
1
 62
     5
100
AcDbText
 10
143.6931818181818
 20
146.1590909090909
 30
0.0
 40
1.5
  1
∞
 50
90.0
  7
STYLE2
 72
     4
 11
143.25
 21
147.25
 31
0.0
100
AcDbText
  0
TEXT
  5
5A99
330
18
100
AcDbEntity
  8
1
 62
     5
100
AcDbText
 10
142.25
 20
141.5765953867393
 30
0.0
 40
1.5
  1
1
 50
270.0
  7
シルク文字
 72
     1
 11
142.25
 21
140.9938873376261
 31
0.0
100
AcDbText
  0
TEXT
  5
5BBB
330
18
100
AcDbEntity
  8
1
 62
     5
100
AcDbText
 10
132.5
 20
147.3126922987584
 30
0.0
 40
2.5
  1
c
 50
270.0
  7
シルク文字
100
AcDbText
  0
TEXT
  5
5BBC
330
18
100
AcDbEntity
  8
1
 62
     5
100
AcDbText
 10
132.5
 20
145.3847773590624
 30
0.0
 40
2.5
  1
o
 50
270.0
  7
シルク文字
100
AcDbText
  0
TEXT
  5
5BBD
330
18
100
AcDbEntity
  8
1
 62
     5
100
AcDbText
 10
132.4999999999999
 20
143.4976308250154
 30
0.0
 40
2.5
  1
m
 50
270.0
  7
シルク文字
100
AcDbText
  0
TEXT
  5
5BBE
330
18
100
AcDbEntity
  8
1
 62
     5
100
AcDbText
 10
132.4999999999999
 20
140.6318973440425
 30
0.0
 40
2.5
  1
p
 50
270.0
  7
シルク文字
100
AcDbText
  0
TEXT
  5
5BBF
330
18
100
AcDbEntity
  8
1
 62
     5
100
AcDbText
 10
132.4999999999999
 20
138.7566393657082
 30
0.0
 40
2.5
  1
u
 50
270.0
 41
0.9
  7
シルク文字
100
AcDbText
  0
TEXT
  5
5BC0
330
18
100
AcDbEntity
  8
1
 62
     5
100
AcDbText
 10
132.4999999999999
 20
136.9959718365645
 30
0.0
 40
2.5
  1
t
 50
270.0
 41
0.9
  7
シルク文字
100
AcDbText
  0
TEXT
  5
5BC1
330
18
100
AcDbEntity
  8
1
 62
     5
100
AcDbText
 10
132.4999999999999
 20
136.0169861154969
 30
0.0
 40
2.5
  1
a
 50
270.0
 41
0.8
  7
シルク文字
100
AcDbText
  0
TEXT
  5
5BC2
330
18
100
AcDbEntity
  8
1
 62
     5
100
AcDbText
 10
132.4999999999999
 20
134.5386494368859
 30
0.0
 40
2.5
  1
r
 50
270.0
 41
0.8
  7
シルク文字
100
AcDbText
  0
TEXT
  5
5D98
330
18
100
AcDbEntity
  8
寸法
100
AcDbText
 10
156.7499999999999
 20
147.5
 30
0.0
 40
1.5
  1
.
 50
270.0
  7
シルク文字
 72
     4
 11
156.8548772169166
 21
147.2089017735334
 31
0.0
100
AcDbText
  0
TEXT
  5
5D99
330
18
100
AcDbEntity
  8
寸法
100
AcDbText
 10
156.7469305006627
 20
148.5827080491133
 30
0.0
 40
1.5
  1
2
 50
270.0
  7
シルク文字
 72
     4
 11
157.5000000777432
 21
148.0
 31
0.0
100
AcDbText
  0
TEXT
  5
5D9A
330
18
100
AcDbEntity
  8
寸法
100
AcDbText
 10
156.7597204051647
 20
147.0827080491132
 30
0.0
 40
1.5
  1
8
 50
270.0
  7
シルク文字
 72
     4
 11
157.5000000777432
 21
146.5
 31
0.0
100
AcDbText
  0
TEXT
  5
5D9B
330
18
100
AcDbEntity
  8
寸法
100
AcDbText
 10
156.7500000777427
 20
153.9606728443533
 30
0.0
 40
1.5
  1
4
 50
270.0
  7
シルク文字
 72
     4
 11
157.5000000777427
 21
153.3779647952401
 31
0.0
100
AcDbText
  0
TEXT
  5
5D9D
330
18
100
AcDbEntity
  8
寸法
100
AcDbText
 10
156.7597204051638
 20
159.1677577690437
 30
0.0
 40
1.5
  1
8
 50
270.0
 41
0.85
  7
シルク文字
 72
     4
 11
157.5000000777423
 21
158.6724559272975
 31
0.0
100
AcDbText
  0
LWPOLYLINE
  5
5E8C
330
18
100
AcDbEntity
  8
外観図
 62
     5
100
AcDbPolyline
 90
        2
 70
     1
 43
0.8
 10
153.6999999999999
 20
147.65
 42
1.0
 10
153.6999999999999
 20
146.85
 42
1.0
  0
LWPOLYLINE
  5
5E8D
330
18
100
AcDbEntity
  8
外観図
 62
     5
100
AcDbPolyline
 90
        2
 70
     1
 43
0.8
 10
146.7999999999999
 20
147.65
 42
1.0
 10
146.7999999999999
 20
146.85
 42
1.0
  0
ELLIPSE
  5
61A7
330
18
100
AcDbEntity
  8
外観図
100
AcDbEllipse
 10
159.0
 20
142.6125975751773
 30
0.0
 11
-1.49977050500297
 21
0.0
 31
0.0
210
0.0
220
0.0
230
1.0
 40
0.9445208787816865
 41
0.0
 42
6.283185307179586
  0
LINE
  5
61A8
330
18
100
AcDbEntity
  8
外観図
100
AcDbLine
 10
160.4787936606561
 20
142.8486916677367
 30
0.0
 11
157.5212063393437
 21
142.8486916677367
 31
0.0
  0
LINE
  5
61A9
330
18
100
AcDbEntity
  8
外観図
100
AcDbLine
 10
160.4787936606561
 20
142.3765034826179
 30
0.0
 11
157.5212063393437
 21
142.3765034826179
 31
0.0
  0
LINE
  5
61AA
330
18
100
AcDbEntity
  8
外観図
100
AcDbLine
 10
160.4978502313574
 20
142.5409368059872
 30
0.0
 11
157.5021497686425
 21
142.5409368059872
 31
0.0
  0
CIRCLE
  5
6254
330
18
100
AcDbEntity
  8
外観図
 62
   250
100
AcDbCircle
 10
85.0
 20
147.25
 30
0.0
 40
10.0
  0
CIRCLE
  5
6256
330
18
100
AcDbEntity
  8
外観図
 62
   250
100
AcDbCircle
 10
85.0
 20
147.25
 30
0.0
 40
10.75
  0
CIRCLE
  5
6257
330
18
100
AcDbEntity
  8
外観図
 62
   250
100
AcDbCircle
 10
85.0
 20
147.25
 30
0.0
 40
10.5
  0
CIRCLE
  5
6258
330
18
100
AcDbEntity
  8
外観図
 62
   250
100
AcDbCircle
 10
85.0
 20
147.25
 30
0.0
 40
10.25
  0
LWPOLYLINE
  5
639E
330
18
100
AcDbEntity
  8
寸法
100
AcDbPolyline
 90
        2
 70
     1
 43
0.175
 10
157.4124999999999
 20
156.9523937922034
 42
1.0
 10
157.5874999999999
 20
156.9523937922034
 42
1.0
  0
ELLIPSE
  5
6AEE
330
18
100
AcDbEntity
  8
寸法
100
AcDbEllipse
 10
157.4999999999999
 20
160.1523581207112
 30
0.0
 11
0.1750000000000114
 21
0.0
 31
0.0
210
0.0
220
0.0
230
1.0
 40
0.8361695342100681
 41
0.0
 42
6.283185307179586
  0
HATCH
  5
6AF3
330
18
100
AcDbEntity
  8
寸法
100
AcDbHatch
 10
0.0
 20
0.0
 30
0.0
210
0.0
220
0.0
230
1.0
  2
SOLID
 70
     1
 71
     0
 91
        2
 92
        5
 93
        2
 72
     3
 10
157.4999999999999
 20
160.1523581207112
 11
0.1750000000000114
 21
0.0
 40
0.8361695342100681
 50
90.0
 51
270.0
 73
     1
 72
     1
 10
157.4999999999999
 20
160.0060284522244
 11
157.4999999999999
 21
160.2986877891979
 97
        0
 92
        5
 93
        2
 72
     3
 10
157.4999999999999
 20
160.1523581207112
 11
0.1750000000000114
 21
0.0
 40
0.8361695342100681
 50
270.0
 51
450.0
 73
     1
 72
     1
 10
157.4999999999999
 20
160.2986877891979
 11
157.4999999999999
 21
160.0060284522244
 97
        0
 75
     0
 76
     1
 47
0.0038144126462634
 98
        2
 10
157.4013572951953
 20
160.1142938334569
 10
157.5693031159684
 20
160.1181082044722
450
        0
451
        0
460
0.0
461
0.0
452
        1
462
1.0
453
        2
463
0.0
 63
     5
421
      255
463
1.0
 63
    51
421
 16777113
470
LINEAR
1001
ACAD
1010
0.0
1020
0.0
1030
0.0
  0
TEXT
  5
7354
330
18
100
AcDbEntity
  8
1
 62
     5
100
AcDbText
 10
142.25
 20
136.7026014772957
 30
0.0
 40
1.5
  1
0.4
 50
270.0
 41
0.7
  7
シルク文字
 72
     1
 11
142.25
 21
135.6830414500105
 31
0.0
100
AcDbText
  0
ENDSEC
  0
SECTION
  2
OBJECTS
  0
DICTIONARY
  5
C
330
0
100
AcDbDictionary
281
     1
  3
ACAD_COLOR
350
1DD
  3
ACAD_GROUP
350
D
  3
ACAD_LAYOUT
350
1F4
  3
ACAD_MATERIAL
350
1B0
  3
ACAD_MLEADERSTYLE
350
1F2
  3
ACAD_MLINESTYLE
350
1B
  3
ACAD_PLOTSETTINGS
350
1F5
  3
ACAD_PLOTSTYLENAME
350
1AE
  3
ACAD_SCALELIST
350
1E0
  3
ACAD_TABLESTYLE
350
1DE
  3
ACAD_VISUALSTYLE
350
1C9
  3
ACDB_RECOMPOSE_DATA
350
743C
  3
AcDbVariableDictionary
350
207
  3
CONTENTDICTIONARY
350
5C
  0
DICTIONARY
  5
21C
330
2
100
AcDbDictionary
280
     1
281
     1
  3
ACAD_LAYERSTATES
360
21D
  0
DICTIONARY
  5
259
330
E
100
AcDbDictionary
280
     1
281
     1
  3
ADSK_XREC_LAYER_RECONCILED
360
25A
  0
DICTIONARY
  5
25B
330
4E
100
AcDbDictionary
280
     1
281
     1
  3
ADSK_XREC_LAYER_RECONCILED
360
25C
  0
DICTIONARY
  5
25D
330
4F
100
AcDbDictionary
280
     1
281
     1
  3
ADSK_XREC_LAYER_RECONCILED
360
25E
  0
DICTIONARY
  5
26A
330
269
100
AcDbDictionary
280
     1
281
     1
  0
DICTIONARY
  5
5649
330
5648
100
AcDbDictionary
280
     1
281
     1
  0
DICTIONARY
  5
3B9
330
18
100
AcDbDictionary
280
     1
281
     1
  3
ACAD_SORTENTS
360
3BA
  0
DICTIONARY
  5
1DD
102
{ACAD_REACTORS
330
C
102
}
330
C
100
AcDbDictionary
281
     1
  0
DICTIONARY
  5
D
102
{ACAD_REACTORS
330
C
102
}
330
C
100
AcDbDictionary
281
     1
  0
DICTIONARY
  5
1F4
102
{ACAD_REACTORS
330
C
102
}
330
C
100
AcDbDictionary
281
     1
  3
Model
350
1F6
  3
レイアウト1
350
1F7
  0
DICTIONARY
  5
1B0
102
{ACAD_REACTORS
330
C
102
}
330
C
100
AcDbDictionary
281
     1
  3
ByBlock
350
1B9
  3
ByLayer
350
1B1
  3
Global
350
1C1
  0
DICTIONARY
  5
1F2
102
{ACAD_REACTORS
330
C
102
}
330
C
100
AcDbDictionary
281
     1
  3
Standard
350
1F3
  0
DICTIONARY
  5
1B
102
{ACAD_REACTORS
330
C
102
}
330
C
100
AcDbDictionary
281
     1
  3
STANDARD
350
1C
  0
DICTIONARY
  5
1F5
102
{ACAD_REACTORS
330
C
102
}
330
C
100
AcDbDictionary
281
     1
  0
ACDBDICTIONARYWDFLT
  5
1AE
102
{ACAD_REACTORS
330
C
102
}
330
C
100
AcDbDictionary
281
     1
  3
Normal
350
1AF
100
AcDbDictionaryWithDefault
340
1AF
  0
DICTIONARY
  5
1E0
102
{ACAD_REACTORS
330
C
102
}
330
C
100
AcDbDictionary
281
     1
  3
A0
350
1E1
  3
A1
350
1E2
  3
A2
350
1E3
  3
A3
350
1E4
  3
A4
350
1E5
  3
A5
350
1E6
  3
A6
350
1E7
  3
A7
350
1E8
  3
A8
350
1E9
  3
A9
350
1EA
  3
B0
350
1EB
  3
B1
350
1EC
  3
B2
350
1ED
  3
B3
350
1EE
  3
B4
350
1EF
  3
B5
350
1F0
  3
B6
350
1F1
  0
DICTIONARY
  5
1DE
102
{ACAD_REACTORS
330
C
102
}
330
C
100
AcDbDictionary
281
     1
  3
Standard
350
1DF
  0
DICTIONARY
  5
1C9
102
{ACAD_REACTORS
330
C
102
}
330
C
100
AcDbDictionary
281
     1
  3
2dWireframe
350
1CF
  3
3D Hidden
350
1D1
  3
3dWireframe
350
1D0
  3
Basic
350
1CE
  3
Brighten
350
1D5
  3
ColorChange
350
1D9
  3
Conceptual
350
1D2
  3
Dim
350
1D4
  3
EdgeColorOff
350
1DC
  3
Facepattern
350
1D8
  3
Flat
350
1CA
  3
FlatWithEdges
350
1CB
  3
Gouraud
350
1CC
  3
GouraudWithEdges
350
1CD
  3
JitterOff
350
1DA
  3
Linepattern
350
1D7
  3
OverhangOff
350
1DB
  3
Realistic
350
1D3
  3
Thicken
350
1D6
  0
XRECORD
  5
743C
102
{ACAD_REACTORS
330
C
102
}
330
C
100
AcDbXrecord
280
     1
 90
        1
330
1DF
330
5940
330
5941
330
5942
330
5943
330
59A2
330
59A3
  0
DICTIONARY
  5
207
102
{ACAD_REACTORS
330
C
102
}
330
C
100
AcDbDictionary
281
     1
  3
CANNOSCALE
350
20C
  3
CMLEADERSTYLE
350
209
  3
CTABLESTYLE
350
208
  3
LAYEREVAL
350
20E
  3
LAYERNOTIFY
350
20F
  3
LIGHTINGUNITS
350
20D
  3
MLEADERSCALE
350
20B
  3
MSLTSCALE
350
20A
  0
DICTIONARY
  5
5C
102
{ACAD_REACTORS
330
C
102
}
330
C
100
AcDbDictionary
281
     1
  0
DICTIONARY
  5
21D
102
{ACAD_REACTORS
330
21C
102
}
330
21C
100
AcDbDictionary
281
     1
  0
XRECORD
  5
25A
102
{ACAD_REACTORS
330
259
102
}
330
259
100
AcDbXrecord
280
     1
290
     1
  0
XRECORD
  5
25C
102
{ACAD_REACTORS
330
25B
102
}
330
25B
100
AcDbXrecord
280
     1
290
     1
  0
XRECORD
  5
25E
102
{ACAD_REACTORS
330
25D
102
}
330
25D
100
AcDbXrecord
280
     1
290
     1
  0
SORTENTSTABLE
  5
3BA
102
{ACAD_REACTORS
330
3B9
102
}
330
3B9
100
AcDbSortentsTable
330
18
331
176B
  5
16E0
331
181A
  5
178F
331
1F01
  5
1F25
331
1773
  5
16E8
331
1734
  5
16A9
331
1822
  5
1797
331
2038
  5
2082
331
2707
  5
208D
331
1F11
  5
1F48
331
177B
  5
16F0
331
173C
  5
16B1
331
182A
  5
179F
331
2040
  5
2090
331
1744
  5
16B9
331
1832
  5
17A7
331
50FC
  5
50FD
331
55A3
  5
55A3
331
59F1
  5
59F1
331
5104
  5
5105
331
59A2
  5
59A2
331
59F9
  5
59F9
331
5BC0
  5
5BC0
331
508D
  5
5092
331
5D98
  5
5D98
331
639E
  5
639E
331
5095
  5
509A
331
5584
  5
5584
331
5A09
  5
5A09
331
1783
  5
16F8
331
174C
  5
16C1
331
178B
  5
1700
331
1605
  5
11FC
331
1754
  5
16C9
331
2011
  5
205A
331
175C
  5
16D1
331
16A5
  5
161A
331
1764
  5
16D9
331
509D
  5
50A2
331
558C
  5
558C
331
5943
  5
5943
331
59DA
  5
59DA
331
5A11
  5
5A11
331
5594
  5
5594
331
59E2
  5
59E2
331
5A29
  5
5A29
331
61A8
  5
61A8
331
559C
  5
559C
331
50ED
  5
50EE
331
59EA
  5
59EA
331
50F5
  5
50F6
331
5A99
  5
5A99
331
176C
  5
16E1
331
181B
  5
1790
331
1774
  5
16E9
331
1735
  5
16AA
331
1823
  5
1798
331
1F12
  5
1F4A
331
177C
  5
16F1
331
173D
  5
16B2
331
182B
  5
17A0
331
1745
  5
16BA
331
1833
  5
17A8
331
50FD
  5
50FE
331
59F2
  5
59F2
331
6258
  5
6258
331
5105
  5
510B
331
2B06
  5
2B28
331
59A3
  5
59A3
331
5BC1
  5
5BC1
331
508E
  5
5093
331
5D99
  5
5D99
331
5096
  5
509B
331
5585
  5
5585
331
59D3
  5
59D3
331
1F2A
  5
1F52
331
1784
  5
16F9
331
174D
  5
16C2
331
178C
  5
1701
331
1755
  5
16CA
331
1EDB
  5
1F18
331
175D
  5
16D2
331
2012
  5
206A
331
16A6
  5
161B
331
1765
  5
16DA
331
509E
  5
50A3
331
558D
  5
558D
331
5944
  5
5944
331
59DB
  5
59DB
331
5A12
  5
5A12
331
5595
  5
5595
331
59E3
  5
59E3
331
5A2A
  5
5A2A
331
61A9
  5
61A9
331
559D
  5
559D
331
50EE
  5
50EF
331
59EB
  5
59EB
331
50F6
  5
50F7
331
181C
  5
1791
331
176D
  5
16E2
331
1EFB
  5
1F43
331
2022
  5
206E
331
1824
  5
1799
331
1775
  5
16EA
331
1736
  5
16AB
331
2709
  5
2071
331
177D
  5
16F2
331
173E
  5
16B3
331
182C
  5
17A1
331
1834
  5
17A9
331
1746
  5
16BB
331
206A
  5
20B7
331
50FE
  5
50FF
331
59F3
  5
59F3
331
59A4
  5
59A4
331
5BC2
  5
5BC2
331
508F
  5
5094
331
5D9A
  5
5D9A
331
5097
  5
509C
331
5586
  5
5586
331
59D4
  5
59D4
331
1785
  5
16FA
331
174E
  5
16C3
331
178D
  5
1702
331
1756
  5
16CB
331
1EDC
  5
1F04
331
169F
  5
1614
331
175E
  5
16D3
331
2013
  5
206B
331
16A7
  5
161C
331
1766
  5
16DB
331
509F
  5
50A4
331
5945
  5
5945
331
59DC
  5
59DC
331
5A13
  5
5A13
331
5596
  5
5596
331
59E4
  5
59E4
331
5A2B
  5
5A2B
331
61AA
  5
61AA
331
559E
  5
559E
331
50EF
  5
50F0
331
59EC
  5
59EC
331
50F7
  5
50F8
331
181D
  5
1792
331
176E
  5
16E3
331
1825
  5
179A
331
1776
  5
16EB
331
1737
  5
16AC
331
1F14
  5
1F51
331
177E
  5
16F3
331
173F
  5
16B4
331
182D
  5
17A2
331
2043
  5
2092
331
1835
  5
17AA
331
1747
  5
16BC
331
50FF
  5
5100
331
59F4
  5
59F4
331
5BBB
  5
5BBB
331
59FC
  5
59FC
331
5090
  5
5095
331
557F
  5
557F
331
5D9B
  5
5D9B
331
5587
  5
5587
331
59D5
  5
59D5
331
1786
  5
16FB
331
174F
  5
16C4
331
178E
  5
1703
331
1757
  5
16CC
331
2014
  5
206C
331
16A0
  5
1615
331
175F
  5
16D4
331
1767
  5
16DC
331
1816
  5
178B
331
5098
  5
509D
331
558F
  5
558F
331
59DD
  5
59DD
331
5597
  5
5597
331
59E5
  5
59E5
331
5A2C
  5
5A2C
331
559F
  5
559F
331
50F0
  5
50F1
331
59ED
  5
59ED
331
16A8
  5
161D
331
176F
  5
16E4
331
1730
  5
16A5
331
181E
  5
1793
331
1777
  5
16EC
331
1738
  5
16AD
331
1826
  5
179B
331
1F15
  5
1F53
331
177F
  5
16F4
331
1740
  5
16B5
331
182E
  5
17A3
331
1836
  5
17AB
331
50F8
  5
50F9
331
2AF1
  5
2B12
331
5100
  5
5101
331
55A7
  5
55A7
331
59F5
  5
59F5
331
5BBC
  5
5BBC
331
59FD
  5
59FD
331
5091
  5
5096
331
5580
  5
5580
331
5A05
  5
5A05
331
59D6
  5
59D6
331
5A0D
  5
5A0D
331
5E8C
  5
5E8C
331
1748
  5
16BD
331
12C1
  5
181A
331
1787
  5
16FC
331
1750
  5
16C5
331
178F
  5
1704
331
1758
  5
16CD
331
1ED6
  5
1F16
331
1760
  5
16D5
331
16A1
  5
1616
331
2015
  5
206F
331
1817
  5
178C
331
1EE6
  5
1F1D
331
201D
  5
2067
331
6AF3
  5
6AD9
331
5099
  5
509E
331
5588
  5
5588
331
50A1
  5
50A6
331
5590
  5
5590
331
59DE
  5
59DE
331
5598
  5
5598
331
59E6
  5
59E6
331
59EE
  5
59EE
331
50F1
  5
50F2
331
6254
  5
6254
331
1768
  5
16DD
331
16A9
  5
161E
331
E82
  5
17EE
331
1770
  5
16E5
331
1731
  5
16A6
331
181F
  5
1794
331
1778
  5
16ED
331
1739
  5
16AE
331
1827
  5
179C
331
1741
  5
16B6
331
182F
  5
17A4
331
2045
  5
2091
331
1837
  5
17AC
331
50F9
  5
50FA
331
2AF2
  5
2B13
331
55A0
  5
55A0
331
5101
  5
5102
331
59F6
  5
59F6
331
5BBD
  5
5BBD
331
508A
  5
508F
331
59FE
  5
59FE
331
5092
  5
5097
331
5581
  5
5581
331
5A06
  5
5A06
331
5D9D
  5
5D9D
331
59D7
  5
59D7
331
5A0E
  5
5A0E
331
5E8D
  5
5E8D
331
1749
  5
16BE
331
1780
  5
16F5
331
1788
  5
16FD
331
1751
  5
16C6
331
1790
  5
1705
331
1759
  5
16CE
331
1ED7
  5
1F17
331
200E
  5
2056
331
1761
  5
16D6
331
16A2
  5
1617
331
1EE7
  5
1F20
331
201E
  5
205B
331
509A
  5
509F
331
5940
  5
5940
331
50A2
  5
50A7
331
5591
  5
5591
331
59DF
  5
59DF
331
5599
  5
5599
331
59E7
  5
59E7
331
59EF
  5
59EF
331
50F2
  5
50F3
331
1769
  5
16DE
331
1818
  5
178D
331
1771
  5
16E6
331
1732
  5
16A7
331
1820
  5
1795
331
1EFF
  5
1F1E
331
1779
  5
16EE
331
173A
  5
16AF
331
1828
  5
179D
331
203E
  5
208C
331
1742
  5
16B7
331
1830
  5
17A5
331
27AD
  5
2ABE
331
50FA
  5
50FB
331
55A1
  5
55A1
331
5102
  5
5103
331
55B1
  5
55B1
331
59F7
  5
59F7
331
5BBE
  5
5BBE
331
508B
  5
5090
331
5093
  5
5098
331
5582
  5
5582
331
5A07
  5
5A07
331
5A0F
  5
5A0F
331
1781
  5
16F6
331
174A
  5
16BF
331
1838
  5
17AD
331
1789
  5
16FE
331
1752
  5
16C7
331
175A
  5
16CF
331
200F
  5
2058
331
16A3
  5
1618
331
1762
  5
16D7
331
201F
  5
2057
331
509B
  5
50A0
331
558A
  5
558A
331
5941
  5
5941
331
59D8
  5
59D8
331
50A3
  5
50A8
331
5592
  5
5592
331
59E0
  5
59E0
331
559A
  5
559A
331
59E8
  5
59E8
331
6256
  5
6256
331
50F3
  5
50F4
331
5A97
  5
5A97
331
176A
  5
16DF
331
1819
  5
178E
331
1772
  5
16E7
331
1733
  5
16A8
331
1821
  5
1796
331
177A
  5
16EF
331
173B
  5
16B0
331
1829
  5
179E
331
203F
  5
208F
331
1743
  5
16B8
331
1831
  5
17A6
331
50FB
  5
50FC
331
55A2
  5
55A2
331
59F0
  5
59F0
331
5103
  5
5104
331
59F8
  5
59F8
331
5BBF
  5
5BBF
331
508C
  5
5091
331
5094
  5
5099
331
5A08
  5
5A08
331
1782
  5
16F7
331
174B
  5
16C0
331
1F28
  5
1F50
331
178A
  5
16FF
331
1753
  5
16C8
331
1604
  5
E88
331
22E7
  5
1F4E
331
175B
  5
16D0
331
2010
  5
2059
331
16A4
  5
1619
331
1763
  5
16D8
331
2018
  5
2070
331
6AEE
  5
6AEF
331
509C
  5
50A1
331
558B
  5
558B
331
5942
  5
5942
331
59D9
  5
59D9
331
50A4
  5
50A9
331
5593
  5
5593
331
59E1
  5
59E1
331
5A28
  5
5A28
331
61A7
  5
61A7
331
559B
  5
559B
331
50EC
  5
50ED
331
59E9
  5
59E9
331
6257
  5
6257
331
50F4
  5
50F5
331
5A98
  5
5A98
  0
LAYOUT
  5
1F6
102
{ACAD_XDICTIONARY
360
222
102
}
102
{ACAD_REACTORS
330
1F4
102
}
330
1F4
100
AcDbPlotSettings
  1

  2
DWG To PDF.pc3
  4
ISO_expand_A4_(210.00_x_297.00_MM)
  6

 40
5.793749809265136
 41
10.79374980926513
 42
5.793746948242187
 43
10.79376220703125
 44
210.0
 45
297.0
 46
0.0
 47
4.5
 48
0.0
 49
0.0
140
0.0
141
0.0
142
2.0
143
1.0
 70
  3744
 72
     1
 73
     1
 74
     1
  7
acadlt.ctb
 75
    16
147
1.0
 76
     0
 77
     5
 78
   300
148
-83.10791123088904
149
-95.61319050008103
100
AcDbLayout
  1
Model
 70
     1
 71
     0
 10
0.0
 20
0.0
 11
12.0
 21
9.0
 12
0.0
 22
0.0
 32
0.0
 14
0.0
 24
0.0
 34
0.0
 15
0.0
 25
0.0
 35
0.0
146
0.0
 13
0.0
 23
0.0
 33
0.0
 16
1.0
 26
0.0
 36
0.0
 17
0.0
 27
1.0
 37
0.0
 76
     0
330
18
331
1AC
1001
ACAD_PSEXT
1000
DWG To PDF.pc3
1000
DWG To PDF
1000
ファイル
1000

1070
     0
  0
LAYOUT
  5
1F7
102
{ACAD_REACTORS
330
1F4
102
}
330
1F4
100
AcDbPlotSettings
  1

  2
Canon Pro9000
  4

  6

 40
0.0
 41
0.0
 42
0.0
 43
0.0
 44
0.0
 45
0.0
 46
0.0
 47
0.0
 48
0.0
 49
0.0
140
0.0
141
0.0
142
1.0
143
1.0
 70
   688
 72
     0
 73
     0
 74
     5
  7
acadlt.ctb
 75
    16
147
1.0
 76
     0
 77
     2
 78
   300
148
0.0
149
0.0
100
AcDbLayout
  1
レイアウト1
 70
     1
 71
     1
 10
0.0
 20
0.0
 11
420.0
 21
297.0
 12
0.0
 22
0.0
 32
0.0
 14
1.000000000000000E+20
 24
1.000000000000000E+20
 34
1.000000000000000E+20
 15
-1.000000000000000E+20
 25
-1.000000000000000E+20
 35
-1.000000000000000E+20
146
0.0
 13
0.0
 23
0.0
 33
0.0
 16
1.0
 26
0.0
 36
0.0
 17
0.0
 27
1.0
 37
0.0
 76
     0
330
15
  0
MATERIAL
  5
1B9
102
{ACAD_XDICTIONARY
360
1BA
102
}
102
{ACAD_REACTORS
330
1B0
102
}
330
1B0
100
AcDbMaterial
  1
ByBlock
 72
     0
 43
0.0208333333333333
 43
0.0
 43
0.0
 43
0.0
 43
0.0
 43
0.0208333333333333
 43
0.0
 43
0.0
 43
0.0
 43
0.0
 43
1.0
 43
0.0
 43
0.0
 43
0.0
 43
0.0
 43
1.0
 77
     0
 47
0.0208333333333333
 47
0.0
 47
0.0
 47
0.0
 47
0.0
 47
0.0208333333333333
 47
0.0
 47
0.0
 47
0.0
 47
0.0
 47
1.0
 47
0.0
 47
0.0
 47
0.0
 47
0.0
 47
1.0
171
     0
 49
0.0208333333333333
 49
0.0
 49
0.0
 49
0.0
 49
0.0
 49
0.0208333333333333
 49
0.0
 49
0.0
 49
0.0
 49
0.0
 49
1.0
 49
0.0
 49
0.0
 49
0.0
 49
0.0
 49
1.0
175
     0
142
0.0208333333333333
142
0.0
142
0.0
142
0.0
142
0.0
142
0.0208333333333333
142
0.0
142
0.0
142
0.0
142
0.0
142
1.0
142
0.0
142
0.0
142
0.0
142
0.0
142
1.0
179
     0
144
0.0208333333333333
144
0.0
144
0.0
144
0.0
144
0.0
144
0.0208333333333333
144
0.0
144
0.0
144
0.0
144
0.0
144
1.0
144
0.0
144
0.0
144
0.0
144
0.0
144
1.0
147
0.0208333333333333
147
0.0
147
0.0
147
0.0
147
0.0
147
0.0208333333333333
147
0.0
147
0.0
147
0.0
147
0.0
147
1.0
147
0.0
147
0.0
147
0.0
147
0.0
147
1.0
  0
MATERIAL
  5
1B1
102
{ACAD_XDICTIONARY
360
1B2
102
}
102
{ACAD_REACTORS
330
1B0
102
}
330
1B0
100
AcDbMaterial
  1
ByLayer
 72
     0
 43
0.0208333333333333
 43
0.0
 43
0.0
 43
0.0
 43
0.0
 43
0.0208333333333333
 43
0.0
 43
0.0
 43
0.0
 43
0.0
 43
1.0
 43
0.0
 43
0.0
 43
0.0
 43
0.0
 43
1.0
 77
     0
 47
0.0208333333333333
 47
0.0
 47
0.0
 47
0.0
 47
0.0
 47
0.0208333333333333
 47
0.0
 47
0.0
 47
0.0
 47
0.0
 47
1.0
 47
0.0
 47
0.0
 47
0.0
 47
0.0
 47
1.0
171
     0
 49
0.0208333333333333
 49
0.0
 49
0.0
 49
0.0
 49
0.0
 49
0.0208333333333333
 49
0.0
 49
0.0
 49
0.0
 49
0.0
 49
1.0
 49
0.0
 49
0.0
 49
0.0
 49
0.0
 49
1.0
175
     0
142
0.0208333333333333
142
0.0
142
0.0
142
0.0
142
0.0
142
0.0208333333333333
142
0.0
142
0.0
142
0.0
142
0.0
142
1.0
142
0.0
142
0.0
142
0.0
142
0.0
142
1.0
179
     0
144
0.0208333333333333
144
0.0
144
0.0
144
0.0
144
0.0
144
0.0208333333333333
144
0.0
144
0.0
144
0.0
144
0.0
144
1.0
144
0.0
144
0.0
144
0.0
144
0.0
144
1.0
147
0.0208333333333333
147
0.0
147
0.0
147
0.0
147
0.0
147
0.0208333333333333
147
0.0
147
0.0
147
0.0
147
0.0
147
1.0
147
0.0
147
0.0
147
0.0
147
0.0
147
1.0
  0
MATERIAL
  5
1C1
102
{ACAD_XDICTIONARY
360
1C2
102
}
102
{ACAD_REACTORS
330
1B0
102
}
330
1B0
100
AcDbMaterial
  1
Global
 72
     0
 43
0.0208333333333333
 43
0.0
 43
0.0
 43
0.0
 43
0.0
 43
0.0208333333333333
 43
0.0
 43
0.0
 43
0.0
 43
0.0
 43
1.0
 43
0.0
 43
0.0
 43
0.0
 43
0.0
 43
1.0
 77
     0
 47
0.0208333333333333
 47
0.0
 47
0.0
 47
0.0
 47
0.0
 47
0.0208333333333333
 47
0.0
 47
0.0
 47
0.0
 47
0.0
 47
1.0
 47
0.0
 47
0.0
 47
0.0
 47
0.0
 47
1.0
171
     0
 49
0.0208333333333333
 49
0.0
 49
0.0
 49
0.0
 49
0.0
 49
0.0208333333333333
 49
0.0
 49
0.0
 49
0.0
 49
0.0
 49
1.0
 49
0.0
 49
0.0
 49
0.0
 49
0.0
 49
1.0
175
     0
142
0.0208333333333333
142
0.0
142
0.0
142
0.0
142
0.0
142
0.0208333333333333
142
0.0
142
0.0
142
0.0
142
0.0
142
1.0
142
0.0
142
0.0
142
0.0
142
0.0
142
1.0
179
     0
144
0.0208333333333333
144
0.0
144
0.0
144
0.0
144
0.0
144
0.0208333333333333
144
0.0
144
0.0
144
0.0
144
0.0
144
1.0
144
0.0
144
0.0
144
0.0
144
0.0
144
1.0
147
0.0208333333333333
147
0.0
147
0.0
147
0.0
147
0.0
147
0.0208333333333333
147
0.0
147
0.0
147
0.0
147
0.0
147
1.0
147
0.0
147
0.0
147
0.0
147
0.0
147
1.0
  0
MLEADERSTYLE
  5
1F3
102
{ACAD_REACTORS
330
1F2
102
}
330
1F2
100
AcDbMLeaderStyle
179
     2
170
     0
171
     1
172
     0
 90
       10
 40
0.0
 41
0.0
173
     1
 91
-1073741824
340
13
 92
       -1
290
     1
 42
2.0
291
     1
 43
0.0
  3
Standard
341
20
 44
1.25
300

342
F
174
     1
178
     6
175
     1
176
     0
 93
-1056964608
 45
4.0
292
     0
297
     0
 46
4.0
 94
-1056964608
 47
1.0
 49
1.0
140
1.0
293
     1
141
0.0
294
     1
177
     0
142
0.0
295
     0
296
     0
143
0.0
271
     0
272
     9
273
     9
  0
MLINESTYLE
  5
1C
102
{ACAD_REACTORS
330
1B
102
}
330
1B
100
AcDbMlineStyle
  2
STANDARD
 70
     0
  3

 62
   256
 51
90.0
 52
90.0
 71
     2
 49
0.5
 62
   256
  6
BYLAYER
 49
-0.5
 62
   256
  6
BYLAYER
  0
ACDBPLACEHOLDER
  5
1AF
102
{ACAD_REACTORS
330
1AE
102
}
330
1AE
  0
SCALE
  5
1E1
102
{ACAD_REACTORS
330
1E0
102
}
330
1E0
100
AcDbScale
 70
     0
300
1:1
140
1.0
141
1.0
290
     1
  0
SCALE
  5
1E2
102
{ACAD_REACTORS
330
1E0
102
}
330
1E0
100
AcDbScale
 70
     0
300
1:2
140
1.0
141
2.0
290
     0
  0
SCALE
  5
1E3
102
{ACAD_REACTORS
330
1E0
102
}
330
1E0
100
AcDbScale
 70
     0
300
1:4
140
1.0
141
4.0
290
     0
  0
SCALE
  5
1E4
102
{ACAD_REACTORS
330
1E0
102
}
330
1E0
100
AcDbScale
 70
     0
300
1:5
140
1.0
141
5.0
290
     0
  0
SCALE
  5
1E5
102
{ACAD_REACTORS
330
1E0
102
}
330
1E0
100
AcDbScale
 70
     0
300
1:8
140
1.0
141
8.0
290
     0
  0
SCALE
  5
1E6
102
{ACAD_REACTORS
330
1E0
102
}
330
1E0
100
AcDbScale
 70
     0
300
1:10
140
1.0
141
10.0
290
     0
  0
SCALE
  5
1E7
102
{ACAD_REACTORS
330
1E0
102
}
330
1E0
100
AcDbScale
 70
     0
300
1:16
140
1.0
141
16.0
290
     0
  0
SCALE
  5
1E8
102
{ACAD_REACTORS
330
1E0
102
}
330
1E0
100
AcDbScale
 70
     0
300
1:20
140
1.0
141
20.0
290
     0
  0
SCALE
  5
1E9
102
{ACAD_REACTORS
330
1E0
102
}
330
1E0
100
AcDbScale
 70
     0
300
1:30
140
1.0
141
30.0
290
     0
  0
SCALE
  5
1EA
102
{ACAD_REACTORS
330
1E0
102
}
330
1E0
100
AcDbScale
 70
     0
300
1:40
140
1.0
141
40.0
290
     0
  0
SCALE
  5
1EB
102
{ACAD_REACTORS
330
1E0
102
}
330
1E0
100
AcDbScale
 70
     0
300
1:50
140
1.0
141
50.0
290
     0
  0
SCALE
  5
1EC
102
{ACAD_REACTORS
330
1E0
102
}
330
1E0
100
AcDbScale
 70
     0
300
1:100
140
1.0
141
100.0
290
     0
  0
SCALE
  5
1ED
102
{ACAD_REACTORS
330
1E0
102
}
330
1E0
100
AcDbScale
 70
     0
300
2:1
140
2.0
141
1.0
290
     0
  0
SCALE
  5
1EE
102
{ACAD_REACTORS
330
1E0
102
}
330
1E0
100
AcDbScale
 70
     0
300
4:1
140
4.0
141
1.0
290
     0
  0
SCALE
  5
1EF
102
{ACAD_REACTORS
330
1E0
102
}
330
1E0
100
AcDbScale
 70
     0
300
8:1
140
8.0
141
1.0
290
     0
  0
SCALE
  5
1F0
102
{ACAD_REACTORS
330
1E0
102
}
330
1E0
100
AcDbScale
 70
     0
300
10:1
140
10.0
141
1.0
290
     0
  0
SCALE
  5
1F1
102
{ACAD_REACTORS
330
1E0
102
}
330
1E0
100
AcDbScale
 70
     0
300
100:1
140
100.0
141
1.0
290
     0
  0
TABLESTYLE
  5
1DF
102
{ACAD_XDICTIONARY
360
256D
102
}
102
{ACAD_REACTORS
330
1DE
102
}
330
1DE
100
AcDbTableStyle
280
     0
  3
Standard
 70
     0
 71
     0
 40
1.5
 41
1.5
280
     0
281
     0
  7
STANDARD
140
4.5
170
     2
 62
     0
 63
     7
283
     0
 90
      512
 91
        0
  1

274
    -2
284
     1
 64
     0
275
    -2
285
     1
 65
     0
276
    -2
286
     1
 66
     0
277
    -2
287
     1
 67
     0
278
    -2
288
     1
 68
     0
279
    -2
289
     1
 69
     0
  7
STANDARD
140
6.0
170
     5
 62
     0
 63
     7
283
     0
 90
      512
 91
        0
  1

274
    -2
284
     1
 64
     0
275
    -2
285
     1
 65
     0
276
    -2
286
     1
 66
     0
277
    -2
287
     1
 67
     0
278
    -2
288
     1
 68
     0
279
    -2
289
     1
 69
     0
  7
STANDARD
140
4.5
170
     5
 62
     0
 63
     7
283
     0
 90
      512
 91
        0
  1

274
    -2
284
     1
 64
     0
275
    -2
285
     1
 65
     0
276
    -2
286
     1
 66
     0
277
    -2
287
     1
 67
     0
278
    -2
288
     1
 68
     0
279
    -2
289
     1
 69
     0
  0
VISUALSTYLE
  5
1CF
102
{ACAD_REACTORS
330
1C9
102
}
330
1C9
100
AcDbVisualStyle
  2
2dWireframe
 70
     4
177
     2
291
     0
 71
     0
176
     1
 72
     2
176
     1
 73
     0
176
     1
 90
        0
176
     1
 40
0.6
176
     1
 41
30.0
176
     1
 63
     7
421
 16777215
176
     1
 74
     1
176
     1
 91
        4
176
     1
 64
     7
176
     1
 65
   257
176
     1
 75
     1
176
     1
175
     1
176
     1
 42
1.0
176
     1
 92
        0
176
     1
 66
   257
176
     1
 43
1.0
176
     1
 76
     1
176
     1
 77
     6
176
     1
 78
     2
176
     1
 67
     7
176
     1
 79
     5
176
     1
170
     0
176
     1
171
     0
176
     1
290
     0
176
     1
 93
        1
176
     1
 44
0.0
176
     1
173
     0
176
     1
  0
VISUALSTYLE
  5
1D1
102
{ACAD_REACTORS
330
1C9
102
}
330
1C9
100
AcDbVisualStyle
  2
3D Hidden
 70
     6
177
     2
291
     0
 71
     1
176
     1
 72
     2
176
     1
 73
     2
176
     1
 90
        0
176
     1
 40
0.6
176
     1
 41
30.0
176
     1
 63
     7
421
 16777215
176
     1
 74
     2
176
     1
 91
        2
176
     1
 64
     7
176
     1
 65
   257
176
     1
 75
     2
176
     1
175
     1
176
     1
 42
179.0
176
     1
 92
        0
176
     1
 66
   257
176
     1
 43
1.0
176
     1
 76
     1
176
     1
 77
     6
176
     1
 78
     2
176
     1
 67
     7
176
     1
 79
     3
176
     1
170
     0
176
     1
171
     0
176
     1
290
     0
176
     1
 93
        1
176
     1
 44
0.0
176
     1
173
     0
176
     1
  0
VISUALSTYLE
  5
1D0
102
{ACAD_REACTORS
330
1C9
102
}
330
1C9
100
AcDbVisualStyle
  2
3dWireframe
 70
     5
177
     2
291
     0
 71
     0
176
     1
 72
     2
176
     1
 73
     0
176
     1
 90
        0
176
     1
 40
0.6
176
     1
 41
30.0
176
     1
 63
     7
421
 16777215
176
     1
 74
     1
176
     1
 91
        4
176
     1
 64
     7
176
     1
 65
   257
176
     1
 75
     1
176
     1
175
     1
176
     1
 42
1.0
176
     1
 92
        0
176
     1
 66
   257
176
     1
 43
1.0
176
     1
 76
     1
176
     1
 77
     6
176
     1
 78
     2
176
     1
 67
     7
176
     1
 79
     5
176
     1
170
     0
176
     1
171
     0
176
     1
290
     0
176
     1
 93
        1
176
     1
 44
0.0
176
     1
173
     0
176
     1
  0
VISUALSTYLE
  5
1CE
102
{ACAD_REACTORS
330
1C9
102
}
330
1C9
100
AcDbVisualStyle
  2
Basic
 70
     7
177
     2
291
     1
 71
     1
176
     1
 72
     0
176
     1
 73
     1
176
     1
 90
        0
176
     1
 40
0.6
176
     1
 41
30.0
176
     1
 63
     7
421
 16777215
176
     1
 74
     0
176
     1
 91
        4
176
     1
 64
     7
176
     1
 65
   257
176
     1
 75
     1
176
     1
175
     1
176
     1
 42
1.0
176
     1
 92
        8
176
     1
 66
     7
176
     1
 43
1.0
176
     1
 76
     1
176
     1
 77
     6
176
     1
 78
     2
176
     1
 67
     7
176
     1
 79
     5
176
     1
170
     0
176
     1
171
     0
176
     1
290
     0
176
     1
 93
        1
176
     1
 44
0.0
176
     1
173
     0
176
     1
  0
VISUALSTYLE
  5
1D5
102
{ACAD_REACTORS
330
1C9
102
}
330
1C9
100
AcDbVisualStyle
  2
Brighten
 70
    12
177
     2
291
     1
 71
     2
176
     1
 72
     2
176
     1
 73
     0
176
     1
 90
        0
176
     1
 40
0.6
176
     1
 41
30.0
176
     1
 63
     7
421
 16777215
176
     1
 74
     1
176
     1
 91
        4
176
     1
 64
     7
176
     1
 65
   257
176
     1
 75
     1
176
     1
175
     1
176
     1
 42
1.0
176
     1
 92
        8
176
     1
 66
     7
176
     1
 43
1.0
176
     1
 76
     1
176
     1
 77
     6
176
     1
 78
     2
176
     1
 67
     7
176
     1
 79
     5
176
     1
170
     0
176
     1
171
     0
176
     1
290
     0
176
     1
 93
        1
176
     1
 44
50.0
176
     1
173
     0
176
     1
  0
VISUALSTYLE
  5
1D9
102
{ACAD_REACTORS
330
1C9
102
}
330
1C9
100
AcDbVisualStyle
  2
ColorChange
 70
    16
177
     2
291
     1
 71
     2
176
     1
 72
     2
176
     1
 73
     3
176
     1
 90
        0
176
     1
 40
0.6
176
     1
 41
30.0
176
     1
 63
     8
421
  8421504
176
     1
 74
     1
176
     1
 91
        4
176
     1
 64
     7
176
     1
 65
   257
176
     1
 75
     1
176
     1
175
     1
176
     1
 42
1.0
176
     1
 92
        8
176
     1
 66
     8
424
  8421504
176
     1
 43
1.0
176
     1
 76
     1
176
     1
 77
     6
176
     1
 78
     2
176
     1
 67
     7
176
     1
 79
     5
176
     1
170
     0
176
     1
171
     0
176
     1
290
     0
176
     1
 93
        1
176
     1
 44
0.0
176
     1
173
     0
176
     1
  0
VISUALSTYLE
  5
1D2
102
{ACAD_REACTORS
330
1C9
102
}
330
1C9
100
AcDbVisualStyle
  2
Conceptual
 70
     9
177
     2
291
     0
 71
     3
176
     1
 72
     2
176
     1
 73
     0
176
     1
 90
        0
176
     1
 40
0.6
176
     1
 41
30.0
176
     1
 63
     7
421
 16777215
176
     1
 74
     2
176
     1
 91
        2
176
     1
 64
     7
176
     1
 65
   257
176
     1
 75
     1
176
     1
175
     1
176
     1
 42
179.0
176
     1
 92
        8
176
     1
 66
     7
176
     1
 43
1.0
176
     1
 76
     1
176
     1
 77
     6
176
     1
 78
     2
176
     1
 67
     7
176
     1
 79
     3
176
     1
170
     0
176
     1
171
     0
176
     1
290
     0
176
     1
 93
        1
176
     1
 44
0.0
176
     1
173
     0
176
     1
  0
VISUALSTYLE
  5
1D4
102
{ACAD_REACTORS
330
1C9
102
}
330
1C9
100
AcDbVisualStyle
  2
Dim
 70
    11
177
     2
291
     1
 71
     2
176
     1
 72
     2
176
     1
 73
     0
176
     1
 90
        0
176
     1
 40
0.6
176
     1
 41
30.0
176
     1
 63
     7
421
 16777215
176
     1
 74
     1
176
     1
 91
        4
176
     1
 64
     7
176
     1
 65
   257
176
     1
 75
     1
176
     1
175
     1
176
     1
 42
1.0
176
     1
 92
        8
176
     1
 66
     7
176
     1
 43
1.0
176
     1
 76
     1
176
     1
 77
     6
176
     1
 78
     2
176
     1
 67
     7
176
     1
 79
     5
176
     1
170
     0
176
     1
171
     0
176
     1
290
     0
176
     1
 93
        1
176
     1
 44
-50.0
176
     1
173
     0
176
     1
  0
VISUALSTYLE
  5
1DC
102
{ACAD_REACTORS
330
1C9
102
}
330
1C9
100
AcDbVisualStyle
  2
EdgeColorOff
 70
    22
177
     2
291
     1
 71
     2
176
     0
 72
     2
176
     0
 73
     0
176
     0
 90
        0
176
     0
 40
0.6
176
     0
 41
30.0
176
     0
 63
     7
421
 16777215
176
     0
 74
     1
176
     0
 91
        4
176
     0
 64
     7
176
     0
 65
   257
176
     0
 75
     1
176
     0
175
     1
176
     0
 42
1.0
176
     0
 92
        8
176
     2
 66
     7
176
     0
 43
1.0
176
     0
 76
     1
176
     0
 77
     6
176
     0
 78
     2
176
     0
 67
     7
176
     0
 79
     5
176
     0
170
     0
176
     0
171
     0
176
     0
290
     0
176
     0
 93
        1
176
     0
 44
0.0
176
     0
173
     0
176
     0
  0
VISUALSTYLE
  5
1D8
102
{ACAD_REACTORS
330
1C9
102
}
330
1C9
100
AcDbVisualStyle
  2
Facepattern
 70
    15
177
     2
291
     1
 71
     2
176
     1
 72
     2
176
     1
 73
     0
176
     1
 90
        0
176
     1
 40
0.6
176
     1
 41
30.0
176
     1
 63
     7
421
 16777215
176
     1
 74
     1
176
     1
 91
        4
176
     1
 64
     7
176
     1
 65
   257
176
     1
 75
     1
176
     1
175
     1
176
     1
 42
1.0
176
     1
 92
        8
176
     1
 66
     7
176
     1
 43
1.0
176
     1
 76
     1
176
     1
 77
     6
176
     1
 78
     2
176
     1
 67
     7
176
     1
 79
     5
176
     1
170
     0
176
     1
171
     0
176
     1
290
     0
176
     1
 93
        1
176
     1
 44
0.0
176
     1
173
     0
176
     1
  0
VISUALSTYLE
  5
1CA
102
{ACAD_REACTORS
330
1C9
102
}
330
1C9
100
AcDbVisualStyle
  2
Flat
 70
     0
177
     2
291
     1
 71
     2
176
     1
 72
     1
176
     1
 73
     1
176
     1
 90
        2
176
     1
 40
0.6
176
     1
 41
30.0
176
     1
 63
     7
421
 16777215
176
     1
 74
     0
176
     1
 91
        4
176
     1
 64
     7
176
     1
 65
   257
176
     1
 75
     1
176
     1
175
     1
176
     1
 42
1.0
176
     1
 92
        8
176
     1
 66
     7
176
     1
 43
1.0
176
     1
 76
     1
176
     1
 77
     6
176
     1
 78
     2
176
     1
 67
     7
176
     1
 79
     5
176
     1
170
     0
176
     1
171
     0
176
     1
290
     0
176
     1
 93
       13
176
     1
 44
0.0
176
     1
173
     0
176
     1
  0
VISUALSTYLE
  5
1CB
102
{ACAD_REACTORS
330
1C9
102
}
330
1C9
100
AcDbVisualStyle
  2
FlatWithEdges
 70
     1
177
     2
291
     1
 71
     2
176
     1
 72
     1
176
     1
 73
     1
176
     1
 90
        2
176
     1
 40
0.6
176
     1
 41
30.0
176
     1
 63
     7
421
 16777215
176
     1
 74
     1
176
     1
 91
        4
176
     1
 64
     7
176
     1
 65
   257
176
     1
 75
     1
176
     1
175
     1
176
     1
 42
1.0
176
     1
 92
        0
176
     1
 66
   257
176
     1
 43
1.0
176
     1
 76
     1
176
     1
 77
     6
176
     1
 78
     2
176
     1
 67
     7
176
     1
 79
     5
176
     1
170
     0
176
     1
171
     0
176
     1
290
     0
176
     1
 93
       13
176
     1
 44
0.0
176
     1
173
     0
176
     1
  0
VISUALSTYLE
  5
1CC
102
{ACAD_REACTORS
330
1C9
102
}
330
1C9
100
AcDbVisualStyle
  2
Gouraud
 70
     2
177
     2
291
     1
 71
     2
176
     1
 72
     2
176
     1
 73
     1
176
     1
 90
        2
176
     1
 40
0.6
176
     1
 41
30.0
176
     1
 63
     7
421
 16777215
176
     1
 74
     0
176
     1
 91
        4
176
     1
 64
     7
176
     1
 65
   257
176
     1
 75
     1
176
     1
175
     1
176
     1
 42
1.0
176
     1
 92
        0
176
     1
 66
     7
176
     1
 43
1.0
176
     1
 76
     1
176
     1
 77
     6
176
     1
 78
     2
176
     1
 67
     7
176
     1
 79
     5
176
     1
170
     0
176
     1
171
     0
176
     1
290
     0
176
     1
 93
       13
176
     1
 44
0.0
176
     1
173
     0
176
     1
  0
VISUALSTYLE
  5
1CD
102
{ACAD_REACTORS
330
1C9
102
}
330
1C9
100
AcDbVisualStyle
  2
GouraudWithEdges
 70
     3
177
     2
291
     1
 71
     2
176
     1
 72
     2
176
     1
 73
     1
176
     1
 90
        2
176
     1
 40
0.6
176
     1
 41
30.0
176
     1
 63
     7
421
 16777215
176
     1
 74
     1
176
     1
 91
        4
176
     1
 64
     7
176
     1
 65
   257
176
     1
 75
     1
176
     1
175
     1
176
     1
 42
1.0
176
     1
 92
        0
176
     1
 66
   257
176
     1
 43
1.0
176
     1
 76
     1
176
     1
 77
     6
176
     1
 78
     2
176
     1
 67
     7
176
     1
 79
     5
176
     1
170
     0
176
     1
171
     0
176
     1
290
     0
176
     1
 93
       13
176
     1
 44
0.0
176
     1
173
     0
176
     1
  0
VISUALSTYLE
  5
1DA
102
{ACAD_REACTORS
330
1C9
102
}
330
1C9
100
AcDbVisualStyle
  2
JitterOff
 70
    20
177
     2
291
     1
 71
     2
176
     0
 72
     2
176
     0
 73
     0
176
     0
 90
        0
176
     0
 40
0.6
176
     0
 41
30.0
176
     0
 63
     7
421
 16777215
176
     0
 74
     1
176
     0
 91
        4
176
     0
 64
     7
176
     0
 65
   257
176
     0
 75
     1
176
     0
175
     1
176
     0
 42
1.0
176
     0
 92
       10
176
     2
 66
     7
176
     0
 43
1.0
176
     0
 76
     1
176
     0
 77
     6
176
     0
 78
     2
176
     0
 67
     7
176
     0
 79
     5
176
     0
170
     0
176
     0
171
     0
176
     0
290
     0
176
     0
 93
        1
176
     0
 44
0.0
176
     0
173
     0
176
     0
  0
VISUALSTYLE
  5
1D7
102
{ACAD_REACTORS
330
1C9
102
}
330
1C9
100
AcDbVisualStyle
  2
Linepattern
 70
    14
177
     2
291
     1
 71
     2
176
     1
 72
     2
176
     1
 73
     0
176
     1
 90
        0
176
     1
 40
0.6
176
     1
 41
30.0
176
     1
 63
     7
421
 16777215
176
     1
 74
     1
176
     1
 91
        4
176
     1
 64
     7
176
     1
 65
   257
176
     1
 75
     7
176
     1
175
     7
176
     1
 42
1.0
176
     1
 92
        8
176
     1
 66
     7
176
     1
 43
1.0
176
     1
 76
     1
176
     1
 77
     6
176
     1
 78
     2
176
     1
 67
     7
176
     1
 79
     5
176
     1
170
     0
176
     1
171
     0
176
     1
290
     0
176
     1
 93
        1
176
     1
 44
0.0
176
     1
173
     0
176
     1
  0
VISUALSTYLE
  5
1DB
102
{ACAD_REACTORS
330
1C9
102
}
330
1C9
100
AcDbVisualStyle
  2
OverhangOff
 70
    21
177
     2
291
     1
 71
     2
176
     0
 72
     2
176
     0
 73
     0
176
     0
 90
        0
176
     0
 40
0.6
176
     0
 41
30.0
176
     0
 63
     7
421
 16777215
176
     0
 74
     1
176
     0
 91
        4
176
     0
 64
     7
176
     0
 65
   257
176
     0
 75
     1
176
     0
175
     1
176
     0
 42
1.0
176
     0
 92
        9
176
     2
 66
     7
176
     0
 43
1.0
176
     0
 76
     1
176
     0
 77
     6
176
     0
 78
     2
176
     0
 67
     7
176
     0
 79
     5
176
     0
170
     0
176
     0
171
     0
176
     0
290
     0
176
     0
 93
        1
176
     0
 44
0.0
176
     0
173
     0
176
     0
  0
VISUALSTYLE
  5
1D3
102
{ACAD_REACTORS
330
1C9
102
}
330
1C9
100
AcDbVisualStyle
  2
Realistic
 70
     8
177
     2
291
     0
 71
     2
176
     1
 72
     2
176
     1
 73
     0
176
     1
 90
        0
176
     1
 40
0.6
176
     1
 41
30.0
176
     1
 63
     7
421
 16777215
176
     1
 74
     1
176
     1
 91
        0
176
     1
 64
     7
176
     1
 65
   257
176
     1
 75
     1
176
     1
175
     1
176
     1
 42
1.0
176
     1
 92
        8
176
     1
 66
     8
424
  7895160
176
     1
 43
1.0
176
     1
 76
     1
176
     1
 77
     6
176
     1
 78
     2
176
     1
 67
     7
176
     1
 79
     5
176
     1
170
     0
176
     1
171
     0
176
     1
290
     0
176
     1
 93
       13
176
     1
 44
0.0
176
     1
173
     0
176
     1
  0
VISUALSTYLE
  5
1D6
102
{ACAD_REACTORS
330
1C9
102
}
330
1C9
100
AcDbVisualStyle
  2
Thicken
 70
    13
177
     2
291
     1
 71
     2
176
     1
 72
     2
176
     1
 73
     0
176
     1
 90
        0
176
     1
 40
0.6
176
     1
 41
30.0
176
     1
 63
     7
421
 16777215
176
     1
 74
     1
176
     1
 91
        4
176
     1
 64
     7
176
     1
 65
   257
176
     1
 75
     1
176
     1
175
     1
176
     1
 42
1.0
176
     1
 92
       12
176
     1
 66
     7
176
     1
 43
1.0
176
     1
 76
     1
176
     1
 77
     6
176
     1
 78
     2
176
     1
 67
     7
176
     1
 79
     5
176
     1
170
     0
176
     1
171
     0
176
     1
290
     0
176
     1
 93
        1
176
     1
 44
0.0
176
     1
173
     0
176
     1
  0
DICTIONARYVAR
  5
20C
102
{ACAD_REACTORS
330
207
102
}
330
207
100
DictionaryVariables
280
     0
  1
1:1
  0
DICTIONARYVAR
  5
209
102
{ACAD_REACTORS
330
207
102
}
330
207
100
DictionaryVariables
280
     0
  1
STANDARD
  0
DICTIONARYVAR
  5
208
102
{ACAD_REACTORS
330
207
102
}
330
207
100
DictionaryVariables
280
     0
  1
STANDARD
  0
DICTIONARYVAR
  5
20E
102
{ACAD_REACTORS
330
207
102
}
330
207
100
DictionaryVariables
280
     0
  1
1
  0
DICTIONARYVAR
  5
20F
102
{ACAD_REACTORS
330
207
102
}
330
207
100
DictionaryVariables
280
     0
  1
15
  0
DICTIONARYVAR
  5
20D
102
{ACAD_REACTORS
330
207
102
}
330
207
100
DictionaryVariables
280
     0
  1
0
  0
DICTIONARYVAR
  5
20B
102
{ACAD_REACTORS
330
207
102
}
330
207
100
DictionaryVariables
280
     0
  1
0.000000
  0
DICTIONARYVAR
  5
20A
102
{ACAD_REACTORS
330
207
102
}
330
207
100
DictionaryVariables
280
     0
  1
0
  0
DICTIONARY
  5
222
330
1F6
100
AcDbDictionary
280
     1
281
     1
  3
ADSK_XREC_LAYOUTTHUMBNAIL
360
223
  0
DICTIONARY
  5
1BA
330
1B9
100
AcDbDictionary
280
     1
281
     1
  3
BUMPTILE
360
1BC
  3
DIFFUSETILE
360
1BB
  3
OPACITYTILE
360
1BF
  3
REFLECTIONTILE
360
1BE
  3
REFRACTIONTILE
360
1C0
  3
SPECULARTILE
360
1BD
  0
DICTIONARY
  5
1B2
330
1B1
100
AcDbDictionary
280
     1
281
     1
  3
BUMPTILE
360
1B4
  3
DIFFUSETILE
360
1B3
  3
OPACITYTILE
360
1B7
  3
REFLECTIONTILE
360
1B6
  3
REFRACTIONTILE
360
1B8
  3
SPECULARTILE
360
1B5
  0
DICTIONARY
  5
1C2
330
1C1
100
AcDbDictionary
280
     1
281
     1
  3
BUMPTILE
360
1C4
  3
DIFFUSETILE
360
1C3
  3
OPACITYTILE
360
1C7
  3
REFLECTIONTILE
360
1C6
  3
REFRACTIONTILE
360
1C8
  3
SPECULARTILE
360
1C5
  0
DICTIONARY
  5
256D
330
1DF
100
AcDbDictionary
280
     1
281
     1
  3
ACAD_ROUNDTRIP_2008_TABLESTYLE_CELLSTYLEMAP
360
743B
  0
XRECORD
  5
223
102
{ACAD_REACTORS
330
222
102
}
330
222
100
AcDbXrecord
280
     1
310
28000000000100007D0000000100080000000000007D000000000000000000000001000000000000FFFFFF0000000000FFFFFF000000000000000000000000000000000000000000000000000000000000000000330000006600000099000000CC000000FF00000000330000333300006633000099330000CC330000FF3300
310
0000660000336600006666000099660000CC660000FF66000000990000339900006699000099990000CC990000FF99000000CC000033CC000066CC000099CC0000CCCC0000FFCC000000FF000033FF000066FF000099FF0000CCFF0000FFFF000000003300330033006600330099003300CC003300FF003300003333003333
310
33006633330099333300CC333300FF33330000663300336633006666330099663300CC663300FF66330000993300339933006699330099993300CC993300FF99330000CC330033CC330066CC330099CC3300CCCC3300FFCC330000FF330033FF330066FF330099FF3300CCFF3300FFFF330000006600330066006600660099
310
006600CC006600FF00660000336600333366006633660099336600CC336600FF33660000666600336666006666660099666600CC666600FF66660000996600339966006699660099996600CC996600FF99660000CC660033CC660066CC660099CC6600CCCC6600FFCC660000FF660033FF660066FF660099FF6600CCFF6600
310
FFFF660000009900330099006600990099009900CC009900FF00990000339900333399006633990099339900CC339900FF33990000669900336699006666990099669900CC669900FF66990000999900339999006699990099999900CC999900FF99990000CC990033CC990066CC990099CC9900CCCC9900FFCC990000FF99
310
0033FF990066FF990099FF9900CCFF9900FFFF99000000CC003300CC006600CC009900CC00CC00CC00FF00CC000033CC003333CC006633CC009933CC00CC33CC00FF33CC000066CC003366CC006666CC009966CC00CC66CC00FF66CC000099CC003399CC006699CC009999CC00CC99CC00FF99CC0000CCCC0033CCCC0066CC
310
CC0099CCCC00CCCCCC00FFCCCC0000FFCC0033FFCC0066FFCC0099FFCC00CCFFCC00FFFFCC000000FF003300FF006600FF009900FF00CC00FF00FF00FF000033FF003333FF006633FF009933FF00CC33FF00FF33FF000066FF003366FF006666FF009966FF00CC66FF00FF66FF000099FF003399FF006699FF009999FF00CC
310
99FF00FF99FF0000CCFF0033CCFF0066CCFF0099CCFF00CCCCFF00FFCCFF0000FFFF0033FFFF0066FFFF0099FFFF00CCFFFF00FFFFFF00000000000D0D0D001A1A1A00282828003535350043434300505050005D5D5D006B6B6B00787878008686860093939300A1A1A100AEAEAE00BBBBBB00C9C9C900D6D6D600E4E4E400
310
F1F1F100FFFFFF0000000000000000000000000000000000000000000000000000000000000000000000000000000000F5F5E2F5F5F5F5F5F5F5F5F5F5F5F5F5F5F5F5E2F5F5F5F5F5F5F5F5F5F5F5F5F5F5F5F5F5F5F5F5F5F5F5F5F5F5F5F5F5F5F5F5F5F5F5F5F5F5F5F5F5F5F5F5F5F5F5F5F5F5F5F5F5F5F5F5F5F5F5
310
F5F5F5F5F5F5F5F5F5F5F5F5F5F5F5F5F5F5F5F5F5F5F5F5F5F5F5F5F5F5F5F5F5F5F5F5F5F5F5F5F5F5F5F5F5F5F5F5F5F5F5F5F5F5F5F5F5F5F5F5F5F5F5F5F5F5F5F5F5F5F5F5F5F5F5F5F5F5F5F5F5F5F5F5F5F5F5F5F5F5F5F5F5F5F5F5F5F5F5F5F5F5F5F5F5F5F5F5F5F5F5F5F5F5F5F5F5F5F5F5F5F5F5F5F5F5F5
310
F5F5F5F5F5F5F5F5F5F5F5F5F5F5F5F5F5F5F5F5F5F5F5F5F5F5F5F5F5F5F5F5F5F5F5F5F5E2F5F5F5F5F5F5F5F5F5F5F5F5F5F5E2F5F5F5F5F5F5F5F5F5F5F5F5F5F5F5F5E2F5F5F5F5F5F5F5F5F5F5F5F5F5F5F5F5F5F5F5F5F5F5F5F5F5F5F5F5F5F5F5F5F5F5F5F5F5F5F5F5F5F5F5F5F5F5F5F5F5F5F5F5F5F5F5F5F5
310
F5F5F5F5F5F5F5F5F5F5F5F5F5F5F5F5F5F5F5F5F5F5F5F5F5F5F5F5F5F5F5F5F5F5F5F5F5F5F5F5F5F5F5F5F5F5F5F5F5F5F5F5F5F5F5F5F5F5F5F5F5F5F5F5F5F5F5F5F5F5F5F5F5F5F5F5F5F5F5F5F5F5F5F5F5F5F5F5F5F5F5F5F5F5F5F5F5F5F5F5F5F5F5F5F5F5F5F5F5F5F5F5F5F5F5F5F5F5F5F5F5F5F5F5F5F5F5
310
F5F5F5F5F5F5F5F5F5F5F5F5F5F5F5F5F5F5F5F5F5F5F5F5F5F5F5F5F5F5F5F5F5F5F5F5F5F5F5E2F5F5F5F5F5F5F5F5F5F5F5F5F5F5E2F5F5F5F5F5F5F5F5F5F5F5F5F5F5F5F5E2F5F5F5F5F5F5F5F5F5F5F5F5F5F5F5F5F5F5F5F5F5F5F5F5F5F5F5F5F5F5F5F5F5F5F5F5F5F5F5F5F5F5F5F5F5F5F5F5F5F5F5F5F5F5F5
310
F5F5F5F5F5F5F5F5F5F5F5F5F5F5F5F5F5F5F5F5F5F5F5F5F5F5F5F5F5F5F5F5F5F5F5F5F5F5F5F5F5F5F5F5F5F5F5F5F5F5F5F5F5F5F5F5F5F5F5F5F5F5F5F5F5F5F5F5F5F5F5F5F5F5F5F5F5F5F5F5F5F5F5F5F5F5F5F5F5F5F5F5F5F5F5F5F5F5F5F5F5F5F5F5F5F5F5F5F5F5F5F5F5F5F5F5F5F5F5F5F5F5F5F5F5F5F5
310
F5F5F5F5F5F5F5F5F5F5F5F5F5F5F5F5F5F5F5F5F5F5F5F5F5F5F5F5F5F5F5F5F5F5F5F5F5F5F5F5F5E2F5F5F5F5F5F5F5F5F5F5F5F5F5F5E2F5F5F5F5F5F5F5F5F5F5F5F5F5F5F5F5E2F5F5F5F5F5F5F5F5F5F5F5F5F5F5F5F5F5F5F5F5F5F5F5F5F5F5F5F5F5F5F5F5F5F5F5F5F5F5F5F5F5F5F5F5F5F5F5F5F5F5F5F5F5
310
F5F5F5F5F5F5F5F5F5F5F5F5F5F5F5F5F5F5F5F5F5F5F5F5F5F5F5F5F5F5F5F5F5F5F5F5F5F5F5F5F5F5F5F5F5F5F5F5F5F5F5F5F5F5F5F5F5F5F5F5F5F5F5F5F5F5F5F5F5F5F5F5F5F5F5F5F5F5F5F5F5F5F5F5F5F5F5F5F5F5F5F5F5F5F5F5F5F5F5F5F5F5F5F5F5F5F5F5F5F5F5F5F5F5F5F5F5F5F5F5F5F5F5F5F5F5F5
310
F5F5F5F5F5F5F5F5F5F5F5F5F5F5F5F5F5F5F5F5F5F5F5F5F5F5F5F5F5F5F5F5F5F5F5F5F5F5F5F5F5F5F5E2F5F5F5F5F5F5F5F5F5F5F5F50F0FE2F5F5F5F5F5F5F5F5F5F5F5F5F5F5F5F5E2F5F5F5F5F5F5F5F5F5F5F5F5F5F5F5F5F5F5F5F5F5F5F5F5F5F5F5F5F5F5F5F5F5F5F5F5F5F5F5F5F5F5F5F5F5F5F5F5F5F5F5
310
F5F5F5F5F5F5F5F5F5F5F5F5F5F5F5F5F5F5F5F5F5F5F5F5F5F5F5F5F5F5F5F5F5F5F5F5F5F5F5F5F5F5F5F5F5F5F5F5F5F5F5F5F5F5F5F5F5F5F5F5F5F5F5F5F5F5F5F5F5F5F5F5F5F5F5F5F5F5F5F5F5F5F5F5F5F5F5F5F5F5F5F5F5F5F5F5F5F5F5F5F5F5F5F5F5F5F5F5F5F5F5F5F5F5F5F5F5F5F5F5F5F5F5F5F5F5F5
310
F5F5F5F5F5F5F5F5F5F5F5F5F5F5F5F5F5F5F5F5F5F5F5F5F5F5F5F5F5F5F5F5F5F5F5F5F5F5F5F5F5F5F5F5F5E2F5F5F5F5F5F5F5F5F5F5F5F5F5F5E2F5F5F5F5F5F5F5F5F5F5F5F5F5F5F5F5E2F5F5F5F5F5F5F5F5F5F5F5F5F5F5F5F5F5F5F5F5F5F5F5F5F5F5F5F5F5F5F5F5F5F5F5F5F5F5F5F5F5F5F5F5F5F5F5F5F5
310
F5F5F5F5F5F5F5F5F5F5F5F5F5F5F5F5F5F5F5F5F5F5F5F5F5F5F5F5F5F5F5F5F5F5F5F5F5F5F5F5F5F5F5F5F5F5F5F5F5F5F5F5F5F5F5F5F5F5F5F5F5F5F5F5F5F5F5F5F5F5F5F5F5F5F5F5F5F5F5F5F5F5F5F5F5F5F5F5F5F5F5F5F5F5F5F5F5F5F5F5F5F5F5F5F5F5F5F5F5F5F5F5F5F5F5F5F5F5F5F5F5F5F5F5F5F5F5
310
F5F5F5F5F5F5F5F5F5F5F5F5F5F5F5F5F5F5F5F5F5F5F5F5F5F5F5F5F5F5F5F5F5F5F5F5F5F5F5F5F5F5F5F5F5F5F5E2F5F5F5F5F5F5F5F5F5F5F5F5F5F5E2F5F5F5F5F5F5F5F5F5F5F5F5F5F5F5F5E2F5F5F5F5F5F5F5F5F5F5F5F5F5F5F5F5F5F5F5F5F5F5F5F5F5F5F5F5F5F5F5F5F5F5F5F5F5F5F5F5F5F5F5F5F5F5F5
310
F5F5F5F5F5F5F5F5F5F5F5F5F5F5F5F5F5F5F5F5F5F5F5F5F5F5F5F5F5F5F5F5F5F5F5F5F5F5F5F5F5F5F5F5F5F5F5F5F5F5F5F5F5F5F5F5F5F5F5F5F5F5F5F5F5F5F5F5F5F5F5F5F5F5F5F5F5F5F5F5F5F5F5F5F5F5F5F5F5F5F5F5F5F5F5F5F5F5F5F5F5F5F5F5F5F5F5F5F5F5F5F5F5F5F5F5F5F5F5F5F5F5F5F5F5F5F5
310
F5F5F5F5F5F5F5F5F5F5F5F5F5F5F5F5F5F5F5F5F5F5F5F5F5F5F5F5F5F5F5F5F5F5F5F5F5F5F5F5F5F5F5F5F5F5F5F5F5E2F5F5F5F5F5F5F5F5F5F5F5F5E2E2E2F5F5F5F5F5F5F5F5F5F5F5F5F5F5F5F5E2F5F5F5F5F5F5F5F5F5F5F5F5F5F5F5F5F5F5F5F5F5F5F5F5F5F5F5F5F5F5F5F5F5F5F5F5F5F5F5F5F5F5F5F5F5
310
F5F5F5F5F5F5F5F5F5F5F5F5F5F5F5F5F5F5F5F5F5F5F5F5F5F5F5F5F5F5F5F5F5F5F5F5F5F5F5F5F5F5F5F5F5F5F5F5F5F5F5F5F5F5F5F5F5F5F5F5F5F5F5F5F5F5F5F5F5F5F5F5F5F5F5F5F5F5F5F5F5F5F5F5F5F5F5F5F5F5F5F5F5F5F5F5F5F5F5F5F5F5F5F5F5F5F5F5F5F5F5F5F5F5F5F5F5F5F5F5F5F5F5F5F5F5F5
310
F5F5F5F5F5F5F5F5F5F5F5F5F5F5F5F5F5F5F5F5F5F5F5F5F5F5F5F5F5F5F5F5F5F5F5F5F5F5F5F5F5F5F5F5F5F5F5F5F5F5F5E2F5F5F5F5F5F5F5F5F5F5F5F5F5F5E2F5F5F5F5F5F5F5F5F5F5F5F5F5F5F5F5E2F5F5F5F5F5F5F5F5F5F5F5F5F5F5F5F5F5F5F5F5F5F5F5F5F5F5F5F5F5F5F5F5F5F5F5F5F5F5F5F5F5F5F5
310
F5F5F5F5F5F5F5F5F5F5F5F5F5F5F5F5F5F5F5F5F5F5F5F5F5F5F5F5F5F5F5F5F5F5F5F5F5F5F5F5F5F5F5F5F5F5F5F5F5F5F5F5F5F5F5F5F5F5F5F5F5F5F5F5F5F5F5F5F5F5F5F5F5F5F5F5F5F5F5F5F5F5F5F5F5F5F5F5F5F5F5F5F5F5F5F5F5F5F5F5F5F5F5F5F5F5F5F5F5F5F5F5F5F5F5F5F5F5F5F5F5F5F5F5F5F5F5
310
F5F5F5F5F5F5F5F5F5F5F5F5F5F5F5F5F5F5F5F5F5F5F5F5F5F5F5F5F5F5F5F5F5F5F5F5F5F5F5F5F5F5F5F5F5F5F5F5F5F5F5F5F5E2F5F5F5F5F5F5F5F5F5F5F5F5F5F5E2F5F5F5F5F5F5F5F5F5F5F5F5F5F5F5F5E2F5F5F5F5F5F5F5F5F5F5F5F5F5F5F5F5F5F5F5F5F5F5F5F5F5F5F5F5F5F5F5F5F5F5F5F5F5F5F5F5F5
310
F5F5F5F5F5F5F5F5F5F5F5F5F5F5F5F5F5F5F5F5F5F5F5F5F5F5F5F5F5F5F5F5F5F5F5F5F5F5F5F5F5F5F5F5F5F5F5F5F5F5F5F5F5F5F5F5F5F5F5F5F5F5F5F5F5F5F5F5F5F5F5F5F5F5F5F5F5F5F5F5F5F5F5F5F5F5F5F5F5F5F5F5F5F5F5F5F5F5F5F5F5F5F5F5F5F5F5F5F5F5F5F5F5F5F5F5F5F5F5F5F5F5F5F5F5F5F5
310
F5F5F5F5F5F5F5F5F5F5F5F5F5F5F5F5F5F5F5F5F5F5F5F5F5F5F5F5F5F5F5F5F5F5F5F5F5F5F5F5F5F5F5F5F5F5F5F5F5F5F5F5F5F5F5E2F5F5F5F5F5F5F5F5F5F5F5F5F5F5E2F5F5F5F5F5F5F5F5F5F5F5F5F5F5F5F5E2F5F5F5F5F5F5F5F5F5F5F5F5F5F5F5F5F5F5F5F5F5F5F5F5F5F5F5F5F5F5F5F5F5F5F5F5F5F5F5
310
F5F5F5F5F5F5F5F5F5F5F5F5F5F5F5F5F5F5F5F5F5F5F5F5F5F5F5F5F5F5F5F5F5F5F5F5F5F5F5F5F5F5F5F5F5F5F5F5F5F5F5F5F5F5F5F5F5F5F5F5F5F5F5F5F5F5F5F5F5F5F5F5F5F5F5F5F5F5F5F5F5F5F5F5F5F5F5F5F5F5F5F5F5F5F5F5F5F5F5F5F5F5F5F5F5F5F5F5F5F5F5F5F5F5F5F5F5F5F5F5F5F5F5F5F5F5F5
310
F5F5F5F5F5F5F5F5F5F5F5F5F5F5F5F5F5F5F5F5F5F5F5F5F5F5F5F5F5F5F5F5F5F5F5F5F5F5F5F5F5F5F5F5F5F5F5F5F5F5F5F5F5F5F5F5F5E2F5F5F5F5F5F5F5F5F5F5F5F5F5F5E2F5F5F5F5F5F5F5F5F5F5F5F5F5F5F5F5E2F5F5F5F5F5F5F5F5F5F5F5F5F5F5F5F5F5F5F5F5F5F5F5F5F5F5F5F5F5F5F5F5F5F5F5F5F5
310
F5F5F5F5F5F5F5F5F5F5F5F5F5F5F5F5F5F5F5F5F5F5F5F5F5F5F5F5F5F5F5F5F5F5F5F5F5F5F5F5F5F5F5F5F5F5F5F5F5F5F5F5F5F5F5F5F5F5F5F5F5F5F5F5F5F5F5F5F5F5F5F5F5F5F5F5F5F5F5F5F5F5F5F5F5F5F5F5F5F5F5F5F5F5F5F5F5F5F5F5F5F5F5F5F5F5F5F5F5F5F5F5F5F5F5F5F5F5F5F5F5F5F5F5F5F5F5
310
F5F5F5F5F5F5F5F5F5F5F5F5F5F5F5F5F5F5F5F5F5F5F5F5F5F5F5F5F5F5F5F5F5F5F5F5F5F5F5F5F5F5F5F5F5F5F5F5F5F5F5F5F5F5F5F5F5F5F5E2F5F5F5F5F5F5F5F5F5F5F5F5F5F5E2F5F5F5F5F5F5F5F5F5F5F5F5F5F5F5F5E2F5F5F5F5F5F5F5F5F5F5F5F5F5F5F5F5F5F5F5F5F5F5F5F5F5F5F5F5F5F5F5F5F5F5F5
310
F5F5F5F5F5F5F5F5F5F5F5F5F5F5F5F5F5F5F5F5F5F5F5F5F5F5F5F5F5F5F5F5F5F5F5F5F5F5F5F5F5F5F5F5F5F5F5F5F5F5F5F5F5F5F5F5F5F5F5F5F5F5F5F5F5F5F5F5F5F5F5F5F5F5F5F5F5F5F5F5F5F5F5F5F5F5F5F5F5F5F5F5F5F5F5F5F5F5F5F5F5F5F5F5F5F5F5F5F5F5F5F5F5F5F5F5F5F5F5F5F5F5F5F5F5F5F5
310
F5F5F5F5F5F5F5F5F5F5F5F5F5F5F5F5F5F5F5F5F5F5F5F5F5F5F5F5F5F5F5F5F5F5F5F5F5F5F5F5F5F5F5F5F5F5F5F5F5F5F5F5F5F5F5F5F5F5F5F5F5E2F5F5F5F5F5F5F5F5F5F5F5F5F5F5E2F5F5F5F5F5F5F5F5F5F5F5F5F5F5F5F5E2F5F5F5F5F5F5F5F5F5F5F5F5F5F5F5F5F5F5F5F5F5F5F5F5F5F5F5F5F5F5F5F5F5
310
F5F5F5F5F5F5F5F5F5F5F5F5F5F5F5F5F5F5F5F5F5F5F5F5F5F5F5F5F5F5F5F5F5F5F5F5F5F5F5F5F5F5F5F5F5F5F5F5F5F5F5F5F5F5F5F5F5F5F5F5F5F5F5F5F5F5F5F5F5F5F5F5F5F5F5F5F5F5F5F5F5F5F5F5F5F5F5F5F5F5F5F5F5F5F5F5F5F5F5F5F5F5F5F5F5F5F5F5F5F5F5F5F5F5F5F5F5F5F5F5F5F5F5F5F5F5F5
310
F5F5F5F5F5F5F5F5F5F5F5F5F5F5F5F5F5F5F5F5F5F5F5F5F5F5F5F5F5F5F5F5F5F5F5F5F5F5F5F5F5F5F5F5F5F5F5F5F5F5F5F5F5F5F5F5F5F5F5F5F5F5F5E2F5F5F5F5F5F5F5F5F5F5F5F5F5F5E2F5F5F5F5F5F5F5F5F5F5F5F5F5F5F5F5E2F5F5F5F5F5F5F5F5F5F5F5F5F5F5F5F5F5F5F5F5F5F5F5F5F5F5F5F5F5F5F5
310
F5F5F5F5F5F5F5F5F5F5F5F5F5F5F5F5F5F5F5F5F5F5F5F5F5F5F5F5F5F5F5F5F5F5F5F5F5F5F5F5F5F5F5F5F5F5F5F5F5F5F5F5F5F5F5F5F5F5F5F5F5F5F5F5F5F5F5F5F5F5F5F5F5F5F5F5F5F5F5F5F5F5F5F5F5F5F5F5F5F5F5F5F5F5F5F5F5F5F5F5F5F5F5F5F5F5F5F5F5F5F5F5F5F5F5F5F5F5F5F5F5F5F5F5F5F5F5
310
F5F5F5F5F5F5F5F5F5F5F5F5F5F5F5F5F5F5F5F5F5F5F5F5F5F5F5F5F5F5F5F5F5F5F5F5F5F5F5F5F5F5F5F5F5F5F5F5F5F5F5F5F5F5F5F5F5F5F5F5F5F5F5F5F5E2F5F5F5F5F5F5F5F5F5F5F5F5F5F5E2F5F5F5F5F5F5F5F5F5F5F5F5F5F5F5F5E2F5F5F5F5F5F5F5F5F5F5F5F5F5F5F5F5F5F5F5F5F5F5F5F5F5F5F5F5F5
310
F5F5F5F5F5F5F5F5F5F5F5F5F5F5F5F5F5F5F5F5F5F5F5F5F5F5F5F5F5F5F5F5F5F5F5F5F5F5F5F5F5F5F5F5F5F5F5F5F5F5F5F5F5F5F5F5F5F5F5F5F5F5F5F5F5F5F5F5F5F5F5F5F5F5F5F5F5F5F5F5F5F5F5F5F5F5F5F5F5F5F5F5F5F5F5F5F5F5F5F5F5F5F5F5F5F5F5F5F5F5F5F5F5F5F5F5F5F5F5F5F5F5F5F5F5F5F5
310
F5F5F5F5F5F5F5F5F5F5F5F5F5F5F5F5F5F5F5F5F5F5F5F5F5F5F5F5F5F5F5F5F5F5F5F5F5F5F5F5F5F5F5F5F5F5F5F5F5F5F5F5F5F5F5F5F5F5F5F5F5F5F5F5F5F5F5E2F5F5F5F5F5F5F5F5F5F5F5F5F5F5E2F5F5F5F5F5F5F5F5F5F5F5F5F5F5F5F5E2F5F5F5F5F5F5F5F5F5F5F5F5F5F5F5F5F5F5F5F5F5F5F5F5F5F5F5
310
F5F5F5F5F5F5F5F5F5F5F5F5F5F5F5F5F5F5F5F5F5F5F5F5F5F5F5F5F5F5F5F5F5F5F5F5F5F5F5F5F5F5F5F5F5F5F5F5F5F5F5F5F5F5F5F5F5F5F5F5F5F5F5F5F5F5F5F5F5F5F5F5F5F5F5F5F5F5F5F5F5F5F5F5F5F5F5F5F5F5F5F5F5F5F5F5F5F5F5F5F5F5F5F5F5F5F5F5F5F5F5F5F5F5F5F5F5F5F5F5F5F5F5F5F5F5F5
310
F5F5F5F5F5F5F5F5F5F5F5F5F5F5F5F5F5F5F5F5F5F5F5F5F5F5F5F5F5F5F5F5F5F5F5F5F5F5F5F5F5F5F5F5F5F5F5F5F5F5F5F5F5F5F5F5F5F5F5F5F5F5F5F5F5F5F5F5F5E2F5F5F5F5F5F5F5F5F5F5F5F5F5F5E2F5F5F5F5F5F5F5F5F5F5F5F5F5F5F5F5E2F5F5F5F5F5F5F5F5F5F5F5F5F5F5F5F5F5F5F5F5F5F5F5F5F5
310
F5F5F5F5F5F5F5F5F5F5F5F5F5F5F5F5F5F5F5F5F5F5F5F5F5F5F5F5F5F5F5F5F5F5F5F5F5F5F5F5F5F5F5F5F5F5F5F5F5F5F5F5F5F5F5F5F5F5F5F5F5F5F5F5F5F5F5F5F5F5F5F5F5F5F5F5F5F5F5F5F5F5F5F5F5F5F5F5F5F5F5F5F5F5F5F5F5F5F5F5F5F5F5F5F5F5F5F5F5F5F5F5F5F5F5F5F5F5F5F5F5F5F5F5F5F5F5
310
F5F5F5F5F5F5F5F5F5F5F5F5F5F5F5F5F5F5F5F5F5F5F5F5F5F5F5F5F5F5F5F5F5F5F5F5F5F5F5F5F5F5F5F5F5F5F5F5F5F5F5F5F5F5F5F5F5F5F5F5F5F5F5F5F5F5F5F5F5F5F5E2F5F5F5F5F5F5F5F5F5F5F5F5F5F5E2F5F5F5F5F5F5F5F5F5F5F5F5F5F5F5F5E2F5F5F5F5F5F5F5F5F5F5F5F5F5F5F5F5F5F5F5F5F5F5F5
310
F5F5F5F5F5F5F5F5F5F5F5F5F5F5F5F5F5F5F5F5F5F5F5F5F5F5F5F5F5F5F5F5F5F5F5F5F5F5F5F5F5F5F5F5F5F5F5F5F5F5F5F5F5F5F5F5F5F5F5F5F5F5F5F5F5F5F5F5F5F5F5F5F5F5F5F5F5F5F5F5F5F5F5F5F5F5F5F5F5F5F5F5F5F5F5F5F5F5F5F5F5F5F5F5F5F5F5F5F5F5F5F5F5F5F5F5F5F5F5F5F5F5F5F5F5F5F5
310
F5F5F5F5F5F5F5F5F5F5F5F5F5F5F5F5F5F5F5F5F5F5F5F5F5F5F5F5F5F5F5F5F5F5F5F5F5F5F5F5F5F5F5F5F5F5F5F5F5F5F5F5F5F5F5F5F5F5F5F5F5F5F5F5F5F5F5F5F5F5F5F5F5E2F5F5F5F5F5F5F5F5F5F5F5F5F5F5E2F5F5F5F5F5F5F5F5F5F5F5F5F5F5F5F5E2F5F5F5F5F5F5F5F5F5F5F5F5F5F5F5F5F5F5F5F5F5
310
F5F5F5F5F5F5F5F5F5F5F5F5F5F5F5F5F5F5F5F5F5F5F5F5F5F5F5F5F5F5F5F5F5F5F5F5F5F5F5F5F5F5F5F5F5F5F5F5F5F5F5F5F5F5F5F5F5F5F5F5F5F5F5F5F5F5F5F5F5F5F5F5F5F5F5F5F5F5F5F5F5F5F5F5F5F5F5F5F5F5F5F5F5F5F5F5F5F5F5F5F5F5F5F5F5F5F5F5F5F5F5F5F5F5F5F5F5F5F5F5F5F5F5F5F5F5F5
310
F5F5F5F5F5F5F5F5F5F5F5F5F5F5F5F5F5F5F5F5F5F5F5F5F5F5F5F5F5F5F5F5F5F5F5F5F5F5F5F5F5F5F5F5F5F5F5F5F5F5F5F5F5F5F5F5F5F5F5F5F5F5F5F5F5F5F5F5F5F5F5F5F5F5F5E2F5F5F5F5F5F5F5F5F5F5F5F5F5F5E2F5F5F5F5F5F5F5F5F5F5F5F5F5F5F5F5E2F5F5F5F5F5F5F5F5F5F5F5F5F5F5F5F5F5F5F5
310
F5F5F5F5F5F5F5F5F5F5F5F5F5F5F5F5F5F5F5F5F5F5F5F5F5F5F5F5F5F5F5F5F5F5F5F5F5F5F5F5F5F5F5F5F5F5F5F5F5F5F5F5F5F5F5F5F5F5F5F5F5F5F5F5F5F5F5F5F5F5F5F5F5F5F5F5F5F5F5F5F5F5F5F5F5F5F5F5F5F5F5F5F5F5F5F5F5F5F5F5F5F5F5F5F5F5F5F5F5F5F5F5F5F5F5F5F5F5F5F5F5F5F5F5F5F5F5
310
F5F5F5F5F5F5F5F5F5F5F5F5F5F5F5F5F5F5F5F5F5F5F5F5F5F5F5F5F5F5F5F5F5F5F5F5F5F5F5F5F5F5F5F5F5F5F5F5F5F5F5F5F5F5F5F5F5F5F5F5F5F5F5F5F5F5F5F5F5F5F5F5F5F5F5F5F5E2F5F5F5F5F5F5F5F5F5F5F5F5F5F5E2F5F5F5F5F5F5F5F5F5F5F5F5F5F5F5F5E2F5F5F5F5F5F5F5F5F5F5F5F5F5F5F5F5F5
310
F5F5F5F5F5F5F5F5F5F5F5F5F5F5F5F5F5F5F5F5F5F5F5F5F5F5F5F5F5F5F5F5F5F5F5F5F5F5F5F5F5F5F5F5F5F5F5F5F5F5F5F5F5F5F5F5F5F5F5F5F5F5F5F5F5F5F5F5F5F5F5F5F5F5F5F5F5F5F5F5F5F5F5F5F5F5F5F5F5F5F5F5F5F5F5F5F5F5F5F5F5F5F5F5F5F5F5F5F5F5F5F5F5F5F5F5F5F5F5F5F5F5F5F5F5F5F5
310
F5F5F5F5F5F5F5F5F5F5F5F5F5F5F5F5F5F5F5F5F5F5F5F5F5F5F5F5F5F5F5F5F5F5F5F5F5F5F5F5F5F5F5F5F5F5F5F5F5F5F5F5F5F5F5F5F5F5F5F5F5F5F5F5F5F5F5F5F5F5F5F5F5F5F5F5F5F5F5E2F5F5F5F5F5F5F5F5F5F5F5F5F5F5E2F5F5F5F5F5F5F5F5F5F5F5F5F5F5F5F5E2F5F5F5F5F5F5F5F5F5F5F5F5F5F5F5
310
F5F5F5F5F5F5F5F5F5F5F5F5F5F5F5F5F5F5F5F5F5F5F5F5F5F5F5F5F5F5F5F5F5F5F5F5F5F5F5F5F5F5F5F5F5F5F5F5F5F5F5F5F5F5F5F5F5F5F5F5F5F5F5F5F5F5F5F5F5F5F5F5F5F5F5F5F5F5F5F5F5F5F5F5F5F5F5F5F5F5F5F5F5F5F5F5F5F5F5F5F5F5F5F5F5F5F5F5F5F5F5F5F5F5F5F5F5F5F5F5F5F5F5F5F5F5F5
310
F5F5F5F5F5F5F5F5F5F5F5F5F5F5F5F5F5F5F5F5F5F5F5F5F5F5F5F5F5F5F5F5F5F5F5F5F5F5F5F5F5F5F5F5F5F5F5F5F5F5F5F5F5F5F5F5F5F5F5F5F5F5F5F5F5F5F5F5F5F5F5F5F5F5F5F5F5F5F5F5F5E2F5F5F5F5F5F5F5F5F5F5F5F5F5F5E2F5F5F5F5F5F5F5F5F5F5F5F5F5F5F5F5E2F5F5F5F5F5F5F5F5F5F5F5F5F5
310
F5F5F5F5F5F5F5F5F5F5F5F5F5F5F5F5F5F5F5F5F5F5F5F5F5F5F5F5F5F5F5F5F5F5F5F5F5F5F5F5F5F5F5F5F5F5F5F5F5F5F5F5F5F5F5F5F5F5F5F5F5F5F5F5F5F5F5F5F5F5F5F5F5F5F5F5F5F5F5F5F5F5F5F5F5F5F5F5F5F5F5F5F5F5F5F5F5F5F5F5F5F5F5F5F5F5F5F5F5F5F5F5F5F5F5F5F5F5F5F5F5F5F5F5F5F5F5
310
F5F5F5F5F5F5F5F5F5F5F5F5F5F5F5F5F5F5F5F5F5F5F5F5F5F5F5F5F5F5F5F5F5F5F5F5F5F5F5F5F5F5F5F5F5F5F5F5F5F5F5F5F5F5F5F5F5F5F5F5F5F5F5F5F5F5F5F5F5F5F5F5F5F5F5F5F5F5F5F5F5F5F5E2F5F5F5F5F5F5F5F5F5F5F5F5F5F5E2F5F5F5F5F5F5F5F5F5F5F5F5F5F5F5F5E2F5F5F5F5F5F5F5F5F5F5F5
310
F5F5F5F5F5F5F5F5F5F5F5F5F5F5F5F5F5F5F5F5F5F5F5F5F5F5F5F5F5F5F5F5F5F5F5F5F5F5F5F5F5F5F5F5F5F5F5F5F5F5F5F5F5F5F5F5F5F5F5F5F5F5F5F5F5F5F5F5F5F5F5F5F5F5F5F5F5F5F5F5F5F5F5F5F5F5F5F5F5F5F5F5F5F5F5F5F5F5F5F5F5F5F5F5F5F5F5F5F5F5F5F5F5F5F5F5F5F5F5F5F5F5F5F5F5F5F5
310
F5F5F5F5F5F5F5F5F5F5F5F5F5F5F5F5F5F5F5F5F5F5F5F5F5F5F5F5F5F5F5F5F5F5F5F5F5F5F5F5F5F5F5F5F5F5F5F5F5F5F5F5F5F5F5F5F5F5F5F5F5F5F5F5F5F5F5F5F5F5F5F5F5F5F5F5F5F5F5F5F5F5F5F5F5E2F5F5F5F5F5F5F5F5F5F5F5F5F5F5E2F5F5F5F5F5F5F5F5F5F5F5F5F5F5F5F5E2F5F5F5F5F5F5F5F5F5
310
F5F5F5F5F5F5F5F5F5F5F5F5F5F5F5F5F5F5F5F5F5F5F5F5F5F5F5F5F5F5F5F5F5F5F5F5F5F5F5F5F5F5F5F5F5F5F5F5F5F5F5F5F5F5F5F5F5F5F5F5F5F5F5F5F5F5F5F5F5F5F5F5F5F5F5F5F5F5F5F5F5F5F5F5F5F5F5F5F5F5F5F5F5F5F5F5F5F5F5F5F5F5F5F5F5F5F5F5F5F5F5F5F5F5F5F5F5F5F5F5F5F5F5F5F5F5F5
310
F5F5F5F5F5F5F5F5F5F5F5F5F5F5F5F5F5F5F5F5F5F5F5F5F5F5F5F5F5F5F5F5F5F5F5F5F5F5F5F5F5F5F5F5F5F5F5F5F5F5F5F5F5F5F5F5F5F5F5F5F5F5F5F5F5F5F5F5F5F5F5F5F5F5F5F5F5F5F5F5F5F5F5F5F5F5F5E2F5F5F5F5F5F5F5F5F5F5F5F5F5F5E2F5F5F5F5F5F5F5F5F5F5F5F5F5F5F5F5E2F5F5F5F5F5F5F5
310
F5F5F5F5F5F5F5F5F5F5F5F5F5F5F5F5F5F5F5F5F5F5F5F5F5F5F5F5E2F5F5F5F5F5F5F5F5F5F5F5F5F5F5F5F5F5F5F5F5F5F5F5F5F5F5F5F5F5F5F5F5F5F5F5F5F5F5F5F5F5F5F5F5F5F5F5F5F5F5F5F5F5F5F5F5F5F5F5F5F5F5F5F5F5F5F5F5F5F5F5F5F5F5F5F5F5F5F5F5F5F5F5F5F5F5F5F5F5F5F5F5F5F5F5F5F5F5
310
F5F5F5F5F5F5F5F5F5F5F5F5F5F5F5F5F5F5F5F5F5F5F5F5F5F5F5F5F5F5F5F5F5F5F5F5F5F5F5F5F5F5F5F5F5F5F5F5F5F5F5F5F5F5F5F5F5F5F5F5F5F5F5F5F5F5F5F5F5F5F5F5F5F5F5F5F5F5F5F5F5F5F5F5F5F5F5F5F5E2F5F5F5F5F5F5F5F5F5F5F5F5F5F5E2F5F5F5F5F5F5F5F5F5F5F5F5F5F5F5F5E2F5F5F5F5F5
310
F5F5F5F5F5F5F5F5F5F5F5F5F5F5F5F5F5F5F5F5F5F5F5F5F5F5F5F5F5E2E2E2E2F5F5F5F5F5F5F5F5F5F5F5F5F5F5F5F5F5F5F5F5F5F5F5F5F5F5F5F5F5F5F50F0F0F0F0F0F0F0F0F0F0F0F0F0F0F0F0F0F0F0FE2E2E2E2E2E2E2E2E2E2E2E2E2E2E2E2E2E2E2E2E2E2E2E2E2E2E2E2E2E2E2E2E2E2E2E2E2E2F5E2E2E2E2
310
E2E2E2E2E2E2E2E2E2E2E2E2E2E2E2E2E2E2E2E2E2E2E2E2E2E2E2E2E2E2E2E2E2E2E2E2E2E2F5F5F5F5F5F5F5F5F5F5F5F5F5F5F5F5F5F5F5F5F5F5F5F5F5F5F5F5F5F5F5F5F5F5F5F5F5F5F5F5F5F5F5F5F5F5F5F5F5F5F5F5F5E2F5F5F5F5F5F5F5F5F5F5F5F5F5F5E2F5F5F5F5F5F5F5F5F5F5F5F5F5F5F5F5E2F5F5F5
310
F5F5F5F5F5F5F5F5F5F5F5F5F5F5F5F5F5F5F5F5F5F5F5F5F5F5E2E2E2E2E2F5E2F5F5E2E2E2E2F5F5F5F5F5F5F5F5F5F5F5F5F5F5F5F5F5F5F5F5F5F5F5F5F5F5F50FF5F5F5F5F5F5F5F5F5F5F5F5F5F5F5F5F5F5F5E2F5F5F5F5F5F5F5F5F5F5F5F5F5F5F5F5F50F0FF5F5F5F5F5F5F5F5F5F5F5F5F5F5F5F5F5F5E2E2F5
310
F5F5F5F5F5F5F5F5F5F5F5F5F5F5F5F5F5E2E2F5F5F5F5F5F5F5F5F5F5E2E2F5F5F5F5F5F5F5F5E2F5F5F5F5F5F5F5F5F5F5F5F5F5F5F5F5F5F5F5F5F5F5F5F5F5F5F5F5F5F5F5F5F5F5F5F5F5F5F5F5F5F5F5F5F5F5F5F5F5F5F5F5F5E2F5F5F5F5F5F5F5F5F5F5F5F5F5F5E2F5F5F5F5F5F5F5F5F5F5F5F5F5F5F5F5E2F5
310
F5F5F5F5F5F5F5F5F5F5F5F5F5F5F5F5F5F5F5F5F5F5F5F5F5E2E2E2F5F5F5F5F5E2E2E2E2F5F5F5F5E2E2E2E2F5F5F5F5F5F5F5F5F5F5F5F5F5F5F5F5F5F5F5F5F5F5F50F0FF5F5F5F5F5F5F5F50F0F0F0F0F0F0F0F0F0FE2F5F5F5F5F5F5F5F5F5F5F5F5F5F50F0F0F0F0FF5F5F5F5F5F5F5F5F5F5F5F5F5F5F5F5F5F5E2
310
E2F5F5F5F5F5F5F5F5F5F5F5F5F5F5F5F5F5F5E2E2F5F5F5F5F5F5F5F5F5F5E2E2F5F5F5F5F5F5F5F5E2F5F5F5F5F5F5F5F5F5F5F5F5F5F5F5F5F5F5F5F5F5F5F5F5F5F5F5F5F5F5F5F5F5F5F5F5F5F5F5F5F5F5F5F5F5F5F5F5F5F5F5F5F5E2F5F5F5F5F5F5F5F5F5F5F5F5F5F5E2F5F5F5F5F5F5F5F5F5F5F5F5F5F5F5F5
310
E2F5F5F5F5F5F5F5F5F5F5F5F5F5F5F5F5F5F5F5F5F5F5F5F5E2E2F5F5F5F5E2E2E2E2E2E2E2E2E2E2E2E2F5F5F5F5E2E2F5F5F5F5F5F5F5F5F5F5F5F5F5F5F5F5F5F5F5F50F0F0FF5F5F5F5F5F5F5F50FF5F5F5F5F5F5F5F5F5E2F5F5F5F5F5F5F5F5F5F5F5F5F5F50F0F0F0F0FF5F5F5F5F5F5F5F5F5F5F5F5F5F5F5F5F5
310
F5E2E2F5F5F5F5F5F5F5F5F5F5F5F5F5F5F5F5F5F5E2E2F5F5F5F5F5F5F5F5F5F5E2E2F5F5F5F5F5F5F5F5E2F5F5F5F5F5F5F5F5F5F5F5F5F5F5F5F5F5F5F5F5F5F5F5F5F5F5F5F5F5F5F5F5F5F5F5F5F5F5F5F5F5F5F5F5F5F5F5F5F5F5F5F5F5E2F5F5F5F5F5F5F5F5F5F5F5F5F5F5E2F5F5F5F5F5F5F5F5F5F5F5F5F5F5
310
F5F5E2F5F5F5F5F5F5F5F5F5F5F5F5F5F5F5F5F5F5F5F5F5F5E2E2F5F5F5E2E2E2E2E2E2E2F5E2F5F5E2E2E2E2E2E2E2F5F5F5E2E2F5F5F5F5F5F5F5F5F5F5F5F5F5F5F5F5F5F50F0F0FF5F5F5F5F5F5F5F50FF5F5F5F5F5F5F5F5F5E2F5F5F5F5F5F5F5F5F5F5F5F5F5F50F0F0F0F0FF5F5F5F5F5F5F5F5F5F5F5F5F50F0F
310
0F0FF5E2E2F5F5F5F5F5F5F5F5F5F5F5F5F5F5F5F5F5F5E2E2F5F5F5F5F5F5F5F5F5F5E2E2F5F5F5F5F5F5F5F5E2F5E2E2E2E20F0F0F0F0F0F0F0F0F0F0F0F0F0F0F0F0F0F0F0F0F0F0F0F0F0F0F0F0F0F0F0F0F0F0F0F0FF5F5F5F5F5F5F5F5F5F5F5E2F5F5F5F5F5F5F5F5F5F5F5F5F5F5E2F5F5F5F5F5F5F5F5F5F5F5F5
310
F5F5F5F5E2F5F5F5F5F5F5F5F5F5F5F5F5F5F5F5F5F5F5F5F5E2E2F5F5F5E2E2E2E2F5E2E2E2E2E2E2E2E2E2E2E2E2E2E2E2E2E2F5F5F5E2F5F5F5F5F5F5F5F5F5F5F5F5F5F5F5F5F5F50FF5F5F5F5F5F5F5F50F0FF5F5F5F5F5F5F5F5F5E2F5F5F5F5F5F5F5F5F5F5F5F5F5F50F0F0F0F0FF5F5F5F5F5F5F5F5F5F5F5F5F5
310
0F0F0F0FF5E2E2F5F5F5F5F5F5F5F5F5F5F5F5F5F5F5F5F5F5E2E2F5F5F5F5F5F5F5F5F5F5E2E2F5F5F5F5F5F5F5F5E2E2E2F5F5E2E2E2F5F5F5F5F5F5F5F5F5F5F5F5F5F5F5F5F5F5F5F5F5F5F5F5F5F5F5F5F5F5F5F5F5F50FF5F5F5F5F5F5F5F5F5F5F5E2F5F5F5F5F5F5F5F5F5F5F5F5F5F5E2F5F5F5F5F5F5F5F5F5F5
310
F5F5F5F5F5F5E2F5F5F5F5F5F5F5F5F5F5F5F5F5F5F5F5F5F5F5E2F5F5F5E2E2E2F5E2E2E2E2E2E2E2F5E2F5F5E2E2E2E2E2E2E2F5E2E2E2F5F5E2F5F5F5F5F5F5F5F5F5F5F5F5F5F5F5F5F50FF5F5F5F5F5F5F5F50F0FF5F5F5F5F5F5F5F5F5E2F5F5F5F5F5F5F5F5F5F5F5F5F5F50F0F0F0F0F0FF5F5F5F5F5F5F5F5F5F5
310
F5F50F0F0F0FF5E2E2F5F5F5F5F5F5F5F5F5F5F5F5F5F5F5F5F5F5E2E2F5F5F5F5F5F5F5F5F5F5E2E2F5F5F5F5F5F5F5F5E2F5E2F5F5E2E2E2F5F5F5F5F5F5F5F5F5F5F5F5F5F5F5F5F5F5F5F5F5F5F5F5F5F5F5F5F5F5F5F5F50F0FF5F5F5F5F5F5F5F5F5F5F5E2F5F5F5F5F5F5F5F5F5F5F5F5F5F5E2F5F5F5F5F5F5F5F5
310
F5F5F5F5F5F5F5F5E2F5F5F5F5F5F5F5F5F5F5F5F5F5F5F5F5F5F5E2F5F5E2E2E2F5E2E2E2E2E2E2E2E2E2E2E2E2E2E2E2E2F5E2E2E2E2E2F5E2E2E2F5E2F5F5F5F5F5F5F5F5F5F5F5F5F5F5F5F50FF5F5F5F5F5F5F5F5F50FF5F5F5F5F5F5F5F5F5E2F5F5F5F5F5F5F5F5F5F5F5F5F5F5F50F0F0F0F0FF5F5F5F5F5F5F5F5
310
F5F5F5F50F0F0F0FF5E2E2F5F5F5F5F5F5F5F5F5F5F5F5F5F5F5F5F5F5E2E2F5F5F5F5F5F5F5F5F5F5E2E2F5F5F5F5F5F5F5F5E2F5E2F5F5E2E2E2F5F5F5F5F5F5F5F5F5F5F5F5F5F5F5F5F5F5F5F5F5F5F5F5F5F5F5F5F5F5F5F5F50F0FF5F5F5F5F5F5F5F5F5F5F5E2F5F5F5F5F5F5F5F5F5F5F5F5F5F5E2F5F5F5F5F5F5
310
F5F5F5F5F5F5F5F5F5F5E2F5F5F5F5F5F5F5F5F5F5F5F5F5F5F5F5F5E2F5E2E2E2F5E2E2E2E2E2E2E2E2E2E2E2E2E2E2E2E2E2E2E2E2E2F5E2E2E2E2F5E2E2F5E2F5F5F5F5F5F5F5F5F5F5F5F5F5F5F50FF5F5F5F5F5F5F5F5F50FF5F5F5F5F5F5F5F5F5E2F5F5F5F5F5F5F5F5F5F5F5F5F5F50F0F0F0F0FF5F5F5F5F5F5F5
310
F5F5F5F5F5F5F5F5F5F5F5E2E2F5F5F5F5F5F5F5F5F5F5F5F5F5F5F5F5F5F5E2E2F5F5F5F5F5F5F5F5F5F5E2E2F5F5F5F5F5F5F5F5E2F5E2F5F5E2E2E2F5F5F5F5F5F5F5F5F5F5F5F5F5F5F5F5F5F5F5F5F5F5F5F5F5F5F5F5F5F5F5F5F5F50FF5F5F5F5F5F5F5F5F5F5F5E2F5F5F5F5F5F5F5F5F5F5F5F5F5F5E2F5F5F5F5
310
F5F5F5F5F5F5F5F5F5F5F5F5E2F5F5F5F5F5F5F5F5F5F5F5F5F5F5F5F5E2F5E2E2F5E2E2E2E2E2E2F5E2E2E2E2E2E2E2E2E2E2E2E2E2E2E2E2E2E2F5E2E2E2F5E2E2F5E2E2F5F5F5F5F5F5F5F5F5F5F5F5F50FF5F5F5F5F5F5F5F5F50FF5F5F5F5F5F5F5F5F5E2F5F5F5F5F5F5F5F5F5F5F5F5F5F50F0FF5F5F5F5F5F5F5F5
310
F5F5F5F5F5F5F5F5F5F5F5F5F5E2E2F5F5F5F5F5F5F5F5F5F5F5F5F5F5F5F5F5F5E2E2F5F5F5F5F5F5F5F5F5F5E2E2F5F5F5F5F5F5F5F5E2F5E2F5F5E2E2E2F5F5F5F5F5F5F5F5F5F5F5F5F5F5F5F5F5F5F5F5F5F5F5F5F5F5F5F5F5F5F5F5F5F50FF5F5F5F5F5F5F5F5F5F5F5E2F5F5F5F5F5F5F5F5F5F5F5F50FF5E2F5F5
310
F5F5F5F5F5F5F5F5F5F5F5F5F5F5E2F5F5F5F5F5F5F5F5F5F5F5F5F5F5F5E2F5E2E2F5E2F5E2F5E2F5E2E2E2E2E2E2E2E2E2E2E2E2E2E2E2E2E2E2E2E2E2E2F5E2E2F5E2E2F5F5E2F5F5F5F5F5F5F5F5F5F5F5F50FF5F5F5F5F5F5F5F5F50FF5F5F5F5F5F5F5F5F5E2F5F5F5F5F5F5F5F5F5F5F5F5F5F50F0F0F0F0FF5F5F5
310
F5F5F5F5F5F5F5F5F5F5F5F5F5F5F5E2E2F5F5F5F5F5F5F5F5F5F5F5F5F5F5F5F5F5F5E2E2F5F5F5F5F5F5F5F5F5F5E2E2F5F5F5F5F5F5F5F5E2F5E2F5F5E2E2E2F5F5F5F5F5F5F5F5F5F5F5F5F5F5F5F5F5F5F5F5F5F5F5F5F5F5F5F5F5F5F5F5F5F50FF5F5F5F5F5F5F5F5F5F5F5E2F5F5F5F5F5F5F5F5F5F5F5F50FF5E2
310
F5F5F5F5F5F5F5F5F5F5F5F5F5F5F5F5E2F5F5F5F5F5F5F5F5F5F5F5F5F5F5E2F5E2E2F5E2F5E2F5E2E2E2E2E2E2E2F5F5F5F5F5E2F5F5F5F5F5E2E2E2E2E2E2F5E2F5E2E2F5E2E2F5F5E2F5F5F5F5F5F5F5F5F5F5F50FF5F5F5F5F5F5F5F5F50FF5F5F5F5F5F5F5F5F5E2F5F5F5F5F5F5F5F5F5F5F5F5F5F5F5F5F5F5F5F5
310
F5F5F5F5F5F5F5F5F5F5F5F5F5F5F5F5F5E2E2F5F5F5F5F5F5F5F5F5F5F5F5F5F5F5F5F5F5E2E2F5F5F5F5F5F5F5F5F5F5E2E2F5F5F5F5F5F5F5F5E2F5E2F5F5E2E2E2F5F5F5F5F5F5F5F5F5F5F5F5F5F5F5F5F5F5F5F5F5F5F5F5F5F5F5F5F5F5F5F5F5F50FF5F5F5F5F5F5F5F5F5F5F5E2F5F5F5F5F5F5F5F5F5F5F5F50F
310
F5E2F5F5F5F5F5F5F5F5F5F5F5F5F5F5F5F5E2F5F5F5F5F5F5F5F5F5F5F5F5F5F5E2F5E2E2E2F5E2F5E2E2E2E2E2E2F5F5F5F5F5F5F5E2F5F5F5F5F5F5F5F5E2E2E2E2E2E2F5E2E2F5E2E2F5E2F5F5F5F5F5F5F5F5F5F5F50FF5F5F5F5F5F5F5F5F50FF5F5F5F5F5F5F5F5F5E2F5F5F5F5F5F5F5F5F5F5F5F5F5F50F0F0FF5
310
F5F5F5F5F5F5F5F5F5F5F5F5F5F5F5F5F5F5F5E2E2F5F5F5F5F5F5F5F5F5F5F5F5F5F5F5F5F5F5E2E2F5F5F5F5F5F5F5F5F5F5E2E2F5F5F5F5F5F5F5F5E2F5E2F5F5E2E2E2F5F5F5F5F5F5F5F5F5F5F5F5F5F5F5F5F5F5F5F5F5F5F5F5F5F5F5F5F5F5F5F5F5F50FF5F5F5F5F5F5F5F5F5F5F5E2F5F5F5F5F5F5F5F5F5F5F5
310
F50FF5E2F5F5F5F5F5F5F5F5F5F5F5F5F5F5F5F5E2F5F5F5F5F5F5F5F5F5F5F5F5F5E2F5E2E2F5E2E2F5E2E2E2E2E2F5F5F5F5F5F5F5F5F5E2F5F5F5F5F5F5F5F5F5F5E2E2E2E2E2F5E2E2E2E2E2F5E2F5F5F5F5F5F5F5F5F5F50FF5F5F5F5F5F5F5F5F50FF5F5F5F5F5F5F5F5F5E2F5F5F5F5F5F5F5F5F5F5F5F5F50FF5F5
310
0FF5F5F5F5F5F5F5F5F5F5F5F5F5F5F5F5F5F5F5F5E2E2F5F5F5F5F5F5F5F5F5F5F5F5F5F5F5F5F5F5E2E2F5F5F5F5F5F5F5F5F5F5E2E2F5F5F5F5F5F5F5F5E2F5E2F5F5E2E2E2E2E2E2E2E2E2E2E2E2F5F5F5F5F5F5F5F5F5F5F5F5F5F5F5F5F5F5F5F5F5F5F5F5F50FF5F5F5F5F5F5F5F5F5F5F5E2F5F5F5F5F5F5F5F5F5
310
F5F5F50FF5E2F5F5F5F5F5F5F5F5F5F5F5F5F5F5F5F5E2F5F5F5F5F5F5F5F5F5F5F5F5E2F5F5E2F5E2E2F5E2E2E2E2F5F5F5F5F5F5F5F5F5F5F5E2F5F5F5F5F5F5F5F5F5F5F5E2E2E2E2E2F5E2F5E2E2F5E2F5F5F5F5F5F5F5F5F5F50FF5F5F5F5F5F5F5F5F50FF5F5F5F5F5F5F5F5F5E2F5F5F5F5F5F5F5F5F5F5F5F5F50F
310
0F0F0FF5F5F5F5F5F5F5F5F5F5F5F5F5F5F50F0F0F0F0FE2E2F5F5F5F5F5F5F5F5F5F5F5F5F5F5F5F5F5F5E2E2F5F5F5F5F5F5F5F5F5F5E2E2F5F5F5F5F5F5F5F5E2F5E2F5F5E2E2E2E2F5F5F5F5F5F5F5E2F5F5F5F5F5F5F5F5F5F5F5F5F5F5F5F5F5F5F5F5F5F5F5F5F50FF5F5F5F5F5F5F5F5F5F5F5E2F5F5F5F5F5F5F5
310
F5F5F5F5F50FF5E2F5F5F5F5F5F5F5F5F5F5F5F5F5F5F5F5E2F5F5F5F5F5F5F5F5F5F5F5F5E2F5E2E2E2E2F5E2E2E2E2F5F5F5F5F5F5F5F5F5F5F5F5E2F5F5F5F5F5F5F5F5F5F5F5F5E2E2E2E2F5F5E2F5E2E2F5E2F5F5F5F5F5F5F5F5F50FF5F5F5F5F5F5F5F5F50FF5F5F5F5F5F5F5F5F5E2F5F5F5F5F5F5F5F5F5F5F5F5
310
F5F50F0F0FF5F5F5F5F5F5F5F5F5F5F5F5F5F5F50F0F0F0F0FE2E2F5F5F5F5F5F5F5F5F5F5F5F5F5F5F5F5F5F5E2E2F5F5F5F5F5F5F5F5F5F5E2E2F5F5F5F5F5F5F5F5E2F5E2F5F5E2E2E2E2F5F5F5F5F5F5F5E2F5F5F5F5F5F5F5F5F5F5F5F5F5F5F5F5F5F5F5F5F5F5F5F5F50FF5F5F5F5F5F5F5F5F5F5F5E2F5F5F5F5F5
310
F5F5F5F5F5F5F50FF5E2F5F5F5F5F5F5F5F5F5F5F5F5F5F5F5F5E2F5F5F5F5F5F5F5F5F5F5F5E2F5F5E2F5E2E2E2E2E2E2F5F5F5F5F5F5F5F5F5F5F5F5F5E2F5F5F5F5F5F5F5F5F5F5F5F5F5E2E2E2E2F5F5E2E2E2E2E2F5F5F5F5F5F5F5F5F50FF5F5F5F5F5F5F5F5F50FF5F5F5F5F5F5F5F5F5E2F5F5F5F5F5F5F5F5F5F5
310
F5F5F5F5F5F50FF5F5F5F5F5F5F5F5F5F5F5F5F5F5F50F0F0F0F0FE2E2F5F5F5F5F5F5F5F5F5F5F5F5F5F5F5F5F5F5E2E2F5F5F5E2E2E2E2F5F5F5E2E2F5F5F5F5F5F5F5F5E2F5E2F5F5E2E2E2E2F5F5F5F5F5F5F5E2F5F5F5F5F5F5F5F5F5F5F5F5F5F5F5F5F5F5F5F5F5F5F5F5F50FF5F5F5F5F5F5F5F5F5F5F5E2F5F5F5
310
F5F5F5F5F5F5F5F5F50FF5E2F5F5F5F5F5F5F5F5F5F5F5F5F5F5F5F5E2F5F5F5F5F5F5F5F5F5F5F5E2F5E2E2E2E2E2F5E2E2F5F5F5F5E2F5F5F5F5F5F5F5F5F5E2F5F5F5F5F5F5F5F5F5F5F5F5F5F5E2E2E2E2F5E2F5E2E2F5E2F5F5F5F5F5F5F5F50FF5F5F5F5F5F5F5F5F50FF5F5F5F5F5F5F5F5F5E2F5F5F5F5F5F5F5F5
310
F5F5F5F5F5F50F0F0FF5F5F5F5F5F5F5F5F5F5F5F5F5F5F5F5F5F5F5F5E2E2F5F5F5F5F5F5F5F5F5F5F5F5F5F5F5F5F5F5E2E2F5F5E2E2F5F5E2E2F5F5E2E2F5F5F5F5F5F5F5F5E2F5E2F5F5E2E2E2E2F5F5F5F5F5F5F5E2F5F5F5F5F5F5F5F5F5F5F5F5F5F5F5E2F5F5F5F5F5F5F5F5F50FF5F5F5F5F5F5F5F5F5F5F5E2F5
310
F5F5F5F5F5F5F5F5F5F5F50FF5E2F5F5F5F5F5F5F5F5F5F5F5F5F5F5F5F5E2F5F5F5F5F5F5F5F5F5F5E2F5F5E2F5E2E2E2E2E2E2F5F5F5F5E2E2F5F5F5F5F5F5F5F5E2F5F5F5F5F5F5F5F5F5F5F5F5F5F5E2E2E2E2F5F5E2E2E2E2E2F5F5F5F5F5F5F5F50FF5F5F5F5F5F5F5F5F50FF5F5F5F5F5F5F5F5F5E2F5F5F5F5F5F5
310
F5F5F5F5F5F5F5F5F5F50FF5F5F5F5F5F5F5F5F5F5F5F5F5F5F5F5F5F5F5F5E2E2F5F5F5F5F5F5F5F5F5F5F5F5F5F5F5F5F5F5E2E2F5F5E2E2E2E2E2E2F5F5E2E2F5F5F5F5F5F5F5F5E2F5E2F5F5E2E2E2E2F5F5F5F5F5F5F5E2F5F5F5F5F5F5F5F5F5F5F5F5F5F5F5E2F5F5F5F5F5F50F0F0F0F0FF5F5F5F5F5F5F5F5F5F5
310
E2F5F5F5F5F5F5F5F5F5F5F5F50FF5E2F5F5F5F5F5F5F5F5F5F5F5F5F5F5F5F5E2F5F5F5F5F5F5F5F5F5F5E2F5E2E2E2E2E2F5E2E2F5F5F5F5E2E2F5F5F5F5F5F5F5F5F5E2F5F5F5F5F5F5F5F5F5F5F5E2F5F5F5E2E2E2E2F5E2F5E2E2E2F5F5F5F5F5F5F5F50FF5F5F5F5F5F5F5F5F50FF5F5F5F5F5F5F5F5F5E2F5F5F5F5
310
F5F5F5F5F5F5F5F5F5F50F0F0FF5F5F5F5F5F5F5F5F5F5F5F5F5F5F5F5F5F5F5F5E2E2F5F5F5F5F5F5F5F5F5F5F5F5F5F5F5F5F5F5E2E2F5F5E2E2E2E2E2E2F5F5E2E2F5F5F5F5F5F5F5F5E2F5E2F5F5E2E2E2E2F5F5F5F5F5F5F5E2F5F5F5F5F5F5F5F5F5F5F5F5F5F5F5E2F5F5F5F5F5F50F0F0F0F0FF5F5F5F5F5F5F5F5
310
F5F5E2F5F5F5F5F5F5F5F5F5F5F5F50FF5E2F5F5F5F5F5F5F5F5F5F5F5F5F5F5F5F5E2F5F5F5F5F5F5F5F5F5F5E2F5E2E2E2E2E2E2E2E2F5F5F5F5E2E2F5F5F5F5F5F5F5F5F5E2F5F5F5F5F5F5F5F5F5E2E2E2F5F5F5F5E2E2E2F5E2F5E2E2F5E2F5F5F5F5F5F5F50FF5F5F5F5F5F5F5F5F50FF5F5F5F5F5F5F5F5F5E2F5F5
310
F5F5F5F5F5F5F5F5F5F5F5F5F5F5F5F5F5F5F5F5F5F5F5F5F5F5F5F5F5F5F5F5F5F5F5E2E2F5F5F5F5F5F5F5F5F5F5F5F5F5F5F5F5F5F5E2E2F5F5E2F5F5F5F5E2F5F5E2E2F5F5F5F5F5F5F5F5E2F5E2F5F5E2E2E2E2F5F5F5F5F5F5F5E2F5F5F5F5F5F5F5F5F5F5F5F5F5F5F5E2F5F5F5F5F5F50F0F0F0F0FF5F5F5F5F5F5
310
F5F5F5F5E2F5F5F5F5F5F5F5F5F5F5F5F50FF5E2F5F5F5F5F5F5F5F5F5F5F5F5F5F5F5F5E2F5F5F5F5F5F5F5F5F5E2F5F5E2F5E2E2E2E2E2E2F5F5F5E2E2F5F5F5F5F5F5F5F5F5F5E2F5F5F5F5F5F5F5F5F5F5E2F5E2F5F5F5E2E2E2E2F5E2F5E2E2E2F5F5F5F5F5F5F50FF5F5F5F5F5F5F5F5F50FF5F5F5F5F5F5F5F5F5E2
310
F5F5F5F5F5F5F5F5F5F5F5F5F5F50F0F0FF5F5F5F5F5F5F5F5F5F5F5F5F5F5F5F5F5F5F5F5E2E2F5F5F5F5F5F5F5F5F5F5F5F5F5F5F5F5F5F5E2E2F5F5F5E2E2E2E2F5F5F5E2E2F5F5F5F5F5F5F5F5E2F5E2F5F5E2E2E2E2F5F5F5F5F5F5F5E2F5F5F5F5F5F5F5F5F5F5F5F5F5F5F5E2F5F5F5F5F5F50F0F0F0F0FF5F5F5F5
310
F5F5F5F5F5F5E2F5F5F5F5F5F5F5F5F5F5F5F50FF5E2F5F5F5F5F5F5F5F5F5F5F5F5F5F5F5F5E2F5F5F5F5F5F5F5F5F5E2F5E2E2E2E2E2E2E2E2F5F5F5F5E2E2F5F5F5F5F5F5F5F5F5F5E2F5F5F5F5F5F5F5F5F5F5E2F5E2F5F5F5F5E2E2E2F5E2F5E2E2F5E2F5F5F5F50F0F0F0FF5F5F5F5F5F5F5F50FF5F5F5F5F5F5F5F5
310
F5E2F5F5F5F5F5F5F5F5F5F5F5F5F5F50FF50FF5F5F5F5F5F5F5F5F5F5F5F5F5F5F5F5F5F5F5F5E2E2F5F5F5F5F5F5F5F5F5F5F5F5F5F5F5F5F5F5E2E2F5F5F5F5F5F5F5F5F5F5E2E2F5F5F5F5F5F5F5F5E2F5E2F5F5E2E2E2E2F5F5F5F5F5F5F5E2F5F5F5F5F5F5F5F5F5F5F5F5F5F5F5E2F5F5F5F5F5F50F0F0F0F0FF5F5
310
F5F5F5F5F5F5F5F5E2F5F5F5F5F5F5F5F5F5F5F5F50FF5E2F5F5F5F5F5F5F5F5F5F5F5F5F5F5F5F5E2F5F5F5F5F5F5F5F5F5E2F5E2E2E2E2E2E2E2E2F5F5F5E2E2F5F5F5F5F5F5F5F5F5F5F5E2F5F5F5F5F5F5F5F5F5F5F5E2E2F5F5F5F5E2E2E2F5E2F5E2E2F5E2F5F5F5F50F0F0F0FF5F5F5F5F5F50F0F0F0FF5F5F5F5F5
310
F5F5F5E2F5F5F5F5F5F5F5F5F5F5F5F5F5F50F0F0FF5F5F5F5F5F5F5F5F5F5F5F5F5F5F5F5F5F5F5F5E2E2F5F5F5F5F5F5F5F5F5F5F5F5F5F5F5F5F5F5E2E2F5F5F5F5F5F5F5F5F5F5E2E2F5F5F5F5F5F5F5F5E2F5E2F5F5E2E2E2E2F5F5F5F5F5F5F5E2F5F5F5F5F5F5F5F5F5F5F5F5F5F5F5E2F5F5F5F5F5F50F0F0F0F0F
310
F5F5F5F5F5F5F5F5F5F5E2F5F5F5F5F5F5F5F5F5F5F5F50FF5E2F5F5F5F5F5F5F5F5F5F5F5F5F5F5F5F5E2F5F5F5F5F5F5F5F5F5E2F5E2E2E2E2E2E2E2E2F5F5F5E2E2F5F5F5F5F5F5F5F5F5F5F5E2F5F5F5F5F5F5F5F5F5F5F5E2E2F5F5F5F5E2E2E2F5E2F5E2E2F5E2F5F5F5F50F0F0F0FF5F5F5F5F5F50F0F0F0FF5F5F5
310
F5F5F5F5F5E2F5F5F5F5F5F5F5F5F5F5F5F5F5F50FF50FF5F5F5F5F5F5F5F5F5F5F5F5F5F5F50F0F0F0F0FE2E2F5F5F5F5F5F5F5F5F5F5F5F5F5F5F5F5F5F5E20F0F0F0F0F0FF5F5F5F5F5E2E2F5F5F5F5F5F5F5F5E2F5E2F5F5E2E2E2E2F5F5F5F5F5F5F5E2F5F5F5F5F5F5F5F5F5F5F5F5F5F5F5E2F5F5F5F5F5F50F0F0F
310
0F0FF5F5F5F5F5F5F5F5F5F5E2F5F5F5F5F5F5F5F5F5F5F5F50FF5E2F5F5F5F5F5F5F5F5F5F5F5F5F5F5F5F5E2F5F5F5F5F5F5F5F5F5E2F5E2F5E2E2E2E2E2E2F5F5F5E2E2F5F5F5F5F5F5F5F5F5F5F5E2F5F5F5F5F5F5F5F5F5F5F5F5E2E2F5F5F5E2E2E2E2E2E2E2E2F5E2F5F5F5F50F0F0F0FF5F5F5F5F5F50F0F0F0FF5
310
F5F5F5F5F5F5F5E2F5F5F5F5F5F5F5F5F5F5F5F5F5F50FF50FF5F5F5F5F5F5F5F5F5F5F5F5F5F5F50F0F0F0F0FE2E2F5F5F5F5F5F5F5F5F5F5F5F5F5F5F5F5F5F5E20F0F0F0F0F0FF5F5F5F5F5E2E2F5F5F5F5F5F5F5F5E2F5E2F5F5E2E2E2E2F5F5F5F5F5F5F5E2F5F5F5F5F5F5F5F5F5F5F5F5F5F5F5E2F5F5F5F5F5F50F
310
0F0F0F0FF5F5F5F5F5F5F5F5F5F5E2F5F5F5F5F5F5F5F5F5F5F5F50FF5E2F5F5F5F5F5F5F5F5F5F5F5F5F5F5F5F5E2F5F5F5F5F5F5F5F5E2F5E2E2F5E2F5E2E2E2E2F5F5F5E2E2F5F5F5F5F5F5F5F5F5F5F5F5F5F5F5F5F5F5F5F5F5F5F5F5E2E2F5F5F5E2E2E2E2E2E2E2E2F5E2F5F5F5F50F0F0F0FF5F5F5F5F5F50F0F0F
310
0FF5F5F5F5F5F5F5F5E2F5F5F5F5F5F5F5F5F5F5F5F5F5F5F50F0FF5F5F5F5F5F5F5F5F5F5F5F5F5F5F50F0F0F0F0FE2E2F50F0F0FF5F5F5F5F5F5F5F5F5F50F0F0FF5E20F0F0F0F0F0FF5F5F5F5F5E2E2F5F5F5F5F5F5F5F5E2F5E2F5F5E2E2E2E2F5F5F5F5F5F5F5E2F5F5F5F5F5F5F5F5F5F5F5F5F5F5F5E2F5F5F5F5F5
310
F50F0F0F0F0FF5F5F5F5F5F5F5F5F5F5E2F5F5F5F5F5F5F5F5F5F5F5F50FF5E2F5F5F5F5F5F5F5F5F5F5F5F5F5F5F5F5E2F5F5F5F5F5F5F5E2E2E2E2E2E2E2E2E2E2E2E2E2E2E2E2E2E2E2E2F5E2E2F5E2E2E2E2E2E2E2E2E2F5E2E2E2E2E2E2E2E2E2E2E2E2E2E2E2E2E2E2E2E2E2E2E2E2F5F50F0F0F0FF5F5F5F5F5F50F
310
0F0F0FF5F5F5F5E2E2E2E2E2E2E2E2E2E2E2E2E2F5E2E2E2E2E2E2E2E2E2F5E2E2F5E2E2E2E2E2E2E2E2E2F50F0F0F0F0FE2E20F0F0F0FE2E2F5E2E2F5E2E2E20F0F0F0FE2E20F0F0F0F0F0FE2E2E2E2E2E2E2E2E2E2E2F5E2E2E2E2E2E2E2E2E2E2E2E2F5E2E2E2E2E2E2E2E2E2F5E2E2E2F5E2E2E2E2E2E2E2E2E2F5F5F5
310
F5F5F50F0F0F0F0FF5F5F5F5F5F5F5F5F5F5E2F5F5F5F5F5F5F5F5F5F5F5F50FF5E2F5F5F5F5F5F5F5F5F5F5F5F5F5F5F5F5E2F5F5F5F5F5F5F5F5E2F5E2E2F5E2E2E2E2E2E2F5F5F5E2E2F5F5F5F5F5F5F5F5F5F5F5E2F5F5F5F5F5F5F5F5F5F5F5F5E2E2F5F5F5E2E2E2E2E2E2E2E2F5E2F5F5F5F50F0F0F0FF5F5F5F5F5
310
F50F0F0F0FF5F5F5F5F5F5F5F5E2F5F5F5F5F5F5F5F5F5F5F5F5F5F5F5F5F5F5F5F5F5F5F5F5F5F5F5F5F5F5F5F50F0F0F0F0FE2E2F50F0F0FF5F5F5F5F5F5F5F5F5F50F0F0FF5E20F0F0F0F0F0FF5F5F5F5F5E2E2F5F5F5F5F5F5F5F5E2F5E2F5F5E2E2E2E2F5F5F5F5F5F5F5E2F5F5F5F5F5F5F5F5F5F5F5F5F5F5F5E2F5
310
F5F5F5F5F50F0F0F0F0FF5F5F5F5F5F5F5F5F5F5E2F5F5F5F5F5F5F5F5F5F5F5F50FF5E2F5F5F5F5F5F5F5F5F5F5F5F5F5F5F5F5E2F5F5F5F5F5F5F5F5E2F5F5E2F5E2E2E2E2E2E2F5F5F5E2E2F5F5F5F5F5F5F5F5F5F5F5E2F5F5F5F5F5F5F5F5F5F5F5E2F5E2F5F5F5E2E2E2E2E2E2E2E2F5E2F5F5F5F50F0F0F0FF5F5F5
310
F5F5F50F0F0F0FF5F5F5F5F5F5F5F5E2F5F5F5F5F5F5F5F5F5F5F5F5F5F5F5F5F5F5F5F5F5F5F5F5F5F5F5F5F5F5F5F5F5F5F5F5F5E2E2F5F50FF5F5F5F5F5F5F5F5F5F5F5F50FF5F5E20F0F0F0F0F0FF5F5F5F5F5E2E2F5F5F5F5F5F5F5F5E2F5E2F5F5E2E2E2E2F5F5F5F5F5F5F5E2F5F5F5F5F5F5F5F5F5F5F5F5F5F5F5
310
E2F5F5F5F5F5F50F0F0F0F0FF5F5F5F5F5F5F5F5F5F5E2F5F5F5F5F5F5F5F5F5F5F5F50FF5E2F5F5F5F5F5F5F5F5F5F5F5F5F5F5F5F5E2F5F5F5F5F5F5F5F5F5E2F5E2E2E2E2E2E2E2E2F5F5F5E2F5E2F5F5F5F5F5F5F5F5F5F5E2F5F5F5F5F5F5F5F5F5F5F5E2F5E2F5F5F5E2E2E2F5E2F5E2E2F5E2F5F5F5F50F0F0F0FF5
310
F5F5F5F5F50F0F0F0FF5F5F5F5F5F5F5F5E2F5F5F5F5F5F5F5F5F5F5F5F5F5F5F5F5F5F5F5F5F5F5F5F5F5F5F5F5F5F5F5F5F5F5F5F5F5E2E2F5F5F5F5F5F5F5F5F5F5F5F5F5F5F5F5F5F5E2E2F5F5F5F5F5F5F5F5F5F5E2E2F5F5F5F5F5F5F5F5E2F5E2F5F5E2E2E2E2F5F5F5F5F5F5F5E2F5F5F5F5F5F5F5F5F5F5F5F5F5
310
F5F5E2F5F5F5F5F5F50F0F0F0F0FF5F5F5F5F5F5F5F5F5F5E2F5F5F5F5F5F5F5F5F5F5F5F50FF5E2F5F5F5F5F5F5F5F5F5F5F5F5F5F5F5F5E2F5F5F5F5F5F5F5F5F5E2F5E2E2E2E2E2E2E2E2F5F5F5E2F5E2F5F5F5F5F5F5F5F5F5F5E2F5F5F5F5F5F5F5F5F5F5F5E2F5E2F5F5F5E2E2E2F5E2F5E2E2F5E2F5F5F5F5F5F50F
310
F5F5F5F5F5F5F5F5F5F5F5F5F5F5F5F5F5F5F5E2F5F5F5F5F5F5F5F5F5F5F5F5F5F5F5F5F5F5F5F5F5F5F5F5F5F5F5F5F5F5F5F5F5F5F5F5F5E2E2F5F5F5F5F5F5F5F5F5F5F5F5F5F5F5F5F5F5E2E2F5F5F5F5F5F5F5F5F5F5E2E2F5F5F5F5F5F5F5F5E2F5E2F5F5E2E2E2E2F5F5F5F5F5F5F5E2F5F5F5F5F5F5F5F5F5F5F5
310
F5F5F5F5E2F5F5F5F5F5F50F0F0F0F0FF5F5F5F5F5F5F5F5F5F5E2F5F5F5F5F5F5F5F5F5F5F5F5F5F5E2F5F5F5F5F5F5F5F5F5F5F5F5F5F5F5F5E2F5F5F5F5F5F5F5F5F5E2F5E2E2E2E2E2E2E2E2F5F5F5E2E2F5F5F5F5F5F5F5F5F5F5F5E2F5F5F5F5F5F5F5F5F5F5F5E2E2F5F5F5F5E2E2E2F5E2F5E2E2F5E2F5F5F5F5F5
310
F50FF5F5F5F5F5F5F5F5F50F0F0F0F0FF5F5F5F5F5E2F5F5F5F5F5F5F5F5F5F5F5F5F5F5F5F5F5F5F5F5F5F5F5F5F5F5F5F5F5F5F5F50F0F0F0FF5E2E2F5F5F5F5F5F5F5F5F5F5F5F5F5F5F5F5F5F5E2E2F5F5F5F5F5F5F5F5F5F5E2E2F5F5F5F5F5F5F5F5E2F5E2F5F5E2E2E2E2F5F5F5F5F5F5F5E2F5F5F5F5F5F5F5F5F5
310
F5F5F5F5F5F5E2F5F5F5F5F5F50F0F0F0F0FF5F5F5F5F5F5F5F5F5F5E2F5F5F5F5F5F5F5F5F5F5F5F50FF5E2F5F5F5F5F5F5F5F5F5F5F5F5F5F5F5F5E2F5F5F5F5F5F5F5F5F5E2F5E2E2E2E2F5E2E2E2E2F5F5F5E2E2F5F5F5F5F5F5F5F5F5F5E2F5F5F5F5F5F5F5F5F5F5E2F5E2F5F5F5E2E2E2E2F5E2F5E2E2F5E2F5F5F5
310
F5F5F50FF5F5F5F5F5F5F5F5F50F0F0F0F0FF5F5F5F5F5E2F5F5F5F5F5F5F5F5F5F5F5F5F5F5F5F5F5F5F5F5F5F5F5F5F5F5F5F5F5F5F5F50F0F0F0FF5E2E2F5F5F5F5F5F5F5F5F5F5F5F5F5F5F5F5F5F5E2E2F5F5F5F5F5F5F5F5F5F5E2E2F5F5F5F5F5F5F5F5E2F5E2F5F5E2E2E2E2F5F5F5F5F5F5F5E2F5F5F5F5F5F5F5
310
F5F5F5F5F5F5F5F5E2F5F5F5F5F5F50F0F0F0F0FF5F5F5F5F5F5F5F5F5F5E2F5F5F5F5F5F5F5F5F5F5F5F50FF5E2F5F5F5F5F5F5F5F5F5F5F5F5F5F5F5F5E2F5F5F5F5F5F5F5F5F5F5E2F5E2E2E2E2E2E2E2E2F5F5F5F5E2E2F5F5F5F5F5F5F5F5F5E2F5F5F5F5F5F5F5F5F5F5E2E2F5F5F5F5E2E2E2F5E2E2E2E2F5E2F5F5
310
F5F5F5F5F50FF5F5F5F5F5F5F5F5F50F0F0F0F0FF5F5F5F5F5E2F5F5F5F5F5F5F5F5F5F5F5F5F5F5F5F5F5F5F5F5F5F5F5F5F5F5F5F5F5F5F5F50F0F0F0FF5E2E2F5F5F5F5F5F5F5F5F5F5F5F5F5F5F5F5F5F5E2E2F5F5F5F5F5F5F5F5F5F5E2E2F5F5F5F5F5F5F5F5E2F5E2F5F5E2E2E2E2F5F5F5F5F5F5F5E2F5F5F5F5F5
310
F5F5F5F5F5F5F5F5F5F5E2F5F5F5F5F5F50F0F0F0F0FF5F5F5F5F5F5F5F5F5F5E2F5F5F5F5F5F5F5F5F5F5F5F50FF5E2F5F5F5F5F5F5F5F5F5F5F5F5F5F5F5F5E2F5F5F5F5F5F5F5F5F5F5E2F5E2E2E2E2E2E2E2E2F5F5F5F5E2F5F5F5F5F5F5F5F5F5F5E2F5F5F5F5F5F5F5F5F5F5F5F5F5F5F5E2E2E2E2F5E2F5E2E2F5E2
310
F5F5F5F5F5F5F50FF5F5F5F5F5F5F5F5F50F0F0F0F0FF5F5F5F5F5E2F5F5F5F5F5F5F5F5F5F5F5F5F5F5F5F5F5F5F5F5F5F5F5F5F5F5F5F5F5F5F5F50F0F0F0FF5E2E2F5F5F5F5F5F5F5F5F5F5F5F5F5F5F5F5F5F5E2E2F5F5F5F5F5F5F5F5F5F5E2E2F5F5F5F5F5F5F5F5E2F5E2F5F5E2E2E2E2F5F5F5F5F5F5F5E2F5F5F5
310
F5F5F5F5F5F5F5F5F5F5F5F5E2F5F5F5F5F5F50F0F0F0F0FF5F5F5F5F5F5F5F5F5F5E2F5F5F5F5F5F5F5F5F5F5F5F50FF5E2F5F5F5F5F5F5F5F5F5F5F5F5F5F5F5F5E2F5F5F5F5F5F5F5F5F5F5E2F5E2E2E2E2F5E2E2E2E2F5F5F5F5F5F5F5F5F5F5F5F5F5F5F5F5F5F5F5F5F5F5F5F5F5F5F5F5F5E2F5E2E2F5F5E2E2E2E2
310
E2F5F5F5F5F5F5F5F50FF5F5F5F5F5F5F5F5F50F0F0F0F0FF5F5F5F5F5E2F5F5F5F5F5F5F5F5F5F5F5F5F5F5F5F5F5F5F5F5F5F5F5F5F5F5F5F5F5F5F5F5F5F5F5F5F5E2E2F5F5F5F5F5F5F5F5F5F5F5F5F5F5F5F5F5F5E20F0F0F0F0F0FF5F5F5F5F5E2E2F5F5F5F5F5F5F5F5E2F5E2F5F5E2E2E2E2F5F5F5F5F5F5F5E2F5
310
F5F5F5F5F5F5F5F5F5F5F5F5F5F5E2F5F5F5F5F5F5F5F5F5F5F5F5F5F5F5F5F5F5F5F5F5E2F5F5F5F5F5F5F5F5F5F5F5F50FF5E2F5F5F5F5F5F5F5F5F5F5F5F5F5F5F5F5E2F5F5F5F5F5F5F5F5F5F5F5E2F5E2E2E2E2E2E2E2E2F5F5F5F5F5F5F5F5F5F5F5F5F5F5E2F5F5F5F5F5F5F5F5F5F5F5F5F5F5E2E2E2E2F5E2E2E2
310
E2E2E2F5F5F5F5F5F5F5F50FF5F5F5F5F5F5F5F5F50F0F0F0F0FF5F5F5F5F5E2F5F5F5F5F5F5F5F5F5F5F5F5F5F5F5F5F5F5F5F5F5F5F5F5F5F5F5F5F5F5F5F5F5F5F5F5F5E2E2F5F5F5F5F5F5F5F5F5F5F5F5F5F5F5F5F5F5E20F0F0F0F0F0FF5F5F5F5F5E2E2F5F5F5F5F5F5F5F5E2F5E2F5F5E2E2E2E2F5F5F5F5F5F5F5
310
E2F5F5F5F5F5F5F5F5F5F5F5F5F5F5F5E2F5F5F5F5F5F5F5F5F50FF5F5F5F5F5F5F5F5F5F5F5E2F5F5F5F5F5F5F5F5F5F5F5F50FF5E2F5F5F5F5F5F5F5F5F5F5F5F5F5F5F5F5E2F5F5F5F5F5F5F5F5F5F5F5E2F5E2E2E2E2F5E2E2E2E2F5F5F5F5F5F5F5F5F5F5F5F5F5E2F5F5F5F5F5F5F5F5F5F5F5F5F5E2F5E2E2F5F5E2
310
E2E2E2E2F5F5F5F5F5F5F5F5F50FF5F5F5F5F5F5F5F5F50F0F0F0F0FF5F5F5F5F5E2F5F5F5F5F5F5F5F5F5F5F5F5F5F5F5F5F5F5F5F5F5F5F5F5F5F5F5F5F5F5F5F5F5F5F5F5F5E2E2F5F5F5F5F5F5F5F5F5F5F5F5F5F5F5F5F5F5E20F0F0F0F0F0FF5F5F5F5F5E2E2F5F5F5F5F5F5F5F5E2F5E2F5F5E2E2E2E2F5F5F5F5F5
310
F5F5E2F5F5F5F5F5F5F5F5F5F5F5F5F5F5F50FF5F5F5F5F5F5F5F5F50FF5F5F5F5F5F5F5F5F5F5F5E2F5F5F5F5F5F5F5F5F5F5F5F50FF5E2F5F5F5F5F5F5F5F5F5F5F5F5F5F5F5F5E2F5F5F5F5F5F5F5F5F5F5F5F5E2F5E2E2E2E2F5E2E2E2E2F5F5F5F5F5F5F5F5F5F5F5F5F5F5F5F5F5F5F5F5F5F5F5F5F5E2F5E2E2F5F5
310
E2E2E2E2E2E2F5F5F5F5F5F5F5F5F50FF5F5F5F5F5F5F5F5F50F0F0F0F0FF5F5F5F5F5E2F5F5F5F5F5F5F5F5F5F5F5F5F5F5F5F5F5F5F5F5F5F5F5F5F5F5F5F5F5F5F5F5F5F5F5F5F5E2E2F5F5F5F5F5F5F5F5F5F5F5F5F5F5F5F5F5F5E20F0F0F0F0F0FF5F5F5F5F5E2E2F5F5F5F5F5F5F5F5E2F5E2F5F5E2E2E2E2F5F5F5
310
F5F5F5F5E2F5F5F5F5F5F5F5F5F5F5F5F5F5F5F50FF5F5F5F5F5F5F5F5F50FF5F5F5F5F5F5F5F5F5F5F5E2F5F5F5F5F5F5F5F5F5F5F5F50FF5E2F5F5F5F5F5F5F5F5F5F5F5F5F5F5F5F5E2F5F5F5F5F5F5F5F5F5F5F5F5E2F5E2E2E2F5E2F5E2E2E2E2F5F5F5F5F5F5F5F5F5F5F5E2F5F5F5F5F5F5F5F5F5F5F5E2F5E2E2E2
310
F5E2E2E2E2E2E2F5F5F5F5F5F5F5F5F5F50FF5F5F5F5F5F5F5F5F50F0F0F0F0FF5F5F5F5F5E2F5F5F5F5F5F5F5F5F5F5F5F5F5F5F5F5F5F5F5F5F5F5F5F5F5F5F5F5F5F5F5F5F5F5F5F5F5E2E2F5F5F5F5F5F5F5F5F5F5F5F5F5F5F5F5F5F5E2E2F5F5F5F5F5F5F5F5F5F5E2E2F5F5F5F5F5F5F5F5E2F5E2F5F5E2E2E2E2F5
310
F5F5F5F5F5F5E2F5F5F5F5F5F5F5F5F5F5F5F5F5F5F50FF5F5F5F5F5F5F5F5F50FF5F5F5F5F5F5F5F5F5F5F5E2F5F5F5F5F5F5F5F5F5F5F5F50FF5E2F5F5F5F5F5F5F5F5F5F5F5F5F5F5F5F5E2F5F5F5F5F5F5F5F5F5F5F5F5F5E2F5E2E2E2F5E2F5E2E2E2E2F5F5F5F5F5F5F5F5F5F5E2F5F5F5F5F5F5F5F5F5F5E2F5E2E2
310
E2F5F5E2E2F5E2F5E2F5F5F5F5F5F5F5F5F5F50FF5F5F5F5F5F5F5F5F50F0F0F0F0FF5F5F5F5F5E2F5F5F5F5F5F5F5F5F5F5F5F5F5F5F5F5F5F5F5F5F5F5F5F5F5F5F5F5F5F5F5F5F5F5F5F5F5E2E2F5F5F5F5F5F5F5F5F5F5F5F5F5F5F5F5F5F5E2E2F5F5F5F5F5F5F5F5F5F5E2E2F5F5F5F5F5F5F5F5E2F5E2F5F5E2E2E2
310
E2E2E2E2E2E2E2E2E2F5F5F5F5F5F5F5F5F5F5F5F5F5F5F50FF5F5F5F5F5F5F5F5F50FF5F5F5F5F5F5F5F5F5F5F5E2F5F5F5F5F5F5F5F5F5F5F5F50FF5E2F5F5F5F5F5F5F5F5F5F5F5F5F5F5F5F5E2F5F5F5F5F5F5F5F5F5F5F5F5F5F5E2E2E2E2E2E2F5F5E2E2E2E2E2F5F5F5F5F5F5F5F5E2F5F5F5F5F5F5F5F5E2E2F5E2
310
E2E2F5F5E2F5E2E2F5E2F5F5F5F5F5F5F5F5F5F5F50FF5F5F5F5F5F5F5F5F50F0F0F0F0FF5F5F5F5F5E2F5F5F5F5F5F5F5F5F5F5F5F5F5F5F5F5F5F5F5F5F5F5F5F5F5F5F5F5F5F5F5F5F5F5F5F5F5E2E2F5F5F5F5F5F5F5F5F5F5F5F5F5F5F5F5F5F5E2E2F5F5F5F5F5F5F5F5F5F5E2E2F5F5F5F5F5F5F5F5E2F5E2F5F5E2
310
E2E2F5F5F5F5F5F5F5F50FF5F5F5F5F5F5F5F5F5F5F5F5F5F5F50FF5F5F5F5F5F5F5F5F50FF5F5F5F5F5F5F5F5F5F5F5E2F5F5F5F5F5F5F5F5F5F5F5F50FF5E2F5F5F5F5F5F5F5F5F5F5F5F5F5F5F5F5E2F5F5F5F5F5F5F5F5F5F5F5F5F5F5E2F5E2E2F5E2E2F5F5E2E2E2E2E2E2E2F5F5F5F5F5E2F5F5F5F5F5F5E2E2F5E2
310
E2E2E2F5F5E2F5E2E2F5F5E2F5F5F5F5F5F5F5F5F5F5F50FF5F5F5F5F5F5F5F5F50FF5F5F5F5F5F5F5F5F5E2F5F5F5F5F5F5F5F5F5F5F5F5F5F5F5F5F5F5F5F5F5F5F5F5F5F5F5F5F5F5F5F5F5F5F5F5F5E2E2F5F5F5F5F5F5F5F5F5F5F5F5F5F5F5F5F5F5E2E2F5F5F5F5F5F5F5F5F5F5E2E2F5F5F5F5F5F5F5F5E2F5E2F5
310
F5E2E2E2F5F5F5F5F5F5F5F50FF5F5F5F5F5F5F5F5F5F5F5F5F5F5F50FF5F5F5F5F5F5F5F5F50FF5F5F5F5F5F5F5F5F5F5F5E2F5F5F5F5F5F5F5F5F5F5F5F50FF5E2F5F5F5F5F5F5F5F5F5F5F5F5F5F5F5F5E2F5F5F5F5F5F5F5F5F5F5F5F5F5F5F5E2F5E2E2F5E2E2F5F5E2E2E2E2E2F5E2E2E2F5F5E2F5F5E2E2E2E2E2E2
310
E2E2E2E2F5F5E2F5E2E2F5F5E2F5F5F5F5F5F5F5F5F5F5F5F50FF5F5F5F5F5F5F5F5F50FF5F5F5F5F5F5F5F5F5E2F5F5F5F5F5F5F5F5F5F5F5F5F5F5F5F5F5F5F5F5F5F5F5F5F5F5F5F5F5F5F5F5F5F5F5F5F5E2E2F5F5F5F5F5F5F5F5F5F5F5F5F5F5F5F5F5F5E2E2F5F5F5F5F5F5F5F5F5F5E2E2F5F5F5F5F5F5F5F5E2F5
310
E2F5F5E2E2E2F5F5F5F5F5F5F5F50FF5F5F5F5F5F5F5F5F5F5F5F5F5F5F50FF5F5F5F5F5F5F5F5F50FF5F5F5F5F5F5F5F5F5F5F5E2F5F5F5F5F5F5F5F5F5F5F5F5F5F5E2F5F5F5F5F5F5F5F5F5F5F5F5F5F5F5F5E2F5F5F5F5F5F5F5F5F5F5F5F5F5F5F5F5E2F5E2E2E2F5E2F5F5E2E2E2E2E2E2E2E2E2E2E2E2E2E2E2E2E2
310
E2E2E2E2E2F5F5E2F5E2E2F5F5E2F5F5F5F5F5F5F5F5F5F5F5F5F50FF5F5F5F5F5F5F5F5F50FF5F5F5F5F5F5F5F5F5E2F5F5F5F5F5F5F5F5F5F5F5F5F5F5F5F5F5F5F5F5F5F5F5F5F5F5F5F5F5F5F5F5F5F5F5F5F5E2E2F5F5F5F5F5F5F5F5F5F5F5F5F5F5F5F5F5F5E2E2F50F0FF5F5F5F5F5F5F5E2E2F5F5F5F5F5F5F5F5
310
E2F5E2F5F5E2E2E2F5F5F5F5F5F5F5F50FF5F5F5F5F5F5F5F5F5F5F5F5F5F5F50FF5F5F5F5F5F5F5F5F50FF5F5F5F5F5F5F5F5F5F5F5E2F5F5F5F5F5F5F5F5F5F5F5F5F5F5E2F5F5F5F5F5F5F5F5F5F5F5F5F5F5F5F5E2F5F5F5F5F5F5F5F5F5F5F5F5F5F5F5F5F5E2F5E2F5E2F5E2F5F5F5E2E2E2E2E2E2E2E2E2E2E2E2E2
310
E2E2E2E2E2F5F5F5E2F5E2E2F5F5E2F5F5F5F5F5F5F5F5F5F5F5F5F5F50FF5F5F5F5F5F5F5F5F50FF5F5F5F5F5F5F5F5F5E2F5F5F5F5F5F5F5F5F5F5F5F5F5F5F5F5F5F5F5F5F5F5F5F5F5F5F5F5F5F5F5F5F5F5F5F5F5E2E2F5F5F5F5F5F5F5F5F5F5F5F5F5F5F5F5F5F5E20F0F0F0F0F0FF5F5F5F5F5E2E2F5F5F5F5F5F5
310
F5F5E2F5E2F5F5E2E2E2F5F5F5F5F5F5F5F50FF5F5F5F5F5F5F5F5F5F5F5F5F5F5F50FF5F5F5F5F5F5F5F5F50FF5F5F5F5F5F5F5F5F5F5F5E2F5F5F5F5F5F5F5F5F5F5F5F5F5F5E2F5F5F5F5F5F5F5F5F5F5F5F5F5F5F5F5E2F5F5F5F5F5F5F5F5F5F5F5F5F5F5F5F5F5E2F5F5E2E2E2F5E2E2F5F5F5E2E2E2E2E2E2E2E2E2
310
E2E2E2E2F5F5F5F5E2E2E2E2E2F5F5E2F5F5F5F5F5F5F5F5F5F5F5F5F5F5F50FF5F5F5F5F5F5F5F5F50FF5F5F5F5F5F5F5F5F5E2F5F5F5F5F5F5F5F5F5F5F5F5F5F5F5F5F5F5F5F5F5F5F5F5F5F5F5F5F5F5F5F5F5F5F5F5F5E2E2F5F5F5F5F5F5F5F5F5F5F5F5F5F5F5F5F5F5E20F0F0F0F0F0FF5F5F5F5F5E2E2F5F5F5F5
310
F5F5F5F5E2F5E2F5F5E2E2E2F5F5F5F5F5F5F5F50FF5F5F5F5F5F5F5F5F5F5F5F5F5F5F50FF5F5F5F5F5F5F5F50F0FF5F5F5F5F5F5F5F5F5F5F5E2F5F5F5F5F5F5F5F5F5F5F5F5F5F5E2F5F5F5F5F5F5F5F5F5F5F5F5F5F5F5F5E2F5F5F5F5F5F5F5F5F5F5F5F5F5F5F5F5F5F5E2F5F5F5E2E2E2F5E2E2E2F5F5F5F5F5F5E2
310
F5F5F5F5F5F5F5E2E2E2E2E2E2E2F5F5E2F5F5F5F5F5F5F5F5F5F5F5F5F5F5F5F50FF5F5F5F5F5F5F5F5F50FF5F5F5F5F5F5F5F5F5E2F5F5F5F5F5F5F5F5F5F5F5F5F5F5F5F5F5F5F5F5F5F5F5F5F5F5F5F5F5F5F5F5F5F5F5F5F5E2E2F5F5F5F5F5F5F5F5F5F5F5F5F5F5F5F5F5F5E20F0F0F0F0F0FF5F5F5F5F5E2E2F5F5
310
F5F5F5F5F5F5E2F5E2F5F5E2E2E2F5F5F5F5F5F5F5F50FF5F5F5F5F5F5F5F5F5F5F5F5F5F5F50FF5F5F5F5F5F5F5F50F0FF5F5F5F5F5F5F5F5F5F5F5E2F5F5F5F5F5F5F5F5F5F5F5F5F5F5E2F5F5F5F5F5F5F5F5F5F5F5F5F5F5F5F5E2F5F5F5F5F5F5F5F5F5F5F5F5F5F5F5F5F5F5F5E2E2F5F5E2E2E2E2E2F5E2E2E2E2E2
310
E2E2E2E2E2E2E2E2E2F5E2E2E2E2E2F5E2E2F5F5F5F5F5F5F5F5F5F5F5F5F5F5F5F5F50FF5F5F5F5F5F5F5F50F0FF5F5F5F5F5F5F5F5F5E2F5F5F5F5F5F5F5F5F5F5F5F5F5F5F5F5F5F5F5F5F5F5F5F5F5F5F5F5F5F5F5F5F5F5F5F5F5E2E2F5F5F5F5F5F5F5F5F5F5F5F5F5F5F5F5F5F5E2E2F5F5F5F5F5F5F5F5F5F5E2E2
310
F5F5F5F5F5F5F5F5E2F5E2F5F5E2E2E2F5F5F5F5F5F5F5F50FF5F5F5F5F5F5F5F5F5F5F5F5F5F5F50FF5F5F5F5F5F5F5F5F50FF5F5F5F5F5F5F5F5F5F5F5E2F5F5F5F5F5F5F5F5F5F5F5F5F5F5E2F5F5F5F5F5F5F5F5F5F5F5F5F5F5F5F5E2F5F5F5F5F5F5F5F5F5F5F5F5F5F5F5F5F5F5F5F5F5E2E2F5F5E2E2E2E2E2F5F5
310
F5E2E2E2E2E2F5F5F5F5E2E2E2E2E2F5E2E2F5F5F5F5F5F5F5F5F5F5F5F5F5F5F5F5F5F5F50FF5F5F5F5F5F5F5F50F0FF5F5F5F5F5F5F5F5F5E2F5F5F5F5F5F5F5F5F5F5F5F5F5F5F5F5F5F5F5F5F5F5F5F5F5F5F5F5F5F5F5F5F5F5F5F5F5E2E2F5F5F5F5F5F5F5F5F5F5F5F5F5F5F5F5F5F5E2E2F5F5F5F5F5F5F5F5F5F5
310
E2E2F5F5F5F5F5F5F5F5E2E2E2E2E2E2E2E2F5F5F5F5F5F5F5F50FF5F5F5F5F5F5F5F5F5F5F5F5F5F5F50FF5F5F5F5F5F5F5F5F50FF5F5F5F5F5F5F5F5F5F5F5E2F5F5F5F5F5F5F5F5F5F5F5F5F5F5E2F5F5F5F5F5F5F5F5F5F5F5F5F5F5F5F5E2F5F5F5F5F5F5F5F5F5F5F5F5F5F5F5F5F5F5F5F5F5F5F5E2E2F5F5F5E2E2
310
E2E2E2E2E2E2E2E2E2E2E2E2E2E2F5F5E2E2F5F5F5F5F5F5F5F5F5F5F5F5F5F5F5F5F5F5F5F50F0F0FF5F5F5F5F5F5F5F50FF5F5F5F5F5F5F5F5F5E2F5F5F5F5F5F5F5F5F5F5F5F5F5F5F5F5F5F5F5F5F5F5F5F5F5F5F5F5F5F5F5F5F5F5F5F5F5E2E2F5F5F5F5F5F5F5F5F5F5F5F5F5F5F5F5F5F5E2E2F50F0FF5F5F5F5F5
310
F5F5E2E2F5F5F5F5F5F5F5F5E2F5E2E2E2E20F0F0F0F0F0F0F0F0F0F0F0F0F0F0F0F0F0F0F0F0F0F0F0F0F0F0F0F0F0F0F0F0F0F0F0F0FF5F5F5F5F5F5F5F5F5F5F5E2F5F5F5F5F5F5F5F5F5F5F5F5F5F5E2F5F5F5F5F5F5F5F5F5F5F5F5F5F5F5F5E2F5F5F5F5F5F5F5F5F5F5F5F5F5F5F5F5F5F5F5F5F5F5F5F5F5E2E2E2
310
E2F5E2E2E2E2E2E2E2E2E2E2E2E2F5E2E2E2F5F5F5F5F5F5F5F5F5F5F5F5F5F5F5F5F5F5F5F5F5F50F0F0FF5F5F5F5F5F5F5F50F0F0F0F0F0F0F0F0F0FE2F5F5F5F5F5F5F5F5F5F5F5F5F5F5F5F5F5F5F5F5F5F5F5F5F5F5F5F5F5F5F5F5F5F5F5F5F5E2E2F5F5F5F5F5F5F5F5F5F5F5F5F5F5F5F5F5F5E2E2F5F5F5F5F5F5
310
F5F5F5F5E2E2F5F5F5F5F5F5F5F5E2F5F5F5F5F5F5F5F5F5F5F5F5F5F5F50FF5F5F5F5F5F5F5F5F5F5F5F5F5F5F50FF5F5F5F5F5F5F5F5F5F5F5F5F5F5F5F5F5F5F5F5F5E2F5F5F5F5F5F5F5F5F5F5F5F5F5F5E2F5F5F5F5F5F5F5F5F5F5F5F5F5F5F5F5E2F5F5F5F5F5F5F5F5F5F5F5F5F5F5F5F5F5F5F5F5F5F5F5F5F5F5
310
F5F5F5E2E2E2E2F5F5E2F5F5E2E2E2E2E2F5F5F5F5F5F5F5F5F5F5F5F5F5F5F5F5F5F5F5F5F5F5F5F5F5F50FF5F5F5F5F5F5F5F5F5F5F5F5F5F5F5F5F5F5F5E2F5F5F5F5F5F5F5F5F5F5F5F5F5F5F5F5F5F5F5F5F5F5F5F5F5F5F5F5F5F5F5F5F5F5F5F5F5E2E2F5F5F5F5F5F5F5F5F5F5F5F5F5F5F5F5F5F5E2E2F5F5F5F5
310
F5F5F5F5F5F5E2E2F5F5F5F5F5F5F5F5E2F5F5F5F5F5F5F5F5F5F5F5F5F5F5F50FF5F5F5F5F5F5F5F5F5F5F5F5F5F5F50FF5F5F5F5F5F5F5F5F5F5F5F5F5F5F5F5F5F5F5F5F5E2F5F5F5F5F5F5F5F5F5F5F5F5F5F5E2F5F5F5F5F5F5F5F5F5F5F5F5F5F5F5F5E2F5F5F5F5F5F5F5F5F5F5F5F5F5F5F5F5F5F5F5F5F5F5F5F5
310
F5F5F5F5F5F5F5F5F5E2E2E2E2E2F5F5F5F5F5F5F5F5F5F5F5F5F5F5F5F5F5F5F5F5F5F5F5F5F5F5F5F5F5F5F50F0F0F0F0F0F0F0F0F0F0F0F0F0F0F0F0F0F0F0F0FE2E2E2E2E2E2E2E2E2E2E2E2E2E2E2E2E2E2E2E2E2E2E2E2E2E2E2E2E2E2E2E2E2E2E2E2E2F5E2E2E2E2E2E2E2E2E2E2E2E2E2E2E2E2E2E2E2E2E2E2E2
310
E2E2E2E2E2E2E2E2E2E2E2E2E2E2E2E2E2E20FF5F5F5F5F5F5F5F5F5F5F5F5F5F5F50FF5F5F5F5F5F5F5F5F5F5F5F5F5F5F50FF5F5F5F5F5F5F5F5F5F5F5F5F5F5F5F5F5F5F5F5F5E2F5F5F5F5F5F5F5F5F5F5F5F5F5F5E2F5F5F5F5F5F5F5F5F5F5F5F5F5F5F5F5E2F5F5F5F5F5F5F5F5F5F5F5F5F5F5F5F5F5F5F5F5F5F5
310
F5F5F5F5F5F5F5F5F5F5F5F5E2E2E2E2F5F5F5F5F5F5F5F5F5F5F5F5F5F5F5F5F5F5F5F5F5F5F5F5F5F5F5F5F5F5F5F5F5F5F5F5F5F5F5F5F5F5F5F5F5F5F5F5F5F5F50FF5F5F5F5F5F5F5F5F5F5F5F5F5F5F5F5F5F5F5F5F5F5F5F5F5F5F5F5F5F5F5F5F5F5F5F5F5F5F5F5F5F5F5F5E2E2E2E2F5F5F5F5F5F5F5F5F5F5F5
310
F5F5F5E2E2E2E2F5F5F5F5F5F5F5F5F5F5F5F5F50FF5F5F5F5F5F5F5F5F5F5F5F5F5F5F50FF5F5F5F5F5F5F5F5F5F5F5F5F5F5F50FF5F5F5F5F5F5F5F5F5F5F5F5F5F5F5F5F5F5F5F5F5E2F5F5F5F5F5F5F5F5F5F5F5F5F5F5E2F5F5F5F5F5F5F5F5F5F5F5F5F5F5F5F5E2F5F5F5F5F5F5F5F5F5F5F5F5F5F5F5F5F5F5F5F5
310
F5F5F5F5F5F5F5F5F5F5F5F5E2E2E2E2E2E2E2F5F5F5F5F5F5F5F5F5F5F5F5F5F5F5F5F5F5F5F5F5F5F5F5F5F5F5F5F5F5F5F5F5F5F5F5F5F5F5F5F5F5F5F5F5F5F5F5F5F50FF5F5F5F5F5F5F5F5F5F5F5F5F5F5F5F5F5F5F5F5F5F5F5F5F5F5F5F5F5F5F5F5F5F5F5F5F5F5F5F5F5F5F5E2E2E2E2E2E2E2F5F5F5F5F5F5F5
310
F5F5F5E2E2E2E2E2E2E2E2F5F5F5F5F5F5F5F5F5F5F50FF5F5F5F5F5F5F5F5F5F5F5F5F5F5F50FF5F5F5F5F5F5F5F5F5F5F5F5F5F5F50FF5F5F5F5F5F5F5F5F5F5F5F5F5F5F5F5F5F5F5F5F5E2F5F5F5F5F5F5F5F5F5F5F5F5F5F5E2F5F5F5F5F5F5F5F5F5F5F5F5F5F5F5F5E2F5F5F5F5F5F5F5F5F5F5F5F5F5F5F5F5F5F5
310
F5F5F5F5F5F5F5F5F5F5F5F5F5F5E2E2E2E2E2E2E2F5F5F5F5F5F5F5F5F5F5F5F5F5F5F5F5F5F5F5F5F5F5F5F5F5F5F5F5F5F5F5F5F5F5F5F5F5F5F5F5F5F5F5F5F5F5F5F5F5F50FF5F5F5F5F5F5F5F5F5F5F5F5F5F5F5F5F5F5F5F5F5F5F5F5F5F5F5F5F5F5F5F5F5F5F5F5F5F5F5F5F5F5E2E2E2E2E2E2E2E2E2F5F5F5F5
310
F5F5F5F5F5E2E2E2E2E2E2E2E2F5F5F5F5F5F5F5F5F5F5F50FF5F5F5F5F5F5F5F5F5F5F5F5F5F5F50FF5F5F5F5F5F5F5F5F5F5F5F5F5F5F50FF5F5F5F5F5F5F5F5F5F5F5F5F5F5F5F5F5F5F5F5F5E2F5F5F5F5F5F5F5F5F5F5F5F5F5F5E2F5F5F5F5F5F5F5F5F5F5F5F5F5F5F5F5E2F5F5F5F5F5F5F5F5F5F5F5F5F5F5F5F5
310
F5F5F5F5F5F5F5F5F5F5F5F5F5F5F5F5E2E2E2E2E2E2E2F5F5F5F5F5F5F5F5F5F5F5F5F5F5F5F5F5F5F5F5F5F5F5F5F5F5F5F5F5F5F5F5F5F5F5F5F5F5F5F5F5F5F5F5F5F5F5F5F5F50FF5F5F5F5F5F5F5F5F5F5F5F5F5F5F5F5F5F5F5F5F5F5F5F5F5F5F5F5F5F5F5F5F5F5F5F5F5F5F5F5F5F5E2E2E2E2E2E2E2E2E2F5F5
310
F5F5F5F5F5F5F5E2E2E2E2E2E2E2E2F5F5F5F5F5F5F5F5F5F5F50FF5F5F5F5F5F5F5F5F5F5F5F5F5F5F50FF5F5F5F5F5F5F5F5F5F5F5F5F5F5F50FF5F5F5F5F5F5F5F5F5F5F5F5F5F5F5F5F5F5F5F5F5E2F5F5F5F5F5F5F5F5F5F5F5F5F5F5E2F5F5F5F5F5F5F5F5F5F5F5F5F5F5F5F5E2F5F5F5F5F5F5F5F5F5F5F5F5F5F5
310
F5F5F5F5F5F5F5F5F5F5F5F5F5F5F5F5F5F5E2E2E2E2E2E2E2F5F5F5F5F5F5F5F5F5F5F5F5F5F5F5F5F5F5F5F5F5F5F5F5F5F5F5F5F5F5F5F5F5F5F5F5F5F5F5F5F5F5F5F5F5F5F5F5F5F50FF5F5F5F5F5F5F5F5F5F5F5F5F5F5F5F5F5F5F5F5F5F5F5F5F5F5F5F5F5F5F5F5F5F5F5F5F5F5F5F5F5F5E2E2E2E2E2E2E2E2E2
310
F5F5F5F5F5F5F5F5F5E2E2E2E2E2E2E2E2F5F5F5F5F5F5F5F5F5F5F50FF5F5F5F5F5F5F5F5F5F5F5F5F5F5F50FF5F5F5F5F5F5F5F5F5F5F5F5F5F5F50FF5F5F5F5F5F5F5F5F5F5F5F5F5F5F5F5F5F5F5F5F5E2F5F5F5F5F5F5F5F5F5F5F5F5F5F5E2F5F5F5F5F5F5F5F5F5F5F5F5F5F5F5F5E2F5F5F5F5F5F5F5F5F5F5F5F5
310
F5F5F5F5F5F5F5F5F5F5F5F5F5F5F5F5F5F5F5F5E2E2E2E2E2E2E2F5F5F5F5F5F5F5F5F5F5F5F5F5F5F5F5F5F5F5F5F5F5F5F5F5F5F5F5F5F5F5F5F5F5F5F5F5F5F5F5F5F5F5F5F5F5F5F5F5F50FF5F5F5F5F5F5F5F5F5F5F5F5F5F5F5F5F5F5F5F5F5F5F5F5F5F5F5F5F5F5F5F5F5F5F5F5F5F5F5F5F5F5E2E2E2E2E2E2E2
310
E2E2F5F5F5F5F5F5F5F5F5E2E2E2E2E2E2E2E2F5F5F5F5F5F5F5F5F5F5F50FF5F5F5F5F5F5F5F5F5F5F5F5F5F5F50FF5F5F5F5F5F5F5F5F5F5F5F5F5F5F50FF5F5F5F5F5F5F5F5F5F5F5F5F5F5F5F5F5F5F5F5F5E2F5F5F5F5F5F5F5F5F5F5F5F5F5F5E2F5F5F5F5F5F5F5F5F5F5F5F5F5F5F5F5E2F5F5F5F5F5F5F5F5F5F5
310
F5F5F5F5F5F5F5F5F5F5F5F5F5F5F5F5F5F5F5F5F5F5E2E2E2E2E2E2E2F5F5F5F5F5F5F5F5F5F5F5F5F5F5F5F5F5F5F5F5F5F5F5F5F5F5F5F5F5F5F5F5F5F5F5F5F5F5F5F5F5F5F5F5F5F5F5F5F5F50FF5F5F5F5F5F5F5F5F5F5F5F5F5F5F5F5F5F5F5F5F5F5F5F5F5F5F5F5F5F5F5F5F5F5F5F5F5F5F5F5F5F5E2E2E2E2E2
310
E2E2E2E2F5F5F5F5F5F5F5F5F5E2E2E2E2E2E2E2E2F5F5F5F5F5F5F5F5F5F5F50FF5F5F5F5F5F5F5F5F5F5F5F5F5F5F50FF5F5F5F5F5F5F5F5F5F5F5F5F5F5F50FF5F5F5F5F5F5F5F5F5F5F5F5F5F5F5F5F5F5F5F5F5E2F5F5F5F5F5F5F5F5F5F5F5F5F5F5E2F5F5F5F5F5F5F5F5F5F5F5F5F5F5F5F5E2F5F5F5F5F5F5F5F5
310
F5F5F5F5F5F5F5F5F5F5F5F5F5F5F5F5F5F5F5F5F5F5F5F5E2E2E2E2E2E2E2F5F5F5F5F5F5F5F5F5F5F5F5F5F5F5F5F5F5F5F5F5F5F5F5F5F5F5F5F5F5F5F5F5F5F5F5F5F5F5F5F5F5F5F5F5F5F5F5F5F50FF5F5F5F5F5F5F5F5F5F5F5F5F5F5F5F5F5F5F5F5F5F5F5F5F5F5F5F5F5F5F5F5F5F5F5F5F5F5F5F5F5F5E2E2E2
310
E2E2E2E2E2E2F5F5F5F5F5F5F5F5F5E2E2E2E2E2E2E2E2F5F5F5F5F5F5F5F5F5F5F50FF5F5F5F5F5F5F5F5F5F5F5F5F5F5F50FF5F5F5F5F5F5F5F5F5F5F5F5F5F5F50FF5F5F5F5F5F5F5F5F5F5F5F5F5F5F5F5F5F5F5F5F5E2F5F5F5F5F5F5F5F5F5F5F5F5F5F5E2F5F5F5F5F5F5F5F5F5F5F5F5F5F5F5F5E2F5F5F5F5F5F5
310
F5F5F5F5F5F5F5F5F5F5F5F5F5F5F5F5F5F5F5F5F5F5F5F5F5F5F5F5F5E2F5F5F5F5F5F5F5F5F5F5F5F5F5F5F5F5F5F5F5F5F5F5F5F5F5F5F5F5F5F5F5F5F5F5F5F5F5F5F5F5F5F5F5F5F5F5F5F5F5F5F5F5F50FF5F5F5F5F5F5F5F5F5F5F5F5F5F5F5F5F5F5F5F5F5F5F5F5F5F5F5F5F5F5F5F5F5F5F5F5F5F5F5F5F5F5E2
310
E2E2E2E2E2E2E2E2F5F5F5F5F5F5F5F5F5E2E2E2E2E2E2E2E2F5F5F5F5F5F5F5F5F5F5F50FF5F5F5F5F5F5F5F5F5F5F5F5F5F5F50FF5F5F5F5F5F5F5F5F5F5F5F5F5F5F50FF5F5F5F5F5F5F5F5F5F5F5F5F5F5F5F5F5F5F5F5F5E2F5F5F5F5F5F5F5F5F5F5F5F5F5F5E2F5F5F5F5F5F5F5F5F5F5F5F5F5F5F5F5E2F5F5F5F5
310
F5F5F5F5F5F5F5F5F5F5F5F5F5F5F5F5F5F5F5F5F5F5F5F5F5F5F5F5F5F5F5F5F5F5F5F5F5F5F5F5F5F5F5F5F5F5F5F5F5F5F5F5F5F5F5F5F5F5F5F5F5F5F5F5F5F5F5F5F5F5F5F5F5F5F5F5F5F5F5F5F5F5F5F5F50FF5F5F5F5F5F5F5F5F5F5F5F5F5F5F5F5F5F5F5F5F5F5F5F5F5F5F5F5F5F5F5F5F5F5F5F5F5F5F5F5F5
310
F5F5F5F5F5F5F5F5F5F5F5F5F5F5F5F5F5F5F5F5F5F5F5F5F5F5F5F5F5F5F5F5F5F5F5F5F5F50FF5F5F5F5F5F5F5F5F5F5F5F5F5F5F50FF5F5F5F5F5F5F5F5F5F5F5F5F5F5F50FF5F5F5F5F5F5F5F5F5F5F5F5F5F5F5F5F5F5F5F5F5E2F5F5F5F5F5F5F5F5F5F5F5F5F5F5E2F5F5F5F5F5F5F5F5F5F5F5F5F5F5F5F5E2F5F5
310
F5F5F5F5F5F5F5F5F5F5F5F5F5F5F5F5F5F5F5F5F5F5F5F5F5F5F5F5F5F5F5F5F5F5F5F5F5F5F5F5F5F5F5F5F5F5F5F5F5F5F5F5F5F5F5F5F5F5F5F5F5F5F5F5F5F5F5F5F5F5F5F5F5F5F5F5F5F5F5F5F5F5F5F5F5F5F50FF5F5F5F5F5F5F5F5F5F5F5F5F5F5F5F5F5F5F5F5F5F5F5F5F5F5F5F5F5F5F5F5F5F5F5F5F5F5F5
310
F5F5F5F5F5F5F5F5F5F5F5F5F5F5F5F5F5F5F5F5F5F5F5F5F5F5F5F5F5F5F5F5F5F5F5F5F5F5F5F50FF5F5F5F5F5F5F5F5F5F5F5F5F5F5F50FF5F5F5F5F5F5F5F5F5F5F5F5F5F5F50FF5F5F5F5F5F5F5F5F5F5F5F5F5F5F5F5F5F5F5F5F5E2F5F5F5F5F5F5F5F5F5F5F5F5F5F5E2F5F5F5F5F5F5F5F5F5F5F5F5F5F5F5F5E2
310
F5F5F5F5F5F5F5F5F5F5F5F5F5F5F5F5F5F5F5F5F5F5F5F5F5F5F5F5F5F5F5F5F5F5F5F5F5F5F5F5F5F5F5F5F5F5F5F5F5F5F5F5F5F5F5F5F5F5F5F5F5F5F5F5F5F5F5F5F5F5F5F5F5F5F5F5F5F5F5F5F5F5F5F5F5F5F5F5F50FF5F5F5F5F5F5F5F5F5F5F5F5F5F5F5F5F5F5F5F5F5F5F5F5F5F5F5F5F5F5F5F5F5F5F5F5F5
310
F5F5F5F5F5F5F5F5F5F5F5F5F5F5F5F5F5F5F5F5F5F5F5F5F5F5F5F5F5F5F5F5F5F5F5F5F5F5F5F5F5F50FF5F5F5F5F5F5F5F5F5F5F5F5F5F5F50FF5F5F5F5F5F5F5F5F5F5F5F5F5F5F50FF5F5F5F5F5F5F5F5F5F5F5F5F5F5F5F5F5F5F5F5F5E2F5F5F5F5F5F5F5F5F5F5F5F5F5F5E2F5F5F5F5F5F5F5F5F5F5F5F5F5F5F5
310
F5E2F5F5F5F5F5F5F5F5F5F5F5F5F5F5F5F5F5F5F5F5F5F5F5F5F5F5F5F5F5F5F5F5F5F5F5F5F5F5F5F5F5F5F5F5F5F5F5F5F5F5F5F5F5F5F5F5F5F5F5F5F5F5F5F5F5F5F5F5F5F5F5F5F5F5F5F5F5F5F5F5F5F5F5F5F5F5F5F5F50FF5F5F5F5F5F5F5F5F5F5F5F5F5F5F5F5F5F5F5F5F5F5F5F5F5F5F5F5F5F5F5F5F5F5F5
310
F5F5F5F5F5F5F5F5F5F5F5F5F5F5F5F5F5F5F5F5F5F5F5F5F5F5F5F5F5F5F5F5F5F5F5F5F5F5F5F5F5F5F5F50FF5F5F5F5F5F5F5F5F5F5F5F5F5F5F50FF5F5F5F5F5F5F5F5F5F5F5F5F5F5F50FF5F5F5F5F5F5F5F5F5F5F5F5F5F5F5F5F5F5F5F5F5E2F5F5F5F5F5F5F5F5F5F5F5F5F5F5E2F5F5F5F5F5F5F5F5F5F5F5F5F5
310
F5F5F5E2F5F5F5F5F5F5F5F5F5F5F5F5F5F5F5F5F5F5F5F5F5F5F5F5F5F5F5F5F5F5F5F5F5F5F5F5F5F5F5F5F5F5F5F5F5F5F5F5F5F5F5F5F5F5F5F5F5F5F5F5F5F5F5F5F5F5F5F5F5F5F5F5F5F5F5F5F5F5F5F5F5F5F5F5F5F5F5F5F50FF5F5F5F5F5F5F5F5F5F5F5F5F5F5F5F5F5F5F5F5F5F5F5F5F5F5F5F5F5F5F5F5F5
310
F5F5F5F5F5F5F5F5F5F5F5F5F5F5F5F5F5F5F5F5F5F5F5F5F5F5F5F5F5F5F5F5F5F5F5F5F5F5F5F5F5F5F5F5F5F50FF5F5F5F50F0F0F0F0F0FF5F5F5F5F50FF5F5F5F5F5F5F5F5F5F5F5F5F5F5F50FF5F5F5F5F5F5F5F5F5F5F5F5F5F5F5F5F5F5F5F5F5E2F5F5F5F5F5F5F5F5F5F5F5F5F5F5E2F5F5F5F5F5F5F5F5F5F5F5
310
F5F5F5F5F5E2F5F5F5F5F5F5F5F5F5F5F5F5F5F5F5F5F5F5F5F5F5F5F5F5F5F5F5F5F5F5F5F5F5F5F5F5F5F5F5F5F5F5F5F5F5F5F5F5F5F5F5F5F5F5F5F5F5F5F5F5F5F5F5F5F5F5F5F5F5F5F5F5F5F5F5F5F5F5F5F5F5F5F5F5F5F5F5F5F50FF5F5F5F5F5F5F5F5F5F5F5F5F5F5F5F5F5F5F5F5F5F5F5F5F5F5F5F5F5F5F5
310
F5F5F5F5F5F5F5F5F5F5F5F5F5F5F5F5F5F5F5F5F5F5F5F5F5F5F5F5F5F5F5F5F5F5F5F5F5F5F5F5F5F5F5F5F5F5F5F50FF5F5F5F50F0F0F0F0F0FF5F5F5F5F50FF5F5F5F5F5F5F5F5F5F5F5F5F5F5F50FF5F5F5F5F5F5F5F5F5F5F5F5F5F5F5F5F5F5F5F5F5E2F5F5F5F5F5F5F5F5F5F5F5F5F5F5E2F5F5F5F5F5F5F5F5F5
310
F5F5F5F5F5F5F5E2F5F5F5F5F5F5F5F5F5F5F5F5F5F5F5F5F5F5F5F5F5F5F5F5F5F5F5F5F5F5F5F5F5F5F5F5F5F5F5F5F5F5F5F5F5F5F5F5F5F5F5F5F5F5F5F5F5F5F5F5F5F5F5F5F5F5F5F5F5F5F5F5F5F5F5F5F5F5F5F5F5F5F5F5F5F5F5F5F50FF5F5F5F5F5F5F5F5F5F5F5F5F5F5F5F5F5F5F5F5F5F5F5F5F5F5F5F5F5
310
F5F5F5F5F5F5F5F5F5F5F5F5F5F5F5F5F5F5F5F5F5F5F5F5F5F5F5F5F5F5F5F5F5F5F5F5F5F5F5F5F5F5F5F5F5F5F5F5F5F50F0F0F0F0F0F0F0F0F0F0F0F0F0F0F0F0FF5F5F5F5F5F5F5F5F5F5F5F5F5F5F50FF5F5F5F5F5F5F5F5F5F5F5F5F5F5F5F5F5F5F5F5F5E2F5F5F5F5F5F5F5F5F5F5F5F5F5F5E2F5F5F5F5F5F5F5
310
F5F5F5F5F5F5F5F5F5E2F5F5F5F5F5F5F5F5F5F5F5F5F5F5F5F5F5F5F5F5F5F5F5F5F5F5F5F5F5F5F5F5F5F5F5F5F5F5F5F5F5F5F5F5F5F5F5F5F5F5F5F5F5F5F5F5F5F5F5F5F5F5F5F5F5F5F5F5F5F5F5F5F5F5F5F5F5F5F5F5F5F5F5F5F5F5F5F5F50FF5F5F5F5F5F5F5F5F5F5F5F5F5F5F5F5F5F5F5F5F5F5F5F5F5F5F5
310
F5F5F5F5F5F5F5F5F5F5F5F5F5F5F5F5F5F5F5F5F5F5F5F5F5F5F5F5F5F5F5F5F5F5F5F5F5F5F5F5F5F5F5F5F5F5F5F5F5F5F5F50FF50F0FF50F0F0F0F0F0FF5F50F0FF50FF5F5F5F5F5F5F5F5F5F5F5F5F5F5F50FF5F5F5F5F5F5F5F5F5F5F5F5F5F5F5F5F5F5F5F5F5E2F5F5F5F5F5F5F5F5F5F5F5F5F5F5E2F5F5F5F5F5
310
F5F5F5F5F5F5F5F5F5F5F5E2F5F5F5F5F5F5F5F5F5F5F5F5F5F5F5F5F5F5F5F5F5F5F5F5F5F5F5F5F5F5F5F5F5F5F5F5F5F5F5F5F5F5F5F5F5F5F5F5F5F5F5F5F5F5F5F5F5F5F5F5F5F5F5F5F5F5F5F5F5F5F5F5F5F5F5F5F5F5F5F5F5F5F5F5F5F5F5F5F50FF5F5F5F5F5F5F5F5F5F5F5F5F5F5F5F5F5F5F5F5F5F5F5F5F5
310
F5F5F5F5F5F5F5F5F5F5F5F5F5F5F5F5F5F5F5F5F5F5F5F5F5F5F5F5F5F5F5F5F5F5F5F5F5F5F5F5F5F5F5F5F5F5F5F5F5F5F5F5F5F50FF5F5F5F5F5F5F5F5F5F5F5F5F5F5F5F5F5F5F5F5F5F5F5F5F5F5F5F5F5F5F50FF5F5F5F5F5F5F5F5F5F5F5F5F5F5F5F5F5F5F5F5F5E2F5F5F5F5F5F5F5F5F5F5F5F5F5F5E2F5F5F5
310
F5F5F5F5F5F5F5F5F5F5F5F5F5E2F5F5F5F5F5F5F5F5F5F5F5F5F5F5F5F5F5F5F5F5F5F5F5F5F5F5F5F5F5F5F5F5F5F5F5F5F5F5F5F5F5F5F5F5F5F5F5F5F5F5F5F5F5F5F5F5F5F5F5F5F5F5F5F5F5F5F5F5F5F5F5F5F5F5F5F5F5F5F5F5F5F5F5F5F5F5F5F5F50FF5F5F5F5F5F5F5F5F5F5F5F5F5F5F5F5F5F5F5F5F5F5F5
310
F5F5F5F5F5F5F5F5F5F5F5F5F5F5F5F5F5F5F5F5F5F5F5F5F5F5F5F5F5F5F5F5F5F5F5F5F5F5F5F5F5F5F5F5F5F5F5F5F5F5F5F5F5F5F5F50FF5F5F5F5F5F5F5F5F5F5F5F5F5F5F5F5F5F5F5F5F5F5F5F5F5F5F5F5F5F5F50FF5F5F5F5F5F5F5F5F5F5F5F5F5F5F5F5F5F5F5F5F5E2F5F5F5F5F5F5F5F5F5F5F5F5F5F5E2F5
310
F5F5F5F5F5F5F5F5F5F5F5F5F5F5F5E2F5F5F5F5F5F5F5F5F5F5F5F5F5F5F5F5F5F5F5F5F5F5F5F5F5F5F5F5F5F5F5F5F5F5F5F5F5F5F5F5F5F5F5F5F5F5F5F5F5F5F5F5F5F5F5F5F5F5F5F5F5F5F5F5F5F5F5F5F5F5F5F5F5F5F5F5F5F5F5F5F5F5F5F5F5F5F5F5F50FF5F5F5F5F5F5F5F5F5F5F5F5F5F5F5F5F5F5F5F5F5
310
F5F5F5F5F5F5F5F5F5F5F5F5F5F5F5F5F5F5F5F5F5F5F5F50F0F0F0F0F0F0F0F0F0F0F0F0F0F0F0FF5F5F5F5F5F5F5F5F5F5F5F5F5F5F5F5F5F50FF5F5F5F5F5F5F5F5F5F5F5F5F5F5F5F5F5F5F5F5F5F50F0F0F0F0F0F0F0F0F0FF5F5F5F5F5F5F5F5F5F5F5F5F5F5F5F5F5F5F5F5F5E2F5F5F5F5F5F5F5F5F5F5F5F5F5F5
310
E2F5F5F5F5F5F5F5F5F5F5F5F5F5F5F5F5E2F5F5F5F5F5F5F5F5F5F5F5F5F5F5F5F5F5F5F5F5F5F5F5F5F5F5F5F5F5F5F5F5F5F5F5F5F5F5F5F5F5F5F5F5F5F5F5F5F5F5F5F5F5F5F5F5F5F5F5F5F5F5F5F5F5F5F5F5F5F5F5F5F5F5F5F5F5F5F5F5F5F5F5F5F5F5F5F5F50FF5F5F5F5F5F5F5F5F5F5F5F5F5F5F5F5F5F5F5
310
F5F5F5F5F5F5F5F5F5F5F5F5F5F5F5F5F5F5F5F5F5F5F5F5F5F50F0F0F0F0F0F0F0F0F0F0F0F0F0F0F0FF5F5F5F5F5F5F5F5F5F5F5F5F5F5F5F5F5F50FF5F5F5F5F5F5F5F5F5F5F5F5F5F5F5F5F5F5F5F5F5F50F0F0F0F0F0F0F0F0F0FF5F5F5F5F5F5F5F5F5F5F5F5F5F5F5F5F5F5F5F5F5E2F5F5F5F5F5F5F5F5F5F5F5F5
310
F5F5E2F5F5F5F5F5F5F5F5F5F5F5F5F5F5F5F5E2F5F5F5F5F5F5F5F5F5F5F5F5F5F5F5F5F5F5F5F5F5F5F5F5F5F5F5F5F5F5F5F5F5F5F5F5F5F5F5F5F5F5F5F5F5F5F5F5F5F5F5F5F5F5F5F5F5F5F5F5F5F5F5F5F5F5F5F5F5F5F5F5F5F5F5F5F5F5F5F5F5F5F5F5F5F5F5F5F50FF5F5F5F5F5F5F5F5F5F5F5F5F5F5F5F5F5
310
F5F5F5F5F5F5F5F5F5F5F5F5F5F5F5F5F5F5F5F5F5F5F5F5F5F5F5F50F0F0F0F0F0F0F0F0F0F0F0F0F0F0F0FF5F5F5F5F5F5F5F5F5F5F5F5F5F5F5F5F5F50FF5F5F5F5F5F5F5F5F5F5F5F5F5F5F5F5F5F5F5F5F5F50F0F0F0F0F0F0F0F0F0FF5F5F5F5F5F5F5F5F5F5F5F5F5F5F5F5F5F5F5F5F5E2F5F5F5F5F5F5F5F5F5F5
310
F5F5F5F5E2F5F5F5F5F5F5F5F5F5F5F5F5F5F5F5F5E2F5F5F5F5F5F5F5F5F5F5F5F5F5F5F5F5F5F5F5F5F5F5F5F5F5F5F5F5F5F5F5F5F5F5F5F5F5F5F5F5F5F5F5F5F5F5F5F5F5F5F5F5F5F5F5F5F5F5F5F5F5F5F5F5F5F5F5F5F5F5F5F5F5F5F5F5F5F5F5F5F5F5F5F5F5F5F5F5F50FF5F5F5F5F5F5F5F5F5F5F5F5F5F5F5
310
F5F5F5F5F5F5F5F5F5F5F5F5F5F5F5F5F5F5F5F5F5F5F5F5F5F5F5F5F5F50F0F0F0F0F0F0F0F0F0F0F0F0F0F0F0FF5F5F5F5F5F5F5F5F5F5F5F5F5F5F5F5F5F50FF5F5F5F5F5F5F5F5F5F5F5F5F5F5F5F5F5F5F5F5F5F50F0F0F0F0F0F0F0F0F0FF5F5F5F5F5F5F5F5F5F5F5F5F5F5F5F5F5F5F5F5F5E2F5F5F5F5F5F5F5F5
310
F5F5F5F5F5F5E2F5F5F5F5F5F5F5F5F5F5F5F5F5F5F5F5E2F5F5F5F5F5F5F5F5F5F5F5F5F5F5F5F5F5F5F5F5F5F5F5F5F5F5F5F5F5F5F5F5F5F5F5F5F5F5F5F5F5F5F5F5F5F5F5F5F5F5F5F5F5F5F5F5F5F5F5F5F5F5F5F5F5F5F5F5F5F5F5F5F5F5F5F5F5F5F5F5F5F5F5F5F5F5F5F5F50FF5F5F5F5F5F5F5F5F5F5F5F5F5
310
F5F5F5F5F5F5F5F5F5F5F5F5F5F5F5F5F5F5F5F5F5F50F0F0F0F0F0F0F0FF5F50F0F0F0F0F0F0F0F0F0F0F0F0F0F0F0FF5F5F5F5F5F5F5F5F5F5F5F5F5F5F5F5F5F50FF5F5F5F5F5F5F5F5F50F0F0F0F0F0F0F0F0F0F0F0FF5F5F5F5F5F5F5F5F5F50FF5F5F5F5F5F5F5F5F5F5F5F5F5F5F5F5F5F5F5F5F5E2F5F5F5F5F5F5
310
F5F5F5F5F5F5F5F5E2F5F5F5F5F5F5F5F5F5F5F5F5F5F5F5F5E2F5F5F5F5F5F5F5F5F5F5F5F5F5F5F5F5F5F5F5F5F5F5F5F5F5F5F5F5F5F5F5F5F5F5F5F5F5F5F5F5F5F5F5F5F5F5F5F5F5F5F5F5F5F5F5F5F5F5F5F5F5F5F5F5F5F5F5F5F5F5F5F5F5F5F5F5F5F5F5F5F5F5F5F5F5F5F5F5F50FF50F0FF5F5F5F5F5F5F5F5
310
F5F5F5F5F5F5F5F5F5F5F5F5F5F5F5F5F5F5F5F5F5F5F5F50F0F0F0F0F0F0F0FF5F5F5F5F5F5F5F5F5F5F5F5F5F5F5F5F5F5F5F5F5F5F5F5F5F5F5F5F5F5F5F5F50F0FF50FF50F0FF5F5F5F5F5F50F0F0F0F0F0F0F0F0F0F0F0FF5F5F5F5F5F5F50F0FF50FF5F5F5F5F5F5F5F5F5F5F5F5F5F5F5F5F5F5F5F5F5E2F5F5F5F5
310
F5F5F5F5F5F5F5F5F5F5E2F5F5F5F5F5F5F5F5F5F5F5F5F5F5F5F5E2F5F5F5F5F5F5F5F5F5F5F5F5F5F5F5F5F5F5F5F5F5F5F5F5F5F5F5F5F5F5F5F5F5F5F5F5F5F5F5F5F5F5F5F5F5F5F5F5F5F5F5F5F5F5F5F5F5F5F5F5F5F5F5F5F5F5F5F5F5F5F5F5F5F5F5F5F5F5F5F5F5F5F5F5F5F5F5F5F50F0F0F0F0F0F0F0F0F0F
310
0F0F0F0F0F0F0F0F0F0F0F0F0F0F0F0F0F0F0F0F0F0F0F0F0F0F0F0F0F0F0F0F0F0F0F0F0F0F0F0F0F0F0F0F0F0F0F0F0F0F0F0F0F0F0F0F0F0F0F0F0F0F0F0F0F0F0F0F0F0F0F0F0F0F0F0F0F0F0F0F0F0F0F0F0F0F0F0F0F0F0F0FF50F0F0F0F0F0F0F0F0F0FF5F5F5F5F5F5F5F5F5F5F5F5F5F5F5F5F5F5F5F5F5E2F5F5
310
F5F5F5F5F5F5F5F5F5F5E2E2E2F5F5F5F5F5F5F5F5F5F5F5F5F5F5F5F5E2F5F5F5F5F5F5F5F5F5F5F5F5F5F5F5F5F5F5F5F5F5F5F5F5F5F5F5F5F5F5F5F5F5F5F5F5F5F5F5F5F5F5F5F5F5F5F5F5F5F5F5F5F5F5F5F5F5F5F5F5F5F5F5F5F5F5F5F5F5F5F5F5F5F5F5F5F5F5F5F5F5F5F5F5F5F5F5F5F5F5F50F0FF5F5F5F5
310
F5F5F5F5F5F5F5F5F5F5F5F5F5F5F5F5F5F5F5F5F5F5F5F5F5F5F5F50F0F0F0F0F0F0F0FF5F5F5F5F5F5F5F5F5F5F5F5F5F5F5F5F5F5F5F5F5F5F5F5F5F5F5F5F5F5F5F5F50F0FF5F5F50F0FF5F5F5F5F5F50F0F0F0F0F0F0F0F0F0F0F0FF5F5F5F5F5F5F50F0FF5F5F5F5F5F5F5F5F5F5F5F5F5F5F5F5F5F5F5F5F5F5F5E2
310
F5F5F5F5F5F5F5F5F5F5F5F5F5F5F5F5F5F5F5F5F5F5F5F5F5F5F5F5F5F5F5E2F5F5F5F5F5F5F5F5F5F5F5F5F5F5F5F5F5F5F5F5F5F5F5F5F5F5F5F5F5F5F5F5F5F5F5F5F5F5F5F5F5F5F5F5F5F5F5F5F5F5F5F5F5F5F5F5F5F5F5F5F5F5F5F5F5F5F5F5F5F5F5F5F5F5F5F5F5F5F5F5F5F5F5F5F5F5F5F5F5F5F5F5F5F5F5
310
F5F5F5F5F5F5F5F5F5F5F5F5F5F5F5F5F5F5F5F5F5F5F5F5F5F5F5F5F5F5F5F5F5F5F5F5F5F5F5F5F5F5F5F5F5F5F5F5F5F5F5F5F5F5F5F5F5F5F5F5F5F5F5F5F5F5F5F5F5F5F5F5F5F5F5F5F5F5F5F5F5F5F5F5F5F5F5F5F5F5F5F5F5F5F5F5F5F5F5F5F5F5F5F5F5F5F5F5F5F5F5F5F5F5F5F5F5F5F5F5F5F5F5F5F5F5F5
310
F5E2F5F5F5F5F5F5F5F5F5F5F5F5F5F5F5F5F5F5F5F5F5F5F5F5F5F5F5F5F5F5F5E2F5F5F5F5F5F5F5F5F5F5F5F5F5F5F5F5F5F5F5F5F5F5F5F5F5F5F5F5F5F5F5F5F5F5F5F5F5F5F5F5F5F5F5F5F5F5F5F5F5F5F5F5F5F5F5F5F5F5F5F5F5F5F5F5F5F5F5F5F5F5F5F5F5F5F5F5F5F5F5F5F5F5F5F5F5F5F5F5F5F5F5F5F5
310
F5F5F5F5F5F5F5F5F5F5F5F5F5F5F5F5F5F5F5F5F5F5F5F5F5F5F5F5F5F5F5F5F5F5F5F5F5F5F5F5F5F5F5F5F5F5F5F5F5F5F5F5F5F5F5F5F5F5F5F5F5F5F5F5F5F5F5F5F5F5F5F5F5F5F5F5F5F5F5F5F5F5F5F5F5F5F5F5F5F5F5F5F5F5F5F5F5F5F5F5F5F5F5F5F5F5F5F5F5F5F5F5F5F5F5F5F5F5F5F5F5F5F5F5F5F5F5
310
F5F5F5E2F5F5F5F5F5F5F5F5F5F5F5F5F5F5F5F5F5F5F5F5F5F5F5F5F5F5F5F5F5F5F5E2F5F5F5F5F5F5F5F5F5F5F5F5F5F5F5F5F5F5F5F5F5F5F5F5F5F5F5F5F5F5F5F5F5F5F5F5F5F5F5F5F5F5F5F5F5F5F5F5F5F5F5F5F5F5F5F5F5F5F5F5F5F5F5F5F5F5F5F5F5F5F5F5F5F5F5F5F5F5F5F5F5F5F5F5F5F5F5F5F5F5F5
310
F5F5F5F5F5F5F5F5F5F5F5F5F5F5F5F5F5F5F5F5F5F5F5F5F5F5F5F5F5F5F5F5F5F5F5F5F5F5F5F5F5F5F5F5F5F5F5F5F5F5F5F5F5F5F5F5F5F5F5F5F5F5F5F5F5F5F5F5F5F5F5F5F5F5F5F5F5F5F5F5F5F5F5F5F5F5F5F5F5F5F5F5F5F5F5F5F5F5F5F5F5F5F5F5F5F5F5F5F5F5F5F5F5F5F5F5F5F5F5F5F5F5F5F5F5F5F5
310
F5F5F5F5F5E2F5F5F5F5F5F5F5F5F5F5F5F5F5F5F5F5F5F5F5F5F5F5F5F5F5F5F5F5F5F5F5E2F5F5F5F5F5F5F5F5F5F5F5F5F5F5F5F5F5F5F5F5F5F5F5F5F5F5F5F5F5F5F5F5F5F5F5F5F5F5F5F5F5F5F5F5F5F5F5F5F5F5F5F5F5F5F5F5F5F5F5F5F5F5F5F5F5F5F5F5F5F5F5F5F5F5F5F5F5F5F5F5F5F5F5F5F5F5F5F5F5
310
F5F5F5F5F5F5F5F5F5F5F5F5F5F5F5F5F5F5F5F5F5F5F5F5F5F5F5F5F5F5F5F5F5F5F5F5F5F5F5F5F5F5F5F5F5F5F5F5F5F5F5F5F5F5F5F5F5F5F5F5F5F5F5F5F5F5F5F5F5F5F5F5F5F5F5F5F5F5F5F5F5F5F5F5F5F5F5F5F5F5F5F5F5F5F5F5F5F5F5F5F5F5F5F5F5F5F5F5F5F5F5F5F5F5F5F5F5F5F5F5F5F5F5F5F5F5F5
310
F5F5F5F5F5F5F5E2F5F5F5F5F5F5F5F5F5F5F5F5F5F5F5F5F5F5F5F5F5F5F5F5F5F5F5F5F5F5F5E2F5F5F5F5F5F5F5F5F5F5F5F5F5F5F5F5F5F5F5F5F5F5F5F5F5F5F5F5F5F5F5F5F5F5F5F5F5F5F5F5F5F5F5F5F5F5F5F5F5F5F5F5F5F5F5F5F5F5F5F5F5F5F5F5F5F5F5F5F5F5F5F5F5F5F5F5F5F5F5F5F5F5F5F5F5F5F5
310
F5F5F5F5F5F5F5F5F5F5F5F5F5F5F5F5F5F5F5F5F5F5F5F5F5F5F5F5F5F5F5F5F5F5F5F5F5F5F5F5F5F5F5F5F5F5F5F5F5F5F5F5F5F5F5F5F5F5F5F5F5F5F5F5F5F5F5F5F5F5F5F5F5F5F5F5F5F5F5F5F5F5F5F5F5F5F5F5F5F5F5F5F5F5F5F5F5F5F5F5F5F5F5F5F5F5F5F5F5F5F5F5F5F5F5F5F5F5F5F5F5F5F5F5F5F5F5
310
F5F5F5F5F5F5F5F5F5E2F5F5F5F5F5F5F5F5F5F5F5F5F5F5F5F5F5F5F5F5F5F5F5F5F5F5F5F5F5F5F5E2F5F5F5F5F5F5F5F5F5F5F5F5F5F5F5F5F5F5F5F5F5F5F5F5F5F5F5F5F5F5F5F5F5F5F5F5F5F5F5F5F5F5F5F5F5F5F5F5F5F5F5F5F5F5F5F5F5F5F5F5F5F5F5F5F5F5F5F5F5F5F5F5F5F5F5F5F5F5F5F5F5F5F5F5F5
310
F5F5F5F5F5F5F5F5F5F5F5F5F5F5F5F5F5F5F5F5F5F5F5F5F5F5F5F5F5F5F5F5F5F5F5F5F5F5F5F5F5F5F5F5F5F5F5F5F5F5F5F5F5F5F5F5F5F5F5F5F5F5F5F5F5F5F5F5F5F5F5F5F5F5F5F5F5F5F5F5F5F5F5F5F5F5F5F5F5F5F5F5F5F5F5F5F5F5F5F5F5F5F5F5F5F5F5F5F5F5F5F5F5F5F5F5F5F5F5F5F5F5F5F5F5F5F5
310
F5F5F5F5F5F5F5F5F5F5F5E2F5F5F5F5F5F5F5F5F5F5F5F5F5F5F5F5F5F5F5F5F5F5F5F5F5F5F5F5F5F5F5E2F5F5F5F5F5F5F5F5F5F5F5F5F5F5F5F5F5F5F5F5F5F5F5F5F5F5F5F5F5F5F5F5F5F5F5F5F5F5F5F5F5F5F5F5F5F5F5F5F5F5F5F5F5F5F5F5F5F5F5F5F5F5F5F5F5F5F5F5F5F5F5F5F5F5F5F5F5F5F5F5F5F5F5
310
F5F5F5F5F5F5F5F5F5F5F5F5F5F5F5F5F5F5F5F5F5F5F5F5F5F5F5F5F5F5F5F5F5F5F5F5F5F5F5F5F5F5F5F5F5F5F5F5F5F5F5F5F5F5F5F5F5F5F5F5F5F5F5F5F5F5F5F5F5F5F5F5F5F5F5F5F5F5F5F5F5F5F5F5F5F5F5F5F5F5F5F5F5F5F5F5F5F5F5F5F5F5F5F5F5F5F5F5F5F5F5F5F5F5F5F5F5F5F5F5F5F5F5F5F5F5F5
310
F5F5F5F5F5F5F5F5F5F5F5F5F5E2F5F5F5F5F5F5F5F5F5F5F5F5F5F5F5F5F5F5F5F5F5F5F5F5F5F5F5F5F5F5F5E2F5F5F5F5F5F5F5F5F5F5F5F5F5F5F5F5F5F5F5F5F5F5F5F5F5F5F5F5F5F5F5F5F5F5F5F5F5F5F5F5F5F5F5F5F5F5F5F5F5F5F5F5F5F5F5F5F5F5F5F5F5F5F5F5F5F5F5F5F5F5F5F5F5F5F5F5F5F5F5F5F5
310
F5F5F5F5F5F5F5F5F5F5F5F5F5F5F5F5F5F5F5F5F5F5F5F5F5F5F5F5F5F5F5F5F5F5F5F5F5F5F5F5F5F5F5F5F5F5F5F5F5F5F5F5F5F5F5F5F5F5F5F5F5F5F5F5F5F5F5F5F5F5F5F5F5F5F5F5F5F5F5F5F5F5F5F5F5F5F5F5F5F5F5F5F5F5F5F5F5F5F5F5F5F5F5F5F5F5F5F5F5F5F5F5F5F5F5F5F5F5F5F5F5F5F5F5F5F5F5
310
F5F5F5F5F5F5F5F5F5F5F5F5F5F5F5E2F5F5F5F5F5F5F5F5F5F5F5F5F5F5F5F5F5F5F5F5F5F5F5F5F5F5F5F5F5F5F5E2F5F5F5F5F5F5F5F5F5F5F5F5F5F5F5F5F5F5F5F5F5F5F5F5F5F5F5F5F5F5F5F5F5F5F5F5F5F5F5F5F5F5F5F5F5F5F5F5F5F5F5F5F5F5F5F5F5F5F5F5F5F5F5F5F5F5F5F5F5F5F5F5F5F5F5F5F5F5F5
310
F5F5F5F5F5F5F5F5F5F5F5F5F5F5F5F5F5F5F5F5F5F5F5F5F5F5F5F5F5F5F5F5F5F5F5F5F5F5F5F5F5F5F5F5F5F5F5F5F5F5F5F5F5F5F5F5F5F5F5F5F5F5F5F5F5F5F5F5F5F5F5F5F5F5F5F5F5F5F5F5F5F5F5F5F5F5F5F5F5F5F5F5F5F5F5F5F5F5F5F5F5F5F5F5F5F5F5F5F5F5F5F5F5F5F5F5F5F5F5F5F5F5F5F5F5F5F5
310
F5F5F5F5F5F5F5F5F5F5F5F5F5F5F5F5F5E2F5F5F5F5F5F5F5F5F5F5F5F5F5F5F5F5F5F5F5F5F5F5F5F5F5F5F5F5F5F5F5E2F5F5F5F5F5F5F5F5F5F5F5F5F5F5F5F5F5F5F5F5F5F5F5F5F5F5F5F5F5F5F5F5F5F5F5F5F5F5F5F5F5F5F5F5F5F5F5F5F5F5F5F5F5F5F5F5F5F5F5F5F5F5F5F5F5F5F5F5F5F5F5F5F5F5F5F5F5
310
F5F5F5F5F5F5F5F5F5F5F5F5F5F5F5F5F5F5F5F5F5F5F5F5F5F5F5F5F5F5F5F5F5F5F5F5F5F5F5F5F5F5F5F5F5F5F5F5F5F5F5F5F5F5F5F5F5F5F5F5F5F5F5F5F5F5F5F5F5F5F5F5F5F5F5F5F5F5F5F5F5F5F5F5F5F5F5F5F5F5F5F5F5F5F5F5F5F5F5F5F5F5F5F5F5F5F5F5F5F5F5F5F5F5F5F5F5F5F5F5F5F5F5F5F5F5F5
310
F5F5F5F5F5F5F5F5F5F5F5F5F5F5F5F5F5F5F5E2F5F5F5F5F5F5F5F5F5F5F5F5F5F5F5F5F5F5F5F5F5F5F5F5F5F5F5F5F5F5F5E2F5F5F5F5F5F5F5F5F5F5F5F5F5F5F5F5F5F5F5F5F5F5F5F5F5F5F5F5F5F5F5F5F5F5F5F5F5F5F5F5F5F5F5F5F5F5F5F5F5F5F5F5F5F5F5F5F5F5F5F5F5F5F5F5F5F5F5F5F5F5F5F5F5F5F5
310
F5F5F5F5F5F5F5F5F5F5F5F5F5F5F5F5F5F5F5F5F5F5F5F5F5F5F5F5F5F5F5F5F5F5F5F5F5F5F5F5F5F5F5F5F5F5F5F5F5F5F5F5F5F5F5F5F5F5F5F5F5F5F5F5F5F5F5F5F5F5F5F5F5F5F5F5F5F5F5F5F5F5F5F5F5F5F5F5F5F5F5F5F5F5F5F5F5F5F5F5F5F5F5F5F5F5F5F5F5F5F5F5F5F5F5F5F5F5F5F5F5F5F5F5F5F5F5
310
F5F5F5F5F5F5F5F5F5F5F5F5F5F5F5F5F5F5F5F5F5E2F5F5F5F5F5F5F5F5F5F5F5F5F5F5F5F5F5F5F5F5F5F5F5F5F5F5F5F5F5F5F5E2F5F5F5F5F5F5F5F5F5F5F5F5F5F5F5F5F5F5F5F5F5F5F5F5F5F5F5F5F5F5F5F5F5F5F5F5F5F5F5F5F5F5F5F5F5F5F5F5F5F5F5F5F5F5F5F5F5F5F5F5F5F5F5F5F5F5F5F5F5F5F5F5F5
310
F5F5F5F5F5F5F5F5F5F5F5F5F5F5F5F5F5F5F5F5F5F5F5F5F5F5F5F5F5F5F5F5F5F5F5F5F5F5F5F5F5F5F5F5F5F5F5F5F5F5F5F5F5F5F5F5F5F5F5F5F5F5F5F5F5F5F5F5F5F5F5F5F5F5F5F5F5F5F5F5F5F5F5F5F5F5F5F5F5F5F5F5F5F5F5F5F5F5F5F5F5F5F5F5F5F5F5F5F5F5F5F5F5F5F5F5F5F5F5F5F5F5F5F5F5F5F5
310
F5F5F5F5F5F5F5F5F5F5F5F5F5F5F5F5F5F5F5F5F5F5F5E2F5F5F5F5F5F5F5F5F5F5F5F5F5F5F5F5F5F5F5F5F5F5F5F5F5F5F5F5F5F5F5E2F5F5F5F5F5F5F5F5F5F5F5F5F5F5F5F5F5F5F5F5F5F5F5F5F5F5F5F5F5F5F5F5F5F5F5F5F5F5F5F5F5F5F5F5F5F5F5F5F5F5F5F5F5F5F5F5F5F5F5F5F5F5F5F5F5F5F5F5F5F5F5
310
F5F5F5F5F5F5F5F5F5F5F5F5F5F5F5F5F5F5F5F5F5F5F5F5F5F5F5F5F5F5F5F5F5F5F5F5F5F5F5F5F5F5F5F5F5F5F5F5F5F5F5F5F5F5F5F5F5F5F5F5F5F5F5F5F5F5F5F5F5F5F5F5F5F5F5F5F5F5F5F5F5F5F5F5F5F5F5F5F5F5F5F5F5F5F5F5F5F5F5F5F5F5F5F5F5F5F5F5F5F5F5F5F5F5F5F5F5F5F5F5F5F5F5F5F5F5F5
310
F5F5F5F5F5F5F5F5F5F5F5F5F5F5F5F5F5F5F5F5F5F5F5F5F5E2F5F5F5F5F5F5F5F5F5F5F5F5F5F5F5F5F5F5F5F5F5F5F5F5F5F5F5F5F5F5F5E2F5F5F5F5F5F5F5F5F5F5F5F5F5F5F5F5F5F5F5F5F5F5F5F5F5F5F5F5F5F5F5F5F5F5F5F5F5F5F5F5F5F5F5F5F5F5F5F5F5F5F5F5F5F5F5F5F5F5F5F5F5F5F5F5F5F5F5F5F5
310
F5F5F5F5F5F5F5F5F5F5F5F5F5F5F5F5F5F5F5F5F5F5F5F5F5F5F5F5F5F5F5F5F5F5F5F5F5F5F5F5F5F5F5F5F5F5F5F5F5F5F5F5F5F5F5F5F5F5F5F5F5F5F5F5F5F5F5F5F5F5F5F5F5F5F5F5F5F5F5F5F5F5F5F5F5F5F5F5F5F5F5F5F5F5F5F5F5F5F5F5F5F5F5F5F5F5F5F5F5F5F5F5F5F5F5F5F5F5F5F5F5F5F5F5F5F5F5
310
F5F5F5F5F5F5F5F5F5F5F5F5F5F5F5F5F5F5F5F5F5F5F5F5F5F5F5E2F5F5F5F5F5F5F5F5F5F5F5F5F5F5F5F5F5F5F5F5F5F5F5F5F5F5F5F5F5F5F5E2F5F5F5F5F5F5F5F5F5F5F5F5F5F5F5F5F5F5F5F5F5F5F5F5F5F5F5F5F5F5F5F5F5F5F5F5F5F5F5F5F5F5F5F5F5F5F5F5F5F5F5F5F5F5F5F5F5F5F5F5F5F5F5F5F5F5F5
310
F5F5F5F5F5F5F5F5F5F5F5F5F5F5F5F5F5F5F5F5F5F5F5F5F5F5F5F5F5F5F5F5F5F5F5F5F5F5F5F5F5F5F5F5F5F5F5F5F5F5F5F5F5F5F5F5F5F5F5F5F5F5F5F5F5F5F5F5F5F5F5F5F5F5F5F5F5F5F5F5F5F5F5F5F5F5F5F5F5F5F5F5F5F5F5F5F5F5F5F5F5F5F5F5F5F5F5F5F5F5F5F5F5F5F5F5F5F5F5F5F5F5F5F5F5F5F5
310
F5F5F5F5F5F5F5F5F5F5F5F5F5F5F5F5F5F5F5F5F5F5F5F5F5F5F5F5F5E2F5F5F5F5F5F5F5F5F5F5F5F5F5F5F5F5F5F5F5F5F5F5F5F5F5F5F5F5F5F5F5E2F5F5F5F5F5F5F5F5F5F5F5F5F5F5F5F5F5F5F5F5F5F5F5F5F5F5F5F5F5F5F5F5F5F5F5F5F5F5F5F5F5F5F5F5F5F5F5F5F5F5F5F5F5F5F5F5F5F5F5F5F5F5F5F5F5
310
F5F5F5F5F5F5F5F5F5F5F5F5F5F5F5F5F5F5F5F5F5F5F5F5F5F5F5F5F5F5F5F5F5F5F5F5F5F5F5F5F5F5F5F5F5F5F5F5F5F5F5F5F5F5F5F5F5F5F5F5F5F5F5F5F5F5F5F5F5F5F5F5F5F5F5F5F5F5F5F5F5F5F5F5F5F5F5F5F5F5F5F5F5F5F5F5F5F5F5F5F5F5F5F5F5F5F5F5F5F5F5F5F5F5F5F5F5F5F5F5F5F5F5F5F5F5F5
310
F5F5F5F5F5F5F5F5F5F5F5F5F5F5F5F5F5F5F5F5F5F5F5F5F5F5F5F5F5F5F5E2F5F5F5F5F5F5F5F5F5F5F5F5
  0
XRECORD
  5
1BC
102
{ACAD_REACTORS
330
1BA
102
}
330
1BA
100
AcDbXrecord
280
     1
270
     1
271
     1
  0
XRECORD
  5
1BB
102
{ACAD_REACTORS
330
1BA
102
}
330
1BA
100
AcDbXrecord
280
     1
270
     1
271
     1
  0
XRECORD
  5
1BF
102
{ACAD_REACTORS
330
1BA
102
}
330
1BA
100
AcDbXrecord
280
     1
270
     1
271
     1
  0
XRECORD
  5
1BE
102
{ACAD_REACTORS
330
1BA
102
}
330
1BA
100
AcDbXrecord
280
     1
270
     1
271
     1
  0
XRECORD
  5
1C0
102
{ACAD_REACTORS
330
1BA
102
}
330
1BA
100
AcDbXrecord
280
     1
270
     1
271
     1
  0
XRECORD
  5
1BD
102
{ACAD_REACTORS
330
1BA
102
}
330
1BA
100
AcDbXrecord
280
     1
270
     1
271
     1
  0
XRECORD
  5
1B4
102
{ACAD_REACTORS
330
1B2
102
}
330
1B2
100
AcDbXrecord
280
     1
270
     1
271
     1
  0
XRECORD
  5
1B3
102
{ACAD_REACTORS
330
1B2
102
}
330
1B2
100
AcDbXrecord
280
     1
270
     1
271
     1
  0
XRECORD
  5
1B7
102
{ACAD_REACTORS
330
1B2
102
}
330
1B2
100
AcDbXrecord
280
     1
270
     1
271
     1
  0
XRECORD
  5
1B6
102
{ACAD_REACTORS
330
1B2
102
}
330
1B2
100
AcDbXrecord
280
     1
270
     1
271
     1
  0
XRECORD
  5
1B8
102
{ACAD_REACTORS
330
1B2
102
}
330
1B2
100
AcDbXrecord
280
     1
270
     1
271
     1
  0
XRECORD
  5
1B5
102
{ACAD_REACTORS
330
1B2
102
}
330
1B2
100
AcDbXrecord
280
     1
270
     1
271
     1
  0
XRECORD
  5
1C4
102
{ACAD_REACTORS
330
1C2
102
}
330
1C2
100
AcDbXrecord
280
     1
270
     1
271
     1
  0
XRECORD
  5
1C3
102
{ACAD_REACTORS
330
1C2
102
}
330
1C2
100
AcDbXrecord
280
     1
270
     1
271
     1
  0
XRECORD
  5
1C7
102
{ACAD_REACTORS
330
1C2
102
}
330
1C2
100
AcDbXrecord
280
     1
270
     1
271
     1
  0
XRECORD
  5
1C6
102
{ACAD_REACTORS
330
1C2
102
}
330
1C2
100
AcDbXrecord
280
     1
270
     1
271
     1
  0
XRECORD
  5
1C8
102
{ACAD_REACTORS
330
1C2
102
}
330
1C2
100
AcDbXrecord
280
     1
270
     1
271
     1
  0
XRECORD
  5
1C5
102
{ACAD_REACTORS
330
1C2
102
}
330
1C2
100
AcDbXrecord
280
     1
270
     1
271
     1
  0
CELLSTYLEMAP
  5
743B
102
{ACAD_REACTORS
330
256D
102
}
330
256D
100
AcDbCellStyleMap
 90
        3
300
CELLSTYLE
  1
TABLEFORMAT_BEGIN
 90
        5
170
     1
 91
        0
 92
    32768
 62
   257
 93
        1
300
CONTENTFORMAT
  1
CONTENTFORMAT_BEGIN
 90
        0
 91
        0
 92
      512
 93
        0
300

 40
0.0
140
1.0
 94
        5
 62
     0
340
F
144
6.0
309
CONTENTFORMAT_END
171
     1
301
MARGIN
  1
CELLMARGIN_BEGIN
 40
1.5
 40
1.5
 40
1.5
 40
1.5
 40
4.5
 40
4.5
309
CELLMARGIN_END
 94
        6
 95
        1
302
GRIDFORMAT
  1
GRIDFORMAT_BEGIN
 90
        0
 91
        1
 62
     0
 92
       -2
340
0
 93
        0
 40
1.125
309
GRIDFORMAT_END
 95
        2
302
GRIDFORMAT
  1
GRIDFORMAT_BEGIN
 90
        0
 91
        1
 62
     0
 92
       -2
340
0
 93
        0
 40
1.125
309
GRIDFORMAT_END
 95
        4
302
GRIDFORMAT
  1
GRIDFORMAT_BEGIN
 90
        0
 91
        1
 62
     0
 92
       -2
340
0
 93
        0
 40
1.125
309
GRIDFORMAT_END
 95
        8
302
GRIDFORMAT
  1
GRIDFORMAT_BEGIN
 90
        0
 91
        1
 62
     0
 92
       -2
340
0
 93
        0
 40
1.125
309
GRIDFORMAT_END
 95
       16
302
GRIDFORMAT
  1
GRIDFORMAT_BEGIN
 90
        0
 91
        1
 62
     0
 92
       -2
340
0
 93
        0
 40
1.125
309
GRIDFORMAT_END
 95
       32
302
GRIDFORMAT
  1
GRIDFORMAT_BEGIN
 90
        0
 91
        1
 62
     0
 92
       -2
340
0
 93
        0
 40
1.125
309
GRIDFORMAT_END
309
TABLEFORMAT_END
  1
CELLSTYLE_BEGIN
 90
        1
 91
        1
300
_TITLE
309
CELLSTYLE_END
300
CELLSTYLE
  1
TABLEFORMAT_BEGIN
 90
        5
170
     1
 91
        0
 92
        0
 62
   257
 93
        1
300
CONTENTFORMAT
  1
CONTENTFORMAT_BEGIN
 90
        0
 91
        0
 92
      512
 93
        0
300

 40
0.0
140
1.0
 94
        5
 62
     0
340
F
144
4.5
309
CONTENTFORMAT_END
171
     1
301
MARGIN
  1
CELLMARGIN_BEGIN
 40
1.5
 40
1.5
 40
1.5
 40
1.5
 40
4.5
 40
4.5
309
CELLMARGIN_END
 94
        6
 95
        1
302
GRIDFORMAT
  1
GRIDFORMAT_BEGIN
 90
        0
 91
        1
 62
     0
 92
       -2
340
0
 93
        0
 40
1.125
309
GRIDFORMAT_END
 95
        2
302
GRIDFORMAT
  1
GRIDFORMAT_BEGIN
 90
        0
 91
        1
 62
     0
 92
       -2
340
0
 93
        0
 40
1.125
309
GRIDFORMAT_END
 95
        4
302
GRIDFORMAT
  1
GRIDFORMAT_BEGIN
 90
        0
 91
        1
 62
     0
 92
       -2
340
0
 93
        0
 40
1.125
309
GRIDFORMAT_END
 95
        8
302
GRIDFORMAT
  1
GRIDFORMAT_BEGIN
 90
        0
 91
        1
 62
     0
 92
       -2
340
0
 93
        0
 40
1.125
309
GRIDFORMAT_END
 95
       16
302
GRIDFORMAT
  1
GRIDFORMAT_BEGIN
 90
        0
 91
        1
 62
     0
 92
       -2
340
0
 93
        0
 40
1.125
309
GRIDFORMAT_END
 95
       32
302
GRIDFORMAT
  1
GRIDFORMAT_BEGIN
 90
        0
 91
        1
 62
     0
 92
       -2
340
0
 93
        0
 40
1.125
309
GRIDFORMAT_END
309
TABLEFORMAT_END
  1
CELLSTYLE_BEGIN
 90
        2
 91
        1
300
_HEADER
309
CELLSTYLE_END
300
CELLSTYLE
  1
TABLEFORMAT_BEGIN
 90
        5
170
     1
 91
        0
 92
        0
 62
   257
 93
        1
300
CONTENTFORMAT
  1
CONTENTFORMAT_BEGIN
 90
        0
 91
        0
 92
      512
 93
        0
300

 40
0.0
140
1.0
 94
        2
 62
     0
340
F
144
4.5
309
CONTENTFORMAT_END
171
     1
301
MARGIN
  1
CELLMARGIN_BEGIN
 40
1.5
 40
1.5
 40
1.5
 40
1.5
 40
4.5
 40
4.5
309
CELLMARGIN_END
 94
        6
 95
        1
302
GRIDFORMAT
  1
GRIDFORMAT_BEGIN
 90
        0
 91
        1
 62
     0
 92
       -2
340
0
 93
        0
 40
1.125
309
GRIDFORMAT_END
 95
        2
302
GRIDFORMAT
  1
GRIDFORMAT_BEGIN
 90
        0
 91
        1
 62
     0
 92
       -2
340
0
 93
        0
 40
1.125
309
GRIDFORMAT_END
 95
        4
302
GRIDFORMAT
  1
GRIDFORMAT_BEGIN
 90
        0
 91
        1
 62
     0
 92
       -2
340
0
 93
        0
 40
1.125
309
GRIDFORMAT_END
 95
        8
302
GRIDFORMAT
  1
GRIDFORMAT_BEGIN
 90
        0
 91
        1
 62
     0
 92
       -2
340
0
 93
        0
 40
1.125
309
GRIDFORMAT_END
 95
       16
302
GRIDFORMAT
  1
GRIDFORMAT_BEGIN
 90
        0
 91
        1
 62
     0
 92
       -2
340
0
 93
        0
 40
1.125
309
GRIDFORMAT_END
 95
       32
302
GRIDFORMAT
  1
GRIDFORMAT_BEGIN
 90
        0
 91
        1
 62
     0
 92
       -2
340
0
 93
        0
 40
1.125
309
GRIDFORMAT_END
309
TABLEFORMAT_END
  1
CELLSTYLE_BEGIN
 90
        3
 91
        2
300
_DATA
309
CELLSTYLE_END
  0
ENDSEC
  0
EOF
