  0
SECTION
  2
HEADER
  9
$ACADVER
  1
AC1032
  9
$ACADMAINTVER
 90
      155
  9
$DWGCODEPAGE
  3
ANSI_932
  9
$LASTSAVEDBY
  1
user65
  9
$REQUIREDVERSIONS
160
                 0
  9
$INSBASE
 10
0.0
 20
0.0
 30
0.0
  9
$EXTMIN
 10
2863.737030813423
 20
2109.347624182419
 30
-0.0000000349181948
  9
$EXTMAX
 10
3002.882046858802
 20
2205.5972497216
 30
0.0000000814935746
  9
$LIMMIN
 10
0.0
 20
0.0
  9
$LIMMAX
 10
420.0
 20
297.0
  9
$ORTHOMODE
 70
     0
  9
$REGENMODE
 70
     1
  9
$FILLMODE
 70
     1
  9
$QTEXTMODE
 70
     0
  9
$MIRRTEXT
 70
     0
  9
$LTSCALE
 40
1.0
  9
$ATTMODE
 70
     1
  9
$TEXTSIZE
 40
2.5
  9
$TRACEWID
 40
1.0
  9
$TEXTSTYLE
  7
Standard
  9
$CLAYER
  8
0
  9
$CELTYPE
  6
ByLayer
  9
$CECOLOR
 62
   256
  9
$CELTSCALE
 40
1.0
  9
$DISPSILH
 70
     0
  9
$DIMSCALE
 40
1.0
  9
$DIMASZ
 40
2.5
  9
$DIMEXO
 40
0.625
  9
$DIMDLI
 40
3.75
  9
$DIMRND
 40
0.0
  9
$DIMDLE
 40
0.0
  9
$DIMEXE
 40
1.25
  9
$DIMTP
 40
0.0
  9
$DIMTM
 40
0.0
  9
$DIMTXT
 40
2.5
  9
$DIMCEN
 40
2.5
  9
$DIMTSZ
 40
0.0
  9
$DIMTOL
 70
     0
  9
$DIMLIM
 70
     0
  9
$DIMTIH
 70
     0
  9
$DIMTOH
 70
     0
  9
$DIMSE1
 70
     0
  9
$DIMSE2
 70
     0
  9
$DIMTAD
 70
     1
  9
$DIMZIN
 70
     8
  9
$DIMBLK
  1

  9
$DIMASO
 70
     1
  9
$DIMSHO
 70
     1
  9
$DIMPOST
  1

  9
$DIMAPOST
  1

  9
$DIMALT
 70
     0
  9
$DIMALTD
 70
     3
  9
$DIMALTF
 40
0.03937007874016
  9
$DIMLFAC
 40
1.0
  9
$DIMTOFL
 70
     1
  9
$DIMTVP
 40
0.0
  9
$DIMTIX
 70
     0
  9
$DIMSOXD
 70
     0
  9
$DIMSAH
 70
     0
  9
$DIMBLK1
  1

  9
$DIMBLK2
  1

  9
$DIMSTYLE
  2
ISO-25
  9
$DIMCLRD
 70
     0
  9
$DIMCLRE
 70
     0
  9
$DIMCLRT
 70
     0
  9
$DIMTFAC
 40
1.0
  9
$DIMGAP
 40
0.625
  9
$DIMJUST
 70
     0
  9
$DIMSD1
 70
     0
  9
$DIMSD2
 70
     0
  9
$DIMTOLJ
 70
     0
  9
$DIMTZIN
 70
     8
  9
$DIMALTZ
 70
     0
  9
$DIMALTTZ
 70
     0
  9
$DIMUPT
 70
     0
  9
$DIMDEC
 70
     2
  9
$DIMTDEC
 70
     2
  9
$DIMALTU
 70
     2
  9
$DIMALTTD
 70
     3
  9
$DIMTXSTY
  7
Standard
  9
$DIMAUNIT
 70
     0
  9
$DIMADEC
 70
     0
  9
$DIMALTRND
 40
0.0
  9
$DIMAZIN
 70
     0
  9
$DIMDSEP
 70
    44
  9
$DIMATFIT
 70
     3
  9
$DIMFRAC
 70
     0
  9
$DIMLDRBLK
  1

  9
$DIMLUNIT
 70
     2
  9
$DIMLWD
 70
    -2
  9
$DIMLWE
 70
    -2
  9
$DIMTMOVE
 70
     0
  9
$DIMFXL
 40
1.0
  9
$DIMFXLON
 70
     0
  9
$DIMJOGANG
 40
0.7853981633974483
  9
$DIMTFILL
 70
     0
  9
$DIMTFILLCLR
 70
     0
  9
$DIMARCSYM
 70
     0
  9
$DIMLTYPE
  6

  9
$DIMLTEX1
  6

  9
$DIMLTEX2
  6

  9
$DIMTXTDIRECTION
 70
     0
  9
$LUNITS
 70
     2
  9
$LUPREC
 70
     4
  9
$SKETCHINC
 40
1.0
  9
$FILLETRAD
 40
0.0
  9
$AUNITS
 70
     0
  9
$AUPREC
 70
     0
  9
$MENU
  1
.
  9
$ELEVATION
 40
0.0
  9
$PELEVATION
 40
0.0
  9
$THICKNESS
 40
0.0
  9
$LIMCHECK
 70
     0
  9
$CHAMFERA
 40
0.0
  9
$CHAMFERB
 40
0.0
  9
$CHAMFERC
 40
0.0
  9
$CHAMFERD
 40
0.0
  9
$SKPOLY
 70
     0
  9
$TDCREATE
 40
2458961.624328704
  9
$TDUCREATE
 40
2458961.249328704
  9
$TDUPDATE
 40
2458961.751215278
  9
$TDUUPDATE
 40
2458961.376215277
  9
$TDINDWG
 40
0.0783101852
  9
$TDUSRTIMER
 40
0.0783101852
  9
$USRTIMER
 70
     1
  9
$ANGBASE
 50
0.0
  9
$ANGDIR
 70
     0
  9
$PDMODE
 70
     0
  9
$PDSIZE
 40
0.0
  9
$PLINEWID
 40
0.0
  9
$SPLFRAME
 70
     0
  9
$SPLINETYPE
 70
     6
  9
$SPLINESEGS
 70
     8
  9
$HANDSEED
  5
276C
  9
$SURFTAB1
 70
     6
  9
$SURFTAB2
 70
     6
  9
$SURFTYPE
 70
     6
  9
$SURFU
 70
     6
  9
$SURFV
 70
     6
  9
$UCSBASE
  2

  9
$UCSNAME
  2

  9
$UCSORG
 10
0.0
 20
0.0
 30
0.0
  9
$UCSXDIR
 10
1.0
 20
0.0
 30
0.0
  9
$UCSYDIR
 10
0.0
 20
1.0
 30
0.0
  9
$UCSORTHOREF
  2

  9
$UCSORTHOVIEW
 70
     0
  9
$UCSORGTOP
 10
0.0
 20
0.0
 30
0.0
  9
$UCSORGBOTTOM
 10
0.0
 20
0.0
 30
0.0
  9
$UCSORGLEFT
 10
0.0
 20
0.0
 30
0.0
  9
$UCSORGRIGHT
 10
0.0
 20
0.0
 30
0.0
  9
$UCSORGFRONT
 10
0.0
 20
0.0
 30
0.0
  9
$UCSORGBACK
 10
0.0
 20
0.0
 30
0.0
  9
$PUCSBASE
  2

  9
$PUCSNAME
  2

  9
$PUCSORG
 10
0.0
 20
0.0
 30
0.0
  9
$PUCSXDIR
 10
1.0
 20
0.0
 30
0.0
  9
$PUCSYDIR
 10
0.0
 20
1.0
 30
0.0
  9
$PUCSORTHOREF
  2

  9
$PUCSORTHOVIEW
 70
     0
  9
$PUCSORGTOP
 10
0.0
 20
0.0
 30
0.0
  9
$PUCSORGBOTTOM
 10
0.0
 20
0.0
 30
0.0
  9
$PUCSORGLEFT
 10
0.0
 20
0.0
 30
0.0
  9
$PUCSORGRIGHT
 10
0.0
 20
0.0
 30
0.0
  9
$PUCSORGFRONT
 10
0.0
 20
0.0
 30
0.0
  9
$PUCSORGBACK
 10
0.0
 20
0.0
 30
0.0
  9
$USERI1
 70
     0
  9
$USERI2
 70
     0
  9
$USERI3
 70
     0
  9
$USERI4
 70
     0
  9
$USERI5
 70
     0
  9
$USERR1
 40
0.0
  9
$USERR2
 40
0.0
  9
$USERR3
 40
0.0
  9
$USERR4
 40
0.0
  9
$USERR5
 40
0.0
  9
$WORLDVIEW
 70
     1
  9
$SHADEDGE
 70
     3
  9
$SHADEDIF
 70
    70
  9
$TILEMODE
 70
     1
  9
$MAXACTVP
 70
    64
  9
$PINSBASE
 10
0.0
 20
0.0
 30
0.0
  9
$PLIMCHECK
 70
     0
  9
$PEXTMIN
 10
0.0
 20
0.0
 30
0.0
  9
$PEXTMAX
 10
0.0
 20
0.0
 30
0.0
  9
$PLIMMIN
 10
0.0
 20
0.0
  9
$PLIMMAX
 10
12.0
 20
9.0
  9
$UNITMODE
 70
     0
  9
$VISRETAIN
 70
     1
  9
$PLINEGEN
 70
     0
  9
$PSLTSCALE
 70
     1
  9
$TREEDEPTH
 70
  3020
  9
$CMLSTYLE
  2
Standard
  9
$CMLJUST
 70
     0
  9
$CMLSCALE
 40
20.0
  9
$PROXYGRAPHICS
 70
     1
  9
$MEASUREMENT
 70
     1
  9
$CELWEIGHT
370
    -1
  9
$ENDCAPS
280
     0
  9
$JOINSTYLE
280
     0
  9
$LWDISPLAY
290
     0
  9
$INSUNITS
 70
     4
  9
$HYPERLINKBASE
  1

  9
$STYLESHEET
  1
monochrome.ctb
  9
$XEDIT
290
     1
  9
$CEPSNTYPE
380
     0
  9
$PSTYLEMODE
290
     1
  9
$FINGERPRINTGUID
  2
{149CC543-234E-844E-BC6F-E413773C3F9A}
  9
$VERSIONGUID
  2
{96235945-93A5-9549-834A-E8E1373D5187}
  9
$EXTNAMES
290
     1
  9
$PSVPSCALE
 40
0.0
  9
$OLESTARTUP
290
     0
  9
$SORTENTS
280
   127
  9
$INDEXCTL
280
     0
  9
$HIDETEXT
280
     1
  9
$XCLIPFRAME
280
     2
  9
$HALOGAP
280
     0
  9
$OBSCOLOR
 70
   257
  9
$OBSLTYPE
280
     0
  9
$INTERSECTIONDISPLAY
280
     0
  9
$INTERSECTIONCOLOR
 70
   257
  9
$DIMASSOC
280
     2
  9
$PROJECTNAME
  1

  9
$CAMERADISPLAY
290
     0
  9
$LENSLENGTH
 40
50.0
  9
$CAMERAHEIGHT
 40
0.0
  9
$STEPSPERSEC
 40
2.0
  9
$STEPSIZE
 40
6.0
  9
$3DDWFPREC
 40
2.0
  9
$PSOLWIDTH
 40
5.0
  9
$PSOLHEIGHT
 40
80.0
  9
$LOFTANG1
 40
1.570796326794896
  9
$LOFTANG2
 40
1.570796326794896
  9
$LOFTMAG1
 40
0.0
  9
$LOFTMAG2
 40
0.0
  9
$LOFTPARAM
 70
     7
  9
$LOFTNORMALS
280
     1
  9
$LATITUDE
 40
37.795
  9
$LONGITUDE
 40
-122.394
  9
$NORTHDIRECTION
 40
0.0
  9
$TIMEZONE
 70
 -8000
  9
$LIGHTGLYPHDISPLAY
280
     1
  9
$TILEMODELIGHTSYNCH
280
     1
  9
$CMATERIAL
347
EC
  9
$SOLIDHIST
280
     0
  9
$SHOWHIST
280
     1
  9
$DWFFRAME
280
     2
  9
$DGNFRAME
280
     0
  9
$REALWORLDSCALE
290
     1
  9
$INTERFERECOLOR
 62
     1
  9
$INTERFEREOBJVS
345
F9
  9
$INTERFEREVPVS
346
F6
  9
$CSHADOW
280
     0
  9
$SHADOWPLANELOCATION
 40
0.0
  0
ENDSEC
  0
SECTION
  2
CLASSES
  0
CLASS
  1
ACDBDICTIONARYWDFLT
  2
AcDbDictionaryWithDefault
  3
ObjectDBX Classes
 90
        0
 91
        1
280
     0
281
     0
  0
CLASS
  1
DICTIONARYVAR
  2
AcDbDictionaryVar
  3
ObjectDBX Classes
 90
        0
 91
       11
280
     0
281
     0
  0
CLASS
  1
TABLESTYLE
  2
AcDbTableStyle
  3
ObjectDBX Classes
 90
     4095
 91
        1
280
     0
281
     0
  0
CLASS
  1
MATERIAL
  2
AcDbMaterial
  3
ObjectDBX Classes
 90
     1153
 91
        3
280
     0
281
     0
  0
CLASS
  1
VISUALSTYLE
  2
AcDbVisualStyle
  3
ObjectDBX Classes
 90
     4095
 91
       24
280
     0
281
     0
  0
CLASS
  1
SCALE
  2
AcDbScale
  3
ObjectDBX Classes
 90
     1153
 91
       17
280
     0
281
     0
  0
CLASS
  1
MLEADERSTYLE
  2
AcDbMLeaderStyle
  3
ACDB_MLEADERSTYLE_CLASS
 90
     4095
 91
        3
280
     0
281
     0
  0
CLASS
  1
CELLSTYLEMAP
  2
AcDbCellStyleMap
  3
ObjectDBX Classes
 90
     1152
 91
        1
280
     0
281
     0
  0
CLASS
  1
EXACXREFPANELOBJECT
  2
ExAcXREFPanelObject
  3
EXAC_ESW
 90
     1025
 91
        0
280
     0
281
     0
  0
CLASS
  1
NPOCOLLECTION
  2
AcDbImpNonPersistentObjectsCollection
  3
ObjectDBX Classes
 90
     1153
 91
        0
280
     0
281
     0
  0
CLASS
  1
LAYER_INDEX
  2
AcDbLayerIndex
  3
ObjectDBX Classes
 90
        0
 91
        0
280
     0
281
     0
  0
CLASS
  1
SPATIAL_INDEX
  2
AcDbSpatialIndex
  3
ObjectDBX Classes
 90
        0
 91
        0
280
     0
281
     0
  0
CLASS
  1
IDBUFFER
  2
AcDbIdBuffer
  3
ObjectDBX Classes
 90
        0
 91
        0
280
     0
281
     0
  0
CLASS
  1
ACDBSECTIONVIEWSTYLE
  2
AcDbSectionViewStyle
  3
ObjectDBX Classes
 90
     1025
 91
        1
280
     0
281
     0
  0
CLASS
  1
ACDBDETAILVIEWSTYLE
  2
AcDbDetailViewStyle
  3
ObjectDBX Classes
 90
     1025
 91
        1
280
     0
281
     0
  0
CLASS
  1
SORTENTSTABLE
  2
AcDbSortentsTable
  3
ObjectDBX Classes
 90
        0
 91
        2
280
     0
281
     0
  0
CLASS
  1
MULTILEADER
  2
AcDbMLeader
  3
ACDB_MLEADER_CLASS
 90
     1025
 91
        9
280
     0
281
     1
  0
CLASS
  1
DIMASSOC
  2
AcDbDimAssoc
  3
"AcDbDimAssoc|Product Desc:     AcDim ARX App For Dimension|Company:          Autodesk, Inc.|WEB Address:      www.autodesk.com"
 90
        0
 91
        0
280
     0
281
     0
  0
CLASS
  1
ACDB_ALDIMOBJECTCONTEXTDATA_CLASS
  2
AcDbAlignedDimensionObjectContextData
  3
ObjectDBX Classes
 90
     1153
 91
        0
280
     0
281
     0
  0
ENDSEC
  0
SECTION
  2
TABLES
  0
TABLE
  2
VPORT
  5
8
330
0
100
AcDbSymbolTable
 70
     1
  0
VPORT
  5
EA
330
8
100
AcDbSymbolTableRecord
100
AcDbViewportTableRecord
  2
*Active
 70
     0
 10
0.0
 20
0.0
 11
1.0
 21
1.0
 12
2933.309538836113
 22
2157.472436952009
 13
0.0
 23
0.0
 14
10.0
 24
10.0
 15
10.0
 25
10.0
 16
0.0
 26
0.0
 36
1.0
 17
0.0
 27
0.0
 37
0.0
 40
96.95647713432755
 41
1.920343137254901
 42
50.0
 43
0.0
 44
0.0
 50
0.0
 51
0.0
 71
     0
 72
  1000
 73
     1
 74
     3
 75
     0
 76
     1
 77
     0
 78
     0
281
     0
 65
     1
110
0.0
120
0.0
130
0.0
111
1.0
121
0.0
131
0.0
112
0.0
122
1.0
132
0.0
 79
     0
146
0.0
348
F5
 60
     3
 61
     5
292
     1
282
     1
141
0.0
142
0.0
 63
   250
421
  3355443
1001
ACAD_NAV_VCDISPLAY
1070
     3
  0
ENDTAB
  0
TABLE
  2
LTYPE
  5
5
330
0
100
AcDbSymbolTable
 70
     4
  0
LTYPE
  5
14
330
5
100
AcDbSymbolTableRecord
100
AcDbLinetypeTableRecord
  2
ByBlock
 70
     0
  3

 72
    65
 73
     0
 40
0.0
  0
LTYPE
  5
15
330
5
100
AcDbSymbolTableRecord
100
AcDbLinetypeTableRecord
  2
ByLayer
 70
     0
  3

 72
    65
 73
     0
 40
0.0
  0
LTYPE
  5
16
330
5
100
AcDbSymbolTableRecord
100
AcDbLinetypeTableRecord
  2
Continuous
 70
     0
  3
Solid line
 72
    65
 73
     0
 40
0.0
  0
LTYPE
  5
2E7
330
5
100
AcDbSymbolTableRecord
100
AcDbLinetypeTableRecord
  2
CENTER
 70
     0
  3
Center ____ _ ____ _ ____ _ ____ _ ____ _ ____
 72
    65
 73
     4
 40
50.8
 49
31.75
 74
     0
 49
-6.349999999999999
 74
     0
 49
6.349999999999999
 74
     0
 49
-6.349999999999999
 74
     0
  0
LTYPE
  5
2E8
330
5
100
AcDbSymbolTableRecord
100
AcDbLinetypeTableRecord
  2
HIDDEN2
 70
     0
  3
Hidden (.5x) _ _ _ _ _ _ _ _ _ _ _ _ _ _ _ _ _
 72
    65
 73
     2
 40
4.762499999999999
 49
3.174999999999999
 74
     0
 49
-1.587499999999999
 74
     0
  0
LTYPE
  5
2E9
330
5
100
AcDbSymbolTableRecord
100
AcDbLinetypeTableRecord
  2
CENTER2
 70
     0
  3
Center (.5x) ___ _ ___ _ ___ _ ___ _ ___ _ ___
 72
    65
 73
     4
 40
28.575
 49
19.05
 74
     0
 49
-3.174999999999999
 74
     0
 49
3.174999999999999
 74
     0
 49
-3.174999999999999
 74
     0
  0
ENDTAB
  0
TABLE
  2
LAYER
  5
2
102
{ACAD_XDICTIONARY
360
1FF
102
}
330
0
100
AcDbSymbolTable
 70
    12
  0
LAYER
  5
10
102
{ACAD_XDICTIONARY
360
13C
102
}
330
2
100
AcDbSymbolTableRecord
100
AcDbLayerTableRecord
  2
0
 70
     0
 62
     7
  6
Continuous
370
    -3
390
F
347
EE
348
0
  0
LAYER
  5
2EA
102
{ACAD_XDICTIONARY
360
2EB
102
}
330
2
100
AcDbSymbolTableRecord
100
AcDbLayerTableRecord
  2
寸法
 70
     0
 62
     4
  6
Continuous
370
    18
390
F
347
EE
348
0
  0
LAYER
  5
2EC
102
{ACAD_XDICTIONARY
360
2ED
102
}
330
2
100
AcDbSymbolTableRecord
100
AcDbLayerTableRecord
  2
図枠
 70
     0
 62
     7
  6
Continuous
370
    50
390
F
347
EE
348
0
  0
LAYER
  5
2EE
102
{ACAD_XDICTIONARY
360
2EF
102
}
330
2
100
AcDbSymbolTableRecord
100
AcDbLayerTableRecord
  2
文字
 70
     0
 62
     6
  6
Continuous
370
    30
390
F
347
EE
348
0
  0
LAYER
  5
2F0
102
{ACAD_XDICTIONARY
360
2F1
102
}
330
2
100
AcDbSymbolTableRecord
100
AcDbLayerTableRecord
  2
細線
 70
     0
 62
     8
  6
Continuous
370
    18
390
F
347
EE
348
0
  0
LAYER
  5
2F2
102
{ACAD_XDICTIONARY
360
2F3
102
}
330
2
100
AcDbSymbolTableRecord
100
AcDbLayerTableRecord
  2
図枠（細）
 70
     0
 62
     7
  6
Continuous
370
    30
390
F
347
EE
348
0
  0
LAYER
  5
2F4
330
2
100
AcDbSymbolTableRecord
100
AcDbLayerTableRecord
  2
中心
 70
     0
 62
     6
  6
CENTER2
370
    18
390
F
347
EE
348
0
1001
AcAecLayerStandard
1000

1000

1001
AcCmTransparency
1071
        0
  0
LAYER
  5
2F5
330
2
100
AcDbSymbolTableRecord
100
AcDbLayerTableRecord
  2
実線
 70
     0
 62
     7
  6
Continuous
370
    35
390
F
347
EE
348
0
1001
AcAecLayerStandard
1000

1000

1001
AcCmTransparency
1071
        0
  0
LAYER
  5
2F6
330
2
100
AcDbSymbolTableRecord
100
AcDbLayerTableRecord
  2
Defpoints
 70
     0
 62
     7
  6
Continuous
290
     0
370
    -3
390
F
347
EE
348
0
  0
LAYER
  5
16AD
330
2
100
AcDbSymbolTableRecord
100
AcDbLayerTableRecord
  2
中太線
 70
     2
 62
     9
  6
Continuous
370
    18
390
F
347
EE
348
0
1001
AcAecLayerStandard
1000

1000

1001
AcCmTransparency
1071
        0
  0
LAYER
  5
16AE
330
2
100
AcDbSymbolTableRecord
100
AcDbLayerTableRecord
  2
ハッチング
 70
     0
 62
    10
  6
Continuous
370
    13
390
F
347
EE
348
0
  0
LAYER
  5
1AFF
330
2
100
AcDbSymbolTableRecord
100
AcDbLayerTableRecord
  2
主鏡筒
 70
     0
 62
     7
  6
Continuous
370
    30
390
F
347
EE
348
0
  0
ENDTAB
  0
TABLE
  2
STYLE
  5
3
330
0
100
AcDbSymbolTable
 70
     7
  0
STYLE
  5
11
330
3
100
AcDbSymbolTableRecord
100
AcDbTextStyleTableRecord
  2
Standard
 70
     0
 40
0.0
 41
1.0
 50
0.0
 71
     0
 42
2.5
  3
arial.ttf
  4

1001
ACAD
1000
Arial
1071
       34
  0
STYLE
  5
132
330
3
100
AcDbSymbolTableRecord
100
AcDbTextStyleTableRecord
  2
Annotative
 70
     0
 40
0.0
 41
1.0
 50
0.0
 71
     0
 42
2.5
  3
arial.ttf
  4

1001
AcadAnnotative
1000
AnnotativeData
1002
{
1070
     1
1070
     1
1002
}
1001
ACAD
1000
Arial
1071
       34
  0
STYLE
  5
2F8
330
3
100
AcDbSymbolTableRecord
100
AcDbTextStyleTableRecord
  2
寸法
 70
     0
 40
0.0
 41
1.0
 50
0.0
 71
     0
 42
0.9
  3
simplex.shx
  4
bigfont.shx
  0
STYLE
  5
2F9
330
3
100
AcDbSymbolTableRecord
100
AcDbTextStyleTableRecord
  2
表題
 70
     0
 40
0.0
 41
1.0
 50
0.0
 71
     0
 42
1.35
  3

  4

1001
ACAD
1000
MS Gothic
1071
    32817
  0
STYLE
  5
2FA
330
3
100
AcDbSymbolTableRecord
100
AcDbTextStyleTableRecord
  2
寸法 1：1
 70
     0
 40
2.5
 41
1.0
 50
0.0
 71
     0
 42
2.5
  3
simplex.shx
  4
bigfont.shx
1001
AcadAnnotative
1000
AnnotativeData
1002
{
1070
     1
1070
     0
1002
}
  0
STYLE
  5
2FB
330
3
100
AcDbSymbolTableRecord
100
AcDbTextStyleTableRecord
  2
寸法 2：1
 70
     0
 40
1.25
 41
1.0
 50
0.0
 71
     0
 42
1.35
  3
simplex.shx
  4
bigfont.shx
  0
STYLE
  5
16AF
330
3
100
AcDbSymbolTableRecord
100
AcDbTextStyleTableRecord
  2
社名
 70
     0
 40
0.0
 41
1.199999999999999
 50
0.0
 71
     0
 42
0.75
  3

  4

1001
ACAD
1000
MS Gothic
1071
    32817
  0
ENDTAB
  0
TABLE
  2
VIEW
  5
6
330
0
100
AcDbSymbolTable
 70
     1
  0
ENDTAB
  0
TABLE
  2
UCS
  5
7
330
0
100
AcDbSymbolTable
 70
     0
  0
ENDTAB
  0
TABLE
  2
APPID
  5
9
330
0
100
AcDbSymbolTable
 70
    15
  0
APPID
  5
12
330
9
100
AcDbSymbolTableRecord
100
AcDbRegAppTableRecord
  2
ACAD
 70
     0
  0
APPID
  5
9E
330
9
100
AcDbSymbolTableRecord
100
AcDbRegAppTableRecord
  2
ACAD_PSEXT
 70
     0
  0
APPID
  5
133
330
9
100
AcDbSymbolTableRecord
100
AcDbRegAppTableRecord
  2
AcadAnnoPO
 70
     0
  0
APPID
  5
134
330
9
100
AcDbSymbolTableRecord
100
AcDbRegAppTableRecord
  2
AcadAnnotative
 70
     0
  0
APPID
  5
135
330
9
100
AcDbSymbolTableRecord
100
AcDbRegAppTableRecord
  2
ACAD_DSTYLE_DIMJAG
 70
     0
  0
APPID
  5
136
330
9
100
AcDbSymbolTableRecord
100
AcDbRegAppTableRecord
  2
ACAD_DSTYLE_DIMTALN
 70
     0
  0
APPID
  5
165
330
9
100
AcDbSymbolTableRecord
100
AcDbRegAppTableRecord
  2
ACAD_MLEADERVER
 70
     0
  0
APPID
  5
217
330
9
100
AcDbSymbolTableRecord
100
AcDbRegAppTableRecord
  2
ACAD_NAV_VCDISPLAY
 70
     0
  0
APPID
  5
2FF
330
9
100
AcDbSymbolTableRecord
100
AcDbRegAppTableRecord
  2
AcAecLayerStandard
 70
     0
  0
APPID
  5
300
330
9
100
AcDbSymbolTableRecord
100
AcDbRegAppTableRecord
  2
AcCmTransparency
 70
     0
  0
APPID
  5
301
330
9
100
AcDbSymbolTableRecord
100
AcDbRegAppTableRecord
  2
ACAD_DSTYLE_DIMBREAK
 70
     0
  0
APPID
  5
302
330
9
100
AcDbSymbolTableRecord
100
AcDbRegAppTableRecord
  2
GradientColor1ACI
 70
     0
  0
APPID
  5
303
330
9
100
AcDbSymbolTableRecord
100
AcDbRegAppTableRecord
  2
GradientColor2ACI
 70
     0
  0
APPID
  5
1604
330
9
100
AcDbSymbolTableRecord
100
AcDbRegAppTableRecord
  2
ACAD_EXEMPT_FROM_CAD_STANDARDS
 70
     0
  0
APPID
  5
26B0
330
9
100
AcDbSymbolTableRecord
100
AcDbRegAppTableRecord
  2
AcadAnnoMonitorAlertIconDisabled
 70
     0
  0
ENDTAB
  0
TABLE
  2
DIMSTYLE
  5
A
330
0
100
AcDbSymbolTable
 70
     6
100
AcDbDimStyleTable
 71
     5
340
27
340
2FD
340
2FE
340
2FC
340
137
  0
DIMSTYLE
105
1B0
330
A
100
AcDbSymbolTableRecord
100
AcDbDimStyleTableRecord
  2
Standard
 70
     0
340
11
  0
DIMSTYLE
105
137
330
A
100
AcDbSymbolTableRecord
100
AcDbDimStyleTableRecord
  2
Annotative
 70
     0
 40
0.0
 41
2.5
 42
0.625
 43
3.75
 44
1.25
 73
     0
 74
     0
 77
     1
 78
     8
140
2.5
141
2.5
143
0.03937007874016
147
0.625
171
     3
172
     1
271
     2
272
     2
274
     3
278
    44
283
     0
284
     8
340
11
1001
AcadAnnotative
1000
AnnotativeData
1002
{
1070
     1
1070
     1
1002
}
1001
ACAD_DSTYLE_DIMJAG
1070
   388
1040
1.5
1001
ACAD_DSTYLE_DIMTALN
1070
   392
1070
     0
  0
DIMSTYLE
105
27
330
A
100
AcDbSymbolTableRecord
100
AcDbDimStyleTableRecord
  2
ISO-25
 70
     0
 41
2.5
 42
0.625
 43
3.75
 44
1.25
 73
     0
 74
     0
 77
     1
 78
     8
140
2.5
141
2.5
143
0.03937007874016
147
0.625
171
     3
172
     1
271
     2
272
     2
274
     3
278
    44
283
     0
284
     8
340
11
  0
DIMSTYLE
105
2FC
330
A
100
AcDbSymbolTableRecord
100
AcDbDimStyleTableRecord
  2
wopt 1：1
 70
     0
 41
2.5
 42
1.0
 43
10.0
 44
1.0
 46
5.0
 73
     0
 74
     0
 77
     1
 78
     8
140
2.5
141
0.0
143
0.03937
144
2.0
147
1.0
171
     3
172
     1
176
   256
177
   256
178
   256
179
     2
271
     2
272
     2
274
     3
283
     0
284
     8
340
2FA
341
290
342
290
345
15
346
15
347
15
371
    -1
372
    -1
1001
ACAD_DSTYLE_DIMBREAK
1070
   391
1040
3.75
1001
ACAD_DSTYLE_DIMJAG
1070
   388
1040
1.5
1001
ACAD_DSTYLE_DIMTALN
1070
   392
1070
     0
  0
DIMSTYLE
105
2FD
102
{ACAD_REACTORS
330
1F99
330
1F92
330
1F93
330
1F91
330
1DB4
330
1DB3
330
1DB2
330
1E26
102
}
330
A
100
AcDbSymbolTableRecord
100
AcDbDimStyleTableRecord
  2
wopt 2：1
 70
     0
 40
0.5
 41
2.5
 42
1.0
 43
10.0
 44
1.0
 46
5.0
 73
     0
 74
     0
 77
     1
 78
     8
 79
     1
140
1.25
141
0.0
143
0.03937
147
1.0
171
     3
172
     1
176
   256
177
   256
178
   256
179
     2
271
     2
272
     2
274
     3
283
     0
284
     8
340
2FB
341
290
342
290
345
15
346
15
347
15
371
    -1
372
    -1
1001
ACAD_DSTYLE_DIMBREAK
1070
   391
1040
3.75
1001
ACAD_DSTYLE_DIMJAG
1070
   388
1040
1.5
1001
ACAD_DSTYLE_DIMTALN
1070
   392
1070
     0
  0
DIMSTYLE
105
2FE
330
A
100
AcDbSymbolTableRecord
100
AcDbDimStyleTableRecord
  2
寸法1：1
 70
     0
 41
2.5
 42
1.0
 43
3.75
 44
1.25
 73
     0
 74
     0
 77
     1
 78
     8
140
2.5
141
2.5
143
0.03937007874016
147
0.625
171
     3
172
     1
271
     3
272
     3
274
     3
283
     0
284
     8
340
2F8
  0
ENDTAB
  0
TABLE
  2
BLOCK_RECORD
  5
1
330
0
100
AcDbSymbolTable
 70
    25
  0
BLOCK_RECORD
  5
1F
102
{ACAD_XDICTIONARY
360
1CE
102
}
330
1
100
AcDbSymbolTableRecord
100
AcDbBlockTableRecord
  2
*Model_Space
340
22
 70
     0
280
     1
281
     0
  0
BLOCK_RECORD
  5
D2
330
1
100
AcDbSymbolTableRecord
100
AcDbBlockTableRecord
  2
*Paper_Space
340
D3
 70
     0
280
     1
281
     0
  0
BLOCK_RECORD
  5
D6
330
1
100
AcDbSymbolTableRecord
100
AcDbBlockTableRecord
  2
*Paper_Space0
340
D7
 70
     0
280
     1
281
     0
  0
BLOCK_RECORD
  5
28C
330
1
100
AcDbSymbolTableRecord
100
AcDbBlockTableRecord
  2
_DotSmall
340
0
 70
     0
280
     1
281
     0
  0
BLOCK_RECORD
  5
290
330
1
100
AcDbSymbolTableRecord
100
AcDbBlockTableRecord
  2
_Open
340
0
102
{BLKREFS
331
2550
331
2551
331
25DF
331
25E0
331
2670
331
2671
331
2682
331
2683
331
26EB
331
26EC
331
270F
331
2710
331
15CD
331
15CE
331
15D6
331
15D7
331
15DF
331
15E0
331
15E8
331
15E9
331
2718
331
2719
331
2721
331
2722
102
}
 70
     0
280
     1
281
     0
  0
BLOCK_RECORD
  5
2C6
102
{ACAD_XDICTIONARY
360
2C7
102
}
330
1
100
AcDbSymbolTableRecord
100
AcDbBlockTableRecord
  2
A$C5613df2c
340
0
102
{BLKREFS
331
1571
102
}
 70
     4
280
     1
281
     0
  0
BLOCK_RECORD
  5
157F
330
1
100
AcDbSymbolTableRecord
100
AcDbBlockTableRecord
  2
*D4
340
0
 70
     0
280
     1
281
     0
  0
BLOCK_RECORD
  5
158B
330
1
100
AcDbSymbolTableRecord
100
AcDbBlockTableRecord
  2
*D5
340
0
 70
     0
280
     1
281
     0
  0
BLOCK_RECORD
  5
1597
330
1
100
AcDbSymbolTableRecord
100
AcDbBlockTableRecord
  2
*D6
340
0
 70
     0
280
     1
281
     0
  0
BLOCK_RECORD
  5
15A3
330
1
100
AcDbSymbolTableRecord
100
AcDbBlockTableRecord
  2
*D7
340
0
 70
     0
280
     1
281
     0
  0
BLOCK_RECORD
  5
2064
330
1
100
AcDbSymbolTableRecord
100
AcDbBlockTableRecord
  2
*D17
340
0
 70
     0
280
     1
281
     0
  0
BLOCK_RECORD
  5
2070
330
1
100
AcDbSymbolTableRecord
100
AcDbBlockTableRecord
  2
*D18
340
0
 70
     0
280
     1
281
     0
  0
BLOCK_RECORD
  5
207D
330
1
100
AcDbSymbolTableRecord
100
AcDbBlockTableRecord
  2
*D19
340
0
 70
     0
280
     1
281
     0
  0
BLOCK_RECORD
  5
2089
330
1
100
AcDbSymbolTableRecord
100
AcDbBlockTableRecord
  2
*D20
340
0
 70
     0
280
     1
281
     0
  0
BLOCK_RECORD
  5
2097
330
1
100
AcDbSymbolTableRecord
100
AcDbBlockTableRecord
  2
*D21
340
0
 70
     0
280
     1
281
     0
  0
BLOCK_RECORD
  5
20A3
330
1
100
AcDbSymbolTableRecord
100
AcDbBlockTableRecord
  2
*D22
340
0
 70
     0
280
     1
281
     0
  0
BLOCK_RECORD
  5
20AF
330
1
100
AcDbSymbolTableRecord
100
AcDbBlockTableRecord
  2
*D23
340
0
 70
     0
280
     1
281
     0
  0
BLOCK_RECORD
  5
20BB
330
1
100
AcDbSymbolTableRecord
100
AcDbBlockTableRecord
  2
*D24
340
0
 70
     0
280
     1
281
     0
  0
ENDTAB
  0
ENDSEC
  0
SECTION
  2
BLOCKS
  0
BLOCK
  5
20
330
1F
100
AcDbEntity
  8
0
100
AcDbBlockBegin
  2
*Model_Space
 70
     0
 10
0.0
 20
0.0
 30
0.0
  3
*Model_Space
  1

  0
ENDBLK
  5
21
330
1F
100
AcDbEntity
  8
0
100
AcDbBlockEnd
  0
BLOCK
  5
D4
330
D2
100
AcDbEntity
 67
     1
  8
0
100
AcDbBlockBegin
  2
*Paper_Space
 70
     0
 10
0.0
 20
0.0
 30
0.0
  3
*Paper_Space
  1

  0
ENDBLK
  5
D5
330
D2
100
AcDbEntity
 67
     1
  8
0
100
AcDbBlockEnd
  0
BLOCK
  5
D8
330
D6
100
AcDbEntity
 67
     1
  8
0
100
AcDbBlockBegin
  2
*Paper_Space0
 70
     0
 10
0.0
 20
0.0
 30
0.0
  3
*Paper_Space0
  1

  0
ENDBLK
  5
D9
330
D6
100
AcDbEntity
 67
     1
  8
0
100
AcDbBlockEnd
  0
BLOCK
  5
28D
330
28C
100
AcDbEntity
  8
0
100
AcDbBlockBegin
  2
_DotSmall
 70
     0
 10
0.0
 20
0.0
 30
0.0
  3
_DotSmall
  1

  0
LWPOLYLINE
  5
28E
330
28C
100
AcDbEntity
  8
寸法
 62
     0
100
AcDbPolyline
 90
        2
 70
     1
 43
0.5
 10
-0.0625
 20
0.0
 42
1.0
 10
0.0625
 20
0.0
 42
1.0
  0
ENDBLK
  5
28F
330
28C
100
AcDbEntity
  8
0
100
AcDbBlockEnd
  0
BLOCK
  5
291
330
290
100
AcDbEntity
  8
0
 62
     7
100
AcDbBlockBegin
  2
_Open
 70
     0
 10
0.0
 20
0.0
 30
0.0
  3
_Open
  1

  0
LINE
  5
292
330
290
100
AcDbEntity
  8
0
  6
ByBlock
 62
     0
370
    -2
100
AcDbLine
 10
-1.0
 20
0.1666666666666666
 30
0.0
 11
0.0
 21
0.0
 31
0.0
  0
LINE
  5
293
330
290
100
AcDbEntity
  8
0
  6
ByBlock
 62
     0
370
    -2
100
AcDbLine
 10
-1.0
 20
-0.1666666666666666
 30
0.0
 11
0.0
 21
0.0
 31
0.0
  0
LINE
  5
294
330
290
100
AcDbEntity
  8
0
  6
ByBlock
 62
     0
370
    -2
100
AcDbLine
 10
0.0
 20
0.0
 30
0.0
 11
-1.0
 21
0.0
 31
0.0
  0
ENDBLK
  5
295
330
290
100
AcDbEntity
  8
0
 62
     7
100
AcDbBlockEnd
  0
BLOCK
  5
2C9
330
2C6
100
AcDbEntity
  8
0
100
AcDbBlockBegin
  2
A$C5613df2c
 70
     0
 10
0.0
 20
0.0
 30
0.0
  3
A$C5613df2c
  1

  0
TEXT
  5
2CA
330
2C6
100
AcDbEntity
  8
実線
 48
0.03
100
AcDbText
 10
1.95088685693787
 20
-0.0000000000000284
 30
0.0
 40
2.0
  1
FAR
 50
180.0
  7
表題
100
AcDbText
  0
ENDBLK
  5
2CB
330
2C6
100
AcDbEntity
  8
0
100
AcDbBlockEnd
  0
BLOCK
  5
1580
330
157F
100
AcDbEntity
  8
0
100
AcDbBlockBegin
  2
*D4
 70
     1
 10
0.0
 20
0.0
 30
0.0
  3
*D4
  1

  0
LINE
  5
15CA
330
157F
100
AcDbEntity
  8
寸法
440
 16777216
100
AcDbLine
 10
2976.23774039326
 20
1465.571520501295
 30
0.0
 11
2976.23774039326
 21
1506.073880096634
 31
0.0
  0
LINE
  5
15CB
330
157F
100
AcDbEntity
  8
寸法
440
 16777216
100
AcDbLine
 10
2993.763740393259
 20
1450.771520501295
 30
0.0
 11
2993.763740393259
 21
1506.073880096634
 31
0.0
  0
LINE
  5
15CC
330
157F
100
AcDbEntity
  8
寸法
440
 16777216
100
AcDbLine
 10
2977.487740393259
 20
1505.573880096634
 30
0.0
 11
2992.51374039326
 21
1505.573880096634
 31
0.0
  0
INSERT
  5
15CD
330
157F
100
AcDbEntity
  8
寸法
440
 16777216
100
AcDbBlockReference
  2
_Open
 10
2976.23774039326
 20
1505.573880096634
 30
0.0
 41
1.25
 42
1.25
 43
1.25
 50
180.0
  0
INSERT
  5
15CE
330
157F
100
AcDbEntity
  8
寸法
440
 16777216
100
AcDbBlockReference
  2
_Open
 10
2993.763740393259
 20
1505.573880096634
 30
0.0
 41
1.25
 42
1.25
 43
1.25
  0
MTEXT
  5
15CF
330
157F
100
AcDbEntity
  8
寸法
440
 16777216
100
AcDbMText
 10
2985.00074039326
 20
1506.698880096634
 30
0.0
 40
1.25
 41
0.0
 46
0.0
 71
     5
 72
     1
  1
FB=17.526
  7
寸法 2：1
 73
     1
 44
1.0
  0
POINT
  5
15D0
330
157F
100
AcDbEntity
  8
Defpoints
 62
     0
440
 16777216
100
AcDbPoint
 10
2976.23774039326
 20
1465.071520501295
 30
0.0
  0
POINT
  5
15D1
330
157F
100
AcDbEntity
  8
Defpoints
 62
     0
440
 16777216
100
AcDbPoint
 10
2993.763740393259
 20
1450.271520501295
 30
0.0
  0
POINT
  5
15D2
330
157F
100
AcDbEntity
  8
Defpoints
 62
     0
440
 16777216
100
AcDbPoint
 10
2993.763740393259
 20
1505.573880096634
 30
0.0
  0
ENDBLK
  5
1581
330
157F
100
AcDbEntity
  8
0
100
AcDbBlockEnd
  0
BLOCK
  5
158C
330
158B
100
AcDbEntity
  8
0
100
AcDbBlockBegin
  2
*D5
 70
     1
 10
0.0
 20
0.0
 30
0.0
  3
*D5
  1

  0
LINE
  5
15D3
330
158B
100
AcDbEntity
  8
寸法
440
 16777216
100
AcDbLine
 10
2906.23774039326
 20
1480.471520501295
 30
0.0
 11
2906.23774039326
 21
1506.073880096634
 31
0.0
  0
LINE
  5
15D4
330
158B
100
AcDbEntity
  8
寸法
440
 16777216
100
AcDbLine
 10
2976.23774039326
 20
1465.571520501295
 30
0.0
 11
2976.23774039326
 21
1506.073880096634
 31
0.0
  0
LINE
  5
15D5
330
158B
100
AcDbEntity
  8
寸法
440
 16777216
100
AcDbLine
 10
2907.48774039326
 20
1505.573880096634
 30
0.0
 11
2974.98774039326
 21
1505.573880096634
 31
0.0
  0
INSERT
  5
15D6
330
158B
100
AcDbEntity
  8
寸法
440
 16777216
100
AcDbBlockReference
  2
_Open
 10
2906.23774039326
 20
1505.573880096634
 30
0.0
 41
1.25
 42
1.25
 43
1.25
 50
180.0
  0
INSERT
  5
15D7
330
158B
100
AcDbEntity
  8
寸法
440
 16777216
100
AcDbBlockReference
  2
_Open
 10
2976.23774039326
 20
1505.573880096634
 30
0.0
 41
1.25
 42
1.25
 43
1.25
  0
MTEXT
  5
15D8
330
158B
100
AcDbEntity
  8
寸法
440
 16777216
100
AcDbMText
 10
2943.011049610246
 20
1506.698880096634
 30
0.0
 40
1.25
 41
0.0
 46
0.0
 71
     5
 72
     1
  1
70
  7
寸法 2：1
 73
     1
 44
1.0
  0
POINT
  5
15D9
330
158B
100
AcDbEntity
  8
Defpoints
 62
     0
440
 16777216
100
AcDbPoint
 10
2906.23774039326
 20
1479.971520501295
 30
0.0
  0
POINT
  5
15DA
330
158B
100
AcDbEntity
  8
Defpoints
 62
     0
440
 16777216
100
AcDbPoint
 10
2976.23774039326
 20
1465.071520501295
 30
0.0
  0
POINT
  5
15DB
330
158B
100
AcDbEntity
  8
Defpoints
 62
     0
440
 16777216
100
AcDbPoint
 10
2976.23774039326
 20
1505.573880096634
 30
0.0
  0
ENDBLK
  5
158D
330
158B
100
AcDbEntity
  8
0
100
AcDbBlockEnd
  0
BLOCK
  5
1598
330
1597
100
AcDbEntity
  8
0
100
AcDbBlockBegin
  2
*D6
 70
     1
 10
0.0
 20
0.0
 30
0.0
  3
*D6
  1

  0
LINE
  5
15DC
330
1597
100
AcDbEntity
  8
寸法
440
 16777216
100
AcDbLine
 10
2906.037940393261
 20
1480.271520501296
 30
0.0
 11
2881.565951141595
 21
1480.271520501296
 31
0.0
  0
LINE
  5
15DD
330
1597
100
AcDbEntity
  8
寸法
440
 16777216
100
AcDbLine
 10
2906.037740393261
 20
1420.271520501296
 30
0.0
 11
2881.565951141595
 21
1420.271520501296
 31
0.0
  0
LINE
  5
15DE
330
1597
100
AcDbEntity
  8
寸法
440
 16777216
100
AcDbLine
 10
2882.065951141595
 20
1479.021520501295
 30
0.0
 11
2882.065951141595
 21
1421.521520501296
 31
0.0
  0
INSERT
  5
15DF
330
1597
100
AcDbEntity
  8
寸法
440
 16777216
100
AcDbBlockReference
  2
_Open
 10
2882.065951141595
 20
1480.271520501296
 30
0.0
 41
1.25
 42
1.25
 43
1.25
 50
90.0
  0
INSERT
  5
15E0
330
1597
100
AcDbEntity
  8
寸法
440
 16777216
100
AcDbBlockReference
  2
_Open
 10
2882.065951141595
 20
1420.271520501296
 30
0.0
 41
1.25
 42
1.25
 43
1.25
 50
270.0
  0
MTEXT
  5
15E1
330
1597
100
AcDbEntity
  8
寸法
440
 16777216
100
AcDbMText
 10
2880.940951141595
 20
1450.554544870362
 30
0.0
 40
1.25
 41
0.0
 46
0.0
 71
     5
 72
     1
  1
φ60
  7
寸法 2：1
 11
0.0000000000000001
 21
1.0
 31
0.0
 73
     1
 44
1.0
  0
POINT
  5
15E2
330
1597
100
AcDbEntity
  8
Defpoints
 62
     0
440
 16777216
100
AcDbPoint
 10
2906.537940393262
 20
1480.271520501296
 30
0.0
  0
POINT
  5
15E3
330
1597
100
AcDbEntity
  8
Defpoints
 62
     0
440
 16777216
100
AcDbPoint
 10
2906.537740393261
 20
1420.271520501296
 30
0.0
  0
POINT
  5
15E4
330
1597
100
AcDbEntity
  8
Defpoints
 62
     0
440
 16777216
100
AcDbPoint
 10
2882.065951141595
 20
1420.271520501296
 30
0.0
  0
ENDBLK
  5
1599
330
1597
100
AcDbEntity
  8
0
100
AcDbBlockEnd
  0
BLOCK
  5
15A4
330
15A3
100
AcDbEntity
  8
0
100
AcDbBlockBegin
  2
*D7
 70
     1
 10
0.0
 20
0.0
 30
0.0
  3
*D7
  1

  0
LINE
  5
15E5
330
15A3
100
AcDbEntity
  8
寸法
440
 16777216
100
AcDbLine
 10
2980.237740393261
 20
1462.971520501296
 30
0.0
 11
3003.169776204552
 21
1462.971520501296
 31
0.0
  0
LINE
  5
15E6
330
15A3
100
AcDbEntity
  8
寸法
440
 16777216
100
AcDbLine
 10
2980.237740393261
 20
1437.571520501295
 30
0.0
 11
3003.169776204552
 21
1437.571520501295
 31
0.0
  0
LINE
  5
15E7
330
15A3
100
AcDbEntity
  8
寸法
440
 16777216
100
AcDbLine
 10
3002.669776204552
 20
1461.721520501296
 30
0.0
 11
3002.669776204552
 21
1438.821520501296
 31
0.0
  0
INSERT
  5
15E8
330
15A3
100
AcDbEntity
  8
寸法
440
 16777216
100
AcDbBlockReference
  2
_Open
 10
3002.669776204552
 20
1462.971520501296
 30
0.0
 41
1.25
 42
1.25
 43
1.25
 50
90.0
  0
INSERT
  5
15E9
330
15A3
100
AcDbEntity
  8
寸法
440
 16777216
100
AcDbBlockReference
  2
_Open
 10
3002.669776204552
 20
1437.571520501295
 30
0.0
 41
1.25
 42
1.25
 43
1.25
 50
270.0
  0
MTEXT
  5
15EA
330
15A3
100
AcDbEntity
  8
寸法
440
 16777216
100
AcDbMText
 10
3001.544776204552
 20
1450.155877420122
 30
0.0
 40
1.25
 41
0.0
 46
0.0
 71
     5
 72
     1
  1
1-32UNF
  7
寸法 2：1
 11
0.0000000000000001
 21
1.0
 31
0.0
 73
     1
 44
1.0
  0
POINT
  5
15EB
330
15A3
100
AcDbEntity
  8
Defpoints
 62
     0
440
 16777216
100
AcDbPoint
 10
2979.737740393261
 20
1462.971520501296
 30
0.0
  0
POINT
  5
15EC
330
15A3
100
AcDbEntity
  8
Defpoints
 62
     0
440
 16777216
100
AcDbPoint
 10
2979.737740393261
 20
1437.571520501295
 30
0.0
  0
POINT
  5
15ED
330
15A3
100
AcDbEntity
  8
Defpoints
 62
     0
440
 16777216
100
AcDbPoint
 10
3002.669776204552
 20
1437.571520501295
 30
0.0
  0
ENDBLK
  5
15A5
330
15A3
100
AcDbEntity
  8
0
100
AcDbBlockEnd
  0
BLOCK
  5
2065
330
2064
100
AcDbEntity
  8
0
100
AcDbBlockBegin
  2
*D17
 70
     1
 10
0.0
 20
0.0
 30
0.0
  3
*D17
  1

  0
LINE
  5
26E8
330
2064
100
AcDbEntity
  8
寸法
440
 16777216
100
AcDbLine
 10
2966.753475288437
 20
2180.368903573478
 30
0.0
 11
2998.043738754335
 21
2180.368903573478
 31
0.0
  0
LINE
  5
26E9
330
2064
100
AcDbEntity
  8
寸法
440
 16777216
100
AcDbLine
 10
2966.753475288437
 20
2135.868903573478
 30
0.0
 11
2998.043738754335
 21
2135.868903573478
 31
0.0
  0
LINE
  5
26EA
330
2064
100
AcDbEntity
  8
寸法
440
 16777216
100
AcDbLine
 10
2997.543738754335
 20
2179.118903573478
 30
0.0
 11
2997.543738754335
 21
2137.118903573478
 31
0.0
  0
INSERT
  5
26EB
330
2064
100
AcDbEntity
  8
寸法
440
 16777216
100
AcDbBlockReference
  2
_Open
 10
2997.543738754335
 20
2180.368903573478
 30
0.0
 41
1.25
 42
1.25
 43
1.25
 50
90.0
  0
INSERT
  5
26EC
330
2064
100
AcDbEntity
  8
寸法
440
 16777216
100
AcDbBlockReference
  2
_Open
 10
2997.543738754335
 20
2135.868903573478
 30
0.0
 41
1.25
 42
1.25
 43
1.25
 50
270.0
  0
MTEXT
  5
26ED
330
2064
100
AcDbEntity
  8
寸法
440
 16777216
100
AcDbMText
 10
2996.418738754335
 20
2158.077537704412
 30
0.0
 40
1.25
 41
0.0
 46
0.0
 71
     5
 72
     1
  1
φ44.5
  7
寸法 2：1
 11
0.0000000000000001
 21
1.0
 31
0.0
 73
     1
 44
1.0
  0
POINT
  5
26EE
330
2064
100
AcDbEntity
  8
Defpoints
 62
     0
440
 16777216
100
AcDbPoint
 10
2966.253475288437
 20
2180.368903573478
 30
0.0
  0
POINT
  5
26EF
330
2064
100
AcDbEntity
  8
Defpoints
 62
     0
440
 16777216
100
AcDbPoint
 10
2966.253475288437
 20
2135.868903573478
 30
0.0
  0
POINT
  5
26F0
330
2064
100
AcDbEntity
  8
Defpoints
 62
     0
440
 16777216
100
AcDbPoint
 10
2997.543738754335
 20
2135.868903573478
 30
0.0
  0
ENDBLK
  5
2066
330
2064
100
AcDbEntity
  8
0
100
AcDbBlockEnd
  0
BLOCK
  5
2071
330
2070
100
AcDbEntity
  8
0
100
AcDbBlockBegin
  2
*D18
 70
     1
 10
0.0
 20
0.0
 30
0.0
  3
*D18
  1

  0
LINE
  5
266D
330
2070
100
AcDbEntity
  8
寸法
440
 16777216
100
AcDbLine
 10
2966.953475288436
 20
2173.418903573477
 30
0.0
 11
2966.953475288436
 21
2192.924584681939
 31
0.0
  0
LINE
  5
266E
330
2070
100
AcDbEntity
  8
寸法
440
 16777216
100
AcDbLine
 10
2974.650755991859
 20
2169.868903573477
 30
0.0
 11
2974.650755991859
 21
2192.924584681939
 31
0.0
  0
LINE
  5
266F
330
2070
100
AcDbEntity
  8
寸法
440
 16777216
100
AcDbLine
 10
2968.203475288436
 20
2192.42458468194
 30
0.0
 11
2973.400755991859
 21
2192.42458468194
 31
0.0
  0
INSERT
  5
2670
330
2070
100
AcDbEntity
  8
寸法
440
 16777216
100
AcDbBlockReference
  2
_Open
 10
2966.953475288436
 20
2192.42458468194
 30
0.0
 41
1.25
 42
1.25
 43
1.25
 50
180.0
  0
INSERT
  5
2671
330
2070
100
AcDbEntity
  8
寸法
440
 16777216
100
AcDbBlockReference
  2
_Open
 10
2974.650755991859
 20
2192.42458468194
 30
0.0
 41
1.25
 42
1.25
 43
1.25
  0
MTEXT
  5
2672
330
2070
100
AcDbEntity
  8
寸法
440
 16777216
100
AcDbMText
 10
2970.802115640148
 20
2193.54958468194
 30
0.0
 40
1.25
 41
0.0
 46
0.0
 71
     5
 72
     1
  1
7.7
  7
寸法 2：1
 73
     1
 44
1.0
  0
POINT
  5
2673
330
2070
100
AcDbEntity
  8
Defpoints
 62
     0
440
 16777216
100
AcDbPoint
 10
2966.953475288436
 20
2172.918903573477
 30
0.0
  0
POINT
  5
2674
330
2070
100
AcDbEntity
  8
Defpoints
 62
     0
440
 16777216
100
AcDbPoint
 10
2974.650755991859
 20
2169.368903573476
 30
0.0
  0
POINT
  5
2675
330
2070
100
AcDbEntity
  8
Defpoints
 62
     0
440
 16777216
100
AcDbPoint
 10
2974.650755991859
 20
2192.42458468194
 30
0.0
  0
ENDBLK
  5
2072
330
2070
100
AcDbEntity
  8
0
100
AcDbBlockEnd
  0
BLOCK
  5
207E
330
207D
100
AcDbEntity
  8
0
100
AcDbBlockBegin
  2
*D19
 70
     1
 10
0.0
 20
0.0
 30
0.0
  3
*D19
  1

  0
LINE
  5
25DC
330
207D
100
AcDbEntity
  8
寸法
440
 16777216
100
AcDbLine
 10
2970.953475288437
 20
2170.818903573477
 30
0.0
 11
2992.351839753574
 21
2170.818903573477
 31
0.0
  0
LINE
  5
25DD
330
207D
100
AcDbEntity
  8
寸法
440
 16777216
100
AcDbLine
 10
2970.953475288437
 20
2145.418903573478
 30
0.0
 11
2992.351839753574
 21
2145.418903573478
 31
0.0
  0
LINE
  5
25DE
330
207D
100
AcDbEntity
  8
寸法
440
 16777216
100
AcDbLine
 10
2991.851839753574
 20
2169.568903573478
 30
0.0
 11
2991.851839753574
 21
2146.668903573478
 31
0.0
  0
INSERT
  5
25DF
330
207D
100
AcDbEntity
  8
寸法
440
 16777216
100
AcDbBlockReference
  2
_Open
 10
2991.851839753574
 20
2170.818903573477
 30
0.0
 41
1.25
 42
1.25
 43
1.25
 50
90.0
  0
INSERT
  5
25E0
330
207D
100
AcDbEntity
  8
寸法
440
 16777216
100
AcDbBlockReference
  2
_Open
 10
2991.851839753574
 20
2145.418903573478
 30
0.0
 41
1.25
 42
1.25
 43
1.25
 50
270.0
  0
MTEXT
  5
25E1
330
207D
100
AcDbEntity
  8
寸法
440
 16777216
100
AcDbMText
 10
2990.726839753574
 20
2158.118903573477
 30
0.0
 40
1.25
 41
0.0
 46
0.0
 71
     5
 72
     1
  1
1-32UNF
  7
寸法 2：1
 11
0.0000000000000001
 21
1.0
 31
0.0
 73
     1
 44
1.0
  0
POINT
  5
25E2
330
207D
100
AcDbEntity
  8
Defpoints
 62
     0
440
 16777216
100
AcDbPoint
 10
2970.453475288437
 20
2170.818903573477
 30
0.0
  0
POINT
  5
25E3
330
207D
100
AcDbEntity
  8
Defpoints
 62
     0
440
 16777216
100
AcDbPoint
 10
2970.453475288437
 20
2145.418903573478
 30
0.0
  0
POINT
  5
25E4
330
207D
100
AcDbEntity
  8
Defpoints
 62
     0
440
 16777216
100
AcDbPoint
 10
2991.851839753574
 20
2145.418903573478
 30
0.0
  0
ENDBLK
  5
207F
330
207D
100
AcDbEntity
  8
0
100
AcDbBlockEnd
  0
BLOCK
  5
208A
330
2089
100
AcDbEntity
  8
0
100
AcDbBlockBegin
  2
*D20
 70
     1
 10
0.0
 20
0.0
 30
0.0
  3
*D20
  1

  0
LINE
  5
270C
330
2089
100
AcDbEntity
  8
寸法
440
 16777216
100
AcDbLine
 10
2966.953475288437
 20
2173.418903573477
 30
0.0
 11
2966.953475288437
 21
2188.276260617267
 31
0.0
  0
LINE
  5
270D
330
2089
100
AcDbEntity
  8
寸法
440
 16777216
100
AcDbLine
 10
2970.953475288437
 20
2170.818903573477
 30
0.0
 11
2970.953475288437
 21
2188.276260617267
 31
0.0
  0
LINE
  5
270E
330
2089
100
AcDbEntity
  8
寸法
440
 16777216
100
AcDbLine
 10
2968.203475288437
 20
2187.776260617267
 30
0.0
 11
2969.703475288437
 21
2187.776260617267
 31
0.0
  0
INSERT
  5
270F
330
2089
100
AcDbEntity
  8
寸法
440
 16777216
100
AcDbBlockReference
  2
_Open
 10
2966.953475288437
 20
2187.776260617267
 30
0.0
 41
1.25
 42
1.25
 43
1.25
 50
180.0
  0
INSERT
  5
2710
330
2089
100
AcDbEntity
  8
寸法
440
 16777216
100
AcDbBlockReference
  2
_Open
 10
2970.953475288437
 20
2187.776260617267
 30
0.0
 41
1.25
 42
1.25
 43
1.25
  0
MTEXT
  5
2711
330
2089
100
AcDbEntity
  8
寸法
440
 16777216
100
AcDbMText
 10
2969.250364798889
 20
2188.901260617267
 30
0.0
 40
1.25
 41
0.0
 46
0.0
 71
     5
 72
     1
  1
4
  7
寸法 2：1
 73
     1
 44
1.0
  0
POINT
  5
2712
330
2089
100
AcDbEntity
  8
Defpoints
 62
     0
440
 16777216
100
AcDbPoint
 10
2966.953475288437
 20
2172.918903573477
 30
0.0
  0
POINT
  5
2713
330
2089
100
AcDbEntity
  8
Defpoints
 62
     0
440
 16777216
100
AcDbPoint
 10
2970.953475288437
 20
2170.318903573477
 30
0.0
  0
POINT
  5
2714
330
2089
100
AcDbEntity
  8
Defpoints
 62
     0
440
 16777216
100
AcDbPoint
 10
2970.953475288437
 20
2187.776260617267
 30
0.0
  0
ENDBLK
  5
208B
330
2089
100
AcDbEntity
  8
0
100
AcDbBlockEnd
  0
BLOCK
  5
2098
330
2097
100
AcDbEntity
  8
0
100
AcDbBlockBegin
  2
*D21
 70
     1
 10
0.0
 20
0.0
 30
0.0
  3
*D21
  1

  0
LINE
  5
267F
330
2097
100
AcDbEntity
  8
寸法
440
 16777216
100
AcDbLine
 10
2896.753675288438
 20
2188.118903573478
 30
0.0
 11
2872.580166132153
 21
2188.118903573478
 31
0.0
  0
LINE
  5
2680
330
2097
100
AcDbEntity
  8
寸法
440
 16777216
100
AcDbLine
 10
2896.753675288438
 20
2128.118903573478
 30
0.0
 11
2872.580166132153
 21
2128.118903573478
 31
0.0
  0
LINE
  5
2681
330
2097
100
AcDbEntity
  8
寸法
440
 16777216
100
AcDbLine
 10
2873.080166132153
 20
2186.868903573478
 30
0.0
 11
2873.080166132153
 21
2129.368903573478
 31
0.0
  0
INSERT
  5
2682
330
2097
100
AcDbEntity
  8
寸法
440
 16777216
100
AcDbBlockReference
  2
_Open
 10
2873.080166132153
 20
2188.118903573478
 30
0.0
 41
1.25
 42
1.25
 43
1.25
 50
90.0
  0
INSERT
  5
2683
330
2097
100
AcDbEntity
  8
寸法
440
 16777216
100
AcDbBlockReference
  2
_Open
 10
2873.080166132153
 20
2128.118903573478
 30
0.0
 41
1.25
 42
1.25
 43
1.25
 50
270.0
  0
MTEXT
  5
2684
330
2097
100
AcDbEntity
  8
寸法
440
 16777216
100
AcDbMText
 10
2871.955166132153
 20
2158.118903573477
 30
0.0
 40
1.25
 41
0.0
 46
0.0
 71
     5
 72
     1
  1
φ60
  7
寸法 2：1
 11
0.0000000000000001
 21
1.0
 31
0.0
 73
     1
 44
1.0
  0
POINT
  5
2685
330
2097
100
AcDbEntity
  8
Defpoints
 62
     0
440
 16777216
100
AcDbPoint
 10
2897.253675288438
 20
2188.118903573478
 30
0.0
  0
POINT
  5
2686
330
2097
100
AcDbEntity
  8
Defpoints
 62
     0
440
 16777216
100
AcDbPoint
 10
2897.253675288438
 20
2128.118903573478
 30
0.0
  0
POINT
  5
2687
330
2097
100
AcDbEntity
  8
Defpoints
 62
     0
440
 16777216
100
AcDbPoint
 10
2873.080166132153
 20
2128.118903573478
 30
0.0
  0
ENDBLK
  5
2099
330
2097
100
AcDbEntity
  8
0
100
AcDbBlockEnd
  0
BLOCK
  5
20A4
330
20A3
100
AcDbEntity
  8
0
100
AcDbBlockBegin
  2
*D22
 70
     1
 10
0.0
 20
0.0
 30
0.0
  3
*D22
  1

  0
LINE
  5
2715
330
20A3
100
AcDbEntity
  8
寸法
440
 16777216
100
AcDbLine
 10
2888.193475288436
 20
2158.618903573477
 30
0.0
 11
2888.193475288436
 21
2196.876298830354
 31
0.0
  0
LINE
  5
2716
330
20A3
100
AcDbEntity
  8
寸法
440
 16777216
100
AcDbLine
 10
2966.953475288436
 20
2173.418903573477
 30
0.0
 11
2966.953475288436
 21
2196.876298830354
 31
0.0
  0
LINE
  5
2717
330
20A3
100
AcDbEntity
  8
寸法
440
 16777216
100
AcDbLine
 10
2889.443475288437
 20
2196.376298830355
 30
0.0
 11
2965.703475288436
 21
2196.376298830355
 31
0.0
  0
INSERT
  5
2718
330
20A3
100
AcDbEntity
  8
寸法
440
 16777216
100
AcDbBlockReference
  2
_Open
 10
2888.193475288436
 20
2196.376298830355
 30
0.0
 41
1.25
 42
1.25
 43
1.25
 50
180.0
  0
INSERT
  5
2719
330
20A3
100
AcDbEntity
  8
寸法
440
 16777216
100
AcDbBlockReference
  2
_Open
 10
2966.953475288436
 20
2196.376298830355
 30
0.0
 41
1.25
 42
1.25
 43
1.25
  0
MTEXT
  5
271A
330
20A3
100
AcDbEntity
  8
寸法
440
 16777216
100
AcDbMText
 10
2927.573475288437
 20
2197.501298830355
 30
0.0
 40
1.25
 41
0.0
 46
0.0
 71
     5
 72
     1
  1
78.8
  7
寸法 2：1
 73
     1
 44
1.0
  0
POINT
  5
271B
330
20A3
100
AcDbEntity
  8
Defpoints
 62
     0
440
 16777216
100
AcDbPoint
 10
2888.193475288436
 20
2158.118903573477
 30
0.0
  0
POINT
  5
271C
330
20A3
100
AcDbEntity
  8
Defpoints
 62
     0
440
 16777216
100
AcDbPoint
 10
2966.953475288436
 20
2172.918903573477
 30
0.0
  0
POINT
  5
271D
330
20A3
100
AcDbEntity
  8
Defpoints
 62
     0
440
 16777216
100
AcDbPoint
 10
2966.953475288436
 20
2196.376298830355
 30
0.0
  0
ENDBLK
  5
20A5
330
20A3
100
AcDbEntity
  8
0
100
AcDbBlockEnd
  0
BLOCK
  5
20B0
330
20AF
100
AcDbEntity
  8
0
100
AcDbBlockBegin
  2
*D23
 70
     1
 10
0.0
 20
0.0
 30
0.0
  3
*D23
  1

  0
LINE
  5
254D
330
20AF
100
AcDbEntity
  8
寸法
440
 16777216
100
AcDbLine
 10
2966.953475288436
 20
2173.418903573477
 30
0.0
 11
2966.953475288436
 21
2192.924584681939
 31
0.0
  0
LINE
  5
254E
330
20AF
100
AcDbEntity
  8
寸法
440
 16777216
100
AcDbLine
 10
2896.953475288436
 20
2188.318903573477
 30
0.0
 11
2896.953475288436
 21
2192.924584681939
 31
0.0
  0
LINE
  5
254F
330
20AF
100
AcDbEntity
  8
寸法
440
 16777216
100
AcDbLine
 10
2965.703475288436
 20
2192.42458468194
 30
0.0
 11
2898.203475288436
 21
2192.42458468194
 31
0.0
  0
INSERT
  5
2550
330
20AF
100
AcDbEntity
  8
寸法
440
 16777216
100
AcDbBlockReference
  2
_Open
 10
2966.953475288436
 20
2192.42458468194
 30
0.0
 41
1.25
 42
1.25
 43
1.25
  0
INSERT
  5
2551
330
20AF
100
AcDbEntity
  8
寸法
440
 16777216
100
AcDbBlockReference
  2
_Open
 10
2896.953475288436
 20
2192.42458468194
 30
0.0
 41
1.25
 42
1.25
 43
1.25
 50
180.0
  0
MTEXT
  5
2552
330
20AF
100
AcDbEntity
  8
寸法
440
 16777216
100
AcDbMText
 10
2931.953475288436
 20
2193.54958468194
 30
0.0
 40
1.25
 41
0.0
 46
0.0
 71
     5
 72
     1
  1
70
  7
寸法 2：1
 73
     1
 44
1.0
  0
POINT
  5
2553
330
20AF
100
AcDbEntity
  8
Defpoints
 62
     0
440
 16777216
100
AcDbPoint
 10
2966.953475288436
 20
2172.918903573477
 30
0.0
  0
POINT
  5
2554
330
20AF
100
AcDbEntity
  8
Defpoints
 62
     0
440
 16777216
100
AcDbPoint
 10
2896.953475288436
 20
2187.818903573477
 30
0.0
  0
POINT
  5
2555
330
20AF
100
AcDbEntity
  8
Defpoints
 62
     0
440
 16777216
100
AcDbPoint
 10
2896.953475288436
 20
2192.42458468194
 30
0.0
  0
ENDBLK
  5
20B1
330
20AF
100
AcDbEntity
  8
0
100
AcDbBlockEnd
  0
BLOCK
  5
20BC
330
20BB
100
AcDbEntity
  8
0
100
AcDbBlockBegin
  2
*D24
 70
     1
 10
0.0
 20
0.0
 30
0.0
  3
*D24
  1

  0
LINE
  5
271E
330
20BB
100
AcDbEntity
  8
寸法
440
 16777216
100
AcDbLine
 10
2966.953475288436
 20
2173.418903573477
 30
0.0
 11
2966.953475288436
 21
2196.876298830354
 31
0.0
  0
LINE
  5
271F
330
20BB
100
AcDbEntity
  8
寸法
440
 16777216
100
AcDbLine
 10
2984.479475288436
 20
2167.644903573477
 30
0.0
 11
2984.479475288436
 21
2196.876298830354
 31
0.0
  0
LINE
  5
2720
330
20BB
100
AcDbEntity
  8
寸法
440
 16777216
100
AcDbLine
 10
2968.203475288436
 20
2196.376298830355
 30
0.0
 11
2983.229475288437
 21
2196.376298830355
 31
0.0
  0
INSERT
  5
2721
330
20BB
100
AcDbEntity
  8
寸法
440
 16777216
100
AcDbBlockReference
  2
_Open
 10
2966.953475288436
 20
2196.376298830355
 30
0.0
 41
1.25
 42
1.25
 43
1.25
 50
180.0
  0
INSERT
  5
2722
330
20BB
100
AcDbEntity
  8
寸法
440
 16777216
100
AcDbBlockReference
  2
_Open
 10
2984.479475288436
 20
2196.376298830355
 30
0.0
 41
1.25
 42
1.25
 43
1.25
  0
MTEXT
  5
2723
330
20BB
100
AcDbEntity
  8
寸法
440
 16777216
100
AcDbMText
 10
2975.716475288436
 20
2197.501298830355
 30
0.0
 40
1.25
 41
0.0
 46
0.0
 71
     5
 72
     1
  1
BF=17.526
  7
寸法 2：1
 73
     1
 44
1.0
  0
POINT
  5
2724
330
20BB
100
AcDbEntity
  8
Defpoints
 62
     0
440
 16777216
100
AcDbPoint
 10
2966.953475288436
 20
2172.918903573477
 30
0.0
  0
POINT
  5
2725
330
20BB
100
AcDbEntity
  8
Defpoints
 62
     0
440
 16777216
100
AcDbPoint
 10
2984.479475288436
 20
2167.144903573477
 30
0.0
  0
POINT
  5
2726
330
20BB
100
AcDbEntity
  8
Defpoints
 62
     0
440
 16777216
100
AcDbPoint
 10
2984.479475288436
 20
2196.376298830355
 30
0.0
  0
ENDBLK
  5
20BD
330
20BB
100
AcDbEntity
  8
0
100
AcDbBlockEnd
  0
ENDSEC
  0
SECTION
  2
ENTITIES
  0
LINE
  5
1073
330
1F
100
AcDbEntity
  8
実線
100
AcDbLine
 10
2974.650755991859
 20
2146.868903573477
 30
0.0
 11
2974.650755991859
 21
2169.368903573476
 31
0.0
  0
LINE
  5
1074
330
1F
100
AcDbEntity
  8
実線
100
AcDbLine
 10
2974.450755991858
 20
2169.568903573477
 30
0.0
 11
2974.650755991859
 21
2169.368903573476
 31
0.0
  0
LINE
  5
107D
330
1F
100
AcDbEntity
  8
実線
100
AcDbLine
 10
2970.953475288437
 20
2169.568903573477
 30
0.0
 11
2974.450755991858
 21
2169.568903573477
 31
0.0
  0
LINE
  5
1086
330
1F
100
AcDbEntity
  8
実線
100
AcDbLine
 10
2974.450755991858
 20
2146.668903573477
 30
0.0
 11
2974.650755991859
 21
2146.868903573477
 31
0.0
  0
LINE
  5
108F
330
1F
100
AcDbEntity
  8
実線
100
AcDbLine
 10
2970.953475288437
 20
2146.668903573477
 30
0.0
 11
2974.450755991858
 21
2146.668903573477
 31
0.0
  0
HATCH
  5
1348
102
{ACAD_REACTORS
330
1603
102
}
330
1F
100
AcDbEntity
  8
細線
100
AcDbHatch
 10
0.0
 20
0.0
 30
0.0
210
0.0
220
0.0
230
1.0
  2
ANSI31
 70
     0
 71
     1
 91
        2
 92
        7
 72
     0
 73
     1
 93
        4
 10
2901.253675288435
 20
2158.118903573477
 10
2902.753675288435
 20
2158.118903573477
 10
2902.753675288438
 20
2188.118903573477
 10
2901.253675288438
 20
2188.118903573477
 97
        4
330
1442
330
143F
330
1349
330
1440
 92
        7
 72
     0
 73
     1
 93
        4
 10
2902.753675288435
 20
2158.118903573477
 10
2901.253675288435
 20
2158.118903573477
 10
2901.253675288433
 20
2128.118903573477
 10
2902.753675288433
 20
2128.118903573477
 97
        4
330
1349
330
143F
330
13C4
330
1440
 75
     1
 76
     1
 52
0.0
 41
0.1
 77
     0
 78
     1
 53
45.0
 43
2849.439388493379
 44
1979.406886175417
 45
-0.2245064030267288
 46
0.2245064030267288
 79
     0
 47
0.1608449070499268
 98
        2
 10
2901.896337169669
 20
2184.137814938384
 10
2902.267149257939
 20
2146.59645167731
1001
GradientColor1ACI
1070
     5
1001
GradientColor2ACI
1070
     2
1001
ACAD
1010
0.0
1020
0.0
1030
0.0
  0
LINE
  5
1349
102
{ACAD_REACTORS
330
1348
330
1603
102
}
330
1F
100
AcDbEntity
  8
中心
 48
0.5
100
AcDbLine
 10
2877.141138241879
 20
2158.118903573477
 30
0.0
 11
2984.479475288436
 21
2158.118903573477
 31
0.0
  0
LINE
  5
134A
102
{ACAD_REACTORS
330
1603
102
}
330
1F
100
AcDbEntity
  8
実線
 48
0.5
100
AcDbLine
 10
2955.753475288436
 20
2180.368903573477
 30
0.0
 11
2966.253475288436
 21
2180.368903573477
 31
0.0
  0
LINE
  5
134B
102
{ACAD_REACTORS
330
1603
102
}
330
1F
100
AcDbEntity
  8
細線
100
AcDbLine
 10
2955.753475288436
 20
2179.932025092657
 30
0.0
 11
2966.253475288436
 21
2179.932025092657
 31
0.0
  0
LINE
  5
134C
102
{ACAD_REACTORS
330
1603
102
}
330
1F
100
AcDbEntity
  8
細線
100
AcDbLine
 10
2955.753475288436
 20
2180.100523978556
 30
0.0
 11
2966.253475288436
 21
2180.100523978556
 31
0.0
  0
LINE
  5
134D
102
{ACAD_REACTORS
330
1603
102
}
330
1F
100
AcDbEntity
  8
細線
100
AcDbLine
 10
2955.753475288436
 20
2180.227179600662
 30
0.0
 11
2966.253475288436
 21
2180.227179600662
 31
0.0
  0
LINE
  5
134E
102
{ACAD_REACTORS
330
1603
102
}
330
1F
100
AcDbEntity
  8
細線
100
AcDbLine
 10
2955.753475288436
 20
2180.311750862797
 30
0.0
 11
2966.253475288436
 21
2180.311750862797
 31
0.0
  0
LINE
  5
134F
102
{ACAD_REACTORS
330
1603
102
}
330
1F
100
AcDbEntity
  8
細線
100
AcDbLine
 10
2955.753475288436
 20
2180.354076778758
 30
0.0
 11
2966.253475288436
 21
2180.354076778758
 31
0.0
  0
LINE
  5
1350
102
{ACAD_REACTORS
330
1603
102
}
330
1F
100
AcDbEntity
  8
細線
100
AcDbLine
 10
2955.753475288436
 20
2176.054607241605
 30
0.0
 11
2966.253475288436
 21
2176.054607241605
 31
0.0
  0
LINE
  5
1351
102
{ACAD_REACTORS
330
1603
102
}
330
1F
100
AcDbEntity
  8
細線
100
AcDbLine
 10
2955.753475288436
 20
2176.6111750778
 30
0.0
 11
2966.253475288436
 21
2176.6111750778
 31
0.0
  0
LINE
  5
1352
102
{ACAD_REACTORS
330
1603
102
}
330
1F
100
AcDbEntity
  8
細線
100
AcDbLine
 10
2955.753475288436
 20
2177.132541824157
 30
0.0
 11
2966.253475288436
 21
2177.132541824157
 31
0.0
  0
LINE
  5
1353
102
{ACAD_REACTORS
330
1603
102
}
330
1F
100
AcDbEntity
  8
細線
100
AcDbLine
 10
2955.753475288436
 20
2177.617715029438
 30
0.0
 11
2966.253475288436
 21
2177.617715029438
 31
0.0
  0
LINE
  5
1354
102
{ACAD_REACTORS
330
1603
102
}
330
1F
100
AcDbEntity
  8
細線
100
AcDbLine
 10
2955.753475288436
 20
2178.065771138872
 30
0.0
 11
2966.253475288436
 21
2178.065771138872
 31
0.0
  0
LINE
  5
1355
102
{ACAD_REACTORS
330
1603
102
}
330
1F
100
AcDbEntity
  8
細線
100
AcDbLine
 10
2955.753475288436
 20
2178.475857252191
 30
0.0
 11
2966.253475288436
 21
2178.475857252191
 31
0.0
  0
LINE
  5
1356
102
{ACAD_REACTORS
330
1603
102
}
330
1F
100
AcDbEntity
  8
細線
100
AcDbLine
 10
2955.753475288436
 20
2178.847192747168
 30
0.0
 11
2966.253475288436
 21
2178.847192747168
 31
0.0
  0
LINE
  5
1357
102
{ACAD_REACTORS
330
1603
102
}
330
1F
100
AcDbEntity
  8
細線
100
AcDbLine
 10
2955.753475288436
 20
2179.179070765584
 30
0.0
 11
2966.253475288436
 21
2179.179070765584
 31
0.0
  0
LINE
  5
1358
102
{ACAD_REACTORS
330
1603
102
}
330
1F
100
AcDbEntity
  8
細線
100
AcDbLine
 10
2955.753475288436
 20
2179.470859558768
 30
0.0
 11
2966.253475288436
 21
2179.470859558768
 31
0.0
  0
LINE
  5
1359
102
{ACAD_REACTORS
330
1603
102
}
330
1F
100
AcDbEntity
  8
細線
100
AcDbLine
 10
2955.753475288436
 20
2179.722003690168
 30
0.0
 11
2966.253475288436
 21
2179.722003690168
 31
0.0
  0
LINE
  5
135A
102
{ACAD_REACTORS
330
1603
102
}
330
1F
100
AcDbEntity
  8
細線
100
AcDbLine
 10
2955.353475288437
 20
2168.993903573477
 30
0.0
 11
2966.653475288437
 21
2168.993903573477
 31
0.0
  0
LINE
  5
135B
102
{ACAD_REACTORS
330
1603
102
}
330
1F
100
AcDbEntity
  8
細線
100
AcDbLine
 10
2955.353475288437
 20
2169.80517005502
 30
0.0
 11
2966.653475288437
 21
2169.80517005502
 31
0.0
  0
LINE
  5
135C
102
{ACAD_REACTORS
330
1603
102
}
330
1F
100
AcDbEntity
  8
細線
100
AcDbLine
 10
2955.353475288437
 20
2170.594191064112
 30
0.0
 11
2966.653475288437
 21
2170.594191064112
 31
0.0
  0
LINE
  5
135D
102
{ACAD_REACTORS
330
1603
102
}
330
1F
100
AcDbEntity
  8
細線
100
AcDbLine
 10
2955.353475288437
 20
2171.359464654416
 30
0.0
 11
2966.653475288437
 21
2171.359464654416
 31
0.0
  0
LINE
  5
135E
102
{ACAD_REACTORS
330
1603
102
}
330
1F
100
AcDbEntity
  8
細線
100
AcDbLine
 10
2955.753475288436
 20
2168.816317855108
 30
0.0
 11
2966.253475288437
 21
2168.816317855108
 31
0.0
  0
LINE
  5
135F
102
{ACAD_REACTORS
330
1603
102
}
330
1F
100
AcDbEntity
  8
細線
100
AcDbLine
 10
2955.753475288436
 20
2169.656662497127
 30
0.0
 11
2966.253475288436
 21
2169.656662497127
 31
0.0
  0
LINE
  5
1360
102
{ACAD_REACTORS
330
1603
102
}
330
1F
100
AcDbEntity
  8
細線
100
AcDbLine
 10
2955.753475288436
 20
2170.47504435927
 30
0.0
 11
2966.253475288436
 21
2170.47504435927
 31
0.0
  0
LINE
  5
1361
102
{ACAD_REACTORS
330
1603
102
}
330
1F
100
AcDbEntity
  8
細線
100
AcDbLine
 10
2955.753475288436
 20
2171.26990560515
 30
0.0
 11
2966.253475288436
 21
2171.26990560515
 31
0.0
  0
LINE
  5
1362
102
{ACAD_REACTORS
330
1603
102
}
330
1F
100
AcDbEntity
  8
細線
100
AcDbLine
 10
2955.353475288437
 20
2172.099534084159
 30
0.0
 11
2966.653475288437
 21
2172.099534084159
 31
0.0
  0
LINE
  5
1363
102
{ACAD_REACTORS
330
1603
102
}
330
1F
100
AcDbEntity
  8
細線
100
AcDbLine
 10
2955.353475288437
 20
2172.812990589117
 30
0.0
 11
2966.653475288437
 21
2172.812990589117
 31
0.0
  0
LINE
  5
1364
102
{ACAD_REACTORS
330
1603
102
}
330
1F
100
AcDbEntity
  8
細線
100
AcDbLine
 10
2955.753475288436
 20
2173.498476064284
 30
0.0
 11
2966.653475288437
 21
2173.498476064284
 31
0.0
  0
LINE
  5
1365
102
{ACAD_REACTORS
330
1603
102
}
330
1F
100
AcDbEntity
  8
細線
100
AcDbLine
 10
2955.753475288436
 20
2172.039733171209
 30
0.0
 11
2966.253475288436
 21
2172.039733171209
 31
0.0
  0
LINE
  5
1366
102
{ACAD_REACTORS
330
1603
102
}
330
1F
100
AcDbEntity
  8
細線
100
AcDbLine
 10
2955.753475288436
 20
2172.783061646922
 30
0.0
 11
2966.253475288436
 21
2172.783061646922
 31
0.0
  0
LINE
  5
1367
102
{ACAD_REACTORS
330
1603
102
}
330
1F
100
AcDbEntity
  8
細線
100
AcDbLine
 10
2955.753475288436
 20
2174.184614591292
 30
0.0
 11
2966.253475288436
 21
2174.184614591292
 31
0.0
  0
LINE
  5
1368
102
{ACAD_REACTORS
330
1603
102
}
330
1F
100
AcDbEntity
  8
細線
100
AcDbLine
 10
2955.753475288436
 20
2174.840171124264
 30
0.0
 11
2966.253475288436
 21
2174.840171124264
 31
0.0
  0
LINE
  5
1369
102
{ACAD_REACTORS
330
1603
102
}
330
1F
100
AcDbEntity
  8
細線
100
AcDbLine
 10
2955.753475288436
 20
2175.463897774077
 30
0.0
 11
2966.253475288436
 21
2175.463897774077
 31
0.0
  0
LINE
  5
136A
102
{ACAD_REACTORS
330
1603
102
}
330
1F
100
AcDbEntity
  8
細線
100
AcDbLine
 10
2955.353475288437
 20
2162.826465176631
 30
0.0
 11
2966.653475288437
 21
2162.826465176631
 31
0.0
  0
LINE
  5
136B
102
{ACAD_REACTORS
330
1603
102
}
330
1F
100
AcDbEntity
  8
細線
100
AcDbLine
 10
2955.753475288436
 20
2162.457803214798
 30
0.0
 11
2966.253475288437
 21
2162.457803214798
 31
0.0
  0
LINE
  5
136C
102
{ACAD_REACTORS
330
1603
102
}
330
1F
100
AcDbEntity
  8
細線
100
AcDbLine
 10
2955.753475288436
 20
2163.405148540952
 30
0.0
 11
2966.253475288437
 21
2163.405148540952
 31
0.0
  0
LINE
  5
136D
102
{ACAD_REACTORS
330
1603
102
}
330
1F
100
AcDbEntity
  8
細線
100
AcDbLine
 10
2955.353475288437
 20
2161.895751437732
 30
0.0
 11
2966.653475288437
 21
2161.895751437732
 31
0.0
  0
LINE
  5
136E
102
{ACAD_REACTORS
330
1603
102
}
330
1F
100
AcDbEntity
  8
細線
100
AcDbLine
 10
2955.353475288437
 20
2163.748217804457
 30
0.0
 11
2966.653475288437
 21
2163.748217804457
 31
0.0
  0
LINE
  5
136F
102
{ACAD_REACTORS
330
1603
102
}
330
1F
100
AcDbEntity
  8
細線
100
AcDbLine
 10
2955.353475288437
 20
2164.659254712695
 30
0.0
 11
2966.653475288437
 21
2164.659254712695
 31
0.0
  0
LINE
  5
1370
102
{ACAD_REACTORS
330
1603
102
}
330
1F
100
AcDbEntity
  8
細線
100
AcDbLine
 10
2955.753475288436
 20
2164.342431199361
 30
0.0
 11
2966.253475288437
 21
2164.342431199361
 31
0.0
  0
LINE
  5
1371
102
{ACAD_REACTORS
330
1603
102
}
330
1F
100
AcDbEntity
  8
細線
100
AcDbLine
 10
2955.753475288436
 20
2165.267867019212
 30
0.0
 11
2966.253475288437
 21
2165.267867019212
 31
0.0
  0
LINE
  5
1372
102
{ACAD_REACTORS
330
1603
102
}
330
1F
100
AcDbEntity
  8
細線
100
AcDbLine
 10
2955.353475288437
 20
2165.557841690811
 30
0.0
 11
2966.653475288437
 21
2165.557841690811
 31
0.0
  0
LINE
  5
1373
102
{ACAD_REACTORS
330
1603
102
}
330
1F
100
AcDbEntity
  8
細線
100
AcDbLine
 10
2955.753475288436
 20
2166.179694380824
 30
0.0
 11
2966.253475288437
 21
2166.179694380824
 31
0.0
  0
LINE
  5
1374
102
{ACAD_REACTORS
330
1603
102
}
330
1F
100
AcDbEntity
  8
細線
100
AcDbLine
 10
2955.353475288437
 20
2166.442268227417
 30
0.0
 11
2966.653475288437
 21
2166.442268227417
 31
0.0
  0
LINE
  5
1375
102
{ACAD_REACTORS
330
1603
102
}
330
1F
100
AcDbEntity
  8
細線
100
AcDbLine
 10
2955.353475288437
 20
2168.161935911339
 30
0.0
 11
2966.653475288437
 21
2168.161935911339
 31
0.0
  0
LINE
  5
1376
102
{ACAD_REACTORS
330
1603
102
}
330
1F
100
AcDbEntity
  8
細線
100
AcDbLine
 10
2955.753475288436
 20
2167.076177568988
 30
0.0
 11
2966.253475288437
 21
2167.076177568988
 31
0.0
  0
LINE
  5
1377
102
{ACAD_REACTORS
330
1603
102
}
330
1F
100
AcDbEntity
  8
細線
100
AcDbLine
 10
2955.753475288436
 20
2167.955610077004
 30
0.0
 11
2966.253475288437
 21
2167.955610077004
 31
0.0
  0
LINE
  5
1378
102
{ACAD_REACTORS
330
1603
102
}
330
1F
100
AcDbEntity
  8
細線
100
AcDbLine
 10
2955.353475288437
 20
2167.310850766337
 30
0.0
 11
2966.653475288437
 21
2167.310850766337
 31
0.0
  0
LINE
  5
1379
102
{ACAD_REACTORS
330
1603
102
}
330
1F
100
AcDbEntity
  8
細線
100
AcDbLine
 10
2955.353475288437
 20
2159.067625248673
 30
0.0
 11
2966.653475288437
 21
2159.067625248673
 31
0.0
  0
LINE
  5
137A
102
{ACAD_REACTORS
330
1603
102
}
330
1F
100
AcDbEntity
  8
細線
100
AcDbLine
 10
2955.353475288437
 20
2160.014540978238
 30
0.0
 11
2966.653475288437
 21
2160.014540978238
 31
0.0
  0
LINE
  5
137B
102
{ACAD_REACTORS
330
1603
102
}
330
1F
100
AcDbEntity
  8
細線
100
AcDbLine
 10
2955.353475288437
 20
2160.957848254263
 30
0.0
 11
2966.653475288437
 21
2160.957848254263
 31
0.0
  0
LINE
  5
137C
102
{ACAD_REACTORS
330
1603
102
}
330
1F
100
AcDbEntity
  8
細線
100
AcDbLine
 10
2955.753475288436
 20
2159.573499634549
 30
0.0
 11
2966.253475288437
 21
2159.573499634549
 31
0.0
  0
LINE
  5
137D
102
{ACAD_REACTORS
330
1603
102
}
330
1F
100
AcDbEntity
  8
細線
100
AcDbLine
 10
2955.753475288436
 20
2160.540153584063
 30
0.0
 11
2966.253475288437
 21
2160.540153584063
 31
0.0
  0
LINE
  5
137E
102
{ACAD_REACTORS
330
1603
102
}
330
1F
100
AcDbEntity
  8
細線
100
AcDbLine
 10
2955.753475288436
 20
2161.502198546568
 30
0.0
 11
2966.253475288437
 21
2161.502198546568
 31
0.0
  0
LINE
  5
137F
102
{ACAD_REACTORS
330
1603
102
}
330
1F
100
AcDbEntity
  8
細線
100
AcDbLine
 10
2955.753475288436
 20
2158.604076778758
 30
0.0
 11
2966.253475288437
 21
2158.604076778758
 31
0.0
  0
LINE
  5
1380
102
{ACAD_REACTORS
330
1603
102
}
330
1F
100
AcDbEntity
  8
細線
100
AcDbLine
 10
2955.753475288436
 20
2154.735608600386
 30
0.0
 11
2966.253475288437
 21
2154.735608600386
 31
0.0
  0
LINE
  5
1381
102
{ACAD_REACTORS
330
1603
102
}
330
1F
100
AcDbEntity
  8
細線
100
AcDbLine
 10
2955.753475288436
 20
2155.69765356289
 30
0.0
 11
2966.253475288437
 21
2155.69765356289
 31
0.0
  0
LINE
  5
1382
102
{ACAD_REACTORS
330
1603
102
}
330
1F
100
AcDbEntity
  8
細線
100
AcDbLine
 10
2955.753475288436
 20
2156.664307512405
 30
0.0
 11
2966.253475288437
 21
2156.664307512405
 31
0.0
  0
LINE
  5
1383
102
{ACAD_REACTORS
330
1603
102
}
330
1F
100
AcDbEntity
  8
細線
100
AcDbLine
 10
2955.753475288436
 20
2157.633730368196
 30
0.0
 11
2966.253475288437
 21
2157.633730368196
 31
0.0
  0
LINE
  5
1384
102
{ACAD_REACTORS
330
1603
102
}
330
1F
100
AcDbEntity
  8
細線
100
AcDbLine
 10
2955.353475288437
 20
2155.279958892691
 30
0.0
 11
2966.653475288437
 21
2155.279958892691
 31
0.0
  0
LINE
  5
1385
102
{ACAD_REACTORS
330
1603
102
}
330
1F
100
AcDbEntity
  8
細線
100
AcDbLine
 10
2955.353475288437
 20
2156.223266168715
 30
0.0
 11
2966.653475288437
 21
2156.223266168715
 31
0.0
  0
LINE
  5
1386
102
{ACAD_REACTORS
330
1603
102
}
330
1F
100
AcDbEntity
  8
細線
100
AcDbLine
 10
2955.353475288437
 20
2157.17018189828
 30
0.0
 11
2966.653475288437
 21
2157.17018189828
 31
0.0
  0
LINE
  5
1387
102
{ACAD_REACTORS
330
1603
102
}
330
1F
100
AcDbEntity
  8
細線
100
AcDbLine
 10
2955.353475288437
 20
2148.926956380616
 30
0.0
 11
2966.653475288437
 21
2148.926956380616
 31
0.0
  0
LINE
  5
1388
102
{ACAD_REACTORS
330
1603
102
}
330
1F
100
AcDbEntity
  8
細線
100
AcDbLine
 10
2955.753475288436
 20
2148.28219706995
 30
0.0
 11
2966.253475288437
 21
2148.28219706995
 31
0.0
  0
LINE
  5
1389
102
{ACAD_REACTORS
330
1603
102
}
330
1F
100
AcDbEntity
  8
細線
100
AcDbLine
 10
2955.753475288436
 20
2149.161629577965
 30
0.0
 11
2966.253475288437
 21
2149.161629577965
 31
0.0
  0
LINE
  5
138A
102
{ACAD_REACTORS
330
1603
102
}
330
1F
100
AcDbEntity
  8
細線
100
AcDbLine
 10
2955.753475288436
 20
2150.05811276613
 30
0.0
 11
2966.253475288437
 21
2150.05811276613
 31
0.0
  0
LINE
  5
138B
102
{ACAD_REACTORS
330
1603
102
}
330
1F
100
AcDbEntity
  8
細線
100
AcDbLine
 10
2955.753475288436
 20
2150.969940127741
 30
0.0
 11
2966.253475288437
 21
2150.969940127741
 31
0.0
  0
LINE
  5
138C
102
{ACAD_REACTORS
330
1603
102
}
330
1F
100
AcDbEntity
  8
細線
100
AcDbLine
 10
2955.753475288436
 20
2151.895375947592
 30
0.0
 11
2966.253475288437
 21
2151.895375947592
 31
0.0
  0
LINE
  5
138D
102
{ACAD_REACTORS
330
1603
102
}
330
1F
100
AcDbEntity
  8
細線
100
AcDbLine
 10
2955.353475288437
 20
2148.075871235615
 30
0.0
 11
2966.653475288437
 21
2148.075871235615
 31
0.0
  0
LINE
  5
138E
102
{ACAD_REACTORS
330
1603
102
}
330
1F
100
AcDbEntity
  8
細線
100
AcDbLine
 10
2955.353475288437
 20
2149.795538919536
 30
0.0
 11
2966.653475288437
 21
2149.795538919536
 31
0.0
  0
LINE
  5
138F
102
{ACAD_REACTORS
330
1603
102
}
330
1F
100
AcDbEntity
  8
細線
100
AcDbLine
 10
2955.353475288437
 20
2150.679965456144
 30
0.0
 11
2966.653475288437
 21
2150.679965456144
 31
0.0
  0
LINE
  5
1390
102
{ACAD_REACTORS
330
1603
102
}
330
1F
100
AcDbEntity
  8
細線
100
AcDbLine
 10
2955.353475288437
 20
2151.578552434258
 30
0.0
 11
2966.653475288437
 21
2151.578552434258
 31
0.0
  0
LINE
  5
1391
102
{ACAD_REACTORS
330
1603
102
}
330
1F
100
AcDbEntity
  8
細線
100
AcDbLine
 10
2955.353475288437
 20
2152.489589342497
 30
0.0
 11
2966.653475288437
 21
2152.489589342497
 31
0.0
  0
LINE
  5
1392
102
{ACAD_REACTORS
330
1603
102
}
330
1F
100
AcDbEntity
  8
細線
100
AcDbLine
 10
2955.753475288436
 20
2152.832658606001
 30
0.0
 11
2966.253475288437
 21
2152.832658606001
 31
0.0
  0
LINE
  5
1393
102
{ACAD_REACTORS
330
1603
102
}
330
1F
100
AcDbEntity
  8
細線
100
AcDbLine
 10
2955.353475288437
 20
2154.34205570922
 30
0.0
 11
2966.653475288437
 21
2154.34205570922
 31
0.0
  0
LINE
  5
1394
102
{ACAD_REACTORS
330
1603
102
}
330
1F
100
AcDbEntity
  8
細線
100
AcDbLine
 10
2955.753475288436
 20
2153.780003932157
 30
0.0
 11
2966.253475288437
 21
2153.780003932157
 31
0.0
  0
LINE
  5
1395
102
{ACAD_REACTORS
330
1603
102
}
330
1F
100
AcDbEntity
  8
細線
100
AcDbLine
 10
2955.353475288437
 20
2153.411341970323
 30
0.0
 11
2966.653475288437
 21
2153.411341970323
 31
0.0
  0
LINE
  5
1396
102
{ACAD_REACTORS
330
1603
102
}
330
1F
100
AcDbEntity
  8
細線
100
AcDbLine
 10
2955.753475288436
 20
2140.773909372877
 30
0.0
 11
2966.253475288436
 21
2140.773909372877
 31
0.0
  0
LINE
  5
1397
102
{ACAD_REACTORS
330
1603
102
}
330
1F
100
AcDbEntity
  8
細線
100
AcDbLine
 10
2955.753475288436
 20
2141.39763602269
 30
0.0
 11
2966.253475288436
 21
2141.39763602269
 31
0.0
  0
LINE
  5
1398
102
{ACAD_REACTORS
330
1603
102
}
330
1F
100
AcDbEntity
  8
細線
100
AcDbLine
 10
2955.753475288436
 20
2142.05319255566
 30
0.0
 11
2966.253475288436
 21
2142.05319255566
 31
0.0
  0
LINE
  5
1399
102
{ACAD_REACTORS
330
1603
102
}
330
1F
100
AcDbEntity
  8
細線
100
AcDbLine
 10
2955.753475288436
 20
2143.454745500032
 30
0.0
 11
2966.253475288436
 21
2143.454745500032
 31
0.0
  0
LINE
  5
139A
102
{ACAD_REACTORS
330
1603
102
}
330
1F
100
AcDbEntity
  8
細線
100
AcDbLine
 10
2955.753475288436
 20
2144.198073975744
 30
0.0
 11
2966.253475288436
 21
2144.198073975744
 31
0.0
  0
LINE
  5
139B
102
{ACAD_REACTORS
330
1603
102
}
330
1F
100
AcDbEntity
  8
細線
100
AcDbLine
 10
2955.753475288436
 20
2142.739331082669
 30
0.0
 11
2966.653475288437
 21
2142.739331082669
 31
0.0
  0
LINE
  5
139C
102
{ACAD_REACTORS
330
1603
102
}
330
1F
100
AcDbEntity
  8
細線
100
AcDbLine
 10
2955.353475288437
 20
2143.424816557836
 30
0.0
 11
2966.653475288437
 21
2143.424816557836
 31
0.0
  0
LINE
  5
139D
102
{ACAD_REACTORS
330
1603
102
}
330
1F
100
AcDbEntity
  8
細線
100
AcDbLine
 10
2955.353475288437
 20
2144.138273062795
 30
0.0
 11
2966.653475288437
 21
2144.138273062795
 31
0.0
  0
LINE
  5
139E
102
{ACAD_REACTORS
330
1603
102
}
330
1F
100
AcDbEntity
  8
細線
100
AcDbLine
 10
2955.753475288436
 20
2144.967901541804
 30
0.0
 11
2966.253475288436
 21
2144.967901541804
 31
0.0
  0
LINE
  5
139F
102
{ACAD_REACTORS
330
1603
102
}
330
1F
100
AcDbEntity
  8
細線
100
AcDbLine
 10
2955.753475288436
 20
2145.762762787684
 30
0.0
 11
2966.253475288436
 21
2145.762762787684
 31
0.0
  0
LINE
  5
13A0
102
{ACAD_REACTORS
330
1603
102
}
330
1F
100
AcDbEntity
  8
細線
100
AcDbLine
 10
2955.753475288436
 20
2146.581144649827
 30
0.0
 11
2966.253475288436
 21
2146.581144649827
 31
0.0
  0
LINE
  5
13A1
102
{ACAD_REACTORS
330
1603
102
}
330
1F
100
AcDbEntity
  8
細線
100
AcDbLine
 10
2955.753475288436
 20
2147.421489291845
 30
0.0
 11
2966.253475288437
 21
2147.421489291845
 31
0.0
  0
LINE
  5
13A2
102
{ACAD_REACTORS
330
1603
102
}
330
1F
100
AcDbEntity
  8
細線
100
AcDbLine
 10
2955.353475288437
 20
2144.878342492537
 30
0.0
 11
2966.653475288437
 21
2144.878342492537
 31
0.0
  0
LINE
  5
13A3
102
{ACAD_REACTORS
330
1603
102
}
330
1F
100
AcDbEntity
  8
細線
100
AcDbLine
 10
2955.353475288437
 20
2145.643616082842
 30
0.0
 11
2966.653475288437
 21
2145.643616082842
 31
0.0
  0
LINE
  5
13A4
102
{ACAD_REACTORS
330
1603
102
}
330
1F
100
AcDbEntity
  8
細線
100
AcDbLine
 10
2955.353475288437
 20
2146.432637091933
 30
0.0
 11
2966.653475288437
 21
2146.432637091933
 31
0.0
  0
LINE
  5
13A5
102
{ACAD_REACTORS
330
1603
102
}
330
1F
100
AcDbEntity
  8
細線
100
AcDbLine
 10
2955.353475288437
 20
2147.243903573477
 30
0.0
 11
2966.653475288437
 21
2147.243903573477
 31
0.0
  0
LINE
  5
13A6
102
{ACAD_REACTORS
330
1603
102
}
330
1F
100
AcDbEntity
  8
細線
100
AcDbLine
 10
2955.753475288436
 20
2138.172036008081
 30
0.0
 11
2966.253475288436
 21
2138.172036008081
 31
0.0
  0
LINE
  5
13A7
102
{ACAD_REACTORS
330
1603
102
}
330
1F
100
AcDbEntity
  8
細線
100
AcDbLine
 10
2955.753475288436
 20
2138.620092117516
 30
0.0
 11
2966.253475288436
 21
2138.620092117516
 31
0.0
  0
LINE
  5
13A8
102
{ACAD_REACTORS
330
1603
102
}
330
1F
100
AcDbEntity
  8
細線
100
AcDbLine
 10
2955.753475288436
 20
2139.105265322797
 30
0.0
 11
2966.253475288436
 21
2139.105265322797
 31
0.0
  0
LINE
  5
13A9
102
{ACAD_REACTORS
330
1603
102
}
330
1F
100
AcDbEntity
  8
細線
100
AcDbLine
 10
2955.753475288436
 20
2139.626632069153
 30
0.0
 11
2966.253475288436
 21
2139.626632069153
 31
0.0
  0
LINE
  5
13AA
102
{ACAD_REACTORS
330
1603
102
}
330
1F
100
AcDbEntity
  8
細線
100
AcDbLine
 10
2955.753475288436
 20
2140.183199905349
 30
0.0
 11
2966.253475288436
 21
2140.183199905349
 31
0.0
  0
LINE
  5
13AB
102
{ACAD_REACTORS
330
1603
102
}
330
1F
100
AcDbEntity
  8
実線
 48
0.5
100
AcDbLine
 10
2955.753475288436
 20
2135.868903573477
 30
0.0
 11
2966.253475288436
 21
2135.868903573477
 31
0.0
  0
LINE
  5
13AC
102
{ACAD_REACTORS
330
1603
102
}
330
1F
100
AcDbEntity
  8
細線
100
AcDbLine
 10
2955.753475288436
 20
2135.883730368196
 30
0.0
 11
2966.253475288436
 21
2135.883730368196
 31
0.0
  0
LINE
  5
13AD
102
{ACAD_REACTORS
330
1603
102
}
330
1F
100
AcDbEntity
  8
細線
100
AcDbLine
 10
2955.753475288436
 20
2135.926056284157
 30
0.0
 11
2966.253475288436
 21
2135.926056284157
 31
0.0
  0
LINE
  5
13AE
102
{ACAD_REACTORS
330
1603
102
}
330
1F
100
AcDbEntity
  8
細線
100
AcDbLine
 10
2955.753475288436
 20
2136.010627546292
 30
0.0
 11
2966.253475288436
 21
2136.010627546292
 31
0.0
  0
LINE
  5
13AF
102
{ACAD_REACTORS
330
1603
102
}
330
1F
100
AcDbEntity
  8
細線
100
AcDbLine
 10
2955.753475288436
 20
2136.137283168396
 30
0.0
 11
2966.253475288436
 21
2136.137283168396
 31
0.0
  0
LINE
  5
13B0
102
{ACAD_REACTORS
330
1603
102
}
330
1F
100
AcDbEntity
  8
細線
100
AcDbLine
 10
2955.753475288436
 20
2136.305782054296
 30
0.0
 11
2966.253475288436
 21
2136.305782054296
 31
0.0
  0
LINE
  5
13B1
102
{ACAD_REACTORS
330
1603
102
}
330
1F
100
AcDbEntity
  8
細線
100
AcDbLine
 10
2955.753475288436
 20
2136.515803456785
 30
0.0
 11
2966.253475288436
 21
2136.515803456785
 31
0.0
  0
LINE
  5
13B2
102
{ACAD_REACTORS
330
1603
102
}
330
1F
100
AcDbEntity
  8
細線
100
AcDbLine
 10
2955.753475288436
 20
2136.766947588185
 30
0.0
 11
2966.253475288436
 21
2136.766947588185
 31
0.0
  0
LINE
  5
13B3
102
{ACAD_REACTORS
330
1603
102
}
330
1F
100
AcDbEntity
  8
細線
100
AcDbLine
 10
2955.753475288436
 20
2137.058736381369
 30
0.0
 11
2966.253475288436
 21
2137.058736381369
 31
0.0
  0
LINE
  5
13B4
102
{ACAD_REACTORS
330
1603
102
}
330
1F
100
AcDbEntity
  8
細線
100
AcDbLine
 10
2955.753475288436
 20
2137.390614399786
 30
0.0
 11
2966.253475288436
 21
2137.390614399786
 31
0.0
  0
LINE
  5
13B5
102
{ACAD_REACTORS
330
1603
102
}
330
1F
100
AcDbEntity
  8
細線
100
AcDbLine
 10
2955.753475288436
 20
2137.761949894763
 30
0.0
 11
2966.253475288436
 21
2137.761949894763
 31
0.0
  0
ARC
  5
13B6
102
{ACAD_REACTORS
330
1603
102
}
330
1F
100
AcDbEntity
  8
実線
 48
0.5
100
AcDbCircle
 10
2929.043475288436
 20
2158.118903573477
 30
0.0
 40
40.84999999999999
100
AcDbArc
 50
180.0
 51
218.2282378159969
  0
ARC
  5
13B7
102
{ACAD_REACTORS
330
1603
102
}
330
1F
100
AcDbEntity
  8
実線
 48
0.5
100
AcDbCircle
 10
2929.043475288436
 20
2158.118903573477
 30
0.0
 40
40.84999999999999
100
AcDbArc
 50
141.771762184003
 51
180.0
  0
MTEXT
  5
13B8
102
{ACAD_REACTORS
330
1603
102
}
330
1F
100
AcDbEntity
  8
細線
100
AcDbMText
 10
2916.503675288436
 20
2143.902636132297
 30
0.0
 40
2.5
 41
26.0756
 46
0.0
 71
     5
 72
     5
  1
{\fArial|b0|i0|c0|p34;\W0.5;6\W0.7;mm\W1; 1:1.9}
  7
寸法
 11
0.0000000000000003
 21
1.0
 31
0.0
 73
     1
 44
1.0
  0
LINE
  5
13B9
102
{ACAD_REACTORS
330
1603
102
}
330
1F
100
AcDbEntity
  8
実線
100
AcDbLine
 10
2903.753675288437
 20
2128.118903573477
 30
0.0
 11
2903.753675288437
 21
2158.118903573477
 31
0.0
  0
LINE
  5
13BA
102
{ACAD_REACTORS
330
1603
102
}
330
1F
100
AcDbEntity
  8
実線
 48
0.5
100
AcDbLine
 10
2938.753675288436
 20
2136.618903573477
 30
0.0
 11
2938.753675288436
 21
2158.118903573477
 31
0.0
  0
LINE
  5
13BB
102
{ACAD_REACTORS
330
1603
102
}
330
1F
100
AcDbEntity
  8
実線
 48
0.5
100
AcDbLine
 10
2940.753675288436
 20
2136.618903573477
 30
0.0
 11
2940.753675288433
 21
2158.118903573477
 31
0.0
  0
LINE
  5
13BC
102
{ACAD_REACTORS
330
1603
102
}
330
1F
100
AcDbEntity
  8
実線
 48
0.5
100
AcDbLine
 10
2954.753675288437
 20
2136.618903573477
 30
0.0
 11
2954.753675288437
 21
2158.118903573477
 31
0.0
  0
LINE
  5
13BD
102
{ACAD_REACTORS
330
1603
102
}
330
1F
100
AcDbEntity
  8
実線
 48
0.5
100
AcDbLine
 10
2896.953675288438
 20
2128.418903573477
 30
0.0
 11
2896.953675288435
 21
2158.118903573477
 31
0.0
  0
LINE
  5
13BE
102
{ACAD_REACTORS
330
1603
102
}
330
1F
100
AcDbEntity
  8
実線
 48
0.5
100
AcDbLine
 10
2912.253675288436
 20
2136.318903573477
 30
0.0
 11
2912.253675288437
 21
2158.118903573477
 31
0.0
  0
LINE
  5
13BF
102
{ACAD_REACTORS
330
1603
102
}
330
1F
100
AcDbEntity
  8
実線
 48
0.5
100
AcDbLine
 10
2911.753675288436
 20
2136.118903573477
 30
0.0
 11
2911.753675288436
 21
2158.118903573477
 31
0.0
  0
LINE
  5
13C0
102
{ACAD_REACTORS
330
1603
102
}
330
1F
100
AcDbEntity
  8
細線
100
AcDbLine
 10
2955.353475288437
 20
2146.432637091933
 30
0.0
 11
2955.753475288436
 21
2145.762762787684
 31
0.0
  0
LINE
  5
13C1
102
{ACAD_REACTORS
330
1603
102
}
330
1F
100
AcDbEntity
  8
実線
 48
0.5
100
AcDbLine
 10
2955.253475288436
 20
2136.368903573477
 30
0.0
 11
2955.253475288436
 21
2158.118903573477
 31
0.0
  0
LINE
  5
13C2
102
{ACAD_REACTORS
330
1603
102
}
330
1F
100
AcDbEntity
  8
実線
 48
0.5
100
AcDbLine
 10
2912.453675288436
 20
2136.118903573477
 30
0.0
 11
2938.253675288436
 21
2136.118903573477
 31
0.0
  0
LINE
  5
13C3
102
{ACAD_REACTORS
330
1603
102
}
330
1F
100
AcDbEntity
  8
実線
 48
0.5
100
AcDbLine
 10
2903.753675288437
 20
2128.118903573477
 30
0.0
 11
2911.753675288436
 21
2136.118903573477
 31
0.0
  0
LINE
  5
13C4
102
{ACAD_REACTORS
330
1348
330
1603
102
}
330
1F
100
AcDbEntity
  8
実線
 48
0.5
100
AcDbLine
 10
2897.253475288437
 20
2128.118903573477
 30
0.0
 11
2903.753675288437
 21
2128.118903573477
 31
0.0
  0
LINE
  5
13C5
102
{ACAD_REACTORS
330
1603
102
}
330
1F
100
AcDbEntity
  8
実線
 48
0.5
100
AcDbLine
 10
2896.953675288438
 20
2128.418903573477
 30
0.0
 11
2897.253675288437
 21
2128.118903573477
 31
0.0
  0
LINE
  5
13C6
102
{ACAD_REACTORS
330
1603
102
}
330
1F
100
AcDbEntity
  8
実線
 48
0.5
100
AcDbLine
 10
2896.953475288436
 20
2128.418903573477
 30
0.0
 11
2897.253475288437
 21
2128.118903573477
 31
0.0
  0
LINE
  5
13C7
102
{ACAD_REACTORS
330
1603
102
}
330
1F
100
AcDbEntity
  8
実線
 48
0.5
100
AcDbLine
 10
2912.253675288436
 20
2136.318903573477
 30
0.0
 11
2912.453675288436
 21
2136.118903573477
 31
0.0
  0
LINE
  5
13C8
102
{ACAD_REACTORS
330
1603
102
}
330
1F
100
AcDbEntity
  8
細線
 48
0.5
100
AcDbLine
 10
2911.753675288436
 20
2138.118805988297
 30
0.0
 11
2912.253675288436
 21
2138.118805988297
 31
0.0
  0
LINE
  5
13C9
102
{ACAD_REACTORS
330
1603
102
}
330
1F
100
AcDbEntity
  8
実線
 48
0.5
100
AcDbLine
 10
2941.253675288436
 20
2136.118903573477
 30
0.0
 11
2940.753675288436
 21
2136.618903573477
 31
0.0
  0
LINE
  5
13CA
102
{ACAD_REACTORS
330
1603
102
}
330
1F
100
AcDbEntity
  8
細線
370
    18
100
AcDbLine
 10
2929.880791659271
 20
2134.818805988297
 30
0.0
 11
2929.880791659271
 21
2131.218805988297
 31
0.0
  0
LINE
  5
13CB
102
{ACAD_REACTORS
330
1603
102
}
330
1F
100
AcDbEntity
  8
細線
370
    18
100
AcDbLine
 10
2926.743302476964
 20
2134.818805988298
 30
0.0
 11
2926.743302476964
 21
2131.218805988297
 31
0.0
  0
LINE
  5
13CC
102
{ACAD_REACTORS
330
1603
102
}
330
1F
100
AcDbEntity
  8
実線
100
AcDbLine
 10
2929.953675288436
 20
2134.818805988297
 30
0.0
 11
2929.953675288436
 21
2131.218805988297
 31
0.0
  0
LINE
  5
13CD
102
{ACAD_REACTORS
330
1603
102
}
330
1F
100
AcDbEntity
  8
細線
370
    18
100
AcDbLine
 10
2927.315057716723
 20
2131.218805988297
 30
0.0
 11
2927.315057716723
 21
2134.818805988298
 31
0.0
  0
LINE
  5
13CE
102
{ACAD_REACTORS
330
1603
102
}
330
1F
100
AcDbEntity
  8
細線
370
    18
100
AcDbLine
 10
2928.59229286015
 20
2134.818805988297
 30
0.0
 11
2928.59229286015
 21
2131.218805988297
 31
0.0
  0
LINE
  5
13CF
102
{ACAD_REACTORS
330
1603
102
}
330
1F
100
AcDbEntity
  8
細線
370
    18
100
AcDbLine
 10
2929.164048099909
 20
2134.818805988297
 30
0.0
 11
2929.164048099909
 21
2131.218805988297
 31
0.0
  0
LINE
  5
13D0
102
{ACAD_REACTORS
330
1603
102
}
330
1F
100
AcDbEntity
  8
細線
370
    18
100
AcDbLine
 10
2929.609079064771
 20
2134.818805988297
 30
0.0
 11
2929.609079064771
 21
2131.218805988297
 31
0.0
  0
LINE
  5
13D1
102
{ACAD_REACTORS
330
1603
102
}
330
1F
100
AcDbEntity
  8
細線
370
    18
100
AcDbLine
 10
2927.953675288437
 20
2135.018805988298
 30
0.0
 11
2927.953675288437
 21
2131.018805988297
 31
0.0
  0
LINE
  5
13D2
102
{ACAD_REACTORS
330
1603
102
}
330
1F
100
AcDbEntity
  8
細線
  6
CENTER
 48
0.125
370
    18
100
AcDbLine
 10
2927.953675288437
 20
2136.118903573477
 30
0.0
 11
2927.953675288437
 21
2130.506510972345
 31
0.0
  0
LINE
  5
13D3
102
{ACAD_REACTORS
330
1603
102
}
330
1F
100
AcDbEntity
  8
実線
100
AcDbLine
 10
2925.953675288436
 20
2134.818805988297
 30
0.0
 11
2925.953675288436
 21
2131.218805988297
 31
0.0
  0
LINE
  5
13D4
102
{ACAD_REACTORS
330
1603
102
}
330
1F
100
AcDbEntity
  8
細線
370
    18
100
AcDbLine
 10
2926.298271512102
 20
2134.818805988298
 30
0.0
 11
2926.298271512102
 21
2131.218805988297
 31
0.0
  0
LINE
  5
13D5
102
{ACAD_REACTORS
330
1603
102
}
330
1F
100
AcDbEntity
  8
細線
370
    18
100
AcDbLine
 10
2926.026558917602
 20
2134.818805988297
 30
0.0
 11
2926.026558917602
 21
2131.218805988297
 31
0.0
  0
LINE
  5
13D6
102
{ACAD_REACTORS
330
1603
102
}
330
1F
100
AcDbEntity
  8
細線
100
AcDbLine
 10
2925.953675288436
 20
2131.218805988297
 30
0.0
 11
2929.953675288436
 21
2131.218805988297
 31
0.0
  0
LINE
  5
13D7
102
{ACAD_REACTORS
330
1603
102
}
330
1F
100
AcDbEntity
  8
実線
100
AcDbLine
 10
2926.153675288436
 20
2131.018805988297
 30
0.0
 11
2929.753675288436
 21
2131.018805988297
 31
0.0
  0
LINE
  5
13D8
102
{ACAD_REACTORS
330
1603
102
}
330
1F
100
AcDbEntity
  8
実線
100
AcDbLine
 10
2925.953675288436
 20
2131.218805988297
 30
0.0
 11
2926.153675288436
 21
2131.018805988297
 31
0.0
  0
LINE
  5
13D9
102
{ACAD_REACTORS
330
1603
102
}
330
1F
100
AcDbEntity
  8
実線
100
AcDbLine
 10
2929.753675288436
 20
2131.018805988297
 30
0.0
 11
2929.953675288436
 21
2131.218805988297
 31
0.0
  0
LINE
  5
13DA
102
{ACAD_REACTORS
330
1603
102
}
330
1F
100
AcDbEntity
  8
実線
100
AcDbLine
 10
2926.153675288436
 20
2135.018805988298
 30
0.0
 11
2929.753675288436
 21
2135.018805988298
 31
0.0
  0
LINE
  5
13DB
102
{ACAD_REACTORS
330
1603
102
}
330
1F
100
AcDbEntity
  8
実線
100
AcDbLine
 10
2925.953675288436
 20
2134.818805988297
 30
0.0
 11
2929.953675288436
 21
2134.818805988297
 31
0.0
  0
LINE
  5
13DC
102
{ACAD_REACTORS
330
1603
102
}
330
1F
100
AcDbEntity
  8
実線
100
AcDbLine
 10
2926.953675288436
 20
2135.518805988298
 30
0.0
 11
2928.953675288436
 21
2135.518805988298
 31
0.0
  0
LINE
  5
13DD
102
{ACAD_REACTORS
330
1603
102
}
330
1F
100
AcDbEntity
  8
実線
100
AcDbLine
 10
2927.153675288436
 20
2135.518805988298
 30
0.0
 11
2927.153675288436
 21
2135.018805988298
 31
0.0
  0
LINE
  5
13DE
102
{ACAD_REACTORS
330
1603
102
}
330
1F
100
AcDbEntity
  8
実線
100
AcDbLine
 10
2928.753675288437
 20
2135.518805988298
 30
0.0
 11
2928.753675288437
 21
2135.018805988298
 31
0.0
  0
LINE
  5
13DF
102
{ACAD_REACTORS
330
1603
102
}
330
1F
100
AcDbEntity
  8
実線
100
AcDbLine
 10
2926.953675288436
 20
2136.118903573477
 30
0.0
 11
2926.953675288436
 21
2135.518805988298
 31
0.0
  0
LINE
  5
13E0
102
{ACAD_REACTORS
330
1603
102
}
330
1F
100
AcDbEntity
  8
細線
  6
CENTER
370
    18
100
AcDbLine
 10
2928.753675288437
 20
2136.118903573477
 30
0.0
 11
2928.753675288437
 21
2135.518805988298
 31
0.0
  0
LINE
  5
13E1
102
{ACAD_REACTORS
330
1603
102
}
330
1F
100
AcDbEntity
  8
実線
100
AcDbLine
 10
2928.953675288436
 20
2136.118903573477
 30
0.0
 11
2928.953675288436
 21
2135.518805988298
 31
0.0
  0
LINE
  5
13E2
102
{ACAD_REACTORS
330
1603
102
}
330
1F
100
AcDbEntity
  8
実線
100
AcDbLine
 10
2926.153675288436
 20
2135.018805988298
 30
0.0
 11
2925.953675288436
 21
2134.818805988297
 31
0.0
  0
LINE
  5
13E3
102
{ACAD_REACTORS
330
1603
102
}
330
1F
100
AcDbEntity
  8
細線
  6
CENTER
370
    18
100
AcDbLine
 10
2927.153675288436
 20
2136.118903573477
 30
0.0
 11
2927.153675288436
 21
2135.518805988298
 31
0.0
  0
LINE
  5
13E4
102
{ACAD_REACTORS
330
1603
102
}
330
1F
100
AcDbEntity
  8
実線
100
AcDbLine
 10
2929.953675288436
 20
2134.818805988297
 30
0.0
 11
2929.753675288436
 21
2135.018805988298
 31
0.0
  0
LINE
  5
13E5
102
{ACAD_REACTORS
330
1603
102
}
330
1F
100
AcDbEntity
  8
実線
 48
0.5
100
AcDbLine
 10
2938.753675288436
 20
2136.618903573477
 30
0.0
 11
2938.253675288436
 21
2136.118903573477
 31
0.0
  0
LINE
  5
13E6
102
{ACAD_REACTORS
330
1603
102
}
330
1F
100
AcDbEntity
  8
実線
  6
Continuous
 48
0.5
100
AcDbLine
 10
2938.753675288436
 20
2137.368903573477
 30
0.0
 11
2940.753675288436
 21
2137.368903573477
 31
0.0
  0
LINE
  5
13FA
102
{ACAD_REACTORS
330
1603
102
}
330
1F
100
AcDbEntity
  8
実線
 48
0.5
100
AcDbLine
 10
2941.253675288436
 20
2136.118903573477
 30
0.0
 11
2954.253675288437
 21
2136.118903573477
 31
0.0
  0
TEXT
  5
13FB
102
{ACAD_REACTORS
330
1603
102
}
330
1F
100
AcDbEntity
  8
細線
100
AcDbText
 10
2944.253675288434
 20
2136.174526371338
 30
0.0
 40
2.0
  1
22
 50
90.0
 41
0.2
  7
表題
 72
     1
 11
2943.253675288433
 21
2136.434424848495
 31
0.0
100
AcDbText
 73
     2
  0
TEXT
  5
13FC
102
{ACAD_REACTORS
330
1603
102
}
330
1F
100
AcDbEntity
  8
細線
100
AcDbText
 10
2944.253675288434
 20
2136.696513514918
 30
0.0
 40
2.0
  1
・
 50
90.0
 41
0.2
  7
表題
 72
     1
 11
2943.253675288433
 21
2136.956411992076
 31
0.0
100
AcDbText
 73
     2
  0
TEXT
  5
13FD
102
{ACAD_REACTORS
330
1603
102
}
330
1F
100
AcDbEntity
  8
細線
100
AcDbText
 10
2944.253675288434
 20
2137.191963432262
 30
0.0
 40
2.0
  1
8
 50
90.0
 41
0.3
  7
表題
 72
     1
 11
2943.253675288433
 21
2137.38688729013
 31
0.0
100
AcDbText
 73
     2
  0
TEXT
  5
13FE
102
{ACAD_REACTORS
330
1603
102
}
330
1F
100
AcDbEntity
  8
細線
100
AcDbText
 10
2944.253675288434
 20
2137.684423801925
 30
0.0
 40
2.0
  1
・
 50
90.0
 41
0.5
  7
表題
 72
     1
 11
2943.253675288433
 21
2138.334169994818
 31
0.0
100
AcDbText
 73
     2
  0
TEXT
  5
1403
102
{ACAD_REACTORS
330
1603
102
}
330
1F
100
AcDbEntity
  8
細線
100
AcDbText
 10
2944.253675288434
 20
2142.506453053325
 30
0.0
 40
2.0
  1
2.8
 50
90.0
 41
0.6
  7
表題
 72
     1
 11
2943.253675288433
 21
2143.675996200533
 31
0.0
100
AcDbText
 73
     2
  0
TEXT
  5
1404
102
{ACAD_REACTORS
330
1603
102
}
330
1F
100
AcDbEntity
  8
細線
100
AcDbText
 10
2944.253675288434
 20
2139.875547734611
 30
0.0
 40
2.0
  1
4
 50
90.0
 41
0.5
  7
表題
 72
     1
 11
2943.253675288433
 21
2140.200420831057
 31
0.0
100
AcDbText
 73
     2
  0
LINE
  5
1405
102
{ACAD_REACTORS
330
1603
102
}
330
1F
100
AcDbEntity
  8
細線
100
AcDbLine
 10
2955.353475288437
 20
2140.302346610191
 30
0.0
 11
2955.753475288436
 21
2139.626632069153
 31
0.0
  0
LINE
  5
140A
102
{ACAD_REACTORS
330
1603
102
}
330
1F
100
AcDbEntity
  8
実線
 48
0.5
100
AcDbLine
 10
2954.753675288437
 20
2136.618903573477
 30
0.0
 11
2954.253675288437
 21
2136.118903573477
 31
0.0
  0
LINE
  5
140B
102
{ACAD_REACTORS
330
1603
102
}
330
1F
100
AcDbEntity
  8
実線
 48
0.5
100
AcDbLine
 10
2955.253475288436
 20
2137.868805988297
 30
0.0
 11
2954.753675288437
 21
2137.868805988297
 31
0.0
  0
LINE
  5
140C
102
{ACAD_REACTORS
330
1603
102
}
330
1F
100
AcDbEntity
  8
細線
100
AcDbLine
 10
2955.353475288437
 20
2138.82641795185
 30
0.0
 11
2955.753475288436
 21
2138.172036008081
 31
0.0
  0
LINE
  5
140D
102
{ACAD_REACTORS
330
1603
102
}
330
1F
100
AcDbEntity
  8
細線
100
AcDbLine
 10
2955.753475288436
 20
2138.172036008081
 30
0.0
 11
2955.353475288437
 21
2138.40670920543
 31
0.0
  0
LINE
  5
140E
102
{ACAD_REACTORS
330
1603
102
}
330
1F
100
AcDbEntity
  8
細線
100
AcDbLine
 10
2955.753475288436
 20
2138.620092117516
 30
0.0
 11
2955.353475288437
 21
2138.82641795185
 31
0.0
  0
LINE
  5
140F
102
{ACAD_REACTORS
330
1603
102
}
330
1F
100
AcDbEntity
  8
細線
100
AcDbLine
 10
2955.353475288437
 20
2139.282851041166
 30
0.0
 11
2955.753475288436
 21
2138.620092117516
 31
0.0
  0
LINE
  5
1410
102
{ACAD_REACTORS
330
1603
102
}
330
1F
100
AcDbEntity
  8
細線
100
AcDbLine
 10
2955.753475288436
 20
2139.105265322797
 30
0.0
 11
2955.353475288437
 21
2139.282851041166
 31
0.0
  0
LINE
  5
1411
102
{ACAD_REACTORS
330
1603
102
}
330
1F
100
AcDbEntity
  8
細線
100
AcDbLine
 10
2955.353475288437
 20
2139.775139627047
 30
0.0
 11
2955.753475288436
 21
2139.105265322797
 31
0.0
  0
LINE
  5
1412
102
{ACAD_REACTORS
330
1603
102
}
330
1F
100
AcDbEntity
  8
細線
100
AcDbLine
 10
2955.753475288436
 20
2139.626632069153
 30
0.0
 11
2955.353475288437
 21
2139.775139627047
 31
0.0
  0
LINE
  5
1413
102
{ACAD_REACTORS
330
1603
102
}
330
1F
100
AcDbEntity
  8
細線
100
AcDbLine
 10
2955.753475288436
 20
2137.390614399786
 30
0.0
 11
2955.353475288437
 21
2137.680589071383
 31
0.0
  0
LINE
  5
1414
102
{ACAD_REACTORS
330
1603
102
}
330
1F
100
AcDbEntity
  8
細線
100
AcDbLine
 10
2955.353475288437
 20
2138.024523741357
 30
0.0
 11
2955.753475288436
 21
2137.390614399786
 31
0.0
  0
LINE
  5
1415
102
{ACAD_REACTORS
330
1603
102
}
330
1F
100
AcDbEntity
  8
細線
100
AcDbLine
 10
2955.753475288436
 20
2137.761949894763
 30
0.0
 11
2955.353475288437
 21
2138.024523741357
 31
0.0
  0
LINE
  5
1416
102
{ACAD_REACTORS
330
1603
102
}
330
1F
100
AcDbEntity
  8
細線
100
AcDbLine
 10
2955.353475288437
 20
2138.40670920543
 30
0.0
 11
2955.753475288436
 21
2137.761949894763
 31
0.0
  0
LINE
  5
1417
102
{ACAD_REACTORS
330
1603
102
}
330
1F
100
AcDbEntity
  8
実線
 48
0.5
100
AcDbLine
 10
2955.753475288436
 20
2135.868903573477
 30
0.0
 11
2955.253475288436
 21
2136.368903573477
 31
0.0
  0
LINE
  5
1418
102
{ACAD_REACTORS
330
1603
102
}
330
1F
100
AcDbEntity
  8
細線
100
AcDbLine
 10
2955.753475288436
 20
2135.883730368196
 30
0.0
 11
2955.353475288437
 21
2136.368903573477
 31
0.0
  0
LINE
  5
1419
102
{ACAD_REACTORS
330
1603
102
}
330
1F
100
AcDbEntity
  8
細線
100
AcDbLine
 10
2955.353475288437
 20
2136.389604754072
 30
0.0
 11
2955.753475288436
 21
2135.883730368196
 31
0.0
  0
LINE
  5
141A
102
{ACAD_REACTORS
330
1603
102
}
330
1F
100
AcDbEntity
  8
細線
100
AcDbLine
 10
2955.753475288436
 20
2135.926056284157
 30
0.0
 11
2955.353475288437
 21
2136.389604754072
 31
0.0
  0
LINE
  5
141B
102
{ACAD_REACTORS
330
1603
102
}
330
1F
100
AcDbEntity
  8
細線
100
AcDbLine
 10
2955.353475288437
 20
2136.451668889981
 30
0.0
 11
2955.753475288436
 21
2135.926056284157
 31
0.0
  0
LINE
  5
141C
102
{ACAD_REACTORS
330
1603
102
}
330
1F
100
AcDbEntity
  8
細線
100
AcDbLine
 10
2955.753475288436
 20
2136.010627546292
 30
0.0
 11
2955.353475288437
 21
2136.451668889981
 31
0.0
  0
LINE
  5
141D
102
{ACAD_REACTORS
330
1603
102
}
330
1F
100
AcDbEntity
  8
細線
100
AcDbLine
 10
2955.353475288437
 20
2136.554977838597
 30
0.0
 11
2955.753475288436
 21
2136.010627546292
 31
0.0
  0
LINE
  5
141E
102
{ACAD_REACTORS
330
1603
102
}
330
1F
100
AcDbEntity
  8
細線
100
AcDbLine
 10
2955.753475288436
 20
2136.137283168396
 30
0.0
 11
2955.353475288437
 21
2136.554977838597
 31
0.0
  0
LINE
  5
141F
102
{ACAD_REACTORS
330
1603
102
}
330
1F
100
AcDbEntity
  8
細線
100
AcDbLine
 10
2955.353475288437
 20
2136.699334945461
 30
0.0
 11
2955.753475288436
 21
2136.137283168396
 31
0.0
  0
LINE
  5
1420
102
{ACAD_REACTORS
330
1603
102
}
330
1F
100
AcDbEntity
  8
細線
100
AcDbLine
 10
2955.753475288436
 20
2136.305782054296
 30
0.0
 11
2955.353475288437
 21
2136.699334945461
 31
0.0
  0
LINE
  5
1421
102
{ACAD_REACTORS
330
1603
102
}
330
1F
100
AcDbEntity
  8
細線
100
AcDbLine
 10
2955.353475288437
 20
2136.884465418618
 30
0.0
 11
2955.753475288436
 21
2136.305782054296
 31
0.0
  0
LINE
  5
1422
102
{ACAD_REACTORS
330
1603
102
}
330
1F
100
AcDbEntity
  8
細線
100
AcDbLine
 10
2955.753475288436
 20
2136.515803456785
 30
0.0
 11
2955.353475288437
 21
2136.884465418618
 31
0.0
  0
LINE
  5
1423
102
{ACAD_REACTORS
330
1603
102
}
330
1F
100
AcDbEntity
  8
細線
100
AcDbLine
 10
2955.353475288437
 20
2137.11001685169
 30
0.0
 11
2955.753475288436
 21
2136.515803456785
 31
0.0
  0
LINE
  5
1424
102
{ACAD_REACTORS
330
1603
102
}
330
1F
100
AcDbEntity
  8
細線
100
AcDbLine
 10
2955.753475288436
 20
2136.766947588185
 30
0.0
 11
2955.353475288437
 21
2137.11001685169
 31
0.0
  0
LINE
  5
1425
102
{ACAD_REACTORS
330
1603
102
}
330
1F
100
AcDbEntity
  8
細線
100
AcDbLine
 10
2955.753475288436
 20
2135.868903573477
 30
0.0
 11
2955.753475288436
 21
2135.883730368196
 31
0.0
  0
LINE
  5
1426
102
{ACAD_REACTORS
330
1603
102
}
330
1F
100
AcDbEntity
  8
細線
100
AcDbLine
 10
2955.353475288437
 20
2137.375559894703
 30
0.0
 11
2955.753475288436
 21
2136.766947588185
 31
0.0
  0
LINE
  5
1427
102
{ACAD_REACTORS
330
1603
102
}
330
1F
100
AcDbEntity
  8
細線
100
AcDbLine
 10
2955.753475288436
 20
2137.058736381369
 30
0.0
 11
2955.353475288437
 21
2137.375559894703
 31
0.0
  0
LINE
  5
1428
102
{ACAD_REACTORS
330
1603
102
}
330
1F
100
AcDbEntity
  8
細線
100
AcDbLine
 10
2955.353475288437
 20
2137.680589071383
 30
0.0
 11
2955.753475288436
 21
2137.058736381369
 31
0.0
  0
LINE
  5
1429
102
{ACAD_REACTORS
330
1603
102
}
330
1F
100
AcDbEntity
  8
細線
100
AcDbLine
 10
2955.353475288437
 20
2144.878342492537
 30
0.0
 11
2955.753475288436
 21
2144.198073975744
 31
0.0
  0
LINE
  5
142A
102
{ACAD_REACTORS
330
1603
102
}
330
1F
100
AcDbEntity
  8
細線
100
AcDbLine
 10
2955.753475288436
 20
2144.967901541804
 30
0.0
 11
2955.353475288437
 21
2144.878342492537
 31
0.0
  0
LINE
  5
142B
102
{ACAD_REACTORS
330
1603
102
}
330
1F
100
AcDbEntity
  8
細線
100
AcDbLine
 10
2955.353475288437
 20
2145.643616082842
 30
0.0
 11
2955.753475288436
 21
2144.967901541804
 31
0.0
  0
LINE
  5
142C
102
{ACAD_REACTORS
330
1603
102
}
330
1F
100
AcDbEntity
  8
細線
100
AcDbLine
 10
2955.753475288436
 20
2145.762762787684
 30
0.0
 11
2955.353475288437
 21
2145.643616082842
 31
0.0
  0
LINE
  5
142D
102
{ACAD_REACTORS
330
1603
102
}
330
1F
100
AcDbEntity
  8
細線
100
AcDbLine
 10
2955.753475288436
 20
2140.773909372877
 30
0.0
 11
2955.353475288437
 21
2140.863468422143
 31
0.0
  0
LINE
  5
142E
102
{ACAD_REACTORS
330
1603
102
}
330
1F
100
AcDbEntity
  8
細線
100
AcDbLine
 10
2955.353475288437
 20
2141.457436935639
 30
0.0
 11
2955.753475288436
 21
2140.773909372877
 31
0.0
  0
LINE
  5
142F
102
{ACAD_REACTORS
330
1603
102
}
330
1F
100
AcDbEntity
  8
細線
100
AcDbLine
 10
2955.753475288436
 20
2141.39763602269
 30
0.0
 11
2955.353475288437
 21
2141.457436935639
 31
0.0
  0
LINE
  5
1430
102
{ACAD_REACTORS
330
1603
102
}
330
1F
100
AcDbEntity
  8
細線
100
AcDbLine
 10
2955.353475288437
 20
2142.083121497856
 30
0.0
 11
2955.753475288436
 21
2141.39763602269
 31
0.0
  0
LINE
  5
1431
102
{ACAD_REACTORS
330
1603
102
}
330
1F
100
AcDbEntity
  8
細線
100
AcDbLine
 10
2955.753475288436
 20
2142.05319255566
 30
0.0
 11
2955.353475288437
 21
2142.083121497856
 31
0.0
  0
LINE
  5
1432
102
{ACAD_REACTORS
330
1603
102
}
330
1F
100
AcDbEntity
  8
細線
100
AcDbLine
 10
2955.353475288437
 20
2142.739331082669
 30
0.0
 11
2955.753475288436
 21
2142.05319255566
 31
0.0
  0
LINE
  5
1433
102
{ACAD_REACTORS
330
1603
102
}
330
1F
100
AcDbEntity
  8
細線
100
AcDbLine
 10
2955.753475288436
 20
2142.739331082669
 30
0.0
 11
2955.353475288437
 21
2142.739331082669
 31
0.0
  0
LINE
  5
1434
102
{ACAD_REACTORS
330
1603
102
}
330
1F
100
AcDbEntity
  8
細線
100
AcDbLine
 10
2955.353475288437
 20
2143.424816557836
 30
0.0
 11
2955.753475288436
 21
2142.739331082669
 31
0.0
  0
LINE
  5
1435
102
{ACAD_REACTORS
330
1603
102
}
330
1F
100
AcDbEntity
  8
細線
100
AcDbLine
 10
2955.753475288436
 20
2143.454745500032
 30
0.0
 11
2955.353475288437
 21
2143.424816557836
 31
0.0
  0
LINE
  5
1436
102
{ACAD_REACTORS
330
1603
102
}
330
1F
100
AcDbEntity
  8
細線
100
AcDbLine
 10
2955.353475288437
 20
2144.138273062795
 30
0.0
 11
2955.753475288436
 21
2143.454745500032
 31
0.0
  0
LINE
  5
1437
102
{ACAD_REACTORS
330
1603
102
}
330
1F
100
AcDbEntity
  8
細線
100
AcDbLine
 10
2955.753475288436
 20
2144.198073975744
 30
0.0
 11
2955.353475288437
 21
2144.138273062795
 31
0.0
  0
LINE
  5
1438
102
{ACAD_REACTORS
330
1603
102
}
330
1F
100
AcDbEntity
  8
細線
100
AcDbLine
 10
2955.753475288436
 20
2140.183199905349
 30
0.0
 11
2955.353475288437
 21
2140.302346610191
 31
0.0
  0
LINE
  5
1439
102
{ACAD_REACTORS
330
1603
102
}
330
1F
100
AcDbEntity
  8
細線
100
AcDbLine
 10
2955.353475288437
 20
2140.863468422143
 30
0.0
 11
2955.753475288436
 21
2140.183199905349
 31
0.0
  0
LINE
  5
143A
102
{ACAD_REACTORS
330
1603
102
}
330
1F
100
AcDbEntity
  8
実線
 48
0.5
100
AcDbLine
 10
2912.453675288436
 20
2180.118903573477
 30
0.0
 11
2938.253675288436
 21
2180.118903573477
 31
0.0
  0
LINE
  5
143B
102
{ACAD_REACTORS
330
1603
102
}
330
1F
100
AcDbEntity
  8
実線
100
AcDbLine
 10
2903.753675288437
 20
2188.118903573477
 30
0.0
 11
2903.753675288437
 21
2158.118903573477
 31
0.0
  0
LINE
  5
143C
102
{ACAD_REACTORS
330
1603
102
}
330
1F
100
AcDbEntity
  8
実線
 48
0.5
100
AcDbLine
 10
2911.753675288436
 20
2180.118903573477
 30
0.0
 11
2911.753675288436
 21
2158.118903573477
 31
0.0
  0
LINE
  5
143D
102
{ACAD_REACTORS
330
1603
102
}
330
1F
100
AcDbEntity
  8
実線
 48
0.5
100
AcDbLine
 10
2912.253675288436
 20
2179.918903573477
 30
0.0
 11
2912.253675288437
 21
2158.118903573477
 31
0.0
  0
LINE
  5
143E
102
{ACAD_REACTORS
330
1603
102
}
330
1F
100
AcDbEntity
  8
実線
 48
0.5
100
AcDbLine
 10
2896.953675288438
 20
2187.818903573477
 30
0.0
 11
2896.953675288435
 21
2158.118903573477
 31
0.0
  0
LINE
  5
143F
102
{ACAD_REACTORS
330
1348
330
1603
102
}
330
1F
100
AcDbEntity
  8
細線
 48
0.5
100
AcDbLine
 10
2901.253675288438
 20
2188.118903573477
 30
0.0
 11
2901.253675288433
 21
2128.118903573477
 31
0.0
  0
LINE
  5
1440
102
{ACAD_REACTORS
330
1348
330
1603
102
}
330
1F
100
AcDbEntity
  8
細線
 48
0.5
100
AcDbLine
 10
2902.753675288438
 20
2188.118903573477
 30
0.0
 11
2902.753675288433
 21
2128.118903573477
 31
0.0
  0
LINE
  5
1441
102
{ACAD_REACTORS
330
1603
102
}
330
1F
100
AcDbEntity
  8
実線
 48
0.5
100
AcDbLine
 10
2903.753675288437
 20
2188.118903573477
 30
0.0
 11
2911.753675288436
 21
2180.118903573477
 31
0.0
  0
LINE
  5
1442
102
{ACAD_REACTORS
330
1348
330
1603
102
}
330
1F
100
AcDbEntity
  8
実線
 48
0.5
100
AcDbLine
 10
2897.253475288437
 20
2188.118903573477
 30
0.0
 11
2903.753675288437
 21
2188.118903573477
 31
0.0
  0
LINE
  5
1443
102
{ACAD_REACTORS
330
1603
102
}
330
1F
100
AcDbEntity
  8
実線
 48
0.5
100
AcDbLine
 10
2896.953475288436
 20
2187.818903573477
 30
0.0
 11
2897.253475288437
 21
2188.118903573477
 31
0.0
  0
LINE
  5
1444
102
{ACAD_REACTORS
330
1603
102
}
330
1F
100
AcDbEntity
  8
実線
 48
0.5
100
AcDbLine
 10
2896.953675288438
 20
2187.818903573477
 30
0.0
 11
2897.253675288437
 21
2188.118903573477
 31
0.0
  0
LINE
  5
1445
102
{ACAD_REACTORS
330
1603
102
}
330
1F
100
AcDbEntity
  8
実線
 48
0.5
100
AcDbLine
 10
2911.753675288436
 20
2178.119001158656
 30
0.0
 11
2912.253675288436
 21
2178.119001158656
 31
0.0
  0
LINE
  5
1446
102
{ACAD_REACTORS
330
1603
102
}
330
1F
100
AcDbEntity
  8
実線
 48
0.5
100
AcDbLine
 10
2912.253675288436
 20
2179.918903573477
 30
0.0
 11
2912.453675288436
 21
2180.118903573477
 31
0.0
  0
LINE
  5
1447
102
{ACAD_REACTORS
330
1603
102
}
330
1F
100
AcDbEntity
  8
実線
 48
0.5
100
AcDbLine
 10
2954.753675288437
 20
2179.618903573477
 30
0.0
 11
2954.753675288437
 21
2158.118903573477
 31
0.0
  0
LINE
  5
1448
102
{ACAD_REACTORS
330
1603
102
}
330
1F
100
AcDbEntity
  8
実線
 48
0.5
100
AcDbLine
 10
2940.753675288436
 20
2179.618903573477
 30
0.0
 11
2940.753675288433
 21
2158.118903573477
 31
0.0
  0
LINE
  5
1449
102
{ACAD_REACTORS
330
1603
102
}
330
1F
100
AcDbEntity
  8
実線
 48
0.5
100
AcDbLine
 10
2938.753675288436
 20
2179.618903573477
 30
0.0
 11
2938.753675288436
 21
2158.118903573477
 31
0.0
  0
LINE
  5
144A
102
{ACAD_REACTORS
330
1603
102
}
330
1F
100
AcDbEntity
  8
細線
100
AcDbLine
 10
2955.353475288437
 20
2171.359464654416
 30
0.0
 11
2955.753475288436
 21
2172.039733171209
 31
0.0
  0
LINE
  5
144B
102
{ACAD_REACTORS
330
1603
102
}
330
1F
100
AcDbEntity
  8
実線
 48
0.5
100
AcDbLine
 10
2955.253475288436
 20
2179.868903573477
 30
0.0
 11
2955.253475288436
 21
2158.118903573477
 31
0.0
  0
LINE
  5
144C
102
{ACAD_REACTORS
330
1603
102
}
330
1F
100
AcDbEntity
  8
細線
  6
CENTER
370
    18
100
AcDbLine
 10
2939.753675288436
 20
2158.118903573477
 30
0.0
 11
2934.253675288437
 21
2158.118903573477
 31
0.0
  0
HATCH
  5
144D
102
{ACAD_REACTORS
330
1603
102
}
330
1F
100
AcDbEntity
  8
細線
100
AcDbHatch
 10
0.0
 20
0.0
 30
0.0
210
0.0
220
0.0
230
1.0
  2
SOLID
 70
     1
 71
     0
 91
        1
 92
        7
 72
     0
 73
     1
 93
        4
 10
2940.753675288434
 20
2157.718903573476
 10
2940.753675288433
 20
2158.118903573477
 10
2938.753675288436
 20
2158.118903573477
 10
2938.753675288436
 20
2157.718903573476
 97
        0
 75
     0
 76
     1
 47
0.0106060138100672
 98
        1
 10
2939.271239242747
 20
2157.906917284811
450
        0
451
        0
460
0.0
461
0.0
452
        0
462
0.0
453
        0
470

  0
HATCH
  5
144E
102
{ACAD_REACTORS
330
1603
102
}
330
1F
100
AcDbEntity
  8
細線
100
AcDbHatch
 10
0.0
 20
0.0
 30
0.0
210
0.0
220
0.0
230
1.0
  2
SOLID
 70
     1
 71
     0
 91
        1
 92
        7
 72
     0
 73
     1
 93
        4
 10
2938.753675288436
 20
2158.518903573477
 10
2938.753675288436
 20
2158.118903573477
 10
2940.753675288433
 20
2158.118903573477
 10
2940.753675288434
 20
2158.518903573477
 97
        0
 75
     0
 76
     1
 47
0.0106060138100672
 98
        1
 10
2939.29246133541
 20
2158.341764240089
450
        0
451
        0
460
0.0
461
0.0
452
        0
462
0.0
453
        0
470

  0
LINE
  5
144F
102
{ACAD_REACTORS
330
1603
102
}
330
1F
100
AcDbEntity
  8
細線
 48
0.5
100
AcDbLine
 10
2938.753675288436
 20
2157.718903573476
 30
0.0
 11
2940.753675288434
 21
2157.718903573476
 31
0.0
  0
LINE
  5
1450
102
{ACAD_REACTORS
330
1603
102
}
330
1F
100
AcDbEntity
  8
細線
 48
0.5
100
AcDbLine
 10
2938.753675288436
 20
2158.518903573477
 30
0.0
 11
2940.753675288434
 21
2158.518903573477
 31
0.0
  0
TEXT
  5
1451
102
{ACAD_REACTORS
330
1603
102
}
330
1F
100
AcDbEntity
  8
細線
100
AcDbText
 10
2944.253675288434
 20
2156.751198920532
 30
0.0
 40
2.0
  1
1.9
 50
90.0
 41
0.8
  7
表題
 72
     1
 11
2943.253675288433
 21
2158.310589783477
 31
0.0
100
AcDbText
 73
     2
  0
LINE
  5
1452
102
{ACAD_REACTORS
330
1603
102
}
330
1F
100
AcDbEntity
  8
細線
100
AcDbLine
 10
2955.753475288436
 20
2158.604076778758
 30
0.0
 11
2955.353475288437
 21
2159.067625248673
 31
0.0
  0
TEXT
  5
1453
102
{ACAD_REACTORS
330
1603
102
}
330
1F
100
AcDbEntity
  8
細線
100
AcDbText
 10
2944.253675288434
 20
2148.127014280497
 30
0.0
 40
2.0
  1
2
 50
90.0
 41
0.8
  7
表題
 72
     1
 11
2943.253675288433
 21
2148.646811234812
 31
0.0
100
AcDbText
 73
     2
  0
LINE
  5
1454
102
{ACAD_REACTORS
330
1603
102
}
330
1F
100
AcDbEntity
  8
細線
100
AcDbLine
 10
2955.353475288437
 20
2152.489589342497
 30
0.0
 11
2955.753475288436
 21
2151.895375947592
 31
0.0
  0
LINE
  5
1455
102
{ACAD_REACTORS
330
1603
102
}
330
1F
100
AcDbEntity
  8
細線
100
AcDbLine
 10
2955.753475288436
 20
2151.895375947592
 30
0.0
 11
2955.353475288437
 21
2151.578552434258
 31
0.0
  0
LINE
  5
1456
102
{ACAD_REACTORS
330
1603
102
}
330
1F
100
AcDbEntity
  8
細線
100
AcDbLine
 10
2955.753475288436
 20
2148.28219706995
 30
0.0
 11
2955.353475288437
 21
2148.075871235615
 31
0.0
  0
LINE
  5
1457
102
{ACAD_REACTORS
330
1603
102
}
330
1F
100
AcDbEntity
  8
細線
100
AcDbLine
 10
2955.353475288437
 20
2148.926956380616
 30
0.0
 11
2955.753475288436
 21
2148.28219706995
 31
0.0
  0
LINE
  5
1458
102
{ACAD_REACTORS
330
1603
102
}
330
1F
100
AcDbEntity
  8
細線
100
AcDbLine
 10
2955.753475288436
 20
2149.161629577965
 30
0.0
 11
2955.353475288437
 21
2148.926956380616
 31
0.0
  0
LINE
  5
1459
102
{ACAD_REACTORS
330
1603
102
}
330
1F
100
AcDbEntity
  8
細線
100
AcDbLine
 10
2955.353475288437
 20
2149.795538919536
 30
0.0
 11
2955.753475288436
 21
2149.161629577965
 31
0.0
  0
LINE
  5
145A
102
{ACAD_REACTORS
330
1603
102
}
330
1F
100
AcDbEntity
  8
細線
100
AcDbLine
 10
2955.753475288436
 20
2150.05811276613
 30
0.0
 11
2955.353475288437
 21
2149.795538919536
 31
0.0
  0
LINE
  5
145B
102
{ACAD_REACTORS
330
1603
102
}
330
1F
100
AcDbEntity
  8
細線
100
AcDbLine
 10
2955.353475288437
 20
2150.679965456144
 30
0.0
 11
2955.753475288436
 21
2150.05811276613
 31
0.0
  0
LINE
  5
145C
102
{ACAD_REACTORS
330
1603
102
}
330
1F
100
AcDbEntity
  8
細線
100
AcDbLine
 10
2955.753475288436
 20
2150.969940127741
 30
0.0
 11
2955.353475288437
 21
2150.679965456144
 31
0.0
  0
LINE
  5
145D
102
{ACAD_REACTORS
330
1603
102
}
330
1F
100
AcDbEntity
  8
細線
100
AcDbLine
 10
2955.353475288437
 20
2151.578552434258
 30
0.0
 11
2955.753475288436
 21
2150.969940127741
 31
0.0
  0
LINE
  5
145E
102
{ACAD_REACTORS
330
1603
102
}
330
1F
100
AcDbEntity
  8
細線
100
AcDbLine
 10
2955.753475288436
 20
2146.581144649827
 30
0.0
 11
2955.353475288437
 21
2146.432637091933
 31
0.0
  0
LINE
  5
145F
102
{ACAD_REACTORS
330
1603
102
}
330
1F
100
AcDbEntity
  8
細線
100
AcDbLine
 10
2955.353475288437
 20
2147.243903573477
 30
0.0
 11
2955.753475288436
 21
2146.581144649827
 31
0.0
  0
LINE
  5
1460
102
{ACAD_REACTORS
330
1603
102
}
330
1F
100
AcDbEntity
  8
細線
100
AcDbLine
 10
2955.753475288436
 20
2147.421489291845
 30
0.0
 11
2955.353475288437
 21
2147.243903573477
 31
0.0
  0
LINE
  5
1461
102
{ACAD_REACTORS
330
1603
102
}
330
1F
100
AcDbEntity
  8
細線
100
AcDbLine
 10
2955.353475288437
 20
2148.075871235615
 30
0.0
 11
2955.753475288436
 21
2147.421489291845
 31
0.0
  0
LINE
  5
1462
102
{ACAD_REACTORS
330
1603
102
}
330
1F
100
AcDbEntity
  8
細線
100
AcDbLine
 10
2955.353475288437
 20
2155.279958892691
 30
0.0
 11
2955.753475288436
 21
2154.735608600386
 31
0.0
  0
LINE
  5
1463
102
{ACAD_REACTORS
330
1603
102
}
330
1F
100
AcDbEntity
  8
細線
100
AcDbLine
 10
2955.753475288436
 20
2155.69765356289
 30
0.0
 11
2955.353475288437
 21
2155.279958892691
 31
0.0
  0
LINE
  5
1464
102
{ACAD_REACTORS
330
1603
102
}
330
1F
100
AcDbEntity
  8
細線
100
AcDbLine
 10
2955.353475288437
 20
2156.223266168715
 30
0.0
 11
2955.753475288436
 21
2155.69765356289
 31
0.0
  0
LINE
  5
1465
102
{ACAD_REACTORS
330
1603
102
}
330
1F
100
AcDbEntity
  8
細線
100
AcDbLine
 10
2955.753475288436
 20
2156.664307512405
 30
0.0
 11
2955.353475288437
 21
2156.223266168715
 31
0.0
  0
LINE
  5
1466
102
{ACAD_REACTORS
330
1603
102
}
330
1F
100
AcDbEntity
  8
細線
100
AcDbLine
 10
2955.353475288437
 20
2157.17018189828
 30
0.0
 11
2955.753475288436
 21
2156.664307512405
 31
0.0
  0
LINE
  5
1467
102
{ACAD_REACTORS
330
1603
102
}
330
1F
100
AcDbEntity
  8
細線
100
AcDbLine
 10
2955.753475288436
 20
2157.633730368196
 30
0.0
 11
2955.353475288437
 21
2157.17018189828
 31
0.0
  0
LINE
  5
1468
102
{ACAD_REACTORS
330
1603
102
}
330
1F
100
AcDbEntity
  8
細線
100
AcDbLine
 10
2955.353475288437
 20
2158.118903573477
 30
0.0
 11
2955.753475288436
 21
2157.633730368196
 31
0.0
  0
LINE
  5
1469
102
{ACAD_REACTORS
330
1603
102
}
330
1F
100
AcDbEntity
  8
細線
100
AcDbLine
 10
2955.353475288437
 20
2158.118903573477
 30
0.0
 11
2955.753475288436
 21
2158.604076778758
 31
0.0
  0
LINE
  5
146A
102
{ACAD_REACTORS
330
1603
102
}
330
1F
100
AcDbEntity
  8
細線
100
AcDbLine
 10
2955.353475288437
 20
2153.411341970323
 30
0.0
 11
2955.753475288436
 21
2152.832658606001
 31
0.0
  0
LINE
  5
146B
102
{ACAD_REACTORS
330
1603
102
}
330
1F
100
AcDbEntity
  8
細線
100
AcDbLine
 10
2955.753475288436
 20
2152.832658606001
 30
0.0
 11
2955.353475288437
 21
2152.489589342497
 31
0.0
  0
LINE
  5
146C
102
{ACAD_REACTORS
330
1603
102
}
330
1F
100
AcDbEntity
  8
細線
100
AcDbLine
 10
2955.753475288436
 20
2153.780003932157
 30
0.0
 11
2955.353475288437
 21
2153.411341970323
 31
0.0
  0
LINE
  5
146D
102
{ACAD_REACTORS
330
1603
102
}
330
1F
100
AcDbEntity
  8
細線
100
AcDbLine
 10
2955.353475288437
 20
2154.34205570922
 30
0.0
 11
2955.753475288436
 21
2153.780003932157
 31
0.0
  0
LINE
  5
146E
102
{ACAD_REACTORS
330
1603
102
}
330
1F
100
AcDbEntity
  8
細線
100
AcDbLine
 10
2955.753475288436
 20
2154.735608600386
 30
0.0
 11
2955.353475288437
 21
2154.34205570922
 31
0.0
  0
LINE
  5
146F
102
{ACAD_REACTORS
330
1603
102
}
330
1F
100
AcDbEntity
  8
細線
100
AcDbLine
 10
2955.353475288437
 20
2164.659254712695
 30
0.0
 11
2955.753475288436
 21
2165.267867019212
 31
0.0
  0
LINE
  5
1470
102
{ACAD_REACTORS
330
1603
102
}
330
1F
100
AcDbEntity
  8
細線
100
AcDbLine
 10
2955.353475288437
 20
2161.895751437732
 30
0.0
 11
2955.753475288436
 21
2162.457803214798
 31
0.0
  0
LINE
  5
1471
102
{ACAD_REACTORS
330
1603
102
}
330
1F
100
AcDbEntity
  8
細線
100
AcDbLine
 10
2955.753475288436
 20
2162.457803214798
 30
0.0
 11
2955.353475288437
 21
2162.826465176631
 31
0.0
  0
LINE
  5
1472
102
{ACAD_REACTORS
330
1603
102
}
330
1F
100
AcDbEntity
  8
細線
100
AcDbLine
 10
2955.353475288437
 20
2162.826465176631
 30
0.0
 11
2955.753475288436
 21
2163.405148540952
 31
0.0
  0
LINE
  5
1473
102
{ACAD_REACTORS
330
1603
102
}
330
1F
100
AcDbEntity
  8
細線
100
AcDbLine
 10
2955.353475288437
 20
2163.748217804457
 30
0.0
 11
2955.753475288436
 21
2164.342431199361
 31
0.0
  0
LINE
  5
1474
102
{ACAD_REACTORS
330
1603
102
}
330
1F
100
AcDbEntity
  8
細線
100
AcDbLine
 10
2955.753475288436
 20
2164.342431199361
 30
0.0
 11
2955.353475288437
 21
2164.659254712695
 31
0.0
  0
LINE
  5
1475
102
{ACAD_REACTORS
330
1603
102
}
330
1F
100
AcDbEntity
  8
細線
100
AcDbLine
 10
2955.753475288436
 20
2163.405148540952
 30
0.0
 11
2955.353475288437
 21
2163.748217804457
 31
0.0
  0
LINE
  5
1476
102
{ACAD_REACTORS
330
1603
102
}
330
1F
100
AcDbEntity
  8
細線
100
AcDbLine
 10
2955.353475288437
 20
2159.067625248673
 30
0.0
 11
2955.753475288436
 21
2159.573499634549
 31
0.0
  0
LINE
  5
1477
102
{ACAD_REACTORS
330
1603
102
}
330
1F
100
AcDbEntity
  8
細線
100
AcDbLine
 10
2955.753475288436
 20
2159.573499634549
 30
0.0
 11
2955.353475288437
 21
2160.014540978238
 31
0.0
  0
LINE
  5
1478
102
{ACAD_REACTORS
330
1603
102
}
330
1F
100
AcDbEntity
  8
細線
100
AcDbLine
 10
2955.353475288437
 20
2160.014540978238
 30
0.0
 11
2955.753475288436
 21
2160.540153584063
 31
0.0
  0
LINE
  5
1479
102
{ACAD_REACTORS
330
1603
102
}
330
1F
100
AcDbEntity
  8
細線
100
AcDbLine
 10
2955.753475288436
 20
2160.540153584063
 30
0.0
 11
2955.353475288437
 21
2160.957848254263
 31
0.0
  0
LINE
  5
147A
102
{ACAD_REACTORS
330
1603
102
}
330
1F
100
AcDbEntity
  8
細線
100
AcDbLine
 10
2955.353475288437
 20
2160.957848254263
 30
0.0
 11
2955.753475288436
 21
2161.502198546568
 31
0.0
  0
LINE
  5
147B
102
{ACAD_REACTORS
330
1603
102
}
330
1F
100
AcDbEntity
  8
細線
100
AcDbLine
 10
2955.753475288436
 20
2161.502198546568
 30
0.0
 11
2955.353475288437
 21
2161.895751437732
 31
0.0
  0
LINE
  5
147C
102
{ACAD_REACTORS
330
1603
102
}
330
1F
100
AcDbEntity
  8
細線
100
AcDbLine
 10
2955.753475288436
 20
2168.816317855108
 30
0.0
 11
2955.353475288437
 21
2168.993903573477
 31
0.0
  0
LINE
  5
147D
102
{ACAD_REACTORS
330
1603
102
}
330
1F
100
AcDbEntity
  8
細線
100
AcDbLine
 10
2955.353475288437
 20
2168.993903573477
 30
0.0
 11
2955.753475288436
 21
2169.656662497127
 31
0.0
  0
LINE
  5
147E
102
{ACAD_REACTORS
330
1603
102
}
330
1F
100
AcDbEntity
  8
細線
100
AcDbLine
 10
2955.753475288436
 20
2169.656662497127
 30
0.0
 11
2955.353475288437
 21
2169.80517005502
 31
0.0
  0
LINE
  5
147F
102
{ACAD_REACTORS
330
1603
102
}
330
1F
100
AcDbEntity
  8
細線
100
AcDbLine
 10
2955.353475288437
 20
2169.80517005502
 30
0.0
 11
2955.753475288436
 21
2170.47504435927
 31
0.0
  0
LINE
  5
1480
102
{ACAD_REACTORS
330
1603
102
}
330
1F
100
AcDbEntity
  8
細線
100
AcDbLine
 10
2955.753475288436
 20
2170.47504435927
 30
0.0
 11
2955.353475288437
 21
2170.594191064112
 31
0.0
  0
LINE
  5
1481
102
{ACAD_REACTORS
330
1603
102
}
330
1F
100
AcDbEntity
  8
細線
100
AcDbLine
 10
2955.353475288437
 20
2170.594191064112
 30
0.0
 11
2955.753475288436
 21
2171.26990560515
 31
0.0
  0
LINE
  5
1482
102
{ACAD_REACTORS
330
1603
102
}
330
1F
100
AcDbEntity
  8
細線
100
AcDbLine
 10
2955.753475288436
 20
2171.26990560515
 30
0.0
 11
2955.353475288437
 21
2171.359464654416
 31
0.0
  0
LINE
  5
1483
102
{ACAD_REACTORS
330
1603
102
}
330
1F
100
AcDbEntity
  8
細線
100
AcDbLine
 10
2955.753475288436
 20
2165.267867019212
 30
0.0
 11
2955.353475288437
 21
2165.557841690811
 31
0.0
  0
LINE
  5
1484
102
{ACAD_REACTORS
330
1603
102
}
330
1F
100
AcDbEntity
  8
細線
100
AcDbLine
 10
2955.753475288436
 20
2166.179694380824
 30
0.0
 11
2955.353475288437
 21
2166.442268227417
 31
0.0
  0
LINE
  5
1485
102
{ACAD_REACTORS
330
1603
102
}
330
1F
100
AcDbEntity
  8
細線
100
AcDbLine
 10
2955.353475288437
 20
2165.557841690811
 30
0.0
 11
2955.753475288436
 21
2166.179694380824
 31
0.0
  0
LINE
  5
1486
102
{ACAD_REACTORS
330
1603
102
}
330
1F
100
AcDbEntity
  8
細線
100
AcDbLine
 10
2955.353475288437
 20
2166.442268227417
 30
0.0
 11
2955.753475288436
 21
2167.076177568988
 31
0.0
  0
LINE
  5
1487
102
{ACAD_REACTORS
330
1603
102
}
330
1F
100
AcDbEntity
  8
細線
100
AcDbLine
 10
2955.753475288436
 20
2167.076177568988
 30
0.0
 11
2955.353475288437
 21
2167.310850766337
 31
0.0
  0
LINE
  5
1488
102
{ACAD_REACTORS
330
1603
102
}
330
1F
100
AcDbEntity
  8
細線
100
AcDbLine
 10
2955.353475288437
 20
2167.310850766337
 30
0.0
 11
2955.753475288436
 21
2167.955610077004
 31
0.0
  0
LINE
  5
1489
102
{ACAD_REACTORS
330
1603
102
}
330
1F
100
AcDbEntity
  8
細線
100
AcDbLine
 10
2955.753475288436
 20
2167.955610077004
 30
0.0
 11
2955.353475288437
 21
2168.161935911339
 31
0.0
  0
LINE
  5
148A
102
{ACAD_REACTORS
330
1603
102
}
330
1F
100
AcDbEntity
  8
細線
100
AcDbLine
 10
2955.353475288437
 20
2168.161935911339
 30
0.0
 11
2955.753475288436
 21
2168.816317855108
 31
0.0
  0
LINE
  5
148B
102
{ACAD_REACTORS
330
1603
102
}
330
1F
100
AcDbEntity
  8
実線
 48
0.5
100
AcDbLine
 10
2941.253675288436
 20
2180.118903573477
 30
0.0
 11
2940.753675288436
 21
2179.618903573477
 31
0.0
  0
LINE
  5
148C
102
{ACAD_REACTORS
330
1603
102
}
330
1F
100
AcDbEntity
  8
実線
 48
0.5
100
AcDbLine
 10
2938.753675288436
 20
2179.618903573477
 30
0.0
 11
2938.253675288436
 21
2180.118903573477
 31
0.0
  0
LINE
  5
148D
102
{ACAD_REACTORS
330
1603
102
}
330
1F
100
AcDbEntity
  8
実線
  6
Continuous
 48
0.5
100
AcDbLine
 10
2938.753675288436
 20
2178.868903573477
 30
0.0
 11
2940.753675288436
 21
2178.868903573477
 31
0.0
  0
LINE
  5
148E
102
{ACAD_REACTORS
330
1603
102
}
330
1F
100
AcDbEntity
  8
実線
 48
0.5
100
AcDbLine
 10
2941.253675288436
 20
2180.118903573477
 30
0.0
 11
2954.253675288437
 21
2180.118903573477
 31
0.0
  0
LINE
  5
148F
102
{ACAD_REACTORS
330
1603
102
}
330
1F
100
AcDbEntity
  8
細線
100
AcDbLine
 10
2955.353475288437
 20
2177.411389195103
 30
0.0
 11
2955.753475288436
 21
2178.065771138872
 31
0.0
  0
LINE
  5
1490
102
{ACAD_REACTORS
330
1603
102
}
330
1F
100
AcDbEntity
  8
細線
100
AcDbLine
 10
2955.753475288436
 20
2176.054607241605
 30
0.0
 11
2955.353475288437
 21
2175.935460536762
 31
0.0
  0
LINE
  5
1491
102
{ACAD_REACTORS
330
1603
102
}
330
1F
100
AcDbEntity
  8
細線
100
AcDbLine
 10
2955.353475288437
 20
2175.935460536762
 30
0.0
 11
2955.753475288436
 21
2176.6111750778
 31
0.0
  0
LINE
  5
1492
102
{ACAD_REACTORS
330
1603
102
}
330
1F
100
AcDbEntity
  8
細線
100
AcDbLine
 10
2955.753475288436
 20
2176.6111750778
 30
0.0
 11
2955.353475288437
 21
2176.462667519907
 31
0.0
  0
LINE
  5
1493
102
{ACAD_REACTORS
330
1603
102
}
330
1F
100
AcDbEntity
  8
細線
100
AcDbLine
 10
2955.353475288437
 20
2176.462667519907
 30
0.0
 11
2955.753475288436
 21
2177.132541824157
 31
0.0
  0
LINE
  5
1494
102
{ACAD_REACTORS
330
1603
102
}
330
1F
100
AcDbEntity
  8
細線
100
AcDbLine
 10
2955.753475288436
 20
2177.132541824157
 30
0.0
 11
2955.353475288437
 21
2176.954956105788
 31
0.0
  0
LINE
  5
1495
102
{ACAD_REACTORS
330
1603
102
}
330
1F
100
AcDbEntity
  8
細線
100
AcDbLine
 10
2955.353475288437
 20
2176.954956105788
 30
0.0
 11
2955.753475288436
 21
2177.617715029438
 31
0.0
  0
LINE
  5
1496
102
{ACAD_REACTORS
330
1603
102
}
330
1F
100
AcDbEntity
  8
細線
100
AcDbLine
 10
2955.753475288436
 20
2177.617715029438
 30
0.0
 11
2955.353475288437
 21
2177.411389195103
 31
0.0
  0
LINE
  5
1497
102
{ACAD_REACTORS
330
1603
102
}
330
1F
100
AcDbEntity
  8
細線
100
AcDbLine
 10
2955.753475288436
 20
2172.783061646922
 30
0.0
 11
2955.353475288437
 21
2172.812990589117
 31
0.0
  0
LINE
  5
1498
102
{ACAD_REACTORS
330
1603
102
}
330
1F
100
AcDbEntity
  8
細線
100
AcDbLine
 10
2955.353475288437
 20
2172.812990589117
 30
0.0
 11
2955.753475288436
 21
2173.498476064284
 31
0.0
  0
LINE
  5
1499
102
{ACAD_REACTORS
330
1603
102
}
330
1F
100
AcDbEntity
  8
細線
100
AcDbLine
 10
2955.753475288436
 20
2173.498476064284
 30
0.0
 11
2955.353475288437
 21
2173.498476064284
 31
0.0
  0
LINE
  5
149A
102
{ACAD_REACTORS
330
1603
102
}
330
1F
100
AcDbEntity
  8
細線
100
AcDbLine
 10
2955.353475288437
 20
2173.498476064284
 30
0.0
 11
2955.753475288436
 21
2174.184614591292
 31
0.0
  0
LINE
  5
149B
102
{ACAD_REACTORS
330
1603
102
}
330
1F
100
AcDbEntity
  8
細線
100
AcDbLine
 10
2955.753475288436
 20
2174.184614591292
 30
0.0
 11
2955.353475288437
 21
2174.154685649097
 31
0.0
  0
LINE
  5
149C
102
{ACAD_REACTORS
330
1603
102
}
330
1F
100
AcDbEntity
  8
細線
100
AcDbLine
 10
2955.353475288437
 20
2174.154685649097
 30
0.0
 11
2955.753475288436
 21
2174.840171124264
 31
0.0
  0
LINE
  5
149D
102
{ACAD_REACTORS
330
1603
102
}
330
1F
100
AcDbEntity
  8
細線
100
AcDbLine
 10
2955.753475288436
 20
2174.840171124264
 30
0.0
 11
2955.353475288437
 21
2174.780370211314
 31
0.0
  0
LINE
  5
149E
102
{ACAD_REACTORS
330
1603
102
}
330
1F
100
AcDbEntity
  8
細線
100
AcDbLine
 10
2955.353475288437
 20
2174.780370211314
 30
0.0
 11
2955.753475288436
 21
2175.463897774077
 31
0.0
  0
LINE
  5
149F
102
{ACAD_REACTORS
330
1603
102
}
330
1F
100
AcDbEntity
  8
細線
100
AcDbLine
 10
2955.753475288436
 20
2175.463897774077
 30
0.0
 11
2955.353475288437
 21
2175.374338724811
 31
0.0
  0
LINE
  5
14A0
102
{ACAD_REACTORS
330
1603
102
}
330
1F
100
AcDbEntity
  8
細線
100
AcDbLine
 10
2955.753475288436
 20
2172.039733171209
 30
0.0
 11
2955.353475288437
 21
2172.099534084159
 31
0.0
  0
LINE
  5
14A1
102
{ACAD_REACTORS
330
1603
102
}
330
1F
100
AcDbEntity
  8
細線
100
AcDbLine
 10
2955.353475288437
 20
2172.099534084159
 30
0.0
 11
2955.753475288436
 21
2172.783061646922
 31
0.0
  0
LINE
  5
14A2
102
{ACAD_REACTORS
330
1603
102
}
330
1F
100
AcDbEntity
  8
細線
100
AcDbLine
 10
2955.353475288437
 20
2175.374338724811
 30
0.0
 11
2955.753475288436
 21
2176.054607241605
 31
0.0
  0
LINE
  5
14A3
102
{ACAD_REACTORS
330
1603
102
}
330
1F
100
AcDbEntity
  8
実線
 48
0.5
100
AcDbLine
 10
2954.753675288437
 20
2179.618903573477
 30
0.0
 11
2954.253675288437
 21
2180.118903573477
 31
0.0
  0
LINE
  5
14A4
102
{ACAD_REACTORS
330
1603
102
}
330
1F
100
AcDbEntity
  8
実線
 48
0.5
100
AcDbLine
 10
2955.253475288436
 20
2178.369001158656
 30
0.0
 11
2954.753675288437
 21
2178.369001158656
 31
0.0
  0
LINE
  5
14A5
102
{ACAD_REACTORS
330
1603
102
}
330
1F
100
AcDbEntity
  8
実線
 48
0.5
100
AcDbLine
 10
2955.753475288436
 20
2180.368903573477
 30
0.0
 11
2955.253475288436
 21
2179.868903573477
 31
0.0
  0
LINE
  5
14A6
102
{ACAD_REACTORS
330
1603
102
}
330
1F
100
AcDbEntity
  8
細線
100
AcDbLine
 10
2955.753475288436
 20
2180.368903573477
 30
0.0
 11
2955.753475288436
 21
2180.354076778758
 31
0.0
  0
LINE
  5
14A7
102
{ACAD_REACTORS
330
1603
102
}
330
1F
100
AcDbEntity
  8
細線
100
AcDbLine
 10
2955.753475288436
 20
2180.227179600662
 30
0.0
 11
2955.353475288437
 21
2179.786138256972
 31
0.0
  0
LINE
  5
14A8
102
{ACAD_REACTORS
330
1603
102
}
330
1F
100
AcDbEntity
  8
細線
100
AcDbLine
 10
2955.353475288437
 20
2179.786138256972
 30
0.0
 11
2955.753475288436
 21
2180.311750862797
 31
0.0
  0
LINE
  5
14A9
102
{ACAD_REACTORS
330
1603
102
}
330
1F
100
AcDbEntity
  8
細線
100
AcDbLine
 10
2955.753475288436
 20
2180.311750862797
 30
0.0
 11
2955.353475288437
 21
2179.848202392882
 31
0.0
  0
LINE
  5
14AA
102
{ACAD_REACTORS
330
1603
102
}
330
1F
100
AcDbEntity
  8
細線
100
AcDbLine
 10
2955.353475288437
 20
2179.848202392882
 30
0.0
 11
2955.753475288436
 21
2180.354076778758
 31
0.0
  0
LINE
  5
14AB
102
{ACAD_REACTORS
330
1603
102
}
330
1F
100
AcDbEntity
  8
細線
100
AcDbLine
 10
2955.753475288436
 20
2180.354076778758
 30
0.0
 11
2955.353475288437
 21
2179.868903573476
 31
0.0
  0
LINE
  5
14AC
102
{ACAD_REACTORS
330
1603
102
}
330
1F
100
AcDbEntity
  8
細線
100
AcDbLine
 10
2955.753475288436
 20
2179.722003690168
 30
0.0
 11
2955.353475288437
 21
2179.353341728335
 31
0.0
  0
LINE
  5
14AD
102
{ACAD_REACTORS
330
1603
102
}
330
1F
100
AcDbEntity
  8
細線
100
AcDbLine
 10
2955.353475288437
 20
2179.353341728335
 30
0.0
 11
2955.753475288436
 21
2179.932025092657
 31
0.0
  0
LINE
  5
14AE
102
{ACAD_REACTORS
330
1603
102
}
330
1F
100
AcDbEntity
  8
細線
100
AcDbLine
 10
2955.753475288436
 20
2179.932025092657
 30
0.0
 11
2955.353475288437
 21
2179.538472201492
 31
0.0
  0
LINE
  5
14AF
102
{ACAD_REACTORS
330
1603
102
}
330
1F
100
AcDbEntity
  8
細線
100
AcDbLine
 10
2955.353475288437
 20
2179.538472201492
 30
0.0
 11
2955.753475288436
 21
2180.100523978556
 31
0.0
  0
LINE
  5
14B0
102
{ACAD_REACTORS
330
1603
102
}
330
1F
100
AcDbEntity
  8
細線
100
AcDbLine
 10
2955.753475288436
 20
2180.100523978556
 30
0.0
 11
2955.353475288437
 21
2179.682829308357
 31
0.0
  0
LINE
  5
14B1
102
{ACAD_REACTORS
330
1603
102
}
330
1F
100
AcDbEntity
  8
細線
100
AcDbLine
 10
2955.353475288437
 20
2179.682829308357
 30
0.0
 11
2955.753475288436
 21
2180.227179600662
 31
0.0
  0
LINE
  5
14B2
102
{ACAD_REACTORS
330
1603
102
}
330
1F
100
AcDbEntity
  8
細線
100
AcDbLine
 10
2955.753475288436
 20
2178.065771138872
 30
0.0
 11
2955.353475288437
 21
2177.831097941524
 31
0.0
  0
LINE
  5
14B3
102
{ACAD_REACTORS
330
1603
102
}
330
1F
100
AcDbEntity
  8
細線
100
AcDbLine
 10
2955.353475288437
 20
2177.831097941524
 30
0.0
 11
2955.753475288436
 21
2178.475857252191
 31
0.0
  0
LINE
  5
14B4
102
{ACAD_REACTORS
330
1603
102
}
330
1F
100
AcDbEntity
  8
細線
100
AcDbLine
 10
2955.753475288436
 20
2178.475857252191
 30
0.0
 11
2955.353475288437
 21
2178.213283405598
 31
0.0
  0
LINE
  5
14B5
102
{ACAD_REACTORS
330
1603
102
}
330
1F
100
AcDbEntity
  8
細線
100
AcDbLine
 10
2955.353475288437
 20
2178.213283405598
 30
0.0
 11
2955.753475288436
 21
2178.847192747168
 31
0.0
  0
LINE
  5
14B6
102
{ACAD_REACTORS
330
1603
102
}
330
1F
100
AcDbEntity
  8
細線
100
AcDbLine
 10
2955.753475288436
 20
2178.847192747168
 30
0.0
 11
2955.353475288437
 21
2178.55721807557
 31
0.0
  0
LINE
  5
14B7
102
{ACAD_REACTORS
330
1603
102
}
330
1F
100
AcDbEntity
  8
細線
100
AcDbLine
 10
2955.353475288437
 20
2178.55721807557
 30
0.0
 11
2955.753475288436
 21
2179.179070765584
 31
0.0
  0
LINE
  5
14B8
102
{ACAD_REACTORS
330
1603
102
}
330
1F
100
AcDbEntity
  8
細線
100
AcDbLine
 10
2955.753475288436
 20
2179.179070765584
 30
0.0
 11
2955.353475288437
 21
2178.86224725225
 31
0.0
  0
LINE
  5
14B9
102
{ACAD_REACTORS
330
1603
102
}
330
1F
100
AcDbEntity
  8
細線
100
AcDbLine
 10
2955.353475288437
 20
2178.86224725225
 30
0.0
 11
2955.753475288436
 21
2179.470859558768
 31
0.0
  0
LINE
  5
14BA
102
{ACAD_REACTORS
330
1603
102
}
330
1F
100
AcDbEntity
  8
細線
100
AcDbLine
 10
2955.753475288436
 20
2179.470859558768
 30
0.0
 11
2955.353475288437
 21
2179.127790295264
 31
0.0
  0
LINE
  5
14BB
102
{ACAD_REACTORS
330
1603
102
}
330
1F
100
AcDbEntity
  8
細線
100
AcDbLine
 10
2955.353475288437
 20
2179.127790295264
 30
0.0
 11
2955.753475288436
 21
2179.722003690168
 31
0.0
  0
LINE
  5
14BD
102
{ACAD_REACTORS
330
1603
102
}
330
1F
100
AcDbEntity
  8
実線
100
AcDbLine
 10
2967.753475288436
 20
2145.918903573477
 30
0.0
 11
2967.753475288437
 21
2158.118903573477
 31
0.0
  0
LINE
  5
14BE
102
{ACAD_REACTORS
330
1603
102
}
330
1F
100
AcDbEntity
  8
実線
 48
0.5
100
AcDbLine
 10
2970.953475288437
 20
2145.918903573477
 30
0.0
 11
2970.953475288439
 21
2158.118903573477
 31
0.0
  0
LINE
  5
14BF
102
{ACAD_REACTORS
330
1603
102
}
330
1F
100
AcDbEntity
  8
細線
100
AcDbLine
 10
2966.653475288437
 20
2146.432637091933
 30
0.0
 11
2966.253475288436
 21
2145.762762787684
 31
0.0
  0
LINE
  5
14C0
102
{ACAD_REACTORS
330
1603
102
}
330
1F
100
AcDbEntity
  8
実線
 48
0.5
100
AcDbLine
 10
2966.953475288437
 20
2143.318903573477
 30
0.0
 11
2966.953475288437
 21
2158.118903573477
 31
0.0
  0
LINE
  5
14C1
102
{ACAD_REACTORS
330
1603
102
}
330
1F
100
AcDbEntity
  8
実線
 48
0.5
100
AcDbLine
 10
2966.753475288437
 20
2136.368903573477
 30
0.0
 11
2966.753475288437
 21
2158.118903573477
 31
0.0
  0
LINE
  5
14C3
102
{ACAD_REACTORS
330
1603
102
}
330
1F
100
AcDbEntity
  8
細線
100
AcDbLine
 10
2966.653475288437
 20
2140.302346610191
 30
0.0
 11
2966.253475288436
 21
2139.626632069153
 31
0.0
  0
LINE
  5
14C4
102
{ACAD_REACTORS
330
1603
102
}
330
1F
100
AcDbEntity
  8
細線
100
AcDbLine
 10
2966.653475288437
 20
2138.82641795185
 30
0.0
 11
2966.253475288436
 21
2138.172036008081
 31
0.0
  0
LINE
  5
14C5
102
{ACAD_REACTORS
330
1603
102
}
330
1F
100
AcDbEntity
  8
細線
100
AcDbLine
 10
2966.253475288436
 20
2138.172036008081
 30
0.0
 11
2966.653475288437
 21
2138.40670920543
 31
0.0
  0
LINE
  5
14C6
102
{ACAD_REACTORS
330
1603
102
}
330
1F
100
AcDbEntity
  8
細線
100
AcDbLine
 10
2966.253475288436
 20
2138.620092117516
 30
0.0
 11
2966.653475288437
 21
2138.82641795185
 31
0.0
  0
LINE
  5
14C7
102
{ACAD_REACTORS
330
1603
102
}
330
1F
100
AcDbEntity
  8
細線
100
AcDbLine
 10
2966.653475288437
 20
2139.282851041166
 30
0.0
 11
2966.253475288436
 21
2138.620092117516
 31
0.0
  0
LINE
  5
14C8
102
{ACAD_REACTORS
330
1603
102
}
330
1F
100
AcDbEntity
  8
細線
100
AcDbLine
 10
2966.253475288436
 20
2139.105265322797
 30
0.0
 11
2966.653475288437
 21
2139.282851041166
 31
0.0
  0
LINE
  5
14C9
102
{ACAD_REACTORS
330
1603
102
}
330
1F
100
AcDbEntity
  8
細線
100
AcDbLine
 10
2966.653475288437
 20
2139.775139627047
 30
0.0
 11
2966.253475288436
 21
2139.105265322797
 31
0.0
  0
LINE
  5
14CA
102
{ACAD_REACTORS
330
1603
102
}
330
1F
100
AcDbEntity
  8
細線
100
AcDbLine
 10
2966.253475288436
 20
2139.626632069153
 30
0.0
 11
2966.653475288437
 21
2139.775139627047
 31
0.0
  0
LINE
  5
14CB
102
{ACAD_REACTORS
330
1603
102
}
330
1F
100
AcDbEntity
  8
細線
100
AcDbLine
 10
2966.253475288436
 20
2137.390614399786
 30
0.0
 11
2966.653475288437
 21
2137.680589071383
 31
0.0
  0
LINE
  5
14CC
102
{ACAD_REACTORS
330
1603
102
}
330
1F
100
AcDbEntity
  8
細線
100
AcDbLine
 10
2966.653475288437
 20
2138.024523741357
 30
0.0
 11
2966.253475288436
 21
2137.390614399786
 31
0.0
  0
LINE
  5
14CD
102
{ACAD_REACTORS
330
1603
102
}
330
1F
100
AcDbEntity
  8
細線
100
AcDbLine
 10
2966.253475288436
 20
2137.761949894763
 30
0.0
 11
2966.653475288437
 21
2138.024523741357
 31
0.0
  0
LINE
  5
14CE
102
{ACAD_REACTORS
330
1603
102
}
330
1F
100
AcDbEntity
  8
細線
100
AcDbLine
 10
2966.653475288437
 20
2138.40670920543
 30
0.0
 11
2966.253475288436
 21
2137.761949894763
 31
0.0
  0
LINE
  5
14CF
102
{ACAD_REACTORS
330
1603
102
}
330
1F
100
AcDbEntity
  8
実線
 48
0.5
100
AcDbLine
 10
2966.753475288437
 20
2136.368903573477
 30
0.0
 11
2966.253475288436
 21
2135.868903573477
 31
0.0
  0
LINE
  5
14D0
102
{ACAD_REACTORS
330
1603
102
}
330
1F
100
AcDbEntity
  8
細線
100
AcDbLine
 10
2966.253475288436
 20
2135.868903573477
 30
0.0
 11
2966.253475288436
 21
2135.883730368196
 31
0.0
  0
LINE
  5
14D1
102
{ACAD_REACTORS
330
1603
102
}
330
1F
100
AcDbEntity
  8
細線
100
AcDbLine
 10
2966.253475288436
 20
2135.883730368196
 30
0.0
 11
2966.653475288437
 21
2136.305782054296
 31
0.0
  0
LINE
  5
14D2
102
{ACAD_REACTORS
330
1603
102
}
330
1F
100
AcDbEntity
  8
細線
100
AcDbLine
 10
2966.653475288437
 20
2136.389604754072
 30
0.0
 11
2966.253475288436
 21
2135.883730368196
 31
0.0
  0
LINE
  5
14D3
102
{ACAD_REACTORS
330
1603
102
}
330
1F
100
AcDbEntity
  8
細線
100
AcDbLine
 10
2966.253475288436
 20
2135.926056284157
 30
0.0
 11
2966.653475288437
 21
2136.389604754072
 31
0.0
  0
LINE
  5
14D4
102
{ACAD_REACTORS
330
1603
102
}
330
1F
100
AcDbEntity
  8
細線
100
AcDbLine
 10
2966.653475288437
 20
2136.451668889981
 30
0.0
 11
2966.253475288436
 21
2135.926056284157
 31
0.0
  0
LINE
  5
14D5
102
{ACAD_REACTORS
330
1603
102
}
330
1F
100
AcDbEntity
  8
細線
100
AcDbLine
 10
2966.253475288436
 20
2136.010627546292
 30
0.0
 11
2966.653475288437
 21
2136.451668889981
 31
0.0
  0
LINE
  5
14D6
102
{ACAD_REACTORS
330
1603
102
}
330
1F
100
AcDbEntity
  8
細線
100
AcDbLine
 10
2966.653475288437
 20
2136.554977838597
 30
0.0
 11
2966.253475288436
 21
2136.010627546292
 31
0.0
  0
LINE
  5
14D7
102
{ACAD_REACTORS
330
1603
102
}
330
1F
100
AcDbEntity
  8
細線
100
AcDbLine
 10
2966.253475288436
 20
2136.137283168396
 30
0.0
 11
2966.653475288437
 21
2136.554977838597
 31
0.0
  0
LINE
  5
14D8
102
{ACAD_REACTORS
330
1603
102
}
330
1F
100
AcDbEntity
  8
細線
100
AcDbLine
 10
2966.653475288437
 20
2136.699334945461
 30
0.0
 11
2966.253475288436
 21
2136.137283168396
 31
0.0
  0
LINE
  5
14D9
102
{ACAD_REACTORS
330
1603
102
}
330
1F
100
AcDbEntity
  8
細線
100
AcDbLine
 10
2966.253475288436
 20
2136.305782054296
 30
0.0
 11
2966.653475288437
 21
2136.699334945461
 31
0.0
  0
LINE
  5
14DA
102
{ACAD_REACTORS
330
1603
102
}
330
1F
100
AcDbEntity
  8
細線
100
AcDbLine
 10
2966.653475288437
 20
2136.884465418618
 30
0.0
 11
2966.253475288436
 21
2136.305782054296
 31
0.0
  0
LINE
  5
14DB
102
{ACAD_REACTORS
330
1603
102
}
330
1F
100
AcDbEntity
  8
細線
100
AcDbLine
 10
2966.253475288436
 20
2136.515803456785
 30
0.0
 11
2966.653475288437
 21
2136.884465418618
 31
0.0
  0
LINE
  5
14DC
102
{ACAD_REACTORS
330
1603
102
}
330
1F
100
AcDbEntity
  8
細線
100
AcDbLine
 10
2966.653475288437
 20
2137.11001685169
 30
0.0
 11
2966.253475288436
 21
2136.515803456785
 31
0.0
  0
LINE
  5
14DD
102
{ACAD_REACTORS
330
1603
102
}
330
1F
100
AcDbEntity
  8
細線
100
AcDbLine
 10
2966.253475288436
 20
2136.766947588185
 30
0.0
 11
2966.653475288437
 21
2137.11001685169
 31
0.0
  0
LINE
  5
14DE
102
{ACAD_REACTORS
330
1603
102
}
330
1F
100
AcDbEntity
  8
細線
100
AcDbLine
 10
2966.653475288437
 20
2137.375559894703
 30
0.0
 11
2966.253475288436
 21
2136.766947588185
 31
0.0
  0
LINE
  5
14DF
102
{ACAD_REACTORS
330
1603
102
}
330
1F
100
AcDbEntity
  8
細線
100
AcDbLine
 10
2966.253475288436
 20
2137.058736381369
 30
0.0
 11
2966.653475288437
 21
2137.375559894703
 31
0.0
  0
LINE
  5
14E0
102
{ACAD_REACTORS
330
1603
102
}
330
1F
100
AcDbEntity
  8
細線
100
AcDbLine
 10
2966.653475288437
 20
2137.680589071383
 30
0.0
 11
2966.253475288436
 21
2137.058736381369
 31
0.0
  0
LINE
  5
14E1
102
{ACAD_REACTORS
330
1603
102
}
330
1F
100
AcDbEntity
  8
実線
 48
0.5
100
AcDbLine
 10
2966.953475288437
 20
2145.918903573477
 30
0.0
 11
2967.753475288436
 21
2145.918903573477
 31
0.0
  0
LINE
  5
14E2
102
{ACAD_REACTORS
330
1603
102
}
330
1F
100
AcDbEntity
  8
細線
100
AcDbLine
 10
2966.653475288437
 20
2144.878342492537
 30
0.0
 11
2966.253475288436
 21
2144.198073975744
 31
0.0
  0
LINE
  5
14E3
102
{ACAD_REACTORS
330
1603
102
}
330
1F
100
AcDbEntity
  8
細線
100
AcDbLine
 10
2966.253475288436
 20
2144.967901541804
 30
0.0
 11
2966.653475288437
 21
2144.878342492537
 31
0.0
  0
LINE
  5
14E4
102
{ACAD_REACTORS
330
1603
102
}
330
1F
100
AcDbEntity
  8
細線
100
AcDbLine
 10
2966.653475288437
 20
2145.643616082842
 30
0.0
 11
2966.253475288436
 21
2144.967901541804
 31
0.0
  0
LINE
  5
14E5
102
{ACAD_REACTORS
330
1603
102
}
330
1F
100
AcDbEntity
  8
細線
100
AcDbLine
 10
2966.253475288436
 20
2145.762762787684
 30
0.0
 11
2966.653475288437
 21
2145.643616082842
 31
0.0
  0
LINE
  5
14E6
102
{ACAD_REACTORS
330
1603
102
}
330
1F
100
AcDbEntity
  8
実線
 48
0.5
100
AcDbLine
 10
2966.953475288437
 20
2143.318903573477
 30
0.0
 11
2966.753475288437
 21
2143.118903573477
 31
0.0
  0
LINE
  5
14E7
102
{ACAD_REACTORS
330
1603
102
}
330
1F
100
AcDbEntity
  8
細線
100
AcDbLine
 10
2966.253475288436
 20
2140.773909372877
 30
0.0
 11
2966.653475288437
 21
2140.863468422143
 31
0.0
  0
LINE
  5
14E8
102
{ACAD_REACTORS
330
1603
102
}
330
1F
100
AcDbEntity
  8
細線
100
AcDbLine
 10
2966.653475288437
 20
2141.457436935639
 30
0.0
 11
2966.253475288436
 21
2140.773909372877
 31
0.0
  0
LINE
  5
14E9
102
{ACAD_REACTORS
330
1603
102
}
330
1F
100
AcDbEntity
  8
細線
100
AcDbLine
 10
2966.253475288436
 20
2141.39763602269
 30
0.0
 11
2966.653475288437
 21
2141.457436935639
 31
0.0
  0
LINE
  5
14EA
102
{ACAD_REACTORS
330
1603
102
}
330
1F
100
AcDbEntity
  8
細線
100
AcDbLine
 10
2966.653475288437
 20
2142.083121497856
 30
0.0
 11
2966.253475288436
 21
2141.39763602269
 31
0.0
  0
LINE
  5
14EB
102
{ACAD_REACTORS
330
1603
102
}
330
1F
100
AcDbEntity
  8
細線
100
AcDbLine
 10
2966.253475288436
 20
2142.05319255566
 30
0.0
 11
2966.653475288437
 21
2142.083121497856
 31
0.0
  0
LINE
  5
14EC
102
{ACAD_REACTORS
330
1603
102
}
330
1F
100
AcDbEntity
  8
細線
100
AcDbLine
 10
2966.653475288437
 20
2142.739331082669
 30
0.0
 11
2966.253475288436
 21
2142.05319255566
 31
0.0
  0
LINE
  5
14ED
102
{ACAD_REACTORS
330
1603
102
}
330
1F
100
AcDbEntity
  8
細線
100
AcDbLine
 10
2966.253475288436
 20
2142.739331082669
 30
0.0
 11
2966.653475288437
 21
2142.739331082669
 31
0.0
  0
LINE
  5
14EE
102
{ACAD_REACTORS
330
1603
102
}
330
1F
100
AcDbEntity
  8
細線
100
AcDbLine
 10
2966.653475288437
 20
2143.424816557836
 30
0.0
 11
2966.253475288436
 21
2142.739331082669
 31
0.0
  0
LINE
  5
14EF
102
{ACAD_REACTORS
330
1603
102
}
330
1F
100
AcDbEntity
  8
細線
100
AcDbLine
 10
2966.253475288436
 20
2143.454745500032
 30
0.0
 11
2966.653475288437
 21
2143.424816557836
 31
0.0
  0
LINE
  5
14F0
102
{ACAD_REACTORS
330
1603
102
}
330
1F
100
AcDbEntity
  8
細線
100
AcDbLine
 10
2966.653475288437
 20
2144.138273062795
 30
0.0
 11
2966.253475288436
 21
2143.454745500032
 31
0.0
  0
LINE
  5
14F1
102
{ACAD_REACTORS
330
1603
102
}
330
1F
100
AcDbEntity
  8
細線
100
AcDbLine
 10
2966.253475288436
 20
2144.198073975744
 30
0.0
 11
2966.653475288437
 21
2144.138273062795
 31
0.0
  0
LINE
  5
14F2
102
{ACAD_REACTORS
330
1603
102
}
330
1F
100
AcDbEntity
  8
細線
100
AcDbLine
 10
2966.253475288436
 20
2140.183199905349
 30
0.0
 11
2966.653475288437
 21
2140.302346610191
 31
0.0
  0
LINE
  5
14F3
102
{ACAD_REACTORS
330
1603
102
}
330
1F
100
AcDbEntity
  8
細線
100
AcDbLine
 10
2966.653475288437
 20
2140.863468422143
 30
0.0
 11
2966.253475288436
 21
2140.183199905349
 31
0.0
  0
LINE
  5
14F4
102
{ACAD_REACTORS
330
1603
102
}
330
1F
100
AcDbEntity
  8
実線
 48
0.5
100
AcDbLine
 10
2970.953475288437
 20
2145.918903573477
 30
0.0
 11
2970.453475288437
 21
2145.418903573477
 31
0.0
  0
LINE
  5
14F5
102
{ACAD_REACTORS
330
1603
102
}
330
1F
100
AcDbEntity
  8
実線
 48
0.5
100
AcDbLine
 10
2968.253475288436
 20
2145.418903573477
 30
0.0
 11
2967.753475288436
 21
2145.918903573477
 31
0.0
  0
LINE
  5
14F6
102
{ACAD_REACTORS
330
1603
102
}
330
1F
100
AcDbEntity
  8
実線
 48
0.5
100
AcDbLine
 10
2967.753475288436
 20
2145.918903573477
 30
0.0
 11
2967.753475288436
 21
2145.918903573477
 31
0.0
  0
LINE
  5
14F7
102
{ACAD_REACTORS
330
1603
102
}
330
1F
100
AcDbEntity
  8
細線
 48
0.5
100
AcDbLine
 10
2967.853475288437
 20
2145.818903573477
 30
0.0
 11
2970.853475288437
 21
2145.818903573477
 31
0.0
  0
LINE
  5
14F8
102
{ACAD_REACTORS
330
1603
102
}
330
1F
100
AcDbEntity
  8
実線
 48
0.5
100
AcDbLine
 10
2968.253475288436
 20
2145.418903573477
 30
0.0
 11
2970.453475288437
 21
2145.418903573477
 31
0.0
  0
LINE
  5
14F9
102
{ACAD_REACTORS
330
1603
102
}
330
1F
100
AcDbEntity
  8
細線
100
AcDbLine
 10
2966.653475288437
 20
2171.359464654416
 30
0.0
 11
2966.253475288436
 21
2172.039733171209
 31
0.0
  0
LINE
  5
14FA
102
{ACAD_REACTORS
330
1603
102
}
330
1F
100
AcDbEntity
  8
実線
 48
0.5
100
AcDbLine
 10
2966.753475288437
 20
2179.868903573477
 30
0.0
 11
2966.753475288437
 21
2158.118903573477
 31
0.0
  0
LINE
  5
14FB
102
{ACAD_REACTORS
330
1603
102
}
330
1F
100
AcDbEntity
  8
実線
 48
0.5
100
AcDbLine
 10
2966.953475288437
 20
2172.918903573477
 30
0.0
 11
2966.953475288437
 21
2158.118903573477
 31
0.0
  0
LINE
  5
14FE
102
{ACAD_REACTORS
330
1603
102
}
330
1F
100
AcDbEntity
  8
細線
  6
CENTER
 48
0.5
370
    18
100
AcDbLine
 10
2956.353475288437
 20
2158.118903573477
 30
0.0
 11
2971.27489010813
 21
2158.118903573477
 31
0.0
  0
LINE
  5
14FF
102
{ACAD_REACTORS
330
1603
102
}
330
1F
100
AcDbEntity
  8
細線
100
AcDbLine
 10
2966.253475288437
 20
2158.604076778758
 30
0.0
 11
2966.653475288437
 21
2159.067625248673
 31
0.0
  0
LINE
  5
1500
102
{ACAD_REACTORS
330
1603
102
}
330
1F
100
AcDbEntity
  8
実線
 48
0.5
100
AcDbLine
 10
2970.953475288437
 20
2170.318903573477
 30
0.0
 11
2970.953475288439
 21
2158.118903573477
 31
0.0
  0
LINE
  5
1501
102
{ACAD_REACTORS
330
1603
102
}
330
1F
100
AcDbEntity
  8
実線
100
AcDbLine
 10
2967.753475288436
 20
2170.318903573477
 30
0.0
 11
2967.753475288437
 21
2158.118903573477
 31
0.0
  0
LINE
  5
1502
102
{ACAD_REACTORS
330
1603
102
}
330
1F
100
AcDbEntity
  8
細線
100
AcDbLine
 10
2966.653475288437
 20
2152.489589342497
 30
0.0
 11
2966.253475288437
 21
2151.895375947592
 31
0.0
  0
LINE
  5
1503
102
{ACAD_REACTORS
330
1603
102
}
330
1F
100
AcDbEntity
  8
細線
100
AcDbLine
 10
2966.253475288437
 20
2151.895375947592
 30
0.0
 11
2966.653475288437
 21
2151.578552434258
 31
0.0
  0
LINE
  5
1504
102
{ACAD_REACTORS
330
1603
102
}
330
1F
100
AcDbEntity
  8
細線
100
AcDbLine
 10
2966.253475288437
 20
2148.28219706995
 30
0.0
 11
2966.653475288437
 21
2148.075871235615
 31
0.0
  0
LINE
  5
1505
102
{ACAD_REACTORS
330
1603
102
}
330
1F
100
AcDbEntity
  8
細線
100
AcDbLine
 10
2966.653475288437
 20
2148.926956380616
 30
0.0
 11
2966.253475288437
 21
2148.28219706995
 31
0.0
  0
LINE
  5
1506
102
{ACAD_REACTORS
330
1603
102
}
330
1F
100
AcDbEntity
  8
細線
100
AcDbLine
 10
2966.253475288437
 20
2149.161629577965
 30
0.0
 11
2966.653475288437
 21
2148.926956380616
 31
0.0
  0
LINE
  5
1507
102
{ACAD_REACTORS
330
1603
102
}
330
1F
100
AcDbEntity
  8
細線
100
AcDbLine
 10
2966.653475288437
 20
2149.795538919536
 30
0.0
 11
2966.253475288437
 21
2149.161629577965
 31
0.0
  0
LINE
  5
1508
102
{ACAD_REACTORS
330
1603
102
}
330
1F
100
AcDbEntity
  8
細線
100
AcDbLine
 10
2966.253475288437
 20
2150.05811276613
 30
0.0
 11
2966.653475288437
 21
2149.795538919536
 31
0.0
  0
LINE
  5
1509
102
{ACAD_REACTORS
330
1603
102
}
330
1F
100
AcDbEntity
  8
細線
100
AcDbLine
 10
2966.653475288437
 20
2150.679965456144
 30
0.0
 11
2966.253475288437
 21
2150.05811276613
 31
0.0
  0
LINE
  5
150A
102
{ACAD_REACTORS
330
1603
102
}
330
1F
100
AcDbEntity
  8
細線
100
AcDbLine
 10
2966.253475288437
 20
2150.969940127741
 30
0.0
 11
2966.653475288437
 21
2150.679965456144
 31
0.0
  0
LINE
  5
150B
102
{ACAD_REACTORS
330
1603
102
}
330
1F
100
AcDbEntity
  8
細線
100
AcDbLine
 10
2966.653475288437
 20
2151.578552434258
 30
0.0
 11
2966.253475288437
 21
2150.969940127741
 31
0.0
  0
LINE
  5
150C
102
{ACAD_REACTORS
330
1603
102
}
330
1F
100
AcDbEntity
  8
細線
100
AcDbLine
 10
2966.253475288436
 20
2146.581144649827
 30
0.0
 11
2966.653475288437
 21
2146.432637091933
 31
0.0
  0
LINE
  5
150D
102
{ACAD_REACTORS
330
1603
102
}
330
1F
100
AcDbEntity
  8
細線
100
AcDbLine
 10
2966.653475288437
 20
2147.243903573477
 30
0.0
 11
2966.253475288436
 21
2146.581144649827
 31
0.0
  0
LINE
  5
150E
102
{ACAD_REACTORS
330
1603
102
}
330
1F
100
AcDbEntity
  8
細線
100
AcDbLine
 10
2966.253475288437
 20
2147.421489291845
 30
0.0
 11
2966.653475288437
 21
2147.243903573477
 31
0.0
  0
LINE
  5
150F
102
{ACAD_REACTORS
330
1603
102
}
330
1F
100
AcDbEntity
  8
細線
100
AcDbLine
 10
2966.653475288437
 20
2148.075871235615
 30
0.0
 11
2966.253475288437
 21
2147.421489291845
 31
0.0
  0
LINE
  5
1510
102
{ACAD_REACTORS
330
1603
102
}
330
1F
100
AcDbEntity
  8
細線
100
AcDbLine
 10
2966.653475288437
 20
2155.279958892691
 30
0.0
 11
2966.253475288437
 21
2154.735608600386
 31
0.0
  0
LINE
  5
1511
102
{ACAD_REACTORS
330
1603
102
}
330
1F
100
AcDbEntity
  8
細線
100
AcDbLine
 10
2966.253475288437
 20
2155.69765356289
 30
0.0
 11
2966.653475288437
 21
2155.279958892691
 31
0.0
  0
LINE
  5
1512
102
{ACAD_REACTORS
330
1603
102
}
330
1F
100
AcDbEntity
  8
細線
100
AcDbLine
 10
2966.653475288437
 20
2156.223266168715
 30
0.0
 11
2966.253475288437
 21
2155.69765356289
 31
0.0
  0
LINE
  5
1513
102
{ACAD_REACTORS
330
1603
102
}
330
1F
100
AcDbEntity
  8
細線
100
AcDbLine
 10
2966.253475288437
 20
2156.664307512405
 30
0.0
 11
2966.653475288437
 21
2156.223266168715
 31
0.0
  0
LINE
  5
1514
102
{ACAD_REACTORS
330
1603
102
}
330
1F
100
AcDbEntity
  8
細線
100
AcDbLine
 10
2966.653475288437
 20
2157.17018189828
 30
0.0
 11
2966.253475288437
 21
2156.664307512405
 31
0.0
  0
LINE
  5
1515
102
{ACAD_REACTORS
330
1603
102
}
330
1F
100
AcDbEntity
  8
細線
100
AcDbLine
 10
2966.253475288437
 20
2157.633730368196
 30
0.0
 11
2966.653475288437
 21
2157.17018189828
 31
0.0
  0
LINE
  5
1516
102
{ACAD_REACTORS
330
1603
102
}
330
1F
100
AcDbEntity
  8
細線
100
AcDbLine
 10
2966.653475288437
 20
2158.118903573477
 30
0.0
 11
2966.253475288437
 21
2157.633730368196
 31
0.0
  0
LINE
  5
1517
102
{ACAD_REACTORS
330
1603
102
}
330
1F
100
AcDbEntity
  8
細線
100
AcDbLine
 10
2966.653475288437
 20
2158.118903573477
 30
0.0
 11
2966.253475288437
 21
2158.604076778758
 31
0.0
  0
LINE
  5
1518
102
{ACAD_REACTORS
330
1603
102
}
330
1F
100
AcDbEntity
  8
細線
100
AcDbLine
 10
2966.653475288437
 20
2153.411341970323
 30
0.0
 11
2966.253475288437
 21
2152.832658606001
 31
0.0
  0
LINE
  5
1519
102
{ACAD_REACTORS
330
1603
102
}
330
1F
100
AcDbEntity
  8
細線
100
AcDbLine
 10
2966.253475288437
 20
2152.832658606001
 30
0.0
 11
2966.653475288437
 21
2152.489589342497
 31
0.0
  0
LINE
  5
151A
102
{ACAD_REACTORS
330
1603
102
}
330
1F
100
AcDbEntity
  8
細線
100
AcDbLine
 10
2966.253475288437
 20
2153.780003932157
 30
0.0
 11
2966.653475288437
 21
2153.411341970323
 31
0.0
  0
LINE
  5
151B
102
{ACAD_REACTORS
330
1603
102
}
330
1F
100
AcDbEntity
  8
細線
100
AcDbLine
 10
2966.653475288437
 20
2154.34205570922
 30
0.0
 11
2966.253475288437
 21
2153.780003932157
 31
0.0
  0
LINE
  5
151C
102
{ACAD_REACTORS
330
1603
102
}
330
1F
100
AcDbEntity
  8
細線
100
AcDbLine
 10
2966.253475288437
 20
2154.735608600386
 30
0.0
 11
2966.653475288437
 21
2154.34205570922
 31
0.0
  0
LINE
  5
151D
102
{ACAD_REACTORS
330
1603
102
}
330
1F
100
AcDbEntity
  8
細線
100
AcDbLine
 10
2966.653475288437
 20
2164.659254712695
 30
0.0
 11
2966.253475288437
 21
2165.267867019212
 31
0.0
  0
LINE
  5
151E
102
{ACAD_REACTORS
330
1603
102
}
330
1F
100
AcDbEntity
  8
細線
100
AcDbLine
 10
2966.653475288437
 20
2161.895751437732
 30
0.0
 11
2966.253475288437
 21
2162.457803214798
 31
0.0
  0
LINE
  5
151F
102
{ACAD_REACTORS
330
1603
102
}
330
1F
100
AcDbEntity
  8
細線
100
AcDbLine
 10
2966.253475288437
 20
2162.457803214798
 30
0.0
 11
2966.653475288437
 21
2162.826465176631
 31
0.0
  0
LINE
  5
1520
102
{ACAD_REACTORS
330
1603
102
}
330
1F
100
AcDbEntity
  8
細線
100
AcDbLine
 10
2966.653475288437
 20
2162.826465176631
 30
0.0
 11
2966.253475288437
 21
2163.405148540952
 31
0.0
  0
LINE
  5
1521
102
{ACAD_REACTORS
330
1603
102
}
330
1F
100
AcDbEntity
  8
細線
100
AcDbLine
 10
2966.653475288437
 20
2163.748217804457
 30
0.0
 11
2966.253475288437
 21
2164.342431199361
 31
0.0
  0
LINE
  5
1522
102
{ACAD_REACTORS
330
1603
102
}
330
1F
100
AcDbEntity
  8
細線
100
AcDbLine
 10
2966.253475288437
 20
2164.342431199361
 30
0.0
 11
2966.653475288437
 21
2164.659254712695
 31
0.0
  0
LINE
  5
1523
102
{ACAD_REACTORS
330
1603
102
}
330
1F
100
AcDbEntity
  8
細線
100
AcDbLine
 10
2966.253475288437
 20
2163.405148540952
 30
0.0
 11
2966.653475288437
 21
2163.748217804457
 31
0.0
  0
LINE
  5
1524
102
{ACAD_REACTORS
330
1603
102
}
330
1F
100
AcDbEntity
  8
細線
100
AcDbLine
 10
2966.653475288437
 20
2159.067625248673
 30
0.0
 11
2966.253475288437
 21
2159.573499634549
 31
0.0
  0
LINE
  5
1525
102
{ACAD_REACTORS
330
1603
102
}
330
1F
100
AcDbEntity
  8
細線
100
AcDbLine
 10
2966.253475288437
 20
2159.573499634549
 30
0.0
 11
2966.653475288437
 21
2160.014540978238
 31
0.0
  0
LINE
  5
1526
102
{ACAD_REACTORS
330
1603
102
}
330
1F
100
AcDbEntity
  8
細線
100
AcDbLine
 10
2966.653475288437
 20
2160.014540978238
 30
0.0
 11
2966.253475288437
 21
2160.540153584063
 31
0.0
  0
LINE
  5
1527
102
{ACAD_REACTORS
330
1603
102
}
330
1F
100
AcDbEntity
  8
細線
100
AcDbLine
 10
2966.253475288437
 20
2160.540153584063
 30
0.0
 11
2966.653475288437
 21
2160.957848254263
 31
0.0
  0
LINE
  5
1528
102
{ACAD_REACTORS
330
1603
102
}
330
1F
100
AcDbEntity
  8
細線
100
AcDbLine
 10
2966.653475288437
 20
2160.957848254263
 30
0.0
 11
2966.253475288437
 21
2161.502198546568
 31
0.0
  0
LINE
  5
1529
102
{ACAD_REACTORS
330
1603
102
}
330
1F
100
AcDbEntity
  8
細線
100
AcDbLine
 10
2966.253475288437
 20
2161.502198546568
 30
0.0
 11
2966.653475288437
 21
2161.895751437732
 31
0.0
  0
LINE
  5
152A
102
{ACAD_REACTORS
330
1603
102
}
330
1F
100
AcDbEntity
  8
実線
 48
0.5
100
AcDbLine
 10
2966.953475288437
 20
2170.318903573477
 30
0.0
 11
2967.753475288436
 21
2170.318903573477
 31
0.0
  0
LINE
  5
152B
102
{ACAD_REACTORS
330
1603
102
}
330
1F
100
AcDbEntity
  8
細線
100
AcDbLine
 10
2966.253475288437
 20
2168.816317855108
 30
0.0
 11
2966.653475288437
 21
2168.993903573477
 31
0.0
  0
LINE
  5
152C
102
{ACAD_REACTORS
330
1603
102
}
330
1F
100
AcDbEntity
  8
細線
100
AcDbLine
 10
2966.653475288437
 20
2168.993903573477
 30
0.0
 11
2966.253475288436
 21
2169.656662497127
 31
0.0
  0
LINE
  5
152D
102
{ACAD_REACTORS
330
1603
102
}
330
1F
100
AcDbEntity
  8
細線
100
AcDbLine
 10
2966.253475288436
 20
2169.656662497127
 30
0.0
 11
2966.653475288437
 21
2169.80517005502
 31
0.0
  0
LINE
  5
152E
102
{ACAD_REACTORS
330
1603
102
}
330
1F
100
AcDbEntity
  8
細線
100
AcDbLine
 10
2966.653475288437
 20
2169.80517005502
 30
0.0
 11
2966.253475288436
 21
2170.47504435927
 31
0.0
  0
LINE
  5
152F
102
{ACAD_REACTORS
330
1603
102
}
330
1F
100
AcDbEntity
  8
細線
100
AcDbLine
 10
2966.253475288436
 20
2170.47504435927
 30
0.0
 11
2966.653475288437
 21
2170.594191064112
 31
0.0
  0
LINE
  5
1530
102
{ACAD_REACTORS
330
1603
102
}
330
1F
100
AcDbEntity
  8
細線
100
AcDbLine
 10
2966.653475288437
 20
2170.594191064112
 30
0.0
 11
2966.253475288436
 21
2171.26990560515
 31
0.0
  0
LINE
  5
1531
102
{ACAD_REACTORS
330
1603
102
}
330
1F
100
AcDbEntity
  8
細線
100
AcDbLine
 10
2966.253475288436
 20
2171.26990560515
 30
0.0
 11
2966.653475288437
 21
2171.359464654416
 31
0.0
  0
LINE
  5
1532
102
{ACAD_REACTORS
330
1603
102
}
330
1F
100
AcDbEntity
  8
細線
100
AcDbLine
 10
2966.253475288437
 20
2165.267867019212
 30
0.0
 11
2966.653475288437
 21
2165.557841690811
 31
0.0
  0
LINE
  5
1533
102
{ACAD_REACTORS
330
1603
102
}
330
1F
100
AcDbEntity
  8
細線
100
AcDbLine
 10
2966.253475288437
 20
2166.179694380824
 30
0.0
 11
2966.653475288437
 21
2166.442268227417
 31
0.0
  0
LINE
  5
1534
102
{ACAD_REACTORS
330
1603
102
}
330
1F
100
AcDbEntity
  8
細線
100
AcDbLine
 10
2966.653475288437
 20
2165.557841690811
 30
0.0
 11
2966.253475288437
 21
2166.179694380824
 31
0.0
  0
LINE
  5
1535
102
{ACAD_REACTORS
330
1603
102
}
330
1F
100
AcDbEntity
  8
細線
100
AcDbLine
 10
2966.653475288437
 20
2166.442268227417
 30
0.0
 11
2966.253475288437
 21
2167.076177568988
 31
0.0
  0
LINE
  5
1536
102
{ACAD_REACTORS
330
1603
102
}
330
1F
100
AcDbEntity
  8
細線
100
AcDbLine
 10
2966.253475288437
 20
2167.076177568988
 30
0.0
 11
2966.653475288437
 21
2167.310850766337
 31
0.0
  0
LINE
  5
1537
102
{ACAD_REACTORS
330
1603
102
}
330
1F
100
AcDbEntity
  8
細線
100
AcDbLine
 10
2966.653475288437
 20
2167.310850766337
 30
0.0
 11
2966.253475288437
 21
2167.955610077004
 31
0.0
  0
LINE
  5
1538
102
{ACAD_REACTORS
330
1603
102
}
330
1F
100
AcDbEntity
  8
細線
100
AcDbLine
 10
2966.253475288437
 20
2167.955610077004
 30
0.0
 11
2966.653475288437
 21
2168.161935911339
 31
0.0
  0
LINE
  5
1539
102
{ACAD_REACTORS
330
1603
102
}
330
1F
100
AcDbEntity
  8
細線
100
AcDbLine
 10
2966.653475288437
 20
2168.161935911339
 30
0.0
 11
2966.253475288437
 21
2168.816317855108
 31
0.0
  0
LINE
  5
153A
102
{ACAD_REACTORS
330
1603
102
}
330
1F
100
AcDbEntity
  8
実線
 48
0.5
100
AcDbLine
 10
2970.953475288437
 20
2170.318903573477
 30
0.0
 11
2970.453475288437
 21
2170.818903573477
 31
0.0
  0
LINE
  5
153B
102
{ACAD_REACTORS
330
1603
102
}
330
1F
100
AcDbEntity
  8
実線
 48
0.5
100
AcDbLine
 10
2968.253475288436
 20
2170.818903573477
 30
0.0
 11
2967.753475288436
 21
2170.318903573477
 31
0.0
  0
LINE
  5
153C
102
{ACAD_REACTORS
330
1603
102
}
330
1F
100
AcDbEntity
  8
実線
 48
0.5
100
AcDbLine
 10
2967.753475288436
 20
2170.318903573477
 30
0.0
 11
2967.753475288436
 21
2170.318903573477
 31
0.0
  0
LINE
  5
153D
102
{ACAD_REACTORS
330
1603
102
}
330
1F
100
AcDbEntity
  8
細線
 48
0.5
100
AcDbLine
 10
2967.853475288437
 20
2170.418903573477
 30
0.0
 11
2970.853475288437
 21
2170.418903573477
 31
0.0
  0
LINE
  5
153E
102
{ACAD_REACTORS
330
1603
102
}
330
1F
100
AcDbEntity
  8
実線
 48
0.5
100
AcDbLine
 10
2968.253475288436
 20
2170.818903573477
 30
0.0
 11
2970.453475288437
 21
2170.818903573477
 31
0.0
  0
LINE
  5
153F
102
{ACAD_REACTORS
330
1603
102
}
330
1F
100
AcDbEntity
  8
細線
 48
0.5
100
AcDbLine
 10
2984.479475288436
 20
2158.118903573477
 30
0.0
 11
2984.479475288436
 21
2167.144903573477
 31
0.0
  0
LINE
  5
1543
102
{ACAD_REACTORS
330
1603
102
}
330
1F
100
AcDbEntity
  8
細線
 48
0.5
100
AcDbLine
 10
2984.479475288436
 20
2158.118903573477
 30
0.0
 11
2984.479475288438
 21
2149.092903573476
 31
0.0
  0
LINE
  5
1545
102
{ACAD_REACTORS
330
1603
102
}
330
1F
100
AcDbEntity
  8
細線
100
AcDbLine
 10
2966.653475288437
 20
2177.411389195103
 30
0.0
 11
2966.253475288436
 21
2178.065771138872
 31
0.0
  0
LINE
  5
1546
102
{ACAD_REACTORS
330
1603
102
}
330
1F
100
AcDbEntity
  8
細線
100
AcDbLine
 10
2966.253475288436
 20
2176.054607241605
 30
0.0
 11
2966.653475288437
 21
2175.935460536762
 31
0.0
  0
LINE
  5
1547
102
{ACAD_REACTORS
330
1603
102
}
330
1F
100
AcDbEntity
  8
細線
100
AcDbLine
 10
2966.653475288437
 20
2175.935460536762
 30
0.0
 11
2966.253475288436
 21
2176.6111750778
 31
0.0
  0
LINE
  5
1548
102
{ACAD_REACTORS
330
1603
102
}
330
1F
100
AcDbEntity
  8
細線
100
AcDbLine
 10
2966.253475288436
 20
2176.6111750778
 30
0.0
 11
2966.653475288437
 21
2176.462667519907
 31
0.0
  0
LINE
  5
1549
102
{ACAD_REACTORS
330
1603
102
}
330
1F
100
AcDbEntity
  8
細線
100
AcDbLine
 10
2966.653475288437
 20
2176.462667519907
 30
0.0
 11
2966.253475288436
 21
2177.132541824157
 31
0.0
  0
LINE
  5
154A
102
{ACAD_REACTORS
330
1603
102
}
330
1F
100
AcDbEntity
  8
細線
100
AcDbLine
 10
2966.253475288436
 20
2177.132541824157
 30
0.0
 11
2966.653475288437
 21
2176.954956105788
 31
0.0
  0
LINE
  5
154B
102
{ACAD_REACTORS
330
1603
102
}
330
1F
100
AcDbEntity
  8
細線
100
AcDbLine
 10
2966.653475288437
 20
2176.954956105788
 30
0.0
 11
2966.253475288436
 21
2177.617715029438
 31
0.0
  0
LINE
  5
154C
102
{ACAD_REACTORS
330
1603
102
}
330
1F
100
AcDbEntity
  8
細線
100
AcDbLine
 10
2966.253475288436
 20
2177.617715029438
 30
0.0
 11
2966.653475288437
 21
2177.411389195103
 31
0.0
  0
LINE
  5
154D
102
{ACAD_REACTORS
330
1603
102
}
330
1F
100
AcDbEntity
  8
実線
 48
0.5
100
AcDbLine
 10
2966.953475288437
 20
2172.918903573477
 30
0.0
 11
2966.753475288437
 21
2173.118903573477
 31
0.0
  0
LINE
  5
154E
102
{ACAD_REACTORS
330
1603
102
}
330
1F
100
AcDbEntity
  8
細線
100
AcDbLine
 10
2966.253475288436
 20
2172.783061646922
 30
0.0
 11
2966.653475288437
 21
2172.812990589117
 31
0.0
  0
LINE
  5
154F
102
{ACAD_REACTORS
330
1603
102
}
330
1F
100
AcDbEntity
  8
細線
100
AcDbLine
 10
2966.653475288437
 20
2172.812990589117
 30
0.0
 11
2966.253475288436
 21
2173.498476064284
 31
0.0
  0
LINE
  5
1550
102
{ACAD_REACTORS
330
1603
102
}
330
1F
100
AcDbEntity
  8
細線
100
AcDbLine
 10
2966.253475288436
 20
2173.498476064284
 30
0.0
 11
2966.653475288437
 21
2173.498476064284
 31
0.0
  0
LINE
  5
1551
102
{ACAD_REACTORS
330
1603
102
}
330
1F
100
AcDbEntity
  8
細線
100
AcDbLine
 10
2966.653475288437
 20
2173.498476064284
 30
0.0
 11
2966.253475288436
 21
2174.184614591292
 31
0.0
  0
LINE
  5
1552
102
{ACAD_REACTORS
330
1603
102
}
330
1F
100
AcDbEntity
  8
細線
100
AcDbLine
 10
2966.253475288436
 20
2174.184614591292
 30
0.0
 11
2966.653475288437
 21
2174.154685649097
 31
0.0
  0
LINE
  5
1553
102
{ACAD_REACTORS
330
1603
102
}
330
1F
100
AcDbEntity
  8
細線
100
AcDbLine
 10
2966.653475288437
 20
2174.154685649097
 30
0.0
 11
2966.253475288436
 21
2174.840171124264
 31
0.0
  0
LINE
  5
1554
102
{ACAD_REACTORS
330
1603
102
}
330
1F
100
AcDbEntity
  8
細線
100
AcDbLine
 10
2966.253475288436
 20
2174.840171124264
 30
0.0
 11
2966.653475288437
 21
2174.780370211314
 31
0.0
  0
LINE
  5
1555
102
{ACAD_REACTORS
330
1603
102
}
330
1F
100
AcDbEntity
  8
細線
100
AcDbLine
 10
2966.653475288437
 20
2174.780370211314
 30
0.0
 11
2966.253475288436
 21
2175.463897774077
 31
0.0
  0
LINE
  5
1556
102
{ACAD_REACTORS
330
1603
102
}
330
1F
100
AcDbEntity
  8
細線
100
AcDbLine
 10
2966.253475288436
 20
2175.463897774077
 30
0.0
 11
2966.653475288437
 21
2175.374338724811
 31
0.0
  0
LINE
  5
1557
102
{ACAD_REACTORS
330
1603
102
}
330
1F
100
AcDbEntity
  8
細線
100
AcDbLine
 10
2966.253475288436
 20
2172.039733171209
 30
0.0
 11
2966.653475288437
 21
2172.099534084159
 31
0.0
  0
LINE
  5
1558
102
{ACAD_REACTORS
330
1603
102
}
330
1F
100
AcDbEntity
  8
細線
100
AcDbLine
 10
2966.653475288437
 20
2172.099534084159
 30
0.0
 11
2966.253475288436
 21
2172.783061646922
 31
0.0
  0
LINE
  5
1559
102
{ACAD_REACTORS
330
1603
102
}
330
1F
100
AcDbEntity
  8
細線
100
AcDbLine
 10
2966.653475288437
 20
2175.374338724811
 30
0.0
 11
2966.253475288436
 21
2176.054607241605
 31
0.0
  0
LINE
  5
155A
102
{ACAD_REACTORS
330
1603
102
}
330
1F
100
AcDbEntity
  8
実線
 48
0.5
100
AcDbLine
 10
2966.753475288437
 20
2179.868903573477
 30
0.0
 11
2966.253475288436
 21
2180.368903573477
 31
0.0
  0
LINE
  5
155B
102
{ACAD_REACTORS
330
1603
102
}
330
1F
100
AcDbEntity
  8
細線
100
AcDbLine
 10
2966.253475288436
 20
2180.227179600662
 30
0.0
 11
2966.653475288437
 21
2179.786138256972
 31
0.0
  0
LINE
  5
155C
102
{ACAD_REACTORS
330
1603
102
}
330
1F
100
AcDbEntity
  8
細線
100
AcDbLine
 10
2966.653475288437
 20
2179.786138256972
 30
0.0
 11
2966.253475288436
 21
2180.311750862797
 31
0.0
  0
LINE
  5
155D
102
{ACAD_REACTORS
330
1603
102
}
330
1F
100
AcDbEntity
  8
細線
100
AcDbLine
 10
2966.253475288436
 20
2180.311750862797
 30
0.0
 11
2966.653475288437
 21
2179.848202392882
 31
0.0
  0
LINE
  5
155E
102
{ACAD_REACTORS
330
1603
102
}
330
1F
100
AcDbEntity
  8
細線
100
AcDbLine
 10
2966.653475288437
 20
2179.848202392882
 30
0.0
 11
2966.253475288436
 21
2180.354076778758
 31
0.0
  0
LINE
  5
155F
102
{ACAD_REACTORS
330
1603
102
}
330
1F
100
AcDbEntity
  8
細線
100
AcDbLine
 10
2966.253475288436
 20
2180.354076778758
 30
0.0
 11
2966.653475288437
 21
2179.932025092657
 31
0.0
  0
LINE
  5
1560
102
{ACAD_REACTORS
330
1603
102
}
330
1F
100
AcDbEntity
  8
細線
100
AcDbLine
 10
2966.253475288436
 20
2180.368903573477
 30
0.0
 11
2966.253475288436
 21
2180.354076778758
 31
0.0
  0
LINE
  5
1561
102
{ACAD_REACTORS
330
1603
102
}
330
1F
100
AcDbEntity
  8
細線
100
AcDbLine
 10
2966.253475288436
 20
2179.722003690168
 30
0.0
 11
2966.653475288437
 21
2179.353341728335
 31
0.0
  0
LINE
  5
1562
102
{ACAD_REACTORS
330
1603
102
}
330
1F
100
AcDbEntity
  8
細線
100
AcDbLine
 10
2966.653475288437
 20
2179.353341728335
 30
0.0
 11
2966.253475288436
 21
2179.932025092657
 31
0.0
  0
LINE
  5
1563
102
{ACAD_REACTORS
330
1603
102
}
330
1F
100
AcDbEntity
  8
細線
100
AcDbLine
 10
2966.253475288436
 20
2179.932025092657
 30
0.0
 11
2966.653475288437
 21
2179.538472201492
 31
0.0
  0
LINE
  5
1564
102
{ACAD_REACTORS
330
1603
102
}
330
1F
100
AcDbEntity
  8
細線
100
AcDbLine
 10
2966.653475288437
 20
2179.538472201492
 30
0.0
 11
2966.253475288436
 21
2180.100523978556
 31
0.0
  0
LINE
  5
1565
102
{ACAD_REACTORS
330
1603
102
}
330
1F
100
AcDbEntity
  8
細線
100
AcDbLine
 10
2966.253475288436
 20
2180.100523978556
 30
0.0
 11
2966.653475288437
 21
2179.682829308357
 31
0.0
  0
LINE
  5
1566
102
{ACAD_REACTORS
330
1603
102
}
330
1F
100
AcDbEntity
  8
細線
100
AcDbLine
 10
2966.653475288437
 20
2179.682829308357
 30
0.0
 11
2966.253475288436
 21
2180.227179600662
 31
0.0
  0
LINE
  5
1567
102
{ACAD_REACTORS
330
1603
102
}
330
1F
100
AcDbEntity
  8
細線
100
AcDbLine
 10
2966.253475288436
 20
2178.065771138872
 30
0.0
 11
2966.653475288437
 21
2177.831097941524
 31
0.0
  0
LINE
  5
1568
102
{ACAD_REACTORS
330
1603
102
}
330
1F
100
AcDbEntity
  8
細線
100
AcDbLine
 10
2966.653475288437
 20
2177.831097941524
 30
0.0
 11
2966.253475288436
 21
2178.475857252191
 31
0.0
  0
LINE
  5
1569
102
{ACAD_REACTORS
330
1603
102
}
330
1F
100
AcDbEntity
  8
細線
100
AcDbLine
 10
2966.253475288436
 20
2178.475857252191
 30
0.0
 11
2966.653475288437
 21
2178.213283405598
 31
0.0
  0
LINE
  5
156A
102
{ACAD_REACTORS
330
1603
102
}
330
1F
100
AcDbEntity
  8
細線
100
AcDbLine
 10
2966.653475288437
 20
2178.213283405598
 30
0.0
 11
2966.253475288436
 21
2178.847192747168
 31
0.0
  0
LINE
  5
156B
102
{ACAD_REACTORS
330
1603
102
}
330
1F
100
AcDbEntity
  8
細線
100
AcDbLine
 10
2966.253475288436
 20
2178.847192747168
 30
0.0
 11
2966.653475288437
 21
2178.55721807557
 31
0.0
  0
LINE
  5
156C
102
{ACAD_REACTORS
330
1603
102
}
330
1F
100
AcDbEntity
  8
細線
100
AcDbLine
 10
2966.653475288437
 20
2178.55721807557
 30
0.0
 11
2966.253475288436
 21
2179.179070765584
 31
0.0
  0
LINE
  5
156D
102
{ACAD_REACTORS
330
1603
102
}
330
1F
100
AcDbEntity
  8
細線
100
AcDbLine
 10
2966.253475288436
 20
2179.179070765584
 30
0.0
 11
2966.653475288437
 21
2178.86224725225
 31
0.0
  0
LINE
  5
156E
102
{ACAD_REACTORS
330
1603
102
}
330
1F
100
AcDbEntity
  8
細線
100
AcDbLine
 10
2966.653475288437
 20
2178.86224725225
 30
0.0
 11
2966.253475288436
 21
2179.470859558768
 31
0.0
  0
LINE
  5
156F
102
{ACAD_REACTORS
330
1603
102
}
330
1F
100
AcDbEntity
  8
細線
100
AcDbLine
 10
2966.253475288436
 20
2179.470859558768
 30
0.0
 11
2966.653475288437
 21
2179.127790295264
 31
0.0
  0
LINE
  5
1570
102
{ACAD_REACTORS
330
1603
102
}
330
1F
100
AcDbEntity
  8
細線
100
AcDbLine
 10
2966.653475288437
 20
2179.127790295264
 30
0.0
 11
2966.253475288436
 21
2179.722003690168
 31
0.0
  0
INSERT
  5
1571
102
{ACAD_REACTORS
330
1603
102
}
330
1F
100
AcDbEntity
  8
細線
100
AcDbBlockReference
  2
A$C5613df2c
 10
2937.253675288436
 20
2158.118903573477
 30
0.0
 50
270.0
  0
TEXT
  5
1572
102
{ACAD_REACTORS
330
1603
102
}
330
1F
100
AcDbEntity
  8
細線
 48
0.03
100
AcDbText
 10
2937.253675288436
 20
2136.261124626349
 30
0.0
 40
2.0
  1
AR
 50
90.0
 41
0.5
  7
表題
100
AcDbText
  0
LINE
  5
1573
102
{ACAD_REACTORS
330
1603
102
}
330
1F
100
AcDbEntity
  8
細線
370
    18
100
AcDbLine
 10
2892.922722156454
 20
2172.207033253588
 30
0.0
 11
2895.841202853276
 21
2175.125513950411
 31
0.0
  0
LINE
  5
1574
102
{ACAD_REACTORS
330
1603
102
}
330
1F
100
AcDbEntity
  8
細線
370
    18
100
AcDbLine
 10
2893.957698436154
 20
2172.393481395863
 30
0.0
 11
2895.654754711001
 21
2174.090537670712
 31
0.0
  0
LINE
  5
1575
102
{ACAD_REACTORS
330
1603
102
}
330
1F
100
AcDbEntity
  8
細線
370
    18
100
AcDbLine
 10
2893.109170298729
 20
2173.242009533288
 30
0.0
 11
2894.806226573577
 21
2174.939065808136
 31
0.0
  0
LINE
  5
1576
102
{ACAD_REACTORS
330
1603
102
}
330
1F
100
AcDbEntity
  8
細線
370
    18
100
AcDbLine
 10
2891.008704882461
 20
2162.229314105349
 30
0.0
 11
2893.927185579283
 21
2165.147794802172
 31
0.0
  0
LINE
  5
1577
102
{ACAD_REACTORS
330
1603
102
}
330
1F
100
AcDbEntity
  8
細線
370
    18
100
AcDbLine
 10
2892.04368116216
 20
2162.415762247624
 30
0.0
 11
2893.740737437008
 21
2164.112818522473
 31
0.0
  0
LINE
  5
1578
102
{ACAD_REACTORS
330
1603
102
}
330
1F
100
AcDbEntity
  8
細線
370
    18
100
AcDbLine
 10
2891.195153024736
 20
2163.264290385049
 30
0.0
 11
2892.892209299584
 21
2164.961346659896
 31
0.0
  0
LINE
  5
1579
102
{ACAD_REACTORS
330
1603
102
}
330
1F
100
AcDbEntity
  8
細線
370
    18
100
AcDbLine
 10
2892.922722156454
 20
2141.112293196543
 30
0.0
 11
2895.841202853277
 21
2144.030773893364
 31
0.0
  0
LINE
  5
157A
102
{ACAD_REACTORS
330
1603
102
}
330
1F
100
AcDbEntity
  8
細線
370
    18
100
AcDbLine
 10
2893.109170298729
 20
2142.147269476241
 30
0.0
 11
2894.806226573577
 21
2143.84432575109
 31
0.0
  0
LINE
  5
157B
102
{ACAD_REACTORS
330
1603
102
}
330
1F
100
AcDbEntity
  8
細線
370
    18
100
AcDbLine
 10
2893.957698436153
 20
2141.298741338817
 30
0.0
 11
2895.654754711001
 21
2142.995797613666
 31
0.0
  0
LINE
  5
157C
102
{ACAD_REACTORS
330
1603
102
}
330
1F
100
AcDbEntity
  8
細線
370
    18
100
AcDbLine
 10
2893.927185579284
 20
2154.008493041603
 30
0.0
 11
2891.008704882461
 21
2151.090012344782
 31
0.0
  0
LINE
  5
157D
102
{ACAD_REACTORS
330
1603
102
}
330
1F
100
AcDbEntity
  8
細線
370
    18
100
AcDbLine
 10
2893.740737437008
 20
2152.973516761905
 30
0.0
 11
2892.04368116216
 21
2151.276460487057
 31
0.0
  0
LINE
  5
157E
102
{ACAD_REACTORS
330
1603
102
}
330
1F
100
AcDbEntity
  8
細線
370
    18
100
AcDbLine
 10
2892.892209299585
 20
2153.822044899329
 30
0.0
 11
2891.195153024737
 21
2152.124988624481
 31
0.0
  0
LINE
  5
1623
330
1F
100
AcDbEntity
  8
細線
370
    18
100
AcDbLine
 10
2950.680791659271
 20
2181.419001158656
 30
0.0
 11
2950.680791659271
 21
2185.019001158656
 31
0.0
  0
LINE
  5
1624
330
1F
100
AcDbEntity
  8
細線
370
    18
100
AcDbLine
 10
2947.543302476964
 20
2181.419001158656
 30
0.0
 11
2947.543302476964
 21
2185.019001158656
 31
0.0
  0
LINE
  5
1625
330
1F
100
AcDbEntity
  8
実線
100
AcDbLine
 10
2950.753675288436
 20
2181.419001158656
 30
0.0
 11
2950.753675288436
 21
2185.019001158656
 31
0.0
  0
LINE
  5
1626
330
1F
100
AcDbEntity
  8
細線
370
    18
100
AcDbLine
 10
2948.115057716723
 20
2185.019001158656
 30
0.0
 11
2948.115057716723
 21
2181.419001158656
 31
0.0
  0
LINE
  5
1627
330
1F
100
AcDbEntity
  8
細線
370
    18
100
AcDbLine
 10
2949.964048099909
 20
2181.419001158656
 30
0.0
 11
2949.964048099909
 21
2185.019001158656
 31
0.0
  0
LINE
  5
1628
330
1F
100
AcDbEntity
  8
細線
370
    18
100
AcDbLine
 10
2950.409079064771
 20
2181.419001158656
 30
0.0
 11
2950.409079064771
 21
2185.019001158656
 31
0.0
  0
LINE
  5
1629
330
1F
100
AcDbEntity
  8
細線
370
    18
100
AcDbLine
 10
2948.753675288437
 20
2181.219001158656
 30
0.0
 11
2948.753675288437
 21
2185.219001158657
 31
0.0
  0
LINE
  5
162A
330
1F
100
AcDbEntity
  8
細線
  6
CENTER
 48
0.125
370
    18
100
AcDbLine
 10
2948.753675288437
 20
2180.118903573477
 30
0.0
 11
2948.753675288437
 21
2185.731296174608
 31
0.0
  0
LINE
  5
162B
330
1F
100
AcDbEntity
  8
実線
100
AcDbLine
 10
2946.753675288436
 20
2181.419001158656
 30
0.0
 11
2946.753675288436
 21
2185.019001158656
 31
0.0
  0
LINE
  5
162C
330
1F
100
AcDbEntity
  8
細線
370
    18
100
AcDbLine
 10
2947.098271512102
 20
2181.419001158656
 30
0.0
 11
2947.098271512102
 21
2185.019001158656
 31
0.0
  0
LINE
  5
162D
330
1F
100
AcDbEntity
  8
細線
370
    18
100
AcDbLine
 10
2946.826558917602
 20
2181.419001158656
 30
0.0
 11
2946.826558917602
 21
2185.019001158656
 31
0.0
  0
LINE
  5
162E
330
1F
100
AcDbEntity
  8
細線
370
    18
100
AcDbLine
 10
2949.39229286015
 20
2181.419001158656
 30
0.0
 11
2949.39229286015
 21
2185.019001158656
 31
0.0
  0
LINE
  5
162F
330
1F
100
AcDbEntity
  8
細線
100
AcDbLine
 10
2946.753675288436
 20
2185.019001158656
 30
0.0
 11
2950.753675288436
 21
2185.019001158656
 31
0.0
  0
LINE
  5
1630
330
1F
100
AcDbEntity
  8
実線
100
AcDbLine
 10
2946.953675288436
 20
2185.219001158657
 30
0.0
 11
2950.553675288436
 21
2185.219001158657
 31
0.0
  0
LINE
  5
1631
330
1F
100
AcDbEntity
  8
実線
100
AcDbLine
 10
2946.753675288436
 20
2185.019001158656
 30
0.0
 11
2946.953675288436
 21
2185.219001158657
 31
0.0
  0
LINE
  5
1632
330
1F
100
AcDbEntity
  8
実線
100
AcDbLine
 10
2950.553675288436
 20
2185.219001158657
 30
0.0
 11
2950.753675288436
 21
2185.019001158656
 31
0.0
  0
LINE
  5
1633
330
1F
100
AcDbEntity
  8
実線
100
AcDbLine
 10
2947.753675288436
 20
2180.719001158657
 30
0.0
 11
2949.753675288436
 21
2180.719001158657
 31
0.0
  0
LINE
  5
1634
330
1F
100
AcDbEntity
  8
実線
100
AcDbLine
 10
2946.953675288436
 20
2181.219001158656
 30
0.0
 11
2950.553675288436
 21
2181.219001158656
 31
0.0
  0
LINE
  5
1635
330
1F
100
AcDbEntity
  8
細線
100
AcDbLine
 10
2946.753675288436
 20
2181.419001158656
 30
0.0
 11
2950.753675288436
 21
2181.419001158656
 31
0.0
  0
LINE
  5
1636
330
1F
100
AcDbEntity
  8
実線
100
AcDbLine
 10
2947.953675288436
 20
2180.719001158657
 30
0.0
 11
2947.953675288436
 21
2181.219001158656
 31
0.0
  0
LINE
  5
1637
330
1F
100
AcDbEntity
  8
細線
  6
CENTER
370
    18
100
AcDbLine
 10
2947.953675288436
 20
2180.118903573477
 30
0.0
 11
2947.953675288436
 21
2180.719001158657
 31
0.0
  0
LINE
  5
1638
330
1F
100
AcDbEntity
  8
実線
100
AcDbLine
 10
2947.753675288436
 20
2180.118903573477
 30
0.0
 11
2947.753675288436
 21
2180.719001158657
 31
0.0
  0
LINE
  5
1639
330
1F
100
AcDbEntity
  8
実線
100
AcDbLine
 10
2946.953675288436
 20
2181.219001158656
 30
0.0
 11
2946.753675288436
 21
2181.419001158656
 31
0.0
  0
LINE
  5
163A
330
1F
100
AcDbEntity
  8
実線
100
AcDbLine
 10
2949.553675288436
 20
2180.719001158657
 30
0.0
 11
2949.553675288436
 21
2181.219001158656
 31
0.0
  0
LINE
  5
163B
330
1F
100
AcDbEntity
  8
実線
100
AcDbLine
 10
2950.753675288436
 20
2181.419001158656
 30
0.0
 11
2950.553675288436
 21
2181.219001158656
 31
0.0
  0
LINE
  5
163C
330
1F
100
AcDbEntity
  8
細線
  6
CENTER
370
    18
100
AcDbLine
 10
2949.553675288436
 20
2180.118903573477
 30
0.0
 11
2949.553675288436
 21
2180.719001158657
 31
0.0
  0
LINE
  5
163D
330
1F
100
AcDbEntity
  8
実線
100
AcDbLine
 10
2949.753675288436
 20
2180.118903573477
 30
0.0
 11
2949.753675288436
 21
2180.719001158657
 31
0.0
  0
TEXT
  5
1841
330
1F
100
AcDbEntity
  8
文字
100
AcDbText
 10
2955.05430264041
 20
2111.004409480189
 30
0.0
 40
2.5
  1
HS0619-SW
 41
0.85
  7
表題
 72
     1
 11
2961.267500609953
 21
2110.547556688311
 31
0.0
100
AcDbText
 73
     1
  0
MTEXT
  5
1842
102
{ACAD_XDICTIONARY
360
1843
102
}
330
1F
100
AcDbEntity
  8
文字
100
AcDbMText
 10
2992.665358062133
 20
2112.317859113335
 30
0.0
 40
1.899999999999997
 41
37.88901592021057
 46
0.0
 71
     5
 72
     5
  1
外観図
  7
表題
 73
     1
 44
1.0
101
Embedded Object
 70
     5
 10
1.0
 20
0.0
 30
0.0
 11
2992.665358062133
 21
2112.317859113335
 31
0.0
 40
37.88901592021057
 41
0.0
 42
7.030964467005066
 43
2.227918781725885
 71
     2
 72
     1
 44
37.88901592021057
 45
0.5
 73
     0
 74
     0
 46
7.819650528924865
  0
TEXT
  5
1844
330
1F
100
AcDbEntity
  8
文字
100
AcDbText
 10
2975.63272911233
 20
2111.060813802982
 30
0.0
 40
2.5
  1
-
 41
0.8
  7
表題
 72
     1
 11
2976.282475305224
 21
2110.603961011104
 31
0.0
100
AcDbText
 73
     1
  0
LINE
  5
1849
330
1F
100
AcDbEntity
  8
図枠（細）
100
AcDbLine
 10
2863.757514006933
 20
2117.469663571037
 30
0.0
 11
3002.757514144728
 21
2117.469663571037
 31
0.0
  0
LINE
  5
184A
330
1F
100
AcDbEntity
  8
図枠（細）
100
AcDbLine
 10
2863.757514144728
 20
2115.469663571037
 30
0.0
 11
3002.757514144728
 21
2115.469663571037
 31
0.0
  0
LINE
  5
184B
330
1F
100
AcDbEntity
  8
図枠（細）
100
AcDbLine
 10
2863.757514144728
 20
2123.469663571037
 30
0.0
 11
3002.757514144728
 21
2123.469663571037
 31
0.0
  0
LINE
  5
184C
330
1F
100
AcDbEntity
  8
図枠
100
AcDbLine
 10
2863.757514144728
 20
2125.469663571037
 30
0.0
 11
3002.757514144728
 21
2125.469663571037
 31
0.0
  0
LINE
  5
184D
330
1F
100
AcDbEntity
  8
図枠（細）
100
AcDbLine
 10
2863.757514144728
 20
2113.469663571037
 30
0.0
 11
2904.757514144728
 21
2113.469663571037
 31
0.0
  0
LINE
  5
184E
330
1F
100
AcDbEntity
  8
図枠（細）
100
AcDbLine
 10
2863.757514144728
 20
2111.469663571037
 30
0.0
 11
2904.757514144728
 21
2111.469663571037
 31
0.0
  0
LINE
  5
184F
330
1F
100
AcDbEntity
  8
図枠（細）
100
AcDbLine
 10
2872.757514144728
 20
2109.469663571037
 30
0.0
 11
2872.757514144728
 21
2125.469663571037
 31
0.0
  0
LINE
  5
1850
330
1F
100
AcDbEntity
  8
図枠（細）
100
AcDbLine
 10
2863.757514006933
 20
2119.469663571037
 30
0.0
 11
2952.757514144728
 21
2119.469663571037
 31
0.0
  0
LINE
  5
1851
330
1F
100
AcDbEntity
  8
図枠（細）
100
AcDbLine
 10
2863.757514144728
 20
2121.49438581096
 30
0.0
 11
2952.757514144728
 21
2121.49438581096
 31
0.0
  0
TEXT
  5
1852
330
1F
100
AcDbEntity
  8
文字
100
AcDbText
 10
2942.466368008352
 20
2115.946507973555
 30
0.0
 40
1.25
  1
'20.04.21
 41
0.9
  7
表題
 72
     2
 11
2949.045048211397
 21
2115.718081577615
 31
0.0
100
AcDbText
 73
     1
  0
TEXT
  5
1853
330
1F
100
AcDbEntity
  8
文字
100
AcDbText
 10
2930.431602014199
 20
2115.948089966976
 30
0.0
 40
1.25
  1
作 成 日
  7
表題
 11
2930.431602014199
 21
2115.719663571037
 31
0.0
100
AcDbText
 73
     1
  0
TEXT
  5
1854
330
1F
100
AcDbEntity
  8
文字
100
AcDbText
 10
2986.007514144728
 20
2123.948089966976
 30
0.0
 40
1.25
  1
検　図
  7
表題
 11
2986.007514144728
 21
2123.719663571037
 31
0.0
100
AcDbText
 73
     1
  0
TEXT
  5
1855
330
1F
100
AcDbEntity
  8
文字
100
AcDbText
 10
2994.757514144728
 20
2123.948089966976
 30
0.0
 40
1.25
  1
製　図
  7
表題
 11
2994.757514144728
 21
2123.719663571037
 31
0.0
100
AcDbText
 73
     1
  0
LINE
  5
1856
330
1F
100
AcDbEntity
  8
図枠（細）
100
AcDbLine
 10
2876.257514144728
 20
2125.469663571037
 30
0.0
 11
2876.257514144728
 21
2109.469663571037
 31
0.0
  0
LINE
  5
1857
330
1F
100
AcDbEntity
  8
図枠（細）
100
AcDbLine
 10
2904.757514144728
 20
2125.469663571037
 30
0.0
 11
2904.757514144728
 21
2109.469663571037
 31
0.0
  0
LINE
  5
1858
330
1F
100
AcDbEntity
  8
図枠（細）
100
AcDbLine
 10
2913.757514144727
 20
2125.469663571037
 30
0.0
 11
2913.757514144727
 21
2115.469663571037
 31
0.0
  0
LINE
  5
1859
330
1F
100
AcDbEntity
  8
図枠（細）
100
AcDbLine
 10
2928.757514144728
 20
2125.469663571037
 30
0.0
 11
2928.757514144728
 21
2115.469663571037
 31
0.0
  0
LINE
  5
185A
330
1F
100
AcDbEntity
  8
図枠（細）
100
AcDbLine
 10
2937.757514144728
 20
2125.469663571037
 30
0.0
 11
2937.757514144728
 21
2115.469663571037
 31
0.0
  0
LINE
  5
185B
330
1F
100
AcDbEntity
  8
図枠（細）
100
AcDbLine
 10
2952.757514144728
 20
2125.469663571037
 30
0.0
 11
2952.757514144728
 21
2109.469663571037
 31
0.0
  0
LINE
  5
185C
330
1F
100
AcDbEntity
  8
図枠（細）
100
AcDbLine
 10
2962.757514144728
 20
2125.469663571037
 30
0.0
 11
2962.757514144728
 21
2117.469663571037
 31
0.0
  0
LINE
  5
185D
330
1F
100
AcDbEntity
  8
図枠（細）
100
AcDbLine
 10
2972.757514144728
 20
2125.469663571037
 30
0.0
 11
2972.757514144728
 21
2117.469663571037
 31
0.0
  0
LINE
  5
185E
330
1F
100
AcDbEntity
  8
図枠（細）
100
AcDbLine
 10
2982.757514144728
 20
2125.469663571037
 30
0.0
 11
2982.757514144728
 21
2109.469663571037
 31
0.0
  0
LINE
  5
185F
330
1F
100
AcDbEntity
  8
図枠（細）
100
AcDbLine
 10
2992.757514144728
 20
2125.469663571037
 30
0.0
 11
2992.757514144728
 21
2117.469663571037
 31
0.0
  0
TEXT
  5
1860
330
1F
100
AcDbEntity
  8
文字
100
AcDbText
 10
2976.007514144728
 20
2123.948089966976
 30
0.0
 40
1.25
  1
承　認
  7
表題
 11
2976.007514144728
 21
2123.719663571037
 31
0.0
100
AcDbText
 73
     1
  0
TEXT
  5
1861
330
1F
100
AcDbEntity
  8
文字
100
AcDbText
 10
2956.007514144728
 20
2123.948089966976
 30
0.0
 40
1.25
  1
尺　度
  7
表題
 11
2956.007514144728
 21
2123.719663571037
 31
0.0
100
AcDbText
 73
     1
  0
TEXT
  5
1862
330
1F
100
AcDbEntity
  8
文字
100
AcDbText
 10
2966.007514144728
 20
2123.948089966976
 30
0.0
 40
1.25
  1
図　法
  7
表題
 11
2966.007514144728
 21
2123.719663571037
 31
0.0
100
AcDbText
 73
     1
  0
TEXT
  5
1863
330
1F
100
AcDbEntity
  8
文字
100
AcDbText
 10
2988.286052027517
 20
2115.948089966976
 30
0.0
 40
1.25
  1
名　　　称
  7
表題
 11
2988.286052027517
 21
2115.719663571037
 31
0.0
100
AcDbText
 73
     1
  0
TEXT
  5
1864
330
1F
100
AcDbEntity
  8
文字
100
AcDbText
 10
2955.211116203257
 20
2119.837497491453
 30
0.0
 40
1.5
  1
１／２
  7
表題
 72
     1
 11
2958.134974071277
 21
2119.563385816327
 31
0.0
100
AcDbText
 73
     1
  0
LINE
  5
1865
330
1F
100
AcDbEntity
  8
図枠（細）
  6
CENTER
370
    18
100
AcDbLine
 10
2964.554982565173
 20
2120.469663571037
 30
0.0
 11
2971.73486367891
 21
2120.469663571037
 31
0.0
  0
CIRCLE
  5
1866
330
1F
100
AcDbEntity
  8
図枠（細）
100
AcDbCircle
 10
2966.054982565173
 20
2120.469663571037
 30
0.0
 40
0.75
  0
CIRCLE
  5
1867
330
1F
100
AcDbEntity
  8
図枠（細）
100
AcDbCircle
 10
2966.054982565173
 20
2120.469663571037
 30
0.0
 40
1.249999999999998
  0
LINE
  5
1868
330
1F
100
AcDbEntity
  8
図枠（細）
100
AcDbLine
 10
2968.885669935492
 20
2121.219663571037
 30
0.0
 11
2968.885669935492
 21
2119.719663571037
 31
0.0
  0
LINE
  5
1869
330
1F
100
AcDbEntity
  8
図枠（細）
100
AcDbLine
 10
2968.885669935492
 20
2119.719663571037
 30
0.0
 11
2971.385669935492
 21
2119.219663571037
 31
0.0
  0
LINE
  5
186A
330
1F
100
AcDbEntity
  8
図枠（細）
100
AcDbLine
 10
2971.385669935492
 20
2119.219663571037
 30
0.0
 11
2971.385669935492
 21
2121.719663571036
 31
0.0
  0
LINE
  5
186B
330
1F
100
AcDbEntity
  8
図枠（細）
100
AcDbLine
 10
2971.385669935492
 20
2121.719663571036
 30
0.0
 11
2968.885669935492
 21
2121.219663571037
 31
0.0
  0
LINE
  5
186C
330
1F
100
AcDbEntity
  8
図枠（細）
  6
CENTER
370
    18
100
AcDbLine
 10
2966.054982565173
 20
2121.969663571037
 30
0.0
 11
2966.054982565173
 21
2118.969663571037
 31
0.0
  0
TEXT
  5
186D
330
1F
100
AcDbEntity
  8
文字
100
AcDbText
 10
2865.007514144728
 20
2109.948089966976
 30
0.0
 40
1.25
  1
年月日
  7
表題
 11
2865.007514144728
 21
2109.719663571037
 31
0.0
100
AcDbText
 73
     1
  0
TEXT
  5
186E
330
1F
100
AcDbEntity
  8
文字
100
AcDbText
 10
2873.035912277114
 20
2109.948089966976
 30
0.0
 40
1.25
  1
符号
  7
表題
 11
2873.035912277114
 21
2109.719663571037
 31
0.0
100
AcDbText
 73
     1
  0
TEXT
  5
186F
330
1F
100
AcDbEntity
  8
文字
100
AcDbText
 10
2882.729894709607
 20
2109.948089966976
 30
0.0
 40
1.25
  1
記　　　　　　事
  7
表題
 11
2882.729894709607
 21
2109.719663571037
 31
0.0
100
AcDbText
 73
     1
  0
TEXT
  5
1870
330
1F
100
AcDbEntity
  8
文字
100
AcDbText
 10
2911.427347293259
 20
2110.969663571037
 30
0.0
 40
3.0
  1
  Myutron Inc.
 41
1.25
  7
社名
 72
     1
 11
2928.483184856711
 21
2112.469663571037
 31
0.0
100
AcDbText
 73
     2
  0
MTEXT
  5
1871
330
1F
100
AcDbEntity
  8
文字
100
AcDbMText
 10
2997.906194623359
 20
2120.572763462381
 30
0.0
 40
1.75
 41
8.75
 46
0.0
 71
     5
 72
     5
  1
二見
  7
表題
 73
     1
 44
1.0
  0
LINE
  5
1872
330
1F
100
AcDbEntity
  8
図枠（細）
100
AcDbLine
 10
2972.757514144728
 20
2125.469663571037
 30
0.0
 11
2972.757514144728
 21
2117.469663571037
 31
0.0
  0
TEXT
  5
1873
330
1F
100
AcDbEntity
  8
文字
100
AcDbText
 10
2930.439546744111
 20
2117.948089966976
 30
0.0
 40
1.25
  1
偏　　芯
  7
表題
 11
2930.439546744111
 21
2117.719663571037
 31
0.0
100
AcDbText
 73
     1
  0
TEXT
  5
1874
330
1F
100
AcDbEntity
  8
文字
100
AcDbText
 10
2930.431602014199
 20
2115.948089966976
 30
0.0
 40
1.25
  1
作 成 日
  7
表題
 11
2930.431602014199
 21
2115.719663571037
 31
0.0
100
AcDbText
 73
     1
  0
TEXT
  5
1875
330
1F
100
AcDbEntity
  8
文字
100
AcDbText
 10
2906.007514144728
 20
2117.948089966976
 30
0.0
 40
1.25
  1
個　　数
  7
表題
 11
2906.007514144728
 21
2117.719663571037
 31
0.0
100
AcDbText
 73
     1
  0
TEXT
  5
1876
330
1F
100
AcDbEntity
  8
文字
100
AcDbText
 10
2906.007514144728
 20
2115.948089966976
 30
0.0
 40
1.25
  1
一般面取
  7
表題
 11
2906.007514144728
 21
2115.719663571037
 31
0.0
100
AcDbText
 73
     1
  0
TEXT
  5
1877
330
1F
100
AcDbEntity
  8
文字
100
AcDbText
 10
2906.007514144728
 20
2119.948089966976
 30
0.0
 40
1.25
  1
処理接点
  7
表題
 11
2906.007514144728
 21
2119.719663571037
 31
0.0
100
AcDbText
 73
     1
  0
TEXT
  5
1878
330
1F
100
AcDbEntity
  8
文字
100
AcDbText
 10
2906.007514144728
 20
2121.948089966976
 30
0.0
 40
1.25
  1
表面処理
  7
表題
 11
2906.007514144728
 21
2121.719663571036
 31
0.0
100
AcDbText
 73
     1
  0
TEXT
  5
1879
330
1F
100
AcDbEntity
  8
文字
100
AcDbText
 10
2906.007514144728
 20
2123.948089966976
 30
0.0
 40
1.25
  1
材　　質
  7
表題
 11
2906.007514144728
 21
2123.719663571037
 31
0.0
100
AcDbText
 73
     1
  0
TEXT
  5
187A
330
1F
100
AcDbEntity
  8
文字
100
AcDbText
 10
2930.439546744111
 20
2123.948089966976
 30
0.0
 40
1.25
  1
寸法公差
  7
表題
 11
2930.439546744111
 21
2123.719663571037
 31
0.0
100
AcDbText
 73
     1
  0
TEXT
  5
187B
330
1F
100
AcDbEntity
  8
文字
100
AcDbText
 10
2930.439546744111
 20
2119.948089966976
 30
0.0
 40
1.25
  1
一般仕上
  7
表題
 11
2930.439546744111
 21
2119.719663571037
 31
0.0
100
AcDbText
 73
     1
  0
TEXT
  5
187C
330
1F
100
AcDbEntity
  8
文字
100
AcDbText
 10
2930.439546744111
 20
2121.948089966976
 30
0.0
 40
1.25
  1
角度公差
  7
表題
 11
2930.439546744111
 21
2121.719663571036
 31
0.0
100
AcDbText
 73
     1
  0
TEXT
  5
187D
330
1F
100
AcDbEntity
  8
文字
100
AcDbText
 10
2920.883404581133
 20
2117.737366966415
 30
0.0
 40
1.25
  1
1
 41
0.9
  7
表題
 72
     2
 11
2921.614369048138
 21
2117.508940570475
 31
0.0
100
AcDbText
 73
     1
  0
MTEXT
  5
1881
330
1F
100
AcDbEntity
  8
文字
100
AcDbMText
 10
2977.906194623359
 20
2120.572763462381
 30
0.0
 40
1.75
 41
8.75
 46
0.0
 71
     5
 72
     5
  1
八木
  7
表題
 73
     1
 44
1.0
  0
MTEXT
  5
1882
330
1F
100
AcDbEntity
  8
文字
100
AcDbMText
 10
2987.906194623361
 20
2120.572763462381
 30
0.0
 40
1.75
 41
8.75
 46
0.0
 71
     5
 72
     5
  1
-
  7
表題
 73
     1
 44
1.0
  0
TEXT
  5
1883
330
1F
100
AcDbEntity
  8
文字
100
AcDbText
 10
2957.620431086653
 20
2115.911287936519
 30
0.0
 40
1.25
  1
機　　　種
  7
表題
 72
     4
 11
2961.681344792237
 21
2116.469663571037
 31
0.0
100
AcDbText
  0
TEXT
  5
1884
330
1F
100
AcDbEntity
  8
文字
100
AcDbText
 10
2971.86524093301
 20
2115.889079814692
 30
0.0
 40
1.25
  1
部　　　番
  7
表題
 72
     4
 11
2975.926154638594
 21
2116.469663571037
 31
0.0
100
AcDbText
  0
LINE
  5
1885
330
1F
100
AcDbEntity
  8
図枠（細）
100
AcDbLine
 10
2969.676154638593
 20
2117.469663571037
 30
0.0
 11
2969.676154638593
 21
2109.469663571037
 31
0.0
  0
LINE
  5
1886
330
1F
100
AcDbEntity
  8
図枠
100
AcDbLine
 10
2863.757514144728
 20
2109.469663571037
 30
0.0
 11
2863.757514144728
 21
2125.469663571037
 31
0.0
  0
LINE
  5
1887
330
1F
100
AcDbEntity
  8
図枠
100
AcDbLine
 10
2863.757514144728
 20
2205.469663571037
 30
0.0
 11
2863.757514144728
 21
2109.469663571037
 31
0.0
  0
LINE
  5
1888
330
1F
100
AcDbEntity
  8
図枠
100
AcDbLine
 10
3002.757514144728
 20
2205.469663571037
 30
0.0
 11
3002.757514144728
 21
2109.469663571037
 31
0.0
  0
LINE
  5
1889
330
1F
100
AcDbEntity
  8
図枠
100
AcDbLine
 10
2863.757514144728
 20
2205.469663571037
 30
0.0
 11
3002.757514144728
 21
2205.469663571037
 31
0.0
  0
LINE
  5
188A
330
1F
100
AcDbEntity
  8
図枠
100
AcDbLine
 10
2863.757514144728
 20
2109.469663571037
 30
0.0
 11
3002.757514144728
 21
2109.469663571037
 31
0.0
  0
LINE
  5
1A90
330
1F
100
AcDbEntity
  8
0
100
AcDbLine
 10
2877.141138241879
 20
2172.58445498253
 30
0.0
 11
2877.141138241879
 21
2143.653352164424
 31
0.0
  0
DIMENSION
  5
1DB2
330
1F
100
AcDbEntity
  8
寸法
100
AcDbDimension
280
     0
  2
*D22
 10
2966.953475288436
 20
2196.376298830355
 30
0.0
 11
2927.573475288437
 21
2196.376298830355
 31
0.0
 70
   160
 71
     5
 42
78.75999999999976
 73
     0
 74
     0
 75
     0
  3
wopt 2：1
100
AcDbAlignedDimension
 13
2888.193475288436
 23
2158.118903573477
 33
0.0
 14
2966.953475288436
 24
2172.918903573477
 34
0.0
100
AcDbRotatedDimension
1001
ACAD
1000
DSTYLE
1002
{
1070
   271
1070
     1
1002
}
  0
DIMENSION
  5
1DB3
330
1F
100
AcDbEntity
  8
寸法
100
AcDbDimension
280
     0
  2
*D23
 10
2896.953475288436
 20
2192.42458468194
 30
0.0
 11
2931.953475288436
 21
2192.42458468194
 31
0.0
 70
   160
 71
     5
 42
70.0
 73
     0
 74
     0
 75
     0
  3
wopt 2：1
100
AcDbAlignedDimension
 13
2966.953475288436
 23
2172.918903573477
 33
0.0
 14
2896.953475288436
 24
2187.818903573477
 34
0.0
100
AcDbRotatedDimension
  0
DIMENSION
  5
1DB4
330
1F
100
AcDbEntity
  8
寸法
100
AcDbDimension
280
     0
  2
*D24
 10
2984.479475288436
 20
2196.376298830355
 30
0.0
 11
2975.716475288436
 21
2197.501298830355
 31
0.0
 70
    32
 71
     5
 42
17.52600000000029
 73
     0
 74
     0
 75
     0
  3
wopt 2：1
100
AcDbAlignedDimension
 13
2966.953475288436
 23
2172.918903573477
 33
0.0
 14
2984.479475288436
 24
2167.144903573477
 34
0.0
100
AcDbRotatedDimension
1001
ACAD
1000
DSTYLE
1002
{
1070
     3
1000
BF=<>
1070
   271
1070
     3
1002
}
  0
DIMENSION
  5
1E26
330
1F
100
AcDbEntity
  8
寸法
100
AcDbDimension
280
     0
  2
*D21
 10
2873.080166132153
 20
2128.118903573478
 30
0.0
 11
2873.080166132153
 21
2158.118903573477
 31
0.0
 70
   160
 71
     5
 42
60.0
 73
     0
 74
     0
 75
     0
  3
wopt 2：1
100
AcDbAlignedDimension
 13
2897.253675288437
 23
2188.118903573477
 33
0.0
 14
2897.253675288437
 24
2128.118903573477
 34
0.0
 50
90.0
100
AcDbRotatedDimension
1001
ACAD
1000
DSTYLE
1002
{
1070
     3
1000
φ<>
1002
}
  0
DIMENSION
  5
1F91
330
1F
100
AcDbEntity
  8
寸法
100
AcDbDimension
280
     0
  2
*D17
 10
2997.543738754335
 20
2135.868903573478
 30
0.0
 11
2997.543738754335
 21
2158.077537704412
 31
0.0
 70
   160
 71
     5
 42
44.5
 73
     0
 74
     0
 75
     0
  3
wopt 2：1
100
AcDbAlignedDimension
 13
2966.253475288436
 23
2180.368903573477
 33
0.0
 14
2966.253475288436
 24
2135.868903573477
 34
0.0
 50
90.0
100
AcDbRotatedDimension
1001
ACAD
1000
DSTYLE
1002
{
1070
     3
1000
φ<>
1002
}
  0
DIMENSION
  5
1F92
330
1F
100
AcDbEntity
  8
寸法
100
AcDbDimension
280
     0
  2
*D18
 10
2974.650755991859
 20
2192.42458468194
 30
0.0
 11
2970.802115640148
 21
2192.42458468194
 31
0.0
 70
   160
 71
     5
 42
7.69728070342262
 73
     0
 74
     0
 75
     0
  3
wopt 2：1
100
AcDbAlignedDimension
 13
2966.953475288436
 23
2172.918903573477
 33
0.0
 14
2974.650755991859
 24
2169.368903573476
 34
0.0
100
AcDbRotatedDimension
  0
DIMENSION
  5
1F93
330
1F
100
AcDbEntity
  8
寸法
100
AcDbDimension
280
     0
  2
*D19
 10
2991.851839753574
 20
2145.418903573478
 30
0.0
 11
2991.851839753574
 21
2158.118903573477
 31
0.0
 70
   160
  1
1-32UNF
 71
     5
 42
25.39999999999964
 73
     0
 74
     0
 75
     0
  3
wopt 2：1
100
AcDbAlignedDimension
 13
2970.453475288436
 23
2170.818903573477
 33
0.0
 14
2970.453475288436
 24
2145.418903573477
 34
0.0
 50
90.0
100
AcDbRotatedDimension
  0
DIMENSION
  5
1F99
330
1F
100
AcDbEntity
  8
寸法
100
AcDbDimension
280
     0
  2
*D20
 10
2970.953475288437
 20
2187.776260617267
 30
0.0
 11
2969.250364798889
 21
2187.776260617267
 31
0.0
 70
   160
 71
     5
 42
4.0
 73
     0
 74
     0
 75
     0
  3
wopt 2：1
100
AcDbAlignedDimension
 13
2966.953475288437
 23
2172.918903573477
 33
0.0
 14
2970.953475288437
 24
2170.318903573477
 34
0.0
100
AcDbRotatedDimension
  0
MTEXT
  5
26DD
330
1F
100
AcDbEntity
  8
寸法
100
AcDbMText
 10
2993.352970865857
 20
2158.277578971089
 30
0.0
 40
1.25
 41
0.0
 46
0.0
 71
     5
 72
     1
  1
Cマウント
  7
寸法 2：1
 11
0.0000000000000001
 21
1.0
 31
0.0
 73
     1
 44
1.0
  0
LINE
  5
2749
330
1F
100
AcDbEntity
  8
実線
100
AcDbLine
 10
2882.336287213313
 20
2160.406197475948
 30
0.0
 11
2880.65757842864
 21
2155.724643075887
 31
0.0
  0
LINE
  5
274A
330
1F
100
AcDbEntity
  8
実線
100
AcDbLine
 10
2884.062101023245
 20
2160.406197475948
 30
0.0
 11
2882.383392238571
 21
2155.724643075887
 31
0.0
  0
ENDSEC
  0
SECTION
  2
OBJECTS
  0
DICTIONARY
  5
C
330
0
100
AcDbDictionary
281
     1
  3
ACAD_CIP_PREVIOUS_PRODUCT_INFO
350
216
  3
ACAD_COLOR
350
6B
  3
ACAD_DETAILVIEWSTYLE
350
21B
  3
ACAD_GROUP
350
D
  3
ACAD_LAYOUT
350
1A
  3
ACAD_MATERIAL
350
6A
  3
ACAD_MLEADERSTYLE
350
12D
  3
ACAD_MLINESTYLE
350
17
  3
ACAD_PLOTSETTINGS
350
19
  3
ACAD_PLOTSTYLENAME
350
E
  3
ACAD_SCALELIST
350
10C
  3
ACAD_SECTIONVIEWSTYLE
350
219
  3
ACAD_TABLESTYLE
350
7E
  3
ACAD_VISUALSTYLE
350
EF
  3
ACDB_RECOMPOSE_DATA
350
276B
  3
AcDbVariableDictionary
350
5E
  0
DICTIONARY
  5
1FF
330
2
100
AcDbDictionary
280
     1
281
     1
  3
ACAD_LAYERSTATES
360
200
  0
DICTIONARY
  5
13C
330
10
100
AcDbDictionary
280
     1
281
     1
  0
DICTIONARY
  5
2EB
330
2EA
100
AcDbDictionary
280
     1
281
     1
  0
DICTIONARY
  5
2ED
330
2EC
100
AcDbDictionary
280
     1
281
     1
  0
DICTIONARY
  5
2EF
330
2EE
100
AcDbDictionary
280
     1
281
     1
  0
DICTIONARY
  5
2F1
330
2F0
100
AcDbDictionary
280
     1
281
     1
  0
DICTIONARY
  5
2F3
330
2F2
100
AcDbDictionary
280
     1
281
     1
  0
DICTIONARY
  5
1CE
330
1F
100
AcDbDictionary
280
     1
281
     1
  3
ACAD_SORTENTS
360
26DE
  0
DICTIONARY
  5
2C7
330
2C6
100
AcDbDictionary
280
     1
281
     1
  3
ACAD_SORTENTS
360
2C8
  0
DICTIONARY
  5
1843
330
1842
100
AcDbDictionary
280
     1
281
     1
  0
XRECORD
  5
216
102
{ACAD_REACTORS
330
C
102
}
330
C
100
AcDbXrecord
280
     1
300
ACDLT
300
2020
300

  0
DICTIONARY
  5
6B
102
{ACAD_REACTORS
330
C
102
}
330
C
100
AcDbDictionary
281
     1
  0
DICTIONARY
  5
21B
102
{ACAD_REACTORS
330
C
102
}
330
C
100
AcDbDictionary
281
     1
  3
Metric50
350
21C
  0
DICTIONARY
  5
D
102
{ACAD_REACTORS
330
C
102
}
330
C
100
AcDbDictionary
281
     1
  3
*A1
350
1603
  0
DICTIONARY
  5
1A
102
{ACAD_REACTORS
330
C
102
}
330
C
100
AcDbDictionary
281
     1
  3
Model
350
22
  3
レイアウト1
350
D3
  3
レイアウト2
350
D7
  0
DICTIONARY
  5
6A
102
{ACAD_REACTORS
330
C
102
}
330
C
100
AcDbDictionary
281
     1
  3
ByBlock
350
ED
  3
ByLayer
350
EC
  3
Global
350
EE
  0
DICTIONARY
  5
12D
102
{ACAD_REACTORS
330
C
102
}
330
C
100
AcDbDictionary
281
     1
  3
Annotative
350
13B
  3
Standard
350
12E
  3
wopt 2：1
350
304
  0
DICTIONARY
  5
17
102
{ACAD_REACTORS
330
C
102
}
330
C
100
AcDbDictionary
281
     1
  3
Standard
350
18
  0
DICTIONARY
  5
19
102
{ACAD_REACTORS
330
C
102
}
330
C
100
AcDbDictionary
281
     1
  0
ACDBDICTIONARYWDFLT
  5
E
102
{ACAD_REACTORS
330
C
102
}
330
C
100
AcDbDictionary
281
     1
  3
Normal
350
F
100
AcDbDictionaryWithDefault
340
F
  0
DICTIONARY
  5
10C
102
{ACAD_REACTORS
330
C
102
}
330
C
100
AcDbDictionary
281
     1
  3
A0
350
10D
  3
A1
350
1BE
  3
A2
350
1BF
  3
A3
350
1C0
  3
A4
350
1C1
  3
A5
350
1C2
  3
A6
350
1C3
  3
A7
350
1C4
  3
A8
350
1C5
  3
A9
350
1C6
  3
B0
350
1C7
  3
B1
350
1C8
  3
B2
350
1C9
  3
B3
350
1CA
  3
B4
350
1CB
  3
B5
350
1CC
  3
B6
350
1CD
  0
DICTIONARY
  5
219
102
{ACAD_REACTORS
330
C
102
}
330
C
100
AcDbDictionary
281
     1
  3
Metric50
350
21A
  0
DICTIONARY
  5
7E
102
{ACAD_REACTORS
330
C
102
}
330
C
100
AcDbDictionary
281
     1
  3
Standard
350
7F
  0
DICTIONARY
  5
EF
102
{ACAD_REACTORS
330
C
102
}
330
C
100
AcDbDictionary
281
     1
  3
2dWireframe
350
F5
  3
Basic
350
F4
  3
Brighten
350
FB
  3
ColorChange
350
FF
  3
Conceptual
350
F8
  3
Dim
350
FA
  3
EdgeColorOff
350
1E6
  3
Facepattern
350
FE
  3
Flat
350
F0
  3
FlatWithEdges
350
F1
  3
Gouraud
350
F2
  3
GouraudWithEdges
350
F3
  3
Hidden
350
F7
  3
JitterOff
350
1E4
  3
Linepattern
350
FD
  3
OverhangOff
350
1E5
  3
Realistic
350
F9
  3
Shaded
350
1F3
  3
Shaded with edges
350
1F2
  3
Shades of Gray
350
1EF
  3
Sketchy
350
1F0
  3
Thicken
350
FC
  3
Wireframe
350
F6
  3
X-Ray
350
1F1
  0
XRECORD
  5
276B
102
{ACAD_REACTORS
330
C
102
}
330
C
100
AcDbXrecord
280
     1
 90
        1
330
7F
  0
DICTIONARY
  5
5E
102
{ACAD_REACTORS
330
C
102
}
330
C
100
AcDbDictionary
281
     1
  3
CANNOSCALE
350
146
  3
CENTEREXE
350
259
  3
CENTERLTYPEFILE
350
25A
  3
CMLEADERSTYLE
350
145
  3
CTABLESTYLE
350
84
  3
CVIEWDETAILSTYLE
350
227
  3
CVIEWSECTIONSTYLE
350
228
  3
DIMASSOC
350
5F
  3
HIDETEXT
350
63
  3
LAYEREVAL
350
1AE
  3
LAYERNOTIFY
350
1AF
  0
DICTIONARY
  5
200
102
{ACAD_REACTORS
330
1FF
102
}
330
1FF
100
AcDbDictionary
281
     1
  0
SORTENTSTABLE
  5
26DE
102
{ACAD_REACTORS
330
1CE
102
}
330
1CE
100
AcDbSortentsTable
330
1F
  0
SORTENTSTABLE
  5
2C8
102
{ACAD_REACTORS
330
2C7
102
}
330
2C7
100
AcDbSortentsTable
330
2C6
  0
ACDBDETAILVIEWSTYLE
  5
21C
102
{ACAD_REACTORS
330
21B
102
}
330
21B
100
AcDbModelDocViewStyle
 70
     0
  3
Metric50
290
     0
300
Metric50
 90
        0
100
AcDbDetailViewStyle
 70
     0
 71
     0
 90
        3
 71
     1
340
11
 62
   256
 40
5.0
340
0
 62
   256
 40
5.0
300

 40
0.0
280
     1
 71
     2
340
16
 90
       25
 62
   256
 71
     3
340
11
 62
   256
 40
5.0
 90
        0
 40
15.0
 90
        1
300
%<\AcVar ViewDetailId>% (%<\AcVar ViewScale \f "%sn">%)
 71
     4
340
16
 90
       25
 62
   256
340
16
 90
       25
 62
   256
280
     0
  0
GROUP
  5
1603
102
{ACAD_REACTORS
330
D
102
}
330
D
100
AcDbGroup
300

 70
     1
 71
     1
340
157E
340
157D
340
157C
340
157B
340
157A
340
1579
340
1578
340
1577
340
1576
340
1575
340
1574
340
1573
340
1572
340
1571
340
1570
340
156F
340
156E
340
156D
340
156C
340
156B
340
156A
340
1569
340
1568
340
1567
340
1566
340
1565
340
1564
340
1563
340
1562
340
1561
340
1560
340
155F
340
155E
340
155D
340
155C
340
155B
340
155A
340
1559
340
1558
340
1557
340
1556
340
1555
340
1554
340
1553
340
1552
340
1551
340
1550
340
154F
340
154E
340
154D
340
154C
340
154B
340
154A
340
1549
340
1548
340
1547
340
1546
340
1545
340
1543
340
153F
340
153E
340
153D
340
153C
340
153B
340
153A
340
1539
340
1538
340
1537
340
1536
340
1535
340
1534
340
1533
340
1532
340
1531
340
1530
340
152F
340
152E
340
152D
340
152C
340
152B
340
152A
340
1529
340
1528
340
1527
340
1526
340
1525
340
1524
340
1523
340
1522
340
1521
340
1520
340
151F
340
151E
340
151D
340
151C
340
151B
340
151A
340
1519
340
1518
340
1517
340
1516
340
1515
340
1514
340
1513
340
1512
340
1511
340
1510
340
150F
340
150E
340
150D
340
150C
340
150B
340
150A
340
1509
340
1508
340
1507
340
1506
340
1505
340
1504
340
1503
340
1502
340
1501
340
1500
340
14FF
340
14FE
340
14FB
340
14FA
340
14F9
340
14F8
340
14F7
340
14F6
340
14F5
340
14F4
340
14F3
340
14F2
340
14F1
340
14F0
340
14EF
340
14EE
340
14ED
340
14EC
340
14EB
340
14EA
340
14E9
340
14E8
340
14E7
340
14E6
340
14E5
340
14E4
340
14E3
340
14E2
340
14E1
340
14E0
340
14DF
340
14DE
340
14DD
340
14DC
340
14DB
340
14DA
340
14D9
340
14D8
340
14D7
340
14D6
340
14D5
340
14D4
340
14D3
340
14D2
340
14D1
340
14D0
340
14CF
340
14CE
340
14CD
340
14CC
340
14CB
340
14CA
340
14C9
340
14C8
340
14C7
340
14C6
340
14C5
340
14C4
340
14C3
340
14C1
340
14C0
340
14BF
340
14BE
340
14BD
340
14BB
340
14BA
340
14B9
340
14B8
340
14B7
340
14B6
340
14B5
340
14B4
340
14B3
340
14B2
340
14B1
340
14B0
340
14AF
340
14AE
340
14AD
340
14AC
340
14AB
340
14AA
340
14A9
340
14A8
340
14A7
340
14A6
340
14A5
340
14A4
340
14A3
340
14A2
340
14A1
340
14A0
340
149F
340
149E
340
149D
340
149C
340
149B
340
149A
340
1499
340
1498
340
1497
340
1496
340
1495
340
1494
340
1493
340
1492
340
1491
340
1490
340
148F
340
148E
340
148D
340
148C
340
148B
340
148A
340
1489
340
1488
340
1487
340
1486
340
1485
340
1484
340
1483
340
1482
340
1481
340
1480
340
147F
340
147E
340
147D
340
147C
340
147B
340
147A
340
1479
340
1478
340
1477
340
1476
340
1475
340
1474
340
1473
340
1472
340
1471
340
1470
340
146F
340
146E
340
146D
340
146C
340
146B
340
146A
340
1469
340
1468
340
1467
340
1466
340
1465
340
1464
340
1463
340
1462
340
1461
340
1460
340
145F
340
145E
340
145D
340
145C
340
145B
340
145A
340
1459
340
1458
340
1457
340
1456
340
1455
340
1454
340
1453
340
1452
340
1451
340
1450
340
144F
340
144E
340
144D
340
144C
340
144B
340
144A
340
1449
340
1448
340
1447
340
1446
340
1445
340
1444
340
1443
340
1442
340
1441
340
1440
340
143F
340
143E
340
143D
340
143C
340
143B
340
143A
340
1439
340
1438
340
1437
340
1436
340
1435
340
1434
340
1433
340
1432
340
1431
340
1430
340
142F
340
142E
340
142D
340
142C
340
142B
340
142A
340
1429
340
1428
340
1427
340
1426
340
1425
340
1424
340
1423
340
1422
340
1421
340
1420
340
141F
340
141E
340
141D
340
141C
340
141B
340
141A
340
1419
340
1418
340
1417
340
1416
340
1415
340
1414
340
1413
340
1412
340
1411
340
1410
340
140F
340
140E
340
140D
340
140C
340
140B
340
140A
340
1405
340
1404
340
1403
340
13FE
340
13FD
340
13FC
340
13FB
340
13FA
340
13E6
340
13E5
340
13E4
340
13E3
340
13E2
340
13E1
340
13E0
340
13DF
340
13DE
340
13DD
340
13DC
340
13DB
340
13DA
340
13D9
340
13D8
340
13D7
340
13D6
340
13D5
340
13D4
340
13D3
340
13D2
340
13D1
340
13D0
340
13CF
340
13CE
340
13CD
340
13CC
340
13CB
340
13CA
340
13C9
340
13C8
340
13C7
340
13C6
340
13C5
340
13C4
340
13C3
340
13C2
340
13C1
340
13C0
340
13BF
340
13BE
340
13BD
340
13BC
340
13BB
340
13BA
340
13B9
340
13B8
340
13B7
340
13B6
340
13B5
340
13B4
340
13B3
340
13B2
340
13B1
340
13B0
340
13AF
340
13AE
340
13AD
340
13AC
340
13AB
340
13AA
340
13A9
340
13A8
340
13A7
340
13A6
340
13A5
340
13A4
340
13A3
340
13A2
340
13A1
340
13A0
340
139F
340
139E
340
139D
340
139C
340
139B
340
139A
340
1399
340
1398
340
1397
340
1396
340
1395
340
1394
340
1393
340
1392
340
1391
340
1390
340
138F
340
138E
340
138D
340
138C
340
138B
340
138A
340
1389
340
1388
340
1387
340
1386
340
1385
340
1384
340
1383
340
1382
340
1381
340
1380
340
137F
340
137E
340
137D
340
137C
340
137B
340
137A
340
1379
340
1378
340
1377
340
1376
340
1375
340
1374
340
1373
340
1372
340
1371
340
1370
340
136F
340
136E
340
136D
340
136C
340
136B
340
136A
340
1369
340
1368
340
1367
340
1366
340
1365
340
1364
340
1363
340
1362
340
1361
340
1360
340
135F
340
135E
340
135D
340
135C
340
135B
340
135A
340
1359
340
1358
340
1357
340
1356
340
1355
340
1354
340
1353
340
1352
340
1351
340
1350
340
134F
340
134E
340
134D
340
134C
340
134B
340
134A
340
1349
340
1348
  0
LAYOUT
  5
22
102
{ACAD_XDICTIONARY
360
205
102
}
102
{ACAD_REACTORS
330
1A
102
}
330
1A
100
AcDbPlotSettings
  1

  2
①iR-ADV C5540
  4
A4
  6

 40
5.873749732971191
 41
5.873748779296875
 42
5.873733520507812
 43
5.873748779296875
 44
209.9733276367187
 45
296.9259948730469
 46
3.112922191619873
 47
3.589248657226562
 48
2863.757514144728
 49
2109.469663571037
140
3002.757514144728
141
2205.469663571037
142
2.0
143
1.0
 70
 11940
 72
     1
 73
     1
 74
     4
  7
monochrome.ctb
 75
     0
147
2.051643865571605
 76
     0
 77
     2
 78
   300
148
-2863.757514144728
149
-2109.469663571037
100
AcDbLayout
  1
Model
 70
     1
 71
     0
 10
0.0
 20
0.0
 11
12.0
 21
9.0
 12
0.0
 22
0.0
 32
0.0
 14
0.0
 24
0.0
 34
0.0
 15
0.0
 25
0.0
 35
0.0
146
0.0
 13
0.0
 23
0.0
 33
0.0
 16
1.0
 26
0.0
 36
0.0
 17
0.0
 27
1.0
 37
0.0
 76
     0
330
1F
331
EA
1001
ACAD_PSEXT
1000
①iR-ADV C5540
1000
Canon Generic Plus LIPSLX
1000
IP_192.168.1.202
1000

1070
     0
  0
LAYOUT
  5
D3
102
{ACAD_REACTORS
330
1A
102
}
330
1A
100
AcDbPlotSettings
  1

  2
C:\Documents and Settings\basas\Application Data\Autodesk\AutoCAD 2005\R16.1\enu\plotters\Default Windows System Printer.pc3
  4

  6

 40
0.0
 41
0.0
 42
0.0
 43
0.0
 44
0.0
 45
0.0
 46
0.0
 47
0.0
 48
0.0
 49
0.0
140
0.0
141
0.0
142
1.0
143
1.0
 70
   688
 72
     0
 73
     0
 74
     5
  7
monochrome.ctb
 75
    16
147
1.0
 76
     0
 77
     2
 78
   300
148
0.0
149
0.0
100
AcDbLayout
  1
レイアウト1
 70
     1
 71
     1
 10
0.0
 20
0.0
 11
12.0
 21
9.0
 12
0.0
 22
0.0
 32
0.0
 14
0.0
 24
0.0
 34
0.0
 15
0.0
 25
0.0
 35
0.0
146
0.0
 13
0.0
 23
0.0
 33
0.0
 16
1.0
 26
0.0
 36
0.0
 17
0.0
 27
1.0
 37
0.0
 76
     0
330
D2
  0
LAYOUT
  5
D7
102
{ACAD_REACTORS
330
1A
102
}
330
1A
100
AcDbPlotSettings
  1

  2
C:\Documents and Settings\basas\Application Data\Autodesk\AutoCAD 2005\R16.1\enu\plotters\Default Windows System Printer.pc3
  4

  6

 40
0.0
 41
0.0
 42
0.0
 43
0.0
 44
0.0
 45
0.0
 46
0.0
 47
0.0
 48
0.0
 49
0.0
140
0.0
141
0.0
142
1.0
143
1.0
 70
   688
 72
     0
 73
     0
 74
     5
  7
monochrome.ctb
 75
    16
147
1.0
 76
     0
 77
     2
 78
   300
148
0.0
149
0.0
100
AcDbLayout
  1
レイアウト2
 70
     1
 71
     2
 10
0.0
 20
0.0
 11
12.0
 21
9.0
 12
0.0
 22
0.0
 32
0.0
 14
0.0
 24
0.0
 34
0.0
 15
0.0
 25
0.0
 35
0.0
146
0.0
 13
0.0
 23
0.0
 33
0.0
 16
1.0
 26
0.0
 36
0.0
 17
0.0
 27
1.0
 37
0.0
 76
     0
330
D6
  0
MATERIAL
  5
ED
102
{ACAD_XDICTIONARY
360
1F9
102
}
102
{ACAD_REACTORS
330
6A
102
}
330
6A
100
AcDbMaterial
  1
ByBlock
 94
       63
  0
MATERIAL
  5
EC
102
{ACAD_XDICTIONARY
360
1F7
102
}
102
{ACAD_REACTORS
330
6A
102
}
330
6A
100
AcDbMaterial
  1
ByLayer
 94
       63
  0
MATERIAL
  5
EE
102
{ACAD_XDICTIONARY
360
173
102
}
102
{ACAD_REACTORS
330
6A
102
}
330
6A
100
AcDbMaterial
  1
Global
 43
0.0007999999797903
 43
0.0
 43
0.0
 43
0.0
 43
0.0
 43
0.0007999999797903
 43
0.0
 43
0.0
 43
0.0
 43
0.0
 43
1.0
 43
0.0
 43
0.0
 43
0.0
 43
0.0
 43
1.0
 49
0.0007999999797903
 49
0.0
 49
0.0
 49
0.0
 49
0.0
 49
0.0007999999797903
 49
0.0
 49
0.0
 49
0.0
 49
0.0
 49
1.0
 49
0.0
 49
0.0
 49
0.0
 49
0.0
 49
1.0
142
0.0007999999797903
142
0.0
142
0.0
142
0.0
142
0.0
142
0.0007999999797903
142
0.0
142
0.0
142
0.0
142
0.0
142
1.0
142
0.0
142
0.0
142
0.0
142
0.0
142
1.0
144
0.0007999999797903
144
0.0
144
0.0
144
0.0
144
0.0
144
0.0007999999797903
144
0.0
144
0.0
144
0.0
144
0.0
144
1.0
144
0.0
144
0.0
144
0.0
144
0.0
144
1.0
 94
       63
1001
ACAD
1070
    -1
1070
     3
1070
     0
1000

1071
        0
1070
     0
  0
MLEADERSTYLE
  5
13B
102
{ACAD_REACTORS
330
12D
102
}
330
12D
100
AcDbMLeaderStyle
179
     2
170
     2
171
     1
172
     0
 90
        2
 40
0.0
 41
0.0
173
     1
 91
-1056964608
340
14
 92
       -2
290
     1
 42
2.0
291
     1
 43
8.0
  3
Standard
 44
4.0
300

342
11
174
     1
178
     1
175
     1
176
     0
 93
-1056964608
 45
4.0
292
     0
297
     0
 46
4.0
 94
-1056964608
 47
1.0
 49
1.0
140
1.0
293
     1
141
0.0
294
     1
177
     0
142
1.0
295
     0
296
     1
143
3.75
271
     0
272
     9
273
     9
298
     0
  0
MLEADERSTYLE
  5
12E
102
{ACAD_REACTORS
330
12D
102
}
330
12D
100
AcDbMLeaderStyle
179
     2
170
     2
171
     1
172
     0
 90
        2
 40
0.0
 41
0.0
173
     1
 91
-1056964608
340
14
 92
       -2
290
     1
 42
2.0
291
     1
 43
8.0
  3
Standard
 44
4.0
300

342
11
174
     1
178
     1
175
     1
176
     0
 93
-1056964608
 45
4.0
292
     0
297
     0
 46
4.0
 94
-1056964608
 47
1.0
 49
1.0
140
1.0
293
     1
141
0.0
294
     1
177
     0
142
1.0
295
     0
296
     0
143
3.75
271
     0
272
     9
273
     9
298
     0
  0
MLEADERSTYLE
  5
304
102
{ACAD_REACTORS
330
12D
102
}
330
12D
100
AcDbMLeaderStyle
179
     2
170
     2
171
     1
172
     0
 90
        2
 40
0.0
 41
0.0
173
     1
 91
-1073741824
340
15
 92
       -1
290
     1
 42
2.0
291
     1
 43
0.36
  3
Standard
341
290
 44
1.25
300

342
2FB
174
     5
178
     5
175
     1
176
     0
 93
-1073741824
 45
1.25
292
     0
297
     0
 46
4.0
 94
-1056964608
 47
1.0
 49
1.0
140
1.0
293
     1
141
0.0
294
     1
177
     0
142
0.0
295
     0
296
     0
143
0.125
271
     0
272
    10
273
    10
298
     1
  0
MLINESTYLE
  5
18
102
{ACAD_REACTORS
330
17
102
}
330
17
100
AcDbMlineStyle
  2
STANDARD
 70
     0
  3

 62
   256
 51
90.0
 52
90.0
 71
     2
 49
0.5
 62
   256
  6
BYLAYER
 49
-0.5
 62
   256
  6
BYLAYER
  0
ACDBPLACEHOLDER
  5
F
102
{ACAD_REACTORS
330
E
102
}
330
E
  0
SCALE
  5
10D
102
{ACAD_REACTORS
330
10C
102
}
330
10C
100
AcDbScale
 70
     0
300
1:1
140
1.0
141
1.0
290
     1
  0
SCALE
  5
1BE
102
{ACAD_REACTORS
330
10C
102
}
330
10C
100
AcDbScale
 70
     0
300
1:2
140
1.0
141
2.0
290
     0
  0
SCALE
  5
1BF
102
{ACAD_REACTORS
330
10C
102
}
330
10C
100
AcDbScale
 70
     0
300
1:4
140
1.0
141
4.0
290
     0
  0
SCALE
  5
1C0
102
{ACAD_REACTORS
330
10C
102
}
330
10C
100
AcDbScale
 70
     0
300
1:5
140
1.0
141
5.0
290
     0
  0
SCALE
  5
1C1
102
{ACAD_REACTORS
330
10C
102
}
330
10C
100
AcDbScale
 70
     0
300
1:8
140
1.0
141
8.0
290
     0
  0
SCALE
  5
1C2
102
{ACAD_REACTORS
330
10C
102
}
330
10C
100
AcDbScale
 70
     0
300
1:10
140
1.0
141
10.0
290
     0
  0
SCALE
  5
1C3
102
{ACAD_REACTORS
330
10C
102
}
330
10C
100
AcDbScale
 70
     0
300
1:16
140
1.0
141
16.0
290
     0
  0
SCALE
  5
1C4
102
{ACAD_REACTORS
330
10C
102
}
330
10C
100
AcDbScale
 70
     0
300
1:20
140
1.0
141
20.0
290
     0
  0
SCALE
  5
1C5
102
{ACAD_REACTORS
330
10C
102
}
330
10C
100
AcDbScale
 70
     0
300
1:30
140
1.0
141
30.0
290
     0
  0
SCALE
  5
1C6
102
{ACAD_REACTORS
330
10C
102
}
330
10C
100
AcDbScale
 70
     0
300
1:40
140
1.0
141
40.0
290
     0
  0
SCALE
  5
1C7
102
{ACAD_REACTORS
330
10C
102
}
330
10C
100
AcDbScale
 70
     0
300
1:50
140
1.0
141
50.0
290
     0
  0
SCALE
  5
1C8
102
{ACAD_REACTORS
330
10C
102
}
330
10C
100
AcDbScale
 70
     0
300
1:100
140
1.0
141
100.0
290
     0
  0
SCALE
  5
1C9
102
{ACAD_REACTORS
330
10C
102
}
330
10C
100
AcDbScale
 70
     0
300
2:1
140
2.0
141
1.0
290
     0
  0
SCALE
  5
1CA
102
{ACAD_REACTORS
330
10C
102
}
330
10C
100
AcDbScale
 70
     0
300
4:1
140
4.0
141
1.0
290
     0
  0
SCALE
  5
1CB
102
{ACAD_REACTORS
330
10C
102
}
330
10C
100
AcDbScale
 70
     0
300
8:1
140
8.0
141
1.0
290
     0
  0
SCALE
  5
1CC
102
{ACAD_REACTORS
330
10C
102
}
330
10C
100
AcDbScale
 70
     0
300
10:1
140
10.0
141
1.0
290
     0
  0
SCALE
  5
1CD
102
{ACAD_REACTORS
330
10C
102
}
330
10C
100
AcDbScale
 70
     0
300
100:1
140
100.0
141
1.0
290
     0
  0
ACDBSECTIONVIEWSTYLE
  5
21A
102
{ACAD_REACTORS
330
219
102
}
330
219
100
AcDbModelDocViewStyle
 70
     0
  3
Metric50
290
     0
300
Metric50
 90
        0
100
AcDbSectionViewStyle
 70
     0
 71
     0
 90
      102
 71
     1
340
11
 62
   256
 40
5.0
340
0
340
0
 62
   256
 40
5.0
300
I, O, Q, S, X, Z
 40
10.0
 90
        0
 40
2.5
 90
        0
 71
     2
340
16
 90
       25
 62
   256
340
16
 90
       50
 62
   256
 40
5.0
 40
2.5
 40
5.0
 71
     3
340
11
 62
   256
 40
5.0
 90
        0
 40
15.0
 90
        1
300
%<\AcVar ViewSectionStartId>%-%<\AcVar ViewSectionEndId>% (%<\AcVar ViewScale \f "%sn">%)
 71
     4
 62
   256
 62
   257
300
ANSI31
 40
1.0
 90
        0
290
     0
290
     0
 90
        6
 40
0.0
 40
1.570796326794896
 40
0.2617993877991494
 40
1.308996938995747
 40
-0.2617993877991494
 40
1.832595714594046
  0
TABLESTYLE
  5
7F
102
{ACAD_XDICTIONARY
360
162
102
}
102
{ACAD_REACTORS
330
7E
102
}
330
7E
100
AcDbTableStyle
280
     0
  3
Standard
 70
     0
 71
     0
 40
1.5
 41
1.5
280
     0
281
     0
  7
Standard
140
4.5
170
     2
 62
     0
 63
     7
283
     0
 90
      512
 91
        0
  1

274
    -2
284
     1
 64
     0
275
    -2
285
     1
 65
     0
276
    -2
286
     1
 66
     0
277
    -2
287
     1
 67
     0
278
    -2
288
     1
 68
     0
279
    -2
289
     1
 69
     0
  7
Standard
140
6.0
170
     5
 62
     0
 63
     7
283
     0
 90
      512
 91
        0
  1

274
    -2
284
     1
 64
     0
275
    -2
285
     1
 65
     0
276
    -2
286
     1
 66
     0
277
    -2
287
     1
 67
     0
278
    -2
288
     1
 68
     0
279
    -2
289
     1
 69
     0
  7
Standard
140
4.5
170
     5
 62
     0
 63
     7
283
     0
 90
      512
 91
        0
  1

274
    -2
284
     1
 64
     0
275
    -2
285
     1
 65
     0
276
    -2
286
     1
 66
     0
277
    -2
287
     1
 67
     0
278
    -2
288
     1
 68
     0
279
    -2
289
     1
 69
     0
  0
VISUALSTYLE
  5
F5
102
{ACAD_REACTORS
330
EF
102
}
330
EF
100
AcDbVisualStyle
  2
2dWireframe
 70
     4
177
     3
291
     0
 70
    58
 90
        0
176
     1
 90
        2
176
     1
 90
        1
176
     1
 90
        0
176
     1
 40
0.6
176
     1
 40
30.0
176
     1
 62
     7
420
 16777215
176
     1
 90
        1
176
     1
 90
        4
176
     1
 62
     7
176
     1
 62
   257
176
     1
 90
        1
176
     1
 90
        1
176
     1
 40
1.0
176
     1
 90
        0
176
     1
 62
   257
176
     1
 40
1.0
176
     1
 90
        1
176
     1
 90
        6
176
     1
 90
        2
176
     1
 62
     7
176
     1
 90
        5
176
     1
 90
        0
176
     1
 90
        0
176
     1
290
     0
176
     1
 90
        1
176
     1
 40
0.0
176
     1
 90
        0
176
     1
290
     1
176
     1
290
     1
176
     1
290
     0
176
     1
290
     0
176
     1
290
     0
176
     1
290
     0
176
     1
290
     0
176
     1
290
     0
176
     1
290
     0
176
     1
 90
       50
176
     1
 40
0.0
176
     1
 40
1.0
176
     1
 90
        0
176
     1
 62
    18
420
        0
176
     1
 90
       50
176
     1
 90
        3
176
     1
 62
     5
420
      255
176
     1
290
     0
176
     1
 90
       50
176
     1
 90
       50
176
     1
 90
       50
176
     1
290
     0
176
     1
 90
       50
176
     1
 62
   256
176
     0
 40
1.0
176
     0
 90
        2
176
     1
  1
strokes_ogs.tif
176
     1
290
     0
176
     1
 40
1.0
176
     1
 40
1.0
176
     1
  0
VISUALSTYLE
  5
F4
102
{ACAD_REACTORS
330
EF
102
}
330
EF
100
AcDbVisualStyle
  2
Basic
 70
     7
177
     3
291
     1
 70
    58
 90
        1
176
     1
 90
        0
176
     1
 90
        1
176
     1
 90
        0
176
     1
 40
0.6
176
     1
 40
30.0
176
     1
 62
     7
420
 16777215
176
     1
 90
        0
176
     1
 90
        4
176
     1
 62
     7
176
     1
 62
   257
176
     1
 90
        1
176
     1
 90
        1
176
     1
 40
1.0
176
     1
 90
        8
176
     1
 62
     7
176
     1
 40
1.0
176
     1
 90
        1
176
     1
 90
        6
176
     1
 90
        2
176
     1
 62
     7
176
     1
 90
        5
176
     1
 90
        0
176
     1
 90
        0
176
     1
290
     0
176
     1
 90
        1
176
     1
 40
0.0
176
     1
 90
        0
176
     1
290
     0
176
     1
290
     1
176
     1
290
     1
176
     1
290
     0
176
     1
290
     0
176
     1
290
     0
176
     1
290
     0
176
     1
290
     0
176
     1
290
     0
176
     1
 90
       50
176
     1
 40
0.0
176
     1
 40
1.0
176
     1
 90
        0
176
     1
 62
    18
420
        0
176
     1
 90
       50
176
     1
 90
        3
176
     1
 62
     5
420
      255
176
     1
290
     0
176
     1
 90
       50
176
     1
 90
       50
176
     1
 90
       50
176
     1
290
     0
176
     1
 90
       50
176
     1
 62
   256
176
     0
 40
1.0
176
     0
 90
        2
176
     1
  1
strokes_ogs.tif
176
     1
290
     0
176
     1
 40
1.0
176
     1
 40
1.0
176
     1
  0
VISUALSTYLE
  5
FB
102
{ACAD_REACTORS
330
EF
102
}
330
EF
100
AcDbVisualStyle
  2
Brighten
 70
    12
177
     3
291
     1
 70
    58
 90
        2
176
     1
 90
        2
176
     1
 90
        1
176
     1
 90
        0
176
     1
 40
0.6
176
     1
 40
30.0
176
     1
 62
     7
420
 16777215
176
     1
 90
        1
176
     1
 90
        4
176
     1
 62
     7
176
     1
 62
   257
176
     1
 90
        1
176
     1
 90
        1
176
     1
 40
1.0
176
     1
 90
        8
176
     1
 62
     7
176
     1
 40
1.0
176
     1
 90
        1
176
     1
 90
        6
176
     1
 90
        2
176
     1
 62
     7
176
     1
 90
        5
176
     1
 90
        0
176
     1
 90
        0
176
     1
290
     0
176
     1
 90
        1
176
     1
 40
50.0
176
     1
 90
        0
176
     1
290
     0
176
     1
290
     1
176
     1
290
     1
176
     1
290
     0
176
     1
290
     0
176
     1
290
     0
176
     1
290
     0
176
     1
290
     0
176
     1
290
     0
176
     1
 90
       50
176
     1
 40
0.0
176
     1
 40
1.0
176
     1
 90
        0
176
     1
 62
    18
420
        0
176
     1
 90
       50
176
     1
 90
        3
176
     1
 62
     5
420
      255
176
     1
290
     0
176
     1
 90
       50
176
     1
 90
       50
176
     1
 90
       50
176
     1
290
     0
176
     1
 90
       50
176
     1
 62
   256
176
     0
 40
1.0
176
     0
 90
        2
176
     1
  1
strokes_ogs.tif
176
     1
290
     0
176
     1
 40
1.0
176
     1
 40
1.0
176
     1
  0
VISUALSTYLE
  5
FF
102
{ACAD_REACTORS
330
EF
102
}
330
EF
100
AcDbVisualStyle
  2
ColorChange
 70
    16
177
     3
291
     1
 70
    58
 90
        2
176
     1
 90
        2
176
     1
 90
        3
176
     1
 90
        0
176
     1
 40
0.6
176
     1
 40
30.0
176
     1
 62
     8
420
  8421504
176
     1
 90
        1
176
     1
 90
        4
176
     1
 62
     7
176
     1
 62
   257
176
     1
 90
        1
176
     1
 90
        1
176
     1
 40
1.0
176
     1
 90
        8
176
     1
 62
     8
420
  8421504
176
     1
 40
1.0
176
     1
 90
        1
176
     1
 90
        6
176
     1
 90
        2
176
     1
 62
     7
176
     1
 90
        5
176
     1
 90
        0
176
     1
 90
        0
176
     1
290
     0
176
     1
 90
        1
176
     1
 40
0.0
176
     1
 90
        0
176
     1
290
     0
176
     1
290
     1
176
     1
290
     1
176
     1
290
     0
176
     1
290
     0
176
     1
290
     0
176
     1
290
     0
176
     1
290
     0
176
     1
290
     0
176
     1
 90
       50
176
     1
 40
0.0
176
     1
 40
1.0
176
     1
 90
        0
176
     1
 62
    18
420
        0
176
     1
 90
       50
176
     1
 90
        3
176
     1
 62
     5
420
      255
176
     1
290
     0
176
     1
 90
       50
176
     1
 90
       50
176
     1
 90
       50
176
     1
290
     0
176
     1
 90
       50
176
     1
 62
   256
176
     0
 40
1.0
176
     0
 90
        2
176
     1
  1
strokes_ogs.tif
176
     1
290
     0
176
     1
 40
1.0
176
     1
 40
1.0
176
     1
  0
VISUALSTYLE
  5
F8
102
{ACAD_REACTORS
330
EF
102
}
330
EF
100
AcDbVisualStyle
  2
Conceptual
 70
     9
177
     3
291
     0
 70
    58
 90
        3
176
     1
 90
        2
176
     1
 90
        1
176
     1
 90
        0
176
     1
 40
0.6
176
     1
 40
30.0
176
     1
 62
     7
420
 16777215
176
     1
 90
        2
176
     1
 90
        2
176
     1
 62
     7
176
     1
 62
   257
176
     1
 90
        1
176
     1
 90
        1
176
     1
 40
40.0
176
     1
 90
        8
176
     1
 62
     7
176
     1
 40
1.0
176
     1
 90
        1
176
     1
 90
        6
176
     1
 90
        2
176
     1
 62
     7
176
     1
 90
        3
176
     1
 90
        0
176
     1
 90
        0
176
     1
290
     0
176
     1
 90
        1
176
     1
 40
0.0
176
     1
 90
        0
176
     1
290
     0
176
     1
290
     1
176
     1
290
     1
176
     1
290
     0
176
     1
290
     0
176
     1
290
     0
176
     1
290
     0
176
     1
290
     0
176
     1
290
     0
176
     1
 90
       50
176
     1
 40
0.0
176
     1
 40
1.0
176
     1
 90
        0
176
     1
 62
    18
420
        0
176
     1
 90
       50
176
     1
 90
        3
176
     1
 62
     5
420
      255
176
     1
290
     0
176
     1
 90
       50
176
     1
 90
       50
176
     1
 90
       50
176
     1
290
     0
176
     1
 90
       50
176
     1
 62
   256
176
     0
 40
1.0
176
     0
 90
        2
176
     1
  1
strokes_ogs.tif
176
     1
290
     0
176
     1
 40
1.0
176
     1
 40
1.0
176
     1
  0
VISUALSTYLE
  5
FA
102
{ACAD_REACTORS
330
EF
102
}
330
EF
100
AcDbVisualStyle
  2
Dim
 70
    11
177
     3
291
     1
 70
    58
 90
        2
176
     1
 90
        2
176
     1
 90
        1
176
     1
 90
        0
176
     1
 40
0.6
176
     1
 40
30.0
176
     1
 62
     7
420
 16777215
176
     1
 90
        1
176
     1
 90
        4
176
     1
 62
     7
176
     1
 62
   257
176
     1
 90
        1
176
     1
 90
        1
176
     1
 40
1.0
176
     1
 90
        8
176
     1
 62
     7
176
     1
 40
1.0
176
     1
 90
        1
176
     1
 90
        6
176
     1
 90
        2
176
     1
 62
     7
176
     1
 90
        5
176
     1
 90
        0
176
     1
 90
        0
176
     1
290
     0
176
     1
 90
        1
176
     1
 40
-50.0
176
     1
 90
        0
176
     1
290
     0
176
     1
290
     1
176
     1
290
     1
176
     1
290
     0
176
     1
290
     0
176
     1
290
     0
176
     1
290
     0
176
     1
290
     0
176
     1
290
     0
176
     1
 90
       50
176
     1
 40
0.0
176
     1
 40
1.0
176
     1
 90
        0
176
     1
 62
    18
420
        0
176
     1
 90
       50
176
     1
 90
        3
176
     1
 62
     5
420
      255
176
     1
290
     0
176
     1
 90
       50
176
     1
 90
       50
176
     1
 90
       50
176
     1
290
     0
176
     1
 90
       50
176
     1
 62
   256
176
     0
 40
1.0
176
     0
 90
        2
176
     1
  1
strokes_ogs.tif
176
     1
290
     0
176
     1
 40
1.0
176
     1
 40
1.0
176
     1
  0
VISUALSTYLE
  5
1E6
102
{ACAD_REACTORS
330
EF
102
}
330
EF
100
AcDbVisualStyle
  2
EdgeColorOff
 70
    22
177
     3
291
     1
 70
    58
 90
        2
176
     0
 90
        2
176
     0
 90
        0
176
     0
 90
        0
176
     0
 40
0.6
176
     0
 40
30.0
176
     0
 62
     7
420
 16777215
176
     0
 90
        1
176
     0
 90
        4
176
     0
 62
     7
176
     0
 62
   257
176
     0
 90
        1
176
     0
 90
        1
176
     0
 40
1.0
176
     0
 90
        8
176
     2
 62
     7
176
     0
 40
1.0
176
     0
 90
        1
176
     0
 90
        6
176
     0
 90
        2
176
     0
 62
     7
176
     0
 90
        5
176
     0
 90
        0
176
     0
 90
        0
176
     0
290
     0
176
     0
 90
        1
176
     0
 40
0.0
176
     0
 90
        0
176
     0
290
     0
176
     1
290
     1
176
     1
290
     1
176
     1
290
     0
176
     1
290
     0
176
     1
290
     0
176
     1
290
     0
176
     1
290
     0
176
     1
290
     0
176
     1
 90
       50
176
     1
 40
0.0
176
     1
 40
1.0
176
     1
 90
        0
176
     1
 62
    18
420
        0
176
     1
 90
       50
176
     1
 90
        3
176
     1
 62
     5
420
      255
176
     1
290
     0
176
     1
 90
       50
176
     1
 90
       50
176
     1
 90
       50
176
     1
290
     0
176
     1
 90
       50
176
     1
 62
   256
176
     0
 40
1.0
176
     0
 90
        2
176
     1
  1
strokes_ogs.tif
176
     1
290
     0
176
     1
 40
1.0
176
     1
 40
1.0
176
     1
  0
VISUALSTYLE
  5
FE
102
{ACAD_REACTORS
330
EF
102
}
330
EF
100
AcDbVisualStyle
  2
Facepattern
 70
    15
177
     3
291
     1
 70
    58
 90
        2
176
     1
 90
        2
176
     1
 90
        1
176
     1
 90
        0
176
     1
 40
0.6
176
     1
 40
30.0
176
     1
 62
     7
420
 16777215
176
     1
 90
        1
176
     1
 90
        4
176
     1
 62
     7
176
     1
 62
   257
176
     1
 90
        1
176
     1
 90
        1
176
     1
 40
1.0
176
     1
 90
        8
176
     1
 62
     7
176
     1
 40
1.0
176
     1
 90
        1
176
     1
 90
        6
176
     1
 90
        2
176
     1
 62
     7
176
     1
 90
        5
176
     1
 90
        0
176
     1
 90
        0
176
     1
290
     0
176
     1
 90
        1
176
     1
 40
0.0
176
     1
 90
        0
176
     1
290
     0
176
     1
290
     1
176
     1
290
     1
176
     1
290
     0
176
     1
290
     0
176
     1
290
     0
176
     1
290
     0
176
     1
290
     0
176
     1
290
     0
176
     1
 90
       50
176
     1
 40
0.0
176
     1
 40
1.0
176
     1
 90
        0
176
     1
 62
    18
420
        0
176
     1
 90
       50
176
     1
 90
        3
176
     1
 62
     5
420
      255
176
     1
290
     0
176
     1
 90
       50
176
     1
 90
       50
176
     1
 90
       50
176
     1
290
     0
176
     1
 90
       50
176
     1
 62
   256
176
     0
 40
1.0
176
     0
 90
        2
176
     1
  1
strokes_ogs.tif
176
     1
290
     0
176
     1
 40
1.0
176
     1
 40
1.0
176
     1
  0
VISUALSTYLE
  5
F0
102
{ACAD_REACTORS
330
EF
102
}
330
EF
100
AcDbVisualStyle
  2
Flat
 70
     0
177
     3
291
     1
 70
    58
 90
        2
176
     1
 90
        1
176
     1
 90
        1
176
     1
 90
        2
176
     1
 40
0.6
176
     1
 40
30.0
176
     1
 62
     7
420
 16777215
176
     1
 90
        0
176
     1
 90
        0
176
     1
 62
     7
176
     1
 62
   257
176
     1
 90
        1
176
     1
 90
        1
176
     1
 40
1.0
176
     1
 90
        8
176
     1
 62
     7
176
     1
 40
1.0
176
     1
 90
        1
176
     1
 90
        6
176
     1
 90
        2
176
     1
 62
     7
176
     1
 90
        5
176
     1
 90
        0
176
     1
 90
        0
176
     1
290
     0
176
     1
 90
       13
176
     1
 40
0.0
176
     1
 90
        0
176
     1
290
     0
176
     1
290
     1
176
     1
290
     1
176
     1
290
     0
176
     1
290
     0
176
     1
290
     0
176
     1
290
     0
176
     1
290
     0
176
     1
290
     0
176
     1
 90
       50
176
     1
 40
0.0
176
     1
 40
1.0
176
     1
 90
        0
176
     1
 62
    18
420
        0
176
     1
 90
       50
176
     1
 90
        3
176
     1
 62
     5
420
      255
176
     1
290
     0
176
     1
 90
       50
176
     1
 90
       50
176
     1
 90
       50
176
     1
290
     0
176
     1
 90
       50
176
     1
 62
   256
176
     0
 40
1.0
176
     0
 90
        2
176
     1
  1
strokes_ogs.tif
176
     1
290
     0
176
     1
 40
1.0
176
     1
 40
1.0
176
     1
  0
VISUALSTYLE
  5
F1
102
{ACAD_REACTORS
330
EF
102
}
330
EF
100
AcDbVisualStyle
  2
FlatWithEdges
 70
     1
177
     3
291
     1
 70
    58
 90
        2
176
     1
 90
        1
176
     1
 90
        1
176
     1
 90
        2
176
     1
 40
0.6
176
     1
 40
30.0
176
     1
 62
     7
420
 16777215
176
     1
 90
        1
176
     1
 90
        0
176
     1
 62
     7
176
     1
 62
   257
176
     1
 90
        1
176
     1
 90
        1
176
     1
 40
1.0
176
     1
 90
        0
176
     1
 62
   257
176
     1
 40
1.0
176
     1
 90
        1
176
     1
 90
        6
176
     1
 90
        2
176
     1
 62
     7
176
     1
 90
        5
176
     1
 90
        0
176
     1
 90
        0
176
     1
290
     0
176
     1
 90
       13
176
     1
 40
0.0
176
     1
 90
        0
176
     1
290
     0
176
     1
290
     1
176
     1
290
     1
176
     1
290
     0
176
     1
290
     0
176
     1
290
     0
176
     1
290
     0
176
     1
290
     0
176
     1
290
     0
176
     1
 90
       50
176
     1
 40
0.0
176
     1
 40
1.0
176
     1
 90
        0
176
     1
 62
    18
420
        0
176
     1
 90
       50
176
     1
 90
        3
176
     1
 62
     5
420
      255
176
     1
290
     0
176
     1
 90
       50
176
     1
 90
       50
176
     1
 90
       50
176
     1
290
     0
176
     1
 90
       50
176
     1
 62
   256
176
     0
 40
1.0
176
     0
 90
        2
176
     1
  1
strokes_ogs.tif
176
     1
290
     0
176
     1
 40
1.0
176
     1
 40
1.0
176
     1
  0
VISUALSTYLE
  5
F2
102
{ACAD_REACTORS
330
EF
102
}
330
EF
100
AcDbVisualStyle
  2
Gouraud
 70
     2
177
     3
291
     1
 70
    58
 90
        2
176
     1
 90
        2
176
     1
 90
        1
176
     1
 90
        2
176
     1
 40
0.6
176
     1
 40
30.0
176
     1
 62
     7
420
 16777215
176
     1
 90
        0
176
     1
 90
        0
176
     1
 62
     7
176
     1
 62
   257
176
     1
 90
        1
176
     1
 90
        1
176
     1
 40
1.0
176
     1
 90
        0
176
     1
 62
     7
176
     1
 40
1.0
176
     1
 90
        1
176
     1
 90
        6
176
     1
 90
        2
176
     1
 62
     7
176
     1
 90
        5
176
     1
 90
        0
176
     1
 90
        0
176
     1
290
     0
176
     1
 90
       13
176
     1
 40
0.0
176
     1
 90
        0
176
     1
290
     0
176
     1
290
     1
176
     1
290
     1
176
     1
290
     0
176
     1
290
     0
176
     1
290
     0
176
     1
290
     0
176
     1
290
     0
176
     1
290
     0
176
     1
 90
       50
176
     1
 40
0.0
176
     1
 40
1.0
176
     1
 90
        0
176
     1
 62
    18
420
        0
176
     1
 90
       50
176
     1
 90
        3
176
     1
 62
     5
420
      255
176
     1
290
     0
176
     1
 90
       50
176
     1
 90
       50
176
     1
 90
       50
176
     1
290
     0
176
     1
 90
       50
176
     1
 62
   256
176
     0
 40
1.0
176
     0
 90
        2
176
     1
  1
strokes_ogs.tif
176
     1
290
     0
176
     1
 40
1.0
176
     1
 40
1.0
176
     1
  0
VISUALSTYLE
  5
F3
102
{ACAD_REACTORS
330
EF
102
}
330
EF
100
AcDbVisualStyle
  2
GouraudWithEdges
 70
     3
177
     3
291
     1
 70
    58
 90
        2
176
     1
 90
        2
176
     1
 90
        1
176
     1
 90
        2
176
     1
 40
0.6
176
     1
 40
30.0
176
     1
 62
     7
420
 16777215
176
     1
 90
        1
176
     1
 90
        0
176
     1
 62
     7
176
     1
 62
   257
176
     1
 90
        1
176
     1
 90
        1
176
     1
 40
1.0
176
     1
 90
        0
176
     1
 62
   257
176
     1
 40
1.0
176
     1
 90
        1
176
     1
 90
        6
176
     1
 90
        2
176
     1
 62
     7
176
     1
 90
        5
176
     1
 90
        0
176
     1
 90
        0
176
     1
290
     0
176
     1
 90
       13
176
     1
 40
0.0
176
     1
 90
        0
176
     1
290
     0
176
     1
290
     1
176
     1
290
     1
176
     1
290
     0
176
     1
290
     0
176
     1
290
     0
176
     1
290
     0
176
     1
290
     0
176
     1
290
     0
176
     1
 90
       50
176
     1
 40
0.0
176
     1
 40
1.0
176
     1
 90
        0
176
     1
 62
    18
420
        0
176
     1
 90
       50
176
     1
 90
        3
176
     1
 62
     5
420
      255
176
     1
290
     0
176
     1
 90
       50
176
     1
 90
       50
176
     1
 90
       50
176
     1
290
     0
176
     1
 90
       50
176
     1
 62
   256
176
     0
 40
1.0
176
     0
 90
        2
176
     1
  1
strokes_ogs.tif
176
     1
290
     0
176
     1
 40
1.0
176
     1
 40
1.0
176
     1
  0
VISUALSTYLE
  5
F7
102
{ACAD_REACTORS
330
EF
102
}
330
EF
100
AcDbVisualStyle
  2
Hidden
 70
     6
177
     3
291
     0
 70
    58
 90
        1
176
     1
 90
        2
176
     1
 90
        2
176
     1
 90
        0
176
     1
 40
0.6
176
     1
 40
30.0
176
     1
 62
     7
420
 16777215
176
     1
 90
        2
176
     1
 90
        2
176
     1
 62
     7
176
     1
 62
   257
176
     1
 90
        2
176
     1
 90
        1
176
     1
 40
40.0
176
     1
 90
        0
176
     1
 62
   257
176
     1
 40
1.0
176
     1
 90
        1
176
     1
 90
        6
176
     1
 90
        2
176
     1
 62
     7
176
     1
 90
        3
176
     1
 90
        0
176
     1
 90
        0
176
     1
290
     0
176
     1
 90
        1
176
     1
 40
0.0
176
     1
 90
        0
176
     1
290
     0
176
     1
290
     1
176
     1
290
     1
176
     1
290
     0
176
     1
290
     0
176
     1
290
     0
176
     1
290
     0
176
     1
290
     0
176
     1
290
     0
176
     1
 90
       50
176
     1
 40
0.0
176
     1
 40
1.0
176
     1
 90
        0
176
     1
 62
    18
420
        0
176
     1
 90
       50
176
     1
 90
        3
176
     1
 62
     5
420
      255
176
     1
290
     0
176
     1
 90
       50
176
     1
 90
       50
176
     1
 90
       50
176
     1
290
     0
176
     1
 90
       50
176
     1
 62
   256
176
     0
 40
1.0
176
     0
 90
        2
176
     1
  1
strokes_ogs.tif
176
     1
290
     0
176
     1
 40
1.0
176
     1
 40
1.0
176
     1
  0
VISUALSTYLE
  5
1E4
102
{ACAD_REACTORS
330
EF
102
}
330
EF
100
AcDbVisualStyle
  2
JitterOff
 70
    20
177
     3
291
     1
 70
    58
 90
        2
176
     0
 90
        2
176
     0
 90
        0
176
     0
 90
        0
176
     0
 40
0.6
176
     0
 40
30.0
176
     0
 62
     7
420
 16777215
176
     0
 90
        1
176
     0
 90
        4
176
     0
 62
     7
176
     0
 62
   257
176
     0
 90
        1
176
     0
 90
        1
176
     0
 40
1.0
176
     0
 90
       10
176
     2
 62
     7
176
     0
 40
1.0
176
     0
 90
        1
176
     0
 90
        6
176
     0
 90
        2
176
     0
 62
     7
176
     0
 90
        5
176
     0
 90
        0
176
     0
 90
        0
176
     0
290
     0
176
     0
 90
        1
176
     0
 40
0.0
176
     0
 90
        0
176
     0
290
     0
176
     1
290
     1
176
     1
290
     1
176
     1
290
     0
176
     1
290
     0
176
     1
290
     0
176
     1
290
     0
176
     1
290
     0
176
     1
290
     0
176
     1
 90
       50
176
     1
 40
0.0
176
     1
 40
1.0
176
     1
 90
        0
176
     1
 62
    18
420
        0
176
     1
 90
       50
176
     1
 90
        3
176
     1
 62
     5
420
      255
176
     1
290
     0
176
     1
 90
       50
176
     1
 90
       50
176
     1
 90
       50
176
     1
290
     0
176
     1
 90
       50
176
     1
 62
   256
176
     0
 40
1.0
176
     0
 90
        2
176
     1
  1
strokes_ogs.tif
176
     1
290
     0
176
     1
 40
1.0
176
     1
 40
1.0
176
     1
  0
VISUALSTYLE
  5
FD
102
{ACAD_REACTORS
330
EF
102
}
330
EF
100
AcDbVisualStyle
  2
Linepattern
 70
    14
177
     3
291
     1
 70
    58
 90
        2
176
     1
 90
        2
176
     1
 90
        1
176
     1
 90
        0
176
     1
 40
0.6
176
     1
 40
30.0
176
     1
 62
     7
420
 16777215
176
     1
 90
        1
176
     1
 90
        4
176
     1
 62
     7
176
     1
 62
   257
176
     1
 90
        7
176
     1
 90
        7
176
     1
 40
1.0
176
     1
 90
        8
176
     1
 62
     7
176
     1
 40
1.0
176
     1
 90
        1
176
     1
 90
        6
176
     1
 90
        2
176
     1
 62
     7
176
     1
 90
        5
176
     1
 90
        0
176
     1
 90
        0
176
     1
290
     0
176
     1
 90
        1
176
     1
 40
0.0
176
     1
 90
        0
176
     1
290
     0
176
     1
290
     1
176
     1
290
     1
176
     1
290
     0
176
     1
290
     0
176
     1
290
     0
176
     1
290
     0
176
     1
290
     0
176
     1
290
     0
176
     1
 90
       50
176
     1
 40
0.0
176
     1
 40
1.0
176
     1
 90
        0
176
     1
 62
    18
420
        0
176
     1
 90
       50
176
     1
 90
        3
176
     1
 62
     5
420
      255
176
     1
290
     0
176
     1
 90
       50
176
     1
 90
       50
176
     1
 90
       50
176
     1
290
     0
176
     1
 90
       50
176
     1
 62
   256
176
     0
 40
1.0
176
     0
 90
        2
176
     1
  1
strokes_ogs.tif
176
     1
290
     0
176
     1
 40
1.0
176
     1
 40
1.0
176
     1
  0
VISUALSTYLE
  5
1E5
102
{ACAD_REACTORS
330
EF
102
}
330
EF
100
AcDbVisualStyle
  2
OverhangOff
 70
    21
177
     3
291
     1
 70
    58
 90
        2
176
     0
 90
        2
176
     0
 90
        0
176
     0
 90
        0
176
     0
 40
0.6
176
     0
 40
30.0
176
     0
 62
     7
420
 16777215
176
     0
 90
        1
176
     0
 90
        4
176
     0
 62
     7
176
     0
 62
   257
176
     0
 90
        1
176
     0
 90
        1
176
     0
 40
1.0
176
     0
 90
        9
176
     2
 62
     7
176
     0
 40
1.0
176
     0
 90
        1
176
     0
 90
        6
176
     0
 90
        2
176
     0
 62
     7
176
     0
 90
        5
176
     0
 90
        0
176
     0
 90
        0
176
     0
290
     0
176
     0
 90
        1
176
     0
 40
0.0
176
     0
 90
        0
176
     0
290
     0
176
     1
290
     1
176
     1
290
     1
176
     1
290
     0
176
     1
290
     0
176
     1
290
     0
176
     1
290
     0
176
     1
290
     0
176
     1
290
     0
176
     1
 90
       50
176
     1
 40
0.0
176
     1
 40
1.0
176
     1
 90
        0
176
     1
 62
    18
420
        0
176
     1
 90
       50
176
     1
 90
        3
176
     1
 62
     5
420
      255
176
     1
290
     0
176
     1
 90
       50
176
     1
 90
       50
176
     1
 90
       50
176
     1
290
     0
176
     1
 90
       50
176
     1
 62
   256
176
     0
 40
1.0
176
     0
 90
        2
176
     1
  1
strokes_ogs.tif
176
     1
290
     0
176
     1
 40
1.0
176
     1
 40
1.0
176
     1
  0
VISUALSTYLE
  5
F9
102
{ACAD_REACTORS
330
EF
102
}
330
EF
100
AcDbVisualStyle
  2
Realistic
 70
     8
177
     3
291
     0
 70
    58
 90
        2
176
     1
 90
        3
176
     1
 90
        0
176
     1
 90
        2
176
     1
 40
0.6
176
     1
 40
30.0
176
     1
 62
     7
420
 16777215
176
     1
 90
        0
176
     1
 90
        0
176
     1
 62
     7
176
     1
 62
   257
176
     1
 90
        1
176
     1
 90
        1
176
     1
 40
1.0
176
     1
 90
        8
176
     1
 62
   257
176
     1
 40
1.0
176
     1
 90
        1
176
     1
 90
        6
176
     1
 90
        2
176
     1
 62
     7
176
     1
 90
        3
176
     1
 90
        0
176
     1
 90
        0
176
     1
290
     0
176
     1
 90
       13
176
     1
 40
0.0
176
     1
 90
        0
176
     1
290
     0
176
     1
290
     1
176
     1
290
     1
176
     1
290
     0
176
     1
290
     0
176
     1
290
     0
176
     1
290
     0
176
     1
290
     0
176
     1
290
     0
176
     1
 90
       50
176
     1
 40
0.0
176
     1
 40
1.0
176
     1
 90
        0
176
     1
 62
    18
420
        0
176
     1
 90
       50
176
     1
 90
        3
176
     1
 62
     5
420
      255
176
     1
290
     0
176
     1
 90
       50
176
     1
 90
       50
176
     1
 90
       50
176
     1
290
     0
176
     1
 90
       50
176
     1
 62
   256
176
     0
 40
1.0
176
     0
 90
        2
176
     1
  1
strokes_ogs.tif
176
     1
290
     0
176
     1
 40
1.0
176
     1
 40
1.0
176
     1
  0
VISUALSTYLE
  5
1F3
102
{ACAD_REACTORS
330
EF
102
}
330
EF
100
AcDbVisualStyle
  2
Shaded
 70
    27
177
     3
291
     0
 70
    58
 90
        2
176
     1
 90
        2
176
     1
 90
        1
176
     1
 90
        2
176
     1
 40
0.6
176
     1
 40
30.0
176
     1
 62
     7
420
 16777215
176
     1
 90
        0
176
     1
 90
        4
176
     1
 62
     7
176
     1
 62
   257
176
     1
 90
        1
176
     1
 90
        1
176
     1
 40
1.0
176
     1
 90
        8
176
     1
 62
   257
176
     1
 40
1.0
176
     1
 90
        1
176
     1
 90
        6
176
     1
 90
        2
176
     1
 62
     8
420
  7895160
176
     1
 90
        3
176
     1
 90
        0
176
     1
 90
        0
176
     1
290
     0
176
     1
 90
        5
176
     1
 40
0.0
176
     1
 90
        0
176
     1
290
     0
176
     1
290
     1
176
     1
290
     1
176
     1
290
     0
176
     1
290
     0
176
     1
290
     0
176
     1
290
     0
176
     1
290
     0
176
     1
290
     0
176
     1
 90
       50
176
     1
 40
0.0
176
     1
 40
1.0
176
     1
 90
        0
176
     1
 62
    18
420
        0
176
     1
 90
       50
176
     1
 90
        3
176
     1
 62
     5
420
      255
176
     1
290
     0
176
     1
 90
       50
176
     1
 90
       50
176
     1
 90
       50
176
     1
290
     0
176
     1
 90
       50
176
     1
 62
   256
176
     0
 40
1.0
176
     0
 90
        2
176
     1
  1
strokes_ogs.tif
176
     1
290
     0
176
     1
 40
1.0
176
     1
 40
1.0
176
     1
  0
VISUALSTYLE
  5
1F2
102
{ACAD_REACTORS
330
EF
102
}
330
EF
100
AcDbVisualStyle
  2
Shaded with edges
 70
    26
177
     3
291
     0
 70
    58
 90
        2
176
     1
 90
        2
176
     1
 90
        1
176
     1
 90
        2
176
     1
 40
0.6
176
     1
 40
30.0
176
     1
 62
     7
420
 16777215
176
     1
 90
        1
176
     1
 90
        2
176
     1
 62
     7
176
     1
 62
   257
176
     1
 90
        2
176
     1
 90
        1
176
     1
 40
1.0
176
     1
 90
        8
176
     1
 62
   257
176
     1
 40
1.0
176
     1
 90
        1
176
     1
 90
        6
176
     1
 90
        2
176
     1
 62
     7
176
     1
 90
        3
176
     1
 90
        0
176
     1
 90
        0
176
     1
290
     0
176
     1
 90
        5
176
     1
 40
0.0
176
     1
 90
        0
176
     1
290
     0
176
     1
290
     1
176
     1
290
     1
176
     1
290
     0
176
     1
290
     0
176
     1
290
     0
176
     1
290
     0
176
     1
290
     0
176
     1
290
     0
176
     1
 90
       50
176
     1
 40
0.0
176
     1
 40
1.0
176
     1
 90
        0
176
     1
 62
    18
420
        0
176
     1
 90
       50
176
     1
 90
        3
176
     1
 62
     5
420
      255
176
     1
290
     0
176
     1
 90
       50
176
     1
 90
       50
176
     1
 90
       50
176
     1
290
     0
176
     1
 90
       50
176
     1
 62
   256
176
     0
 40
1.0
176
     0
 90
        2
176
     1
  1
strokes_ogs.tif
176
     1
290
     0
176
     1
 40
1.0
176
     1
 40
1.0
176
     1
  0
VISUALSTYLE
  5
1EF
102
{ACAD_REACTORS
330
EF
102
}
330
EF
100
AcDbVisualStyle
  2
Shades of Gray
 70
    23
177
     3
291
     0
 70
    58
 90
        2
176
     1
 90
        2
176
     1
 90
        3
176
     1
 90
        0
176
     1
 40
0.6
176
     1
 40
30.0
176
     1
 62
     7
420
 16777215
176
     1
 90
        2
176
     1
 90
        2
176
     1
 62
     7
176
     1
 62
     7
176
     1
 90
        1
176
     1
 90
        1
176
     1
 40
40.0
176
     1
 90
        8
176
     1
 62
     7
176
     1
 40
1.0
176
     1
 90
        1
176
     1
 90
        6
176
     1
 90
        2
176
     1
 62
     7
176
     1
 90
        3
176
     1
 90
        0
176
     1
 90
        0
176
     1
290
     0
176
     1
 90
        1
176
     1
 40
0.0
176
     1
 90
        0
176
     1
290
     0
176
     1
290
     1
176
     1
290
     1
176
     1
290
     0
176
     1
290
     0
176
     1
290
     0
176
     1
290
     0
176
     1
290
     0
176
     1
290
     0
176
     1
 90
       50
176
     1
 40
0.0
176
     1
 40
1.0
176
     1
 90
        0
176
     1
 62
    18
420
        0
176
     1
 90
       50
176
     1
 90
        3
176
     1
 62
     5
420
      255
176
     1
290
     0
176
     1
 90
       50
176
     1
 90
       50
176
     1
 90
       50
176
     1
290
     0
176
     1
 90
       50
176
     1
 62
   256
176
     0
 40
1.0
176
     0
 90
        2
176
     1
  1
strokes_ogs.tif
176
     1
290
     0
176
     1
 40
1.0
176
     1
 40
1.0
176
     1
  0
VISUALSTYLE
  5
1F0
102
{ACAD_REACTORS
330
EF
102
}
330
EF
100
AcDbVisualStyle
  2
Sketchy
 70
    24
177
     3
291
     0
 70
    58
 90
        1
176
     1
 90
        2
176
     1
 90
        2
176
     1
 90
        0
176
     1
 40
0.6
176
     1
 40
30.0
176
     1
 62
     7
420
 16777215
176
     1
 90
        2
176
     1
 90
        2
176
     1
 62
     7
176
     1
 62
     7
176
     1
 90
        1
176
     1
 90
        1
176
     1
 40
40.0
176
     1
 90
       11
176
     1
 62
     7
176
     1
 40
1.0
176
     1
 90
        1
176
     1
 90
        6
176
     1
 90
        2
176
     1
 62
     7
176
     1
 90
        6
176
     1
 90
        0
176
     1
 90
        0
176
     1
290
     0
176
     1
 90
        1
176
     1
 40
0.0
176
     1
 90
        0
176
     1
290
     0
176
     1
290
     1
176
     1
290
     1
176
     1
290
     0
176
     1
290
     0
176
     1
290
     0
176
     1
290
     0
176
     1
290
     0
176
     1
290
     0
176
     1
 90
       50
176
     1
 40
0.0
176
     1
 40
1.0
176
     1
 90
        0
176
     1
 62
    18
420
        0
176
     1
 90
       50
176
     1
 90
        3
176
     1
 62
     5
420
      255
176
     1
290
     0
176
     1
 90
       50
176
     1
 90
       50
176
     1
 90
       50
176
     1
290
     0
176
     1
 90
       50
176
     1
 62
   256
176
     0
 40
1.0
176
     0
 90
        2
176
     1
  1
strokes_ogs.tif
176
     1
290
     0
176
     1
 40
1.0
176
     1
 40
1.0
176
     1
  0
VISUALSTYLE
  5
FC
102
{ACAD_REACTORS
330
EF
102
}
330
EF
100
AcDbVisualStyle
  2
Thicken
 70
    13
177
     3
291
     1
 70
    58
 90
        2
176
     1
 90
        2
176
     1
 90
        1
176
     1
 90
        0
176
     1
 40
0.6
176
     1
 40
30.0
176
     1
 62
     7
420
 16777215
176
     1
 90
        1
176
     1
 90
        4
176
     1
 62
     7
176
     1
 62
   257
176
     1
 90
        1
176
     1
 90
        1
176
     1
 40
1.0
176
     1
 90
       12
176
     1
 62
     7
176
     1
 40
1.0
176
     1
 90
        1
176
     1
 90
        6
176
     1
 90
        2
176
     1
 62
     7
176
     1
 90
        5
176
     1
 90
        0
176
     1
 90
        0
176
     1
290
     0
176
     1
 90
        1
176
     1
 40
0.0
176
     1
 90
        0
176
     1
290
     0
176
     1
290
     1
176
     1
290
     1
176
     1
290
     0
176
     1
290
     0
176
     1
290
     0
176
     1
290
     0
176
     1
290
     0
176
     1
290
     0
176
     1
 90
       50
176
     1
 40
0.0
176
     1
 40
1.0
176
     1
 90
        0
176
     1
 62
    18
420
        0
176
     1
 90
       50
176
     1
 90
        3
176
     1
 62
     5
420
      255
176
     1
290
     0
176
     1
 90
       50
176
     1
 90
       50
176
     1
 90
       50
176
     1
290
     0
176
     1
 90
       50
176
     1
 62
   256
176
     0
 40
1.0
176
     0
 90
        2
176
     1
  1
strokes_ogs.tif
176
     1
290
     0
176
     1
 40
1.0
176
     1
 40
1.0
176
     1
  0
VISUALSTYLE
  5
F6
102
{ACAD_REACTORS
330
EF
102
}
330
EF
100
AcDbVisualStyle
  2
Wireframe
 70
     5
177
     3
291
     0
 70
    58
 90
        0
176
     1
 90
        2
176
     1
 90
        0
176
     1
 90
        0
176
     1
 40
0.6
176
     1
 40
30.0
176
     1
 62
     7
420
 16777215
176
     1
 90
        1
176
     1
 90
        4
176
     1
 62
     7
176
     1
 62
   257
176
     1
 90
        1
176
     1
 90
        1
176
     1
 40
1.0
176
     1
 90
        0
176
     1
 62
   257
176
     1
 40
1.0
176
     1
 90
        1
176
     1
 90
        6
176
     1
 90
        2
176
     1
 62
     7
176
     1
 90
        3
176
     1
 90
        0
176
     1
 90
        0
176
     1
290
     0
176
     1
 90
        1
176
     1
 40
0.0
176
     1
 90
        0
176
     1
290
     0
176
     1
290
     1
176
     1
290
     1
176
     1
290
     0
176
     1
290
     0
176
     1
290
     0
176
     1
290
     0
176
     1
290
     0
176
     1
290
     0
176
     1
 90
       50
176
     1
 40
0.0
176
     1
 40
1.0
176
     1
 90
        0
176
     1
 62
    18
420
        0
176
     1
 90
       50
176
     1
 90
        3
176
     1
 62
     5
420
      255
176
     1
290
     0
176
     1
 90
       50
176
     1
 90
       50
176
     1
 90
       50
176
     1
290
     0
176
     1
 90
       50
176
     1
 62
   256
176
     0
 40
1.0
176
     0
 90
        2
176
     1
  1
strokes_ogs.tif
176
     1
290
     0
176
     1
 40
1.0
176
     1
 40
1.0
176
     1
  0
VISUALSTYLE
  5
1F1
102
{ACAD_REACTORS
330
EF
102
}
330
EF
100
AcDbVisualStyle
  2
X-Ray
 70
    25
177
     3
291
     0
 70
    58
 90
        2
176
     1
 90
        2
176
     1
 90
        1
176
     1
 90
        1
176
     1
 40
0.5
176
     1
 40
30.0
176
     1
 62
     7
420
 16777215
176
     1
 90
        1
176
     1
 90
        0
176
     1
 62
     7
176
     1
 62
   257
176
     1
 90
        1
176
     1
 90
        1
176
     1
 40
1.0
176
     1
 90
        8
176
     1
 62
     7
176
     1
 40
1.0
176
     1
 90
        1
176
     1
 90
        6
176
     1
 90
        2
176
     1
 62
     7
176
     1
 90
        3
176
     1
 90
        0
176
     1
 90
        0
176
     1
290
     0
176
     1
 90
       13
176
     1
 40
0.0
176
     1
 90
        0
176
     1
290
     0
176
     1
290
     1
176
     1
290
     1
176
     1
290
     0
176
     1
290
     0
176
     1
290
     0
176
     1
290
     0
176
     1
290
     0
176
     1
290
     0
176
     1
 90
       50
176
     1
 40
0.0
176
     1
 40
1.0
176
     1
 90
        0
176
     1
 62
    18
420
        0
176
     1
 90
       50
176
     1
 90
        3
176
     1
 62
     5
420
      255
176
     1
290
     0
176
     1
 90
       50
176
     1
 90
       50
176
     1
 90
       50
176
     1
290
     0
176
     1
 90
       50
176
     1
 62
   256
176
     0
 40
1.0
176
     0
 90
        2
176
     1
  1
strokes_ogs.tif
176
     1
290
     0
176
     1
 40
1.0
176
     1
 40
1.0
176
     1
  0
DICTIONARYVAR
  5
146
102
{ACAD_REACTORS
330
5E
102
}
330
5E
100
DictionaryVariables
280
     0
  1
1:1
  0
DICTIONARYVAR
  5
259
102
{ACAD_REACTORS
330
5E
102
}
330
5E
100
DictionaryVariables
280
     0
  1
3.500000
  0
DICTIONARYVAR
  5
25A
102
{ACAD_REACTORS
330
5E
102
}
330
5E
100
DictionaryVariables
280
     0
  1
acadiso.lin
  0
DICTIONARYVAR
  5
145
102
{ACAD_REACTORS
330
5E
102
}
330
5E
100
DictionaryVariables
280
     0
  1
STANDARD
  0
DICTIONARYVAR
  5
84
102
{ACAD_REACTORS
330
5E
102
}
330
5E
100
DictionaryVariables
280
     0
  1
STANDARD
  0
DICTIONARYVAR
  5
227
102
{ACAD_REACTORS
330
5E
102
}
330
5E
100
DictionaryVariables
280
     0
  1
Metric50
  0
DICTIONARYVAR
  5
228
102
{ACAD_REACTORS
330
5E
102
}
330
5E
100
DictionaryVariables
280
     0
  1
Metric50
  0
DICTIONARYVAR
  5
5F
102
{ACAD_REACTORS
330
5E
102
}
330
5E
100
DictionaryVariables
280
     0
  1
2
  0
DICTIONARYVAR
  5
63
102
{ACAD_REACTORS
330
5E
102
}
330
5E
100
DictionaryVariables
280
     0
  1
1
  0
DICTIONARYVAR
  5
1AE
102
{ACAD_REACTORS
330
5E
102
}
330
5E
100
DictionaryVariables
280
     0
  1
0
  0
DICTIONARYVAR
  5
1AF
102
{ACAD_REACTORS
330
5E
102
}
330
5E
100
DictionaryVariables
280
     0
  1
0
  0
DICTIONARY
  5
205
330
22
100
AcDbDictionary
280
     1
281
     1
  0
DICTIONARY
  5
1F9
330
ED
100
AcDbDictionary
280
     1
281
     1
  3
FBXASSET
360
1FA
  0
DICTIONARY
  5
1F7
330
EC
100
AcDbDictionary
280
     1
281
     1
  3
FBXASSET
360
1F8
  0
DICTIONARY
  5
173
330
EE
100
AcDbDictionary
280
     1
281
     1
  3
BUMPTILE
360
175
  3
DIFFUSETILE
360
174
  3
FBXASSET
360
1FB
  3
OPACITYTILE
360
176
  3
REFLECTIONTILE
360
177
  0
DICTIONARY
  5
162
330
7F
100
AcDbDictionary
280
     1
281
     1
  3
ACAD_ROUNDTRIP_2008_TABLESTYLE_CELLSTYLEMAP
360
276A
  0
XRECORD
  5
1FA
102
{ACAD_REACTORS
330
1F9
102
}
330
1F9
100
AcDbXrecord
280
     1
 70
     1
 90
429727718
  1
D62C5603-E3A1-4AEA-B7FB-FE5D8D0755AF
310
504B03040A0000080000CC70623B3DEE336E79000000790000001B0000006175746F6465736B2D64657369676E2D7061636B6167652E786D6C3C3F786D6C2076657273696F6E3D22312E302220656E636F64696E673D227574662D3822203F3E3C666F726D6174733E3C666F726D61743E687474703A2F2F736368656D612E
310
6175746F6465736B2E636F6D2F64657369676E2D7061636B6167652F323030393C2F666F726D61743E3C2F666F726D6174733E504B0304140006080800CC70623BD486FD9CA0000000F4000000130000005B436F6E74656E745F54797065735D2E786D6C7D8EC10E82300C865F65E91D8A1E8C310C0EEA1BF002731658846E
310
D98AC1B77784ABF1D8FE5FBFBF75BBCE937A534CCEB38643598122B6FEE978D0B0485F9C41B54DDD7D022595594E1A469170414C76A4D9A4D207E29CF43ECE46F218070CC6BECC4078ACAA135ACF422C856C0E68EA1BF5669944DDD7BCDE7B1F8E415D77AECB980613C2E4AC91FC167A2B244592486606FC29C8FD7F045B9A
310
EF7053A7E60B504B0304140006080800CC70623B853B8169EB0000007C01000008000000636F72652E786D6C8D90416EC3201045AF62CDB6C206821CC7C244919D9CA01740401C94182C03558F5F9C3852BBEB6A467FFE9B197D7EFC9E1EC5975982F5AE035262288C535E5B377690E21535501C055FBC8FBF6C503839990E
310
5619041F179FE64D52DE45E362569DD7661365082642A11EB9E920A89B99642953CC8E702F67A9EE7234257977194EC9EAE275C4EABCCF5EAD5940D4AC6F0E35A568B8F43562CD7046CD199FD07E60174276A7BE677B5EADB0E0D14EEFFB6A31321A0D82627C4084204C3F096B71DD52F6819B16635EADF63F509AF53FA164
310
5DDCD1EDDD17164090FCC8732078B56691CB33A85CD7DCC40F504B0304140006080800CC70623B55019EA25F0000007C00000007000000636E782E786D6C4DCB3B0E80201045D1AD90E915ED2CF8AC45050C11660C8261F98AB1B07AC9C97D42D718D865D3E909258CFD00CCE24AC6E326A164D74DC0B4128928FF32603847
310
2BA13128B1252AC747C6BAB984FC68F0B87FE8960A5C09FE86CFB69FBA01504B0304140006080800CC70623BDBABAAF470010000D40300000C0000006662782F636F72652E786D6CC553D16E823014FD95A6AF4B694182CC941A83FA05FB810A9511A125A5257EFE2E82712ECEB8A7F100CD39F7F69E734AF9FADC366850B6
310
AF8DCE7018308C942E4C59EB2AC3DE1D498AD15A706B8CFB56869196ADCAF00863C12B6B7C374385D14E6907A836A59A41D9F7CA615434B0C8705F7CAA5606D23BA8E84F41278B93AC54100640439DE0BDB320004D43C63716C7C399D30917DCFBBA9CD9BA8469F5B156168B24CED3F7248AC8769F27244EB73B92EED8862C
310
B7F13E0C179B3C8F979C8ECD82BBBABDAA2BAC924E9558448CBD9330242CFA08E3154B5651FCC6D215639C8EE5774DBE2B5F6CF2B5768B68963BB5F5588420E442FC700B1139D4CB01F450C1E918227C2E09DF070D8140C84E1E9AAB8F1340832A9CB13130A5F1376A908D57309505ECF2A0DF179C4E9D30F5B239B87E3823
310
7A79C6F31DE1A8A5AEC08474B03C7837EAE4938639B44E5932B833D2C6B6B279CDC613877FA26EE21F4A2A4C63EC7F29A2F301D1F9F7A0E37D145F504B0304140006080800CC70623B9C113CC27E0000009D0000000B0000006662782F636E782E786D6C4DCCDF0A83201C86E15B91DFB94BFB330DD428C8FB886521330DA7
310
6397BF1A1DECE883878F57749FCDA1B7892F1BBC047A23808C7F84D9FA55424E0BE6803A256208E9EF06C84F9B91703228B1C690F78B66B34CD9A5439DF5CF0BFBF65E35BCA1B8D6A5C6F540381E886698B5741C695F9503EBA150A2F8958E3DC3EA0B504B0304140006080800CC70623B7DF2F77C2A010000120200003100
310
00006662782F41393633353835312D344632462D344230382D423046372D3739314545314133324237412F636F72652E786D6C8D51DB8EC22014FC15C2939B0D2DB4B45643319AE817EC0F6041255A68B86CFCFC856D4D76DF7CE190393373060EDB3DC707F856CE6B6B7A480A0C81328395DA5C7B18C3057510EC3873D686
310
3F34088C18550F330C39BB3A1BA7051AAC09CA84841A2BD5020AEF55806078A44B0FFD7053A328440C89E1EFC52486BBB8AA8214A99D789CF9E05200300FC927E4FB4D5B375D43103D5527440FB843077C5AA3F5861C8F645F5787F59E95B390B318B55CE45AA638FAA2957BD7248B390B7A7CC51F9C124149C82B8C378810
310
84AB2F42B7B8DD56F413775B8C5999E9FF4471926F8AA236A1AE96B8B3CC434E5839373893369E1FAF30EA395917409EB7F26AF8801C171837A4A6AC9C89E9F9C9B1A58BA30FD6A5EF5DDDCF894B9AD9B6A59C957943A9FCAE2FD5BC4DFE03504B0304140006080800CC70623BAD7543B64E01000033030000300000006662
310
782F41393633353835312D344632462D344230382D423046372D3739314545314133324237412F636E782E786D6CD593CD6EC32010845F0571AD6CE3D48AD20813A9873E410FBD12D82434182C7EAAE6EDBB2424CD25871E7B41D6EC30B3FA84F9E67BB2E40B4234DE8DB46F1925E094D7C6ED479AD3AE5951B2113C789FEE
310
6C943839C1488B4C05DF079FE72A69D8C96C13AAD6B8631503449F83828872B949AC57D26200B826A308D316B4064D6E46FCDA41C05550DC9E483A00797BFD207EFB092A45DE9514C1BBD22178396BD39D891265658C238DEA00936C654E5E433CB65A26D9F6EDB5EBC14EBF49A45CB856E66048291F6939A9A81BB5C89177
310
38143CA680F4AA299D66A042CEB3354A2684DC9D8D178FE0D9B8B41CAAD720F880EE7EF93C0C18769E099ECC04D5A102C8049A8A05632F4DDF376CF1DE0F6BB65C2F8627B65A33C6BB62177CEBBDAD973006829F89F22E814B54F4BC2BE347F8AA8F681390B50FA73F804400B5F542E796F19FF974E7F78DB802FE05E20750
310
4B0304140006080800CC70623BE75B7789680500003C100000340000006662782F41393633353835312D344632462D344230382D423046372D3739314545314133324237412F6F626A656374732E786D6CAD575B8F9B3818FD2B887D06C22499CB8AA1CA655245D5B455A356FB305264C061D8018C6C3393D95FBFC7600890
310
A4CD5EF210B0B1BFEBF98E3F7B1FF6596ABC522E1296DF9BAE3D320D9A872C4AF2F8DE2CE5CEBA358D0FBEC719939D65A691938CDE9B6ADAF4BD98B3B2D05311DD91329583D9D5FC0F438434A7A611A644887B5384CF34233629258BA878B12322891DEFF6B66BD70BFB62634E8AE781D082709A4B588AF91C528CDA28B73F
310
1C998EEF39EABBEFA97FBD6A7C7E9553F9D3D79FE442923C3C523610337627CB87ABE99D359D4CC6D6E4FACAB5E6ABF9D2726FC6A3C5F56271377BB88362213924694B38DD99FE47C48627A1E7D49F5A8BB5E1A74C0A599ED3B0F21F1E56366B89112D681E218F0915D0D6F17AD41FBA2A369DCF6335D62ABBD39779D5DDD1
310
11D4D8DE3CBB96B2E04FB8202E41051754A1AA8E8F76B4C6DFE810B580B1547F4B84911149794252234D024EF8BBE963A95AE27B3D310A9D5C215C7960FAEE415ED75694C6AFB17BCACA5D99A60A9AA65F217B0BFC53292ACB92BF283FAD0D3621576592CB5BED907C2FA8E9DF794E35E97BEA31BED21FEB401ABB94C44839
310
DCACBF0E1C5DA8DA5B2F4DFFD32AD86F543D9E565E7056502E157C00AD2671CD534549AB752FCA9CDA00677A313F04E51B22FF19E57B300579E3C97EB29F682D92935CEC18CF901B7B54FD8C51F362B56FC72FE0B3C1EAE335EDCCBF5AEC39ADB17DC238973F804BA5E6F6BFE7AF1FB32E523BE9F3BD571418E3631DCA4D48
310
5250CF639223210A9446CA30052EDF057BD35F8329C1ECD84552BF0DC8D18BE7BCE23BFE6BD960AB4A7DE79923A103BEBD80F911CBAA2C60DB19B01CF164A5583B772EE6D3FFA56666CBCDA74DC97724A48F9A58967497E489C4D979006FD7A05E227A1EBDD0F737C623387A9C844D3709995625106D157315F8B8392CD4E0
310
A0B9A720C4BE9829CEF37EA1E13111214D53925356365ADA634861B52519DD27A00AEB808EAF0628E6F435519D446F45CF2C9CF5214F0A15B2F6D06B79DA3EE3CBF7F56780D2F4E7EF73A0F5E5B02A38D07DC852C6B7C1FBB6664213E0C39E3EBA7FF4E1AD23EA2829407C85E586727488B751B2DB9502BC7B228A3FD68B6E
310
A65A22397E690AA8D158D7E404EC8CDA235CC3B7D1898680131CEC2CDF2638C65196279577750F15884AEE19F94199155B92B13297978469D4F8D358DF0AEF7631E28DC8F0D9F437D5D39A83B2231A1D52D543813A824EF8D44BCFF2FA6A31BD1E8DAD87F1CCB526B3879935BF59CDADD5C37479BB1CDD4CA7B3556B516589
310
EF352754B706114D9C885EC9131DE6EFEB43D99AFE2391C2F958179413D7CFEF6B1B6DB1E7600F00DE6E5C67454A339A4BA2E0FBA85ED26F045D454F463DBFCE484C2F90F2E5E3666003662ED8F755951A7D1BECD5B30B550B2785C8E7320B7292A4838DDA71BBC863ED7613CAF659337A3354231D4FF4A182A54904C2898C
310
98B28C4AD0CE056CCF332A80986E571EE9DBC305BB5FEB7E509220A58D25CF042D712A806AC0AD0C657FDEF80D2D9CEAA2EE4D1C76F60BFE74219A06527D6F82DF6412526107381E55E353090704D085B52408A8913C4ED159D79BDA71BB4BC506F4831350EB6F975CD22D69BF7AC49B91A2C0A9DDA3D5CA36AD20FC478E37
310
E61844E2352865EBCB61A275A65283CAAA9DD27703B4102F5AF51EF5F573B75CBB5AD38BC845F7A49F82A0966A49C2E3EA5EA0ECD326CD965F1DB402C6FA8B51A4658C5C5E2EC9E214602E55810345408596591009A82E7E7FFACA19EEA299B14A0081A705CB3296EBC14CDF658DCD336EA6D1136881AAEB87B81AB9EE53D5
310
F5EB8BC8362082DA24122F98680A4E7930C01A0079749CEA14382A0783E5EBA5A10F8C098456A03D6A4AEB6BB881E2513747552A5DB22C7EDAF83BD5528081A365F7FF06504B0304140006080000CC70623B000000000000000000000000350000006662782F41393633353835312D344632462D344230382D423046372D37
310
39314545314133324237412F76657274696365732E62696E504B0304140006080800CC70623BF270F1330600000004000000360000006662782F41393633353835312D344632462D344230382D423046372D3739314545314133324237412F747269616E676C65732E62696E636660600000504B0304140006080000CC7062
310
3B000000000000000000000000370000006662782F41393633353835312D344632462D344230382D423046372D3739314545314133324237412F617474726962757465732E62696E504B0304140006080800CC70623B08DA0BD19000000041010000360000006662782F41393633353835312D344632462D344230382D4230
310
46372D3739314545314133324237412F6469726563746F72792E786D6C858F410AC3201045AF22B36F53E9A60B35CBEEBAE80D244E44489C6234F4F835464A48035D0DF398FF9F8AF63D0E6CC63039F212F8F9020C7D47C6792B21C5FE7403D62A1188E2E60C98D7234A5830286103A55745067B9D86B8A3CF9C7F90C11DE6
310
07FB144396D7B6A82D282E9A152AD114D5EF2CB866EEE831B8EEA07A7BB5A8D7D61A2BAAEB7FD5F70921FF497D00504B0304140006080800CC70623BEDD1DC58FD000000A00100003B0000006662782F41393633353835312D344632462D344230382D423046372D3739314545314133324237412F7265736F75726365732F
310
636F72652E786D6C8D504B6E833010BD0A9A6D65B00922041947112427E8052C33A156828DFCA97AFC9A40A576D7CDCCE87D344F8F9FBFE667F689CE6B6B3A6039850C8DB2A336530731DC4903D95970676DF82583CCC8193B5861107C72362E3BA4AC096842428D1D7107A5F7182053CF7474E0D507CE32973124857FE48B
310
540F3961CEF244279DE03EB81420DB9EAC1384436FA353E879B1B182C7A8C75DA3C7F453DF353A1075D537A7BA6464B8F535A99AE14A9A2BBD90E350DD183B5CFABE3AF262350B1EF4FC9351399401471025A527C218A1E53BAB5A5AB765F5469B96525EACF23FA6B88CFF34456DC2A1DCE36E360F82A5202F42F062ED2BAD
310
579969AFDD8A6F504B010214000A0000080000CC70623B3DEE336E79000000790000001B00000000000000000000000000000000006175746F6465736B2D64657369676E2D7061636B6167652E786D6C504B01021400140006080800CC70623BD486FD9CA0000000F40000001300000000000000000000000000B20000005B
310
436F6E74656E745F54797065735D2E786D6C504B01021400140006080800CC70623B853B8169EB0000007C010000080000000000000000000000000083010000636F72652E786D6C504B01021400140006080800CC70623B55019EA25F0000007C000000070000000000000000000000000094020000636E782E786D6C504B
310
01021400140006080800CC70623BDBABAAF470010000D40300000C00000000000000000000000000180300006662782F636F72652E786D6C504B01021400140006080800CC70623B9C113CC27E0000009D0000000B00000000000000000000000000B20400006662782F636E782E786D6C504B01021400140006080800CC70
310
623B7DF2F77C2A010000120200003100000000000000000000000000590500006662782F41393633353835312D344632462D344230382D423046372D3739314545314133324237412F636F72652E786D6C504B01021400140006080800CC70623BAD7543B64E010000330300003000000000000000000000000000D2060000
310
6662782F41393633353835312D344632462D344230382D423046372D3739314545314133324237412F636E782E786D6C504B01021400140006080800CC70623BE75B7789680500003C10000034000000000000000000000000006E0800006662782F41393633353835312D344632462D344230382D423046372D3739314545
310
314133324237412F6F626A656374732E786D6C504B01021400140006080000CC70623B0000000000000000000000003500000000000000000000000000280E00006662782F41393633353835312D344632462D344230382D423046372D3739314545314133324237412F76657274696365732E62696E504B01021400140006
310
080800CC70623BF270F133060000000400000036000000000000000000000000007B0E00006662782F41393633353835312D344632462D344230382D423046372D3739314545314133324237412F747269616E676C65732E62696E504B01021400140006080000CC70623B0000000000000000000000003700000000000000
310
000000000000D50E00006662782F41393633353835312D344632462D344230382D423046372D3739314545314133324237412F617474726962757465732E62696E504B01021400140006080800CC70623B08DA0BD1900000004101000036000000000000000000000000002A0F00006662782F41393633353835312D344632
310
462D344230382D423046372D3739314545314133324237412F6469726563746F72792E786D6C504B01021400140006080800CC70623BEDD1DC58FD000000A00100003B000000000000000000000000000E1000006662782F41393633353835312D344632462D344230382D423046372D3739314545314133324237412F7265
310
736F75726365732F636F72652E786D6C504B0506000000000E000E0080040000641100000000
  0
XRECORD
  5
1F8
102
{ACAD_REACTORS
330
1F7
102
}
330
1F7
100
AcDbXrecord
280
     1
 70
     1
 90
429727718
  1
30362254-06B7-45E0-A893-8CFA70E3D6BC
310
504B03040A0000080000CC70623B3DEE336E79000000790000001B0000006175746F6465736B2D64657369676E2D7061636B6167652E786D6C3C3F786D6C2076657273696F6E3D22312E302220656E636F64696E673D227574662D3822203F3E3C666F726D6174733E3C666F726D61743E687474703A2F2F736368656D612E
310
6175746F6465736B2E636F6D2F64657369676E2D7061636B6167652F323030393C2F666F726D61743E3C2F666F726D6174733E504B0304140006080800CC70623BD486FD9CA0000000F4000000130000005B436F6E74656E745F54797065735D2E786D6C7D8EC10E82300C865F65E91D8A1E8C310C0EEA1BF002731658846E
310
D98AC1B77784ABF1D8FE5FBFBF75BBCE937A534CCEB38643598122B6FEE978D0B0485F9C41B54DDD7D022595594E1A469170414C76A4D9A4D207E29CF43ECE46F218070CC6BECC4078ACAA135ACF422C856C0E68EA1BF5669944DDD7BCDE7B1F8E415D77AECB980613C2E4AC91FC167A2B244592486606FC29C8FD7F045B9A
310
EF7053A7E60B504B0304140006080800CC70623B1EC5D7A3EB0000007C01000008000000636F72652E786D6C8D90416EC3201045AF82665B6103C6756C6122AB4D4ED00B204C5C94182C03558F5F9C3852BBEB6A467FFE9B197D71FC9E6FE8CBACC17AD7032D0820E3B41FAD9B7A48F1820F808E52ACDEC75F36404ECDA687
310
4D0629A6D5A76597B477D1B89855E747B38B2A041301E95B6E7A08FAD3CCAA50296647B8168BD2573599823EBB0CA76447F43862C7BCCF5EAC59410E4DDD9C7973C2755553CCCFA4C603E3040F1565ED3B1FDE4E432BCA0D9622DAF9795FAF464533826484B498524CD807E51D79ED187F21878E10516EF63F505AC67F42C9
310
BA58B1FDDD071640D2FCC87D2045B96591CB3DA85CB7DCE40F504B0304140006080800CC70623B55019EA25F0000007C00000007000000636E782E786D6C4DCB3B0E80201045D1AD90E915ED2CF8AC45050C11660C8261F98AB1B07AC9C97D42D718D865D3E909258CFD00CCE24AC6E326A164D74DC0B4128928FF32603847
310
2BA13128B1252AC747C6BAB984FC68F0B87FE8960A5C09FE86CFB69FBA01504B0304140006080800CC70623B8C9102E971010000D40300000C0000006662782F636F72652E786D6CC5535B6E833010BC8AE5DF0A6C08340F1947A84D4ED00B38C6A128602363A31CBFCB234A53A551FA553EC09AD9F5CE8C31DB9E9B1AF5CA
310
7695D1198E428A91D2D214952E33ECDD315861B4E5CC1AE3BE9561A445A3323CC098B3D21ADFCE9034DA29ED00D5A6503328BA4E398C640D8B0C77F253352214DE4145770A5B214FA2546114020D759C75CE8200340D19DE981F0F6746269C33EFAB6266AB02A655C74A59CCF365BADC27CB5D902ED22848F6340DF238A141
310
BE88E2F57B92BFEDF23523433367AE6A2EEAA455C2A902F398D2751045018D3FA264435F3771F242571B4A1919CA6F9A7C5B3CD9E42BED16F12C776AEB308F40C848FC700B1139D4891EF410CEC810227CC6846F8386402064270EF5C5C709A05E49676C024C61FC95EA45ED154CA5211D1FF4FB8291A913A68E9B83EBBB33
310
E2A7673CDE118E5AE8124C0807CB8377834E366998436B950D7A7746DAD846D4CFD978E0F04FD455FC5D49D2D4C6FE9722321F10997F0F32DC47FE05504B0304140006080800CC70623BFFEA85907E0000009D0000000B0000006662782F636E782E786D6C4DCCD10A83201886E15B91FFDC95D95A811AB6F23E625948A6C3
310
E9D8E5AF46073BFAE0E1E365ED67B3E8ADC3CB78C7815C7240DA3DFC64DCC221C519D7805AC182F7F1EF06C88D9BE6703008B6049F9E274D7A1E938DBB5AE3D6131B2589BA0D3D965551E0B2EA732C9B9A624AAEB41E3A557677029960D9AFB4EF11165F504B0304140006080800CC70623B4FEEA4082C0100001202000031
310
0000006662782F39464131463745442D413632322D343644302D413938332D3331353338454246344243312F636F72652E786D6C8D515B6EC32010BC0AE2AB55850DD871ED0813254D72825EC00192A2C460F1A872FC42ED48ED5F7E00CDCECCCEB26C731F6FE05B39AFADE921293004CA082BB5B9F43086336A21D870E6AC
310
0D7F68109861543DCC30E4ECE26C9C164858139409093556AA051CBC570102714B8F1E7AF1A5C6A11862480C7F2DA6415C878B2A4891CA89C7990F2E050073937C42DE1DB7E4F87ED8A36D4329AA9B3D46DBAEAD504556557BD81DEBDD0761E52CE42C462D17B996298E3E6BE59E35C962CE821E1FF18553435012728A7187
310
0841987E927A8D9B35ADDF70BBC6989599FE4F1427F9A4286A132ABAC49D651EF234CD5CE04CDA78BA3DC2A8FB645D00B9DF8B57E215725C60BCA2A463E54C4CE327C7A65E1C7DB02E7DEFCBF594B864C5CA6CDBD49C957943E9FA5D5FBAF336F90F504B0304140006080800CC70623BAD7543B64E01000033030000300000
310
006662782F39464131463745442D413632322D343644302D413938332D3331353338454246344243312F636E782E786D6CD593CD6EC32010845F0571AD6CE3D48AD20813A9873E410FBD12D82434182C7EAAE6EDBB2424CD25871E7B41D6EC30B3FA84F9E67BB2E40B4234DE8DB46F1925E094D7C6ED479AD3AE5951B2113C
310
789FEE6C943839C1488B4C05DF079FE72A69D8C96C13AAD6B8631503449F83828872B949AC57D26200B826A308D316B4064D6E46FCDA41C05550DC9E483A00797BFD207EFB092A45DE9514C1BBD22178396BD39D891265658C238DEA00936C654E5E433CB65A26D9F6EDB5EBC14EBF49A45CB856E66048291F6939A9A81BB5
310
C8917738143CA680F4AA299D66A042CEB3354A2684DC9D8D178FE0D9B8B41CAAD720F880EE7EF93C0C18769E099ECC04D5A102C8049A8A05632F4DDF376CF1DE0F6BB65C2F8627B65A33C6BB62177CEBBDAD973006829F89F22E814B54F4BC2BE347F8AA8F681390B50FA73F804400B5F542E796F19FF974E7F78DB802FE05
310
E207504B0304140006080800CC70623B16AB87BA640500003C100000340000006662782F39464131463745442D413632322D343644302D413938332D3331353338454246344243312F6F626A656374732E786D6CAD575B6FA33818FD2B887DE6924B3BED8A326A92B68A663B534DD4D13E548A0C38942D60649B369D5FBFC7
310
600890A493BDE42160637FD7F31D7FF63E6FB3D478A55C242CBF3247B66B1A340F5994E4F19559CA8D75611A9F7D8F33263BCB4C232719BD32D5B4E97B316765A1A722BA21652A07B3B7B33F0D11D29C9A46981221AE4C113ED38CD8A4942CA2E2C58E882476BCD9DA23BB5ED8171B73523C0F841684D35CC252CCE79062D4
310
468DFA43D7747CCF51DF7D4FFDEB5593E3AB9CCA9FBEFE241792E4E19EB28198C968BAB8199F5D5A67D3E9C49A9E8F47D6EC76B6B0469F26EEFC7C3EBFBCBEB98462213924694B38DD98FE1D62C393D073EA4FADC5DAF04326852CCF6958F90F0F2B9BB5C48816348F90C7840A68EB78EDF68723159BCEE7891A6B95DDE9D3
310
BCEAEEE8086A6C6F9E5D4B59F0175C10A7A0820BAA5055C7473B5AE3CFDD452D602CD5DF12616444529E90D448938013FE6EFA58AA96F85E4F8C42275708571E98FE6827AF6B2B4AE3D7D83D64E5A64C53054DD3AF90BD06FEA9149565C94FCA0F6B834DC85599E4F2423B24DF0B6AFA979E534DFA9E7A4CC6FA631D486393
310
921829879BF5D781A373557BCB85E97FB90DB62B558F8795179C15944B051F40AB495CF35451D26A4727654E6D8033BD98EF82F21D91FF8AF2DD9982BCF1643BDD4EB516C9492E368C67C88DED563FC36D5EACF66DFF057C3658BDBFA69DF9578B3DA735B64F18C7F20770A9D45CFCF7FCF563D6456A277DBEF78A02637CA2
310
43B90A490AEAB94F72244481D24819A6C0E59B606BFA4B3025981DBB48EAB701D97BF19C577CC77F2D1B6C55A9EF3C732474C0B727303F625995056C3B02963D9EAC146BE78EC5FCEC7FA999EBC5EACBAAE41B12D27B4D2C0BBA49F244E2ECDC81B76B502F113D8F5EE8FB1BE3111CDD4FC2AA9B844CAB1288B68AB90A7CDC
310
1C166AB0D3DC5310625FCC14E779BFD0709F8890A629C9292B1B2DED31A4B0DA928CEE135085754027E3018A397D4D5427D15BD1330B677DC8934285AC3DF45A9EB68FF8F2B8FC0A509AFEECFD0FF2DE25CC6047F7214B195F07EFEB9A094D800F7BFAE8FED187B78EA8A3A400F115961BCAD1215E47C966530AF0EE8128FE
310
58CEBB996A8964FFA529A046635D9353B0336A8F700DDF46271A024E70B0B37C9DE01847591E54DED53D54202AB947E4076556AC49C6CA5C9E1226B7F1A7B1BE15DEED62C41B91E1B3E9AFAAA735036547343A925075041DF0A9979E893B391F8FCFA6967B3EFB644DCF6E5CEBFAE272625DCC6FAF3FB93793C5F90CE1EF57
310
407342756B10D1C489E8953CD1617E5CEECAD6F4EF8914CE5D5D504E5C3F1F9736DA62CFC11E00BCDDB8CC8A9466349744C1F75EBDA4DF09BA8A9E8C7A7E9991989E20E5DBDD6A6003664ED8F7A04A8DBE0DF6EAD9B9AA858342E47399053949D2C146EDB85DE4B176BB0965FBAC19BD19AA918E27FA50C1D22402E144464C
310
59462568E704B6E71915404CB72B8FF4EDE184DDAF753F284990D2C6926782963815403548A70C657FDEF80D2D9CEAA2AE4C1C76F60BFE74219A06527D6582DF6412526107381E55E353090704D085B52408D0933C4ED159D79BDA71BB4BC506F4831350EB6F979CD22D69BF7AC49B91A2C0A9DDA3D5CA36AD20FC478E37E6
310
1844E2352865EBCB6EA275A652E3836BE04EFB400BF1A2556F515F1FBB35B2AB35BD889C744FFA1004B5544B121E57F70215746DD2F5E2C1412B602CBF19455AC6C8E5E9922C4E01E65215385004546899059180EAFCF7A707CE7017CD8CDB0410789AB32C63B91E5CEBBBACB17AC6CD347A022D5075FD106377347AAABA7E
310
7D11590744509B44E205134DC1290F06580320F78E537D3D73540E06CB970B431F185308AD40BBD794D6D77003C5A36E8EAA54BA64597CD8F83BD552A080A365F7FF06504B0304140006080000CC70623B000000000000000000000000350000006662782F39464131463745442D413632322D343644302D413938332D3331
310
353338454246344243312F76657274696365732E62696E504B0304140006080800CC70623BF270F1330600000004000000360000006662782F39464131463745442D413632322D343644302D413938332D3331353338454246344243312F747269616E676C65732E62696E636660600000504B0304140006080000CC70623B
310
000000000000000000000000370000006662782F39464131463745442D413632322D343644302D413938332D3331353338454246344243312F617474726962757465732E62696E504B0304140006080800CC70623B08DA0BD19000000041010000360000006662782F39464131463745442D413632322D343644302D413938
310
332D3331353338454246344243312F6469726563746F72792E786D6C858F410AC3201045AF22B36F53E9A60B35CBEEBAE80D244E44489C6234F4F835464A48035D0DF398FF9F8AF63D0E6CC63039F212F8F9020C7D47C6792B21C5FE7403D62A1188E2E60C98D7234A5830286103A55745067B9D86B8A3CF9C7F90C11DE607
310
FB144396D7B6A82D282E9A152AD114D5EF2CB866EEE831B8EEA07A7BB5A8D7D61A2BAAEB7FD5F70921FF497D00504B0304140006080800CC70623B0D6EF93BFE000000A00100003B0000006662782F39464131463745442D413632322D343644302D413938332D3331353338454246344243312F7265736F75726365732F63
310
6F72652E786D6C8D50596E833010BD0A9ADFCA60B334011947A8694ED00B586642AC041B79A97AFC9A40A5F6AF3F33A3B7689E1E3F7DCD8FEC139DD7D6F4C0720A191A65476DA61E62B892236427C19DB5E1970C322367EC618541F0C9D9B8EC90B226A009093576C41D94DE63804C3DD2D18357379C652E63480A7FCF17A9
310
EE72C29CE5894E3AC17D702940B63D59270887DE46A7D0F36263058F518FBB468FE9A7BE6A7420864373B8D4873369AA8691FA421B3294352543C5CAF65C0F6FEF43CB8BD52C78D0F34F46E550061C419494B6843142CB0F5677F4B52BEB177AEC28E5C52AFF638ACBF84F53D42654E51E77B379102C05791282176B5F693D
310
CB4C7BED567C03504B010214000A0000080000CC70623B3DEE336E79000000790000001B00000000000000000000000000000000006175746F6465736B2D64657369676E2D7061636B6167652E786D6C504B01021400140006080800CC70623BD486FD9CA0000000F40000001300000000000000000000000000B20000005B
310
436F6E74656E745F54797065735D2E786D6C504B01021400140006080800CC70623B1EC5D7A3EB0000007C010000080000000000000000000000000083010000636F72652E786D6C504B01021400140006080800CC70623B55019EA25F0000007C000000070000000000000000000000000094020000636E782E786D6C504B
310
01021400140006080800CC70623B8C9102E971010000D40300000C00000000000000000000000000180300006662782F636F72652E786D6C504B01021400140006080800CC70623BFFEA85907E0000009D0000000B00000000000000000000000000B30400006662782F636E782E786D6C504B01021400140006080800CC70
310
623B4FEEA4082C0100001202000031000000000000000000000000005A0500006662782F39464131463745442D413632322D343644302D413938332D3331353338454246344243312F636F72652E786D6C504B01021400140006080800CC70623BAD7543B64E010000330300003000000000000000000000000000D5060000
310
6662782F39464131463745442D413632322D343644302D413938332D3331353338454246344243312F636E782E786D6C504B01021400140006080800CC70623B16AB87BA640500003C1000003400000000000000000000000000710800006662782F39464131463745442D413632322D343644302D413938332D3331353338
310
454246344243312F6F626A656374732E786D6C504B01021400140006080000CC70623B0000000000000000000000003500000000000000000000000000270E00006662782F39464131463745442D413632322D343644302D413938332D3331353338454246344243312F76657274696365732E62696E504B01021400140006
310
080800CC70623BF270F133060000000400000036000000000000000000000000007A0E00006662782F39464131463745442D413632322D343644302D413938332D3331353338454246344243312F747269616E676C65732E62696E504B01021400140006080000CC70623B0000000000000000000000003700000000000000
310
000000000000D40E00006662782F39464131463745442D413632322D343644302D413938332D3331353338454246344243312F617474726962757465732E62696E504B01021400140006080800CC70623B08DA0BD190000000410100003600000000000000000000000000290F00006662782F39464131463745442D413632
310
322D343644302D413938332D3331353338454246344243312F6469726563746F72792E786D6C504B01021400140006080800CC70623B0D6EF93BFE000000A00100003B000000000000000000000000000D1000006662782F39464131463745442D413632322D343644302D413938332D3331353338454246344243312F7265
310
736F75726365732F636F72652E786D6C504B0506000000000E000E0080040000641100000000
  0
XRECORD
  5
175
102
{ACAD_REACTORS
330
173
102
}
330
173
100
AcDbXrecord
280
     1
270
     1
271
     1
  0
XRECORD
  5
174
102
{ACAD_REACTORS
330
173
102
}
330
173
100
AcDbXrecord
280
     1
270
     1
271
     1
  0
XRECORD
  5
1FB
102
{ACAD_REACTORS
330
173
102
}
330
173
100
AcDbXrecord
280
     1
 70
     0
 90
1673772943
  1
ECE7A1D2-D628-4531-984C-D00F80459256
310
504B03040A0000080000CC70623B3DEE336E79000000790000001B0000006175746F6465736B2D64657369676E2D7061636B6167652E786D6C3C3F786D6C2076657273696F6E3D22312E302220656E636F64696E673D227574662D3822203F3E3C666F726D6174733E3C666F726D61743E687474703A2F2F736368656D612E
310
6175746F6465736B2E636F6D2F64657369676E2D7061636B6167652F323030393C2F666F726D61743E3C2F666F726D6174733E504B0304140006080800CC70623BD486FD9CA0000000F4000000130000005B436F6E74656E745F54797065735D2E786D6C7D8EC10E82300C865F65E91D8A1E8C310C0EEA1BF002731658846E
310
D98AC1B77784ABF1D8FE5FBFBF75BBCE937A534CCEB38643598122B6FEE978D0B0485F9C41B54DDD7D022595594E1A469170414C76A4D9A4D207E29CF43ECE46F218070CC6BECC4078ACAA135ACF422C856C0E68EA1BF5669944DDD7BCDE7B1F8E415D77AECB980613C2E4AC91FC167A2B244592486606FC29C8FD7F045B9A
310
EF7053A7E60B504B0304140006080800CC70623BD9DDAED0EC0000007C01000008000000636F72652E786D6C8D90416EC3201045AF82665B61836D9CD8C2444DD39CA01740405C94182C03558F5F9C3852BBEB6A467FFE9B197D7EF89E6EE8CB2CC17A37002D0820E394D7D68D03A478C17B4007C117EFE32F1B20272733C0
310
2A83E0E3E2D3BC49CABB685CCCAAF3DA6CA20CC14440EA969B0182FA34932C648AD911AEC52CD5558EA6A0CF2EC329598D1E47ACCEFBECC59A050463A7EA5833865FEBDD0E37353BE3EE8DBDE3F6786A48D375FBF6CC78B9C282473B3DEFABC5C86834888A900E538A49F5419B9EB47DD5BC907D4F082F57FB1F28CDFA9F50
310
B22ED6D5F6EE030B20687EE43E10BC5CB3C8E51E54AE6B6EE207504B0304140006080800CC70623B55019EA25F0000007C00000007000000636E782E786D6C4DCB3B0E80201045D1AD90E915ED2CF8AC45050C11660C8261F98AB1B07AC9C97D42D718D865D3E909258CFD00CCE24AC6E326A164D74DC0B4128928FF326038
310
472BA13128B1252AC747C6BAB984FC68F0B87FE8960A5C09FE86CFB69FBA01504B0304140006080800CC70623BA24EB22D72010000D40300000C0000006662782F636F72652E786D6CC5535B6E833010BC8AE5DF0A6C5E49888CA3A6694ED00B38E05014B091B1518EDFE511A5A9D228FD2A1F60CDEC7A67C6986DCE4D8D7A
310
69BA4AAB0C073EC548AA5C17952A33ECECD15B61B4E1CC686DBF9561A44423333CC098B3D268D7CE50AE9595CA02AA74216750749DB418E5352C32DCE59FB211BE70162ABA93DF8AFC244AE9073ED050C759670D0840D390E18DF9F1706664C23973AE2A66B62A605A75ACA4C13C4976E1364A12EF355A2EBD384AF65EFA96
310
BC7B8BED2EA6719AAE16FB8491A199335B351775B991C2CA02F390D2D40B028F861F41BCA68B7518BFD0D59A524686F29B26D7164F36B94AD9289CE54E6D1DE6010819891F6E21228B3AD1831EC219194284CF98F06DD01008846CC5A1BEF83801D4CBDC6A1303536877A57A513B0953A94FC707FDBE6064EA84A9E3E6E0FA
310
EE8CF0E9198F7784A316AA0413C2C2F2E0ECA0934D1AE6D05A69BCDE9E91D2A611F573361E38FC1375157F5752AE6B6DFE4B11990F88CCBF0719EE23FF02504B0304140006080800CC70623B408A7D3B7C0000009D0000000B0000006662782F636E782E786D6C4DCCD10A83201886E15B91FFDC552A92A0064DBC8F581632
310
D3703A76F9ABD1C18E3E78F878E5F0D9027ABBFCF2292AE86E2D20171F69F6715550CB827B40839639A5F2770314A7CD293819B45C73AAFB45B35BA61ACAA1C1C7E7855C58C15BC331339661262CC762340413D68D77DA5B42298546CBE6573AF60CEB2F504B0304140006080800CC70623B449FB9BD290100001202000031
310
0000006662782F36394639363044362D344446342D343946362D394244322D3234314243333846323333332F636F72652E786D6C8D515B6EC32010BC0AE22B55850D98B871848994463E412FE002495162B07854397EA176A4F62F3F2C9A9D991D587EB84F37F0AD7D30CEF6905418026DA553C65E7A98E219ED203808EE9D
310
8B7F6810D871D23D2C3014FCE25D9A57483A1BB58D19B54EE9151C43D0110279CB971E06F9A5A7B11A53CC8C70ADE6515EC78BAE4895DB992778883E0700CB907242D17643D7E2538BD869608875438BBAE38922CAC8F1BDD90DB4691A5E2F42C153326A951B95E398B3D1FE599322163C9AE9115F7A3D46ADA0A018778810
310
84E907617BDCEE297BC5BB3DC6BC2EF47FA234AB2745C9D8D8D035EE220B50105E2F0DC1954B9FB747187D9F9D8FA0CCDB042D5FA0C015C65B42DF78BD10F3F3B363CB56C7109DCFDFBBB97E662ED92EB62D13BC2E1BCAE5777DB9966D8A1F504B0304140006080800CC70623BAD7543B64E01000033030000300000006662
310
782F36394639363044362D344446342D343946362D394244322D3234314243333846323333332F636E782E786D6CD593CD6EC32010845F0571AD6CE3D48AD20813A9873E410FBD12D82434182C7EAAE6EDBB2424CD25871E7B41D6EC30B3FA84F9E67BB2E40B4234DE8DB46F1925E094D7C6ED479AD3AE5951B2113C789FEE
310
6C943839C1488B4C05DF079FE72A69D8C96C13AAD6B8631503449F83828872B949AC57D26200B826A308D316B4064D6E46FCDA41C05550DC9E483A00797BFD207EFB092A45DE9514C1BBD22178396BD39D891265658C238DEA00936C654E5E433CB65A26D9F6EDB5EBC14EBF49A45CB856E66048291F6939A9A81BB5C89177
310
38143CA680F4AA299D66A042CEB3354A2684DC9D8D178FE0D9B8B41CAAD720F880EE7EF93C0C18769E099ECC04D5A102C8049A8A05632F4DDF376CF1DE0F6BB65C2F8627B65A33C6BB62177CEBBDAD973006829F89F22E814B54F4BC2BE347F8AA8F681390B50FA73F804400B5F542E796F19FF974E7F78DB802FE05E20750
310
4B0304140006080800CC70623B8D05915C650500003B100000340000006662782F36394639363044362D344446342D343946362D394244322D3234314243333846323333332F6F626A656374732E786D6CAD575B6FA33814FE2B887D06429276DA1565D4266D158D3A339A6846FB502932E050B66023DB74D2FDF5FB190C01
310
9276B2973C046C8ECFF53B17071F77456EBD502133CEAE6CDF9DD81665314F32965ED995DA3A17B6F5310C04E7AA47665B8C14F4CAD6DB7618A48257A5D94AE89654B91AEDDEDDFC61C998326A5B714EA4BCB265FC440BE2924AF184CA6737218AB8E976E7FA6E4338649B0A523E8D98964450A6A029F619B8588D52FE7039
310
B1BD30F0F4F730D0FF866AF6369557DB33949F31A9088B0F848DD8CCFCF9F2767A76E99CCDE733677E3EF59D9BBB9BA5E37F984D16E78BC5E5F5ED25044B25C0C96822E8D60EEFE11B91C581D77CEA34368A1F5329E68CD1B8B61F16D63A1B8E092D294B10C78C4A48EB593D192E7DED9BDEE7995E1B91FDEDD3ACEA9FE831
310
6A756F9F7D4D79F4274C90A7A04248AA51D5F8C718DAE06FB2F75AC4796EBE65D22A88A22223B995679120E2D50E41AA49C260C046A35368846B0BECD0DFF3EBEB8AD4F835768F69B9ADF25C43D30E6B646F807FAA64AD59F61715C7A54127C4AACA98BA3006A9D792DAE165E0D59B61A01FB3A9F9D838D2DAE62445C86166
310
F37564E842E7DE6A69879FEEA2DD5AE7E371E1A5E025154AC307D06A03D73EB5978C58FFA4C8E9033066E0F3BD53BEC1F39F91BE7B55103791EDE6BBB991A2046172CB4581D8B893FA674DDA17A77B3B7C413D1B511FD2743BFF8A38F03A658705E3ADF8015C3A3417FF3D7E439FF591DA0B5F18BC20C1B8981957AE6392A3
310
F43C640C01D1A0B4728E2DD4F26DB4B3C3152A252A3B4E913CEC1C72F012782FF88EFF8637AA552DBEF76408E8A8DE9E50F9E1CB3A2DA0DB1B6039A893B56063DC5B3E3FFB5F72E67AB9FEB4AEC496C4F4C1149625DD662C53E89D7BF0F6151A046260D1337DFDC94502430F83B0EE07A130A224BCAD7DAE1D9FB6CD422FF6
310
920702629C4BB9AE79C12F243C6432A6794E18E5552BA56B431AAB5D91317302B2B071E86C3A42B1A02F999E24061403B5D0EB639195DA655DD3EBEAB4FB862DDF579F014AD0E73C22F99E28DA57FB98E75C6CA2D74D53086D600F4786E0FE3144B771A8A7B900F03594DB8A633CBC49B2EDB69228BB479CF863B5E807AAAB
310
23872F6DFEB4129B949CA33823F58830E86D65621E10047D9DB34D862E8EAC3C2ABC2F7B2C40D67CDFE01F5545B92105AF983AC54D93D69E56FB8E797F88913F898A9FEC705D3F9D1B54EC8426FB500D40A03BD0119B06E1B95DDC7EB8F6975367793EBD70E66733DFB9BC982F9CE564727731999F5D4ECFCE3B8D6A4DC2A0
310
6D50FD148437D110834A64C6CDDF57FBACB5C307A2A477DFE4939736CFEF2B175371E0E10CF0DD1D5C15654E0BCA14D1E87DD02FF93782A162C0A3D95F1524A52770F972BF1EE9809D13CE7DD599467F8ECE9ADD85CE85A34CD45355448C64F9E8A031DC2D596ACC6E5DD93D9B82DE2EF5CAF81363A8E47996A0DE24564A79
310
4115AACE09C55E14540231FDA13C319787134EBF34E3A022514E5B4D9E0826E25C02D5805B15ABE1BEF51B26383D445DD9E875EE33FE4C22DA16427D65A3BCA92CA6D28DD01DF5DC53330704308475351050232CCD31583787BA75774AFB06E5070DD0C8EF484E19968C5D83BA5B90B244D31E54D55A372320FE4786B7EA58
310
44E135AA5467CB7EA333A61683CC6A8C3257034C10CF46F40EF9F5BE59BE5BD30C3C72D235E95D10345C1D45445A5F0BB47E46A5EBE5570F9380B5FA629579952296A773720405982B9DE04011506178964401AA8BDF1FBF0A8EAB6861DD6580C0E38217056766716DAEB2D6FA0917D3E4116581EADB879C4E7CFFB11EFACD
310
3D641311495D92C8676CB409A72D18610D803CE8A626049E8EC1887CB5B44CC39883690DDA8399B4B9855B481E7D71D4A9D22F96E5BB73BF5793020C02137BF837504B0304140006080000CC70623B000000000000000000000000350000006662782F36394639363044362D344446342D343946362D394244322D32343142
310
43333846323333332F76657274696365732E62696E504B0304140006080800CC70623BF270F1330600000004000000360000006662782F36394639363044362D344446342D343946362D394244322D3234314243333846323333332F747269616E676C65732E62696E636660600000504B0304140006080000CC70623B0000
310
00000000000000000000370000006662782F36394639363044362D344446342D343946362D394244322D3234314243333846323333332F617474726962757465732E62696E504B0304140006080800CC70623B08DA0BD19000000041010000360000006662782F36394639363044362D344446342D343946362D394244322D
310
3234314243333846323333332F6469726563746F72792E786D6C858F410AC3201045AF22B36F53E9A60B35CBEEBAE80D244E44489C6234F4F835464A48035D0DF398FF9F8AF63D0E6CC63039F212F8F9020C7D47C6792B21C5FE7403D62A1188E2E60C98D7234A5830286103A55745067B9D86B8A3CF9C7F90C11DE607FB14
310
4396D7B6A82D282E9A152AD114D5EF2CB866EEE831B8EEA07A7BB5A8D7D61A2BAAEB7FD5F70921FF497D00504B0304140006080800CC70623BCA768048FE000000A00100003B0000006662782F36394639363044362D344446342D343946362D394244322D3234314243333846323333332F7265736F75726365732F636F72
310
652E786D6C8D50596E833010BD0A9ADFCA60D600328E9AA639412F609909B1126CE4A5EAF16B0295DABFFECC8CDEA2797AECF8353F924FB44E193D409E5248504B332A3D0D10FC95B4901C39B3C6F85F3248B49871801506CE266BC2B243D2688FDA47549B11775038871E12F988C7004EDE7016A9083E2ADC3D5D84BC8B09
310
D33C8D74D471E6BC8D0192EDC93A815B742658898E651BCB59086ADC356A8C3FD555A1055ED7E7E254D615792D0F075295F585746FF53B694EE78A565DD736979A65AB9933AFE69F8CD2A2F038022F28ED489E135A7CE4554F9BBEA85E68DB53CAB255FEC71496F19FA6A0B42F8B3DEE6673C0F318E4497096AD7DC5F52C33
310
EEB55BFE0D504B010214000A0000080000CC70623B3DEE336E79000000790000001B00000000000000000000000000000000006175746F6465736B2D64657369676E2D7061636B6167652E786D6C504B01021400140006080800CC70623BD486FD9CA0000000F40000001300000000000000000000000000B20000005B436F
310
6E74656E745F54797065735D2E786D6C504B01021400140006080800CC70623BD9DDAED0EC0000007C010000080000000000000000000000000083010000636F72652E786D6C504B01021400140006080800CC70623B55019EA25F0000007C000000070000000000000000000000000095020000636E782E786D6C504B0102
310
1400140006080800CC70623BA24EB22D72010000D40300000C00000000000000000000000000190300006662782F636F72652E786D6C504B01021400140006080800CC70623B408A7D3B7C0000009D0000000B00000000000000000000000000B50400006662782F636E782E786D6C504B01021400140006080800CC70623B
310
449FB9BD290100001202000031000000000000000000000000005A0500006662782F36394639363044362D344446342D343946362D394244322D3234314243333846323333332F636F72652E786D6C504B01021400140006080800CC70623BAD7543B64E010000330300003000000000000000000000000000D20600006662
310
782F36394639363044362D344446342D343946362D394244322D3234314243333846323333332F636E782E786D6C504B01021400140006080800CC70623B8D05915C650500003B10000034000000000000000000000000006E0800006662782F36394639363044362D344446342D343946362D394244322D32343142433338
310
46323333332F6F626A656374732E786D6C504B01021400140006080000CC70623B0000000000000000000000003500000000000000000000000000250E00006662782F36394639363044362D344446342D343946362D394244322D3234314243333846323333332F76657274696365732E62696E504B010214001400060808
310
00CC70623BF270F13306000000040000003600000000000000000000000000780E00006662782F36394639363044362D344446342D343946362D394244322D3234314243333846323333332F747269616E676C65732E62696E504B01021400140006080000CC70623B00000000000000000000000037000000000000000000
310
00000000D20E00006662782F36394639363044362D344446342D343946362D394244322D3234314243333846323333332F617474726962757465732E62696E504B01021400140006080800CC70623B08DA0BD190000000410100003600000000000000000000000000270F00006662782F36394639363044362D344446342D
310
343946362D394244322D3234314243333846323333332F6469726563746F72792E786D6C504B01021400140006080800CC70623BCA768048FE000000A00100003B000000000000000000000000000B1000006662782F36394639363044362D344446342D343946362D394244322D3234314243333846323333332F7265736F
310
75726365732F636F72652E786D6C504B0506000000000E000E0080040000621100000000
  0
XRECORD
  5
176
102
{ACAD_REACTORS
330
173
102
}
330
173
100
AcDbXrecord
280
     1
270
     1
271
     1
  0
XRECORD
  5
177
102
{ACAD_REACTORS
330
173
102
}
330
173
100
AcDbXrecord
280
     1
270
     1
271
     1
  0
CELLSTYLEMAP
  5
276A
102
{ACAD_REACTORS
330
162
102
}
330
162
100
AcDbCellStyleMap
 90
        3
300
CELLSTYLE
  1
TABLEFORMAT_BEGIN
 90
        5
170
     1
 91
        0
 92
    32768
 62
   257
 93
        1
300
CONTENTFORMAT
  1
CONTENTFORMAT_BEGIN
 90
        0
 91
        0
 92
      512
 93
        0
300

 40
0.0
140
1.0
 94
        5
 62
     0
340
11
144
6.0
309
CONTENTFORMAT_END
171
     1
301
MARGIN
  1
CELLMARGIN_BEGIN
 40
1.5
 40
1.5
 40
1.5
 40
1.5
 40
4.5
 40
4.5
309
CELLMARGIN_END
 94
        6
 95
        1
302
GRIDFORMAT
  1
GRIDFORMAT_BEGIN
 90
        0
 91
        1
 62
     0
 92
       -2
340
14
 93
        0
 40
1.125
309
GRIDFORMAT_END
 95
        2
302
GRIDFORMAT
  1
GRIDFORMAT_BEGIN
 90
        0
 91
        1
 62
     0
 92
       -2
340
14
 93
        0
 40
1.125
309
GRIDFORMAT_END
 95
        4
302
GRIDFORMAT
  1
GRIDFORMAT_BEGIN
 90
        0
 91
        1
 62
     0
 92
       -2
340
14
 93
        0
 40
1.125
309
GRIDFORMAT_END
 95
        8
302
GRIDFORMAT
  1
GRIDFORMAT_BEGIN
 90
        0
 91
        1
 62
     0
 92
       -2
340
14
 93
        0
 40
1.125
309
GRIDFORMAT_END
 95
       16
302
GRIDFORMAT
  1
GRIDFORMAT_BEGIN
 90
        0
 91
        1
 62
     0
 92
       -2
340
14
 93
        0
 40
1.125
309
GRIDFORMAT_END
 95
       32
302
GRIDFORMAT
  1
GRIDFORMAT_BEGIN
 90
        0
 91
        1
 62
     0
 92
       -2
340
14
 93
        0
 40
1.125
309
GRIDFORMAT_END
309
TABLEFORMAT_END
  1
CELLSTYLE_BEGIN
 90
        1
 91
        1
300
_TITLE
309
CELLSTYLE_END
300
CELLSTYLE
  1
TABLEFORMAT_BEGIN
 90
        5
170
     1
 91
        0
 92
        0
 62
   257
 93
        1
300
CONTENTFORMAT
  1
CONTENTFORMAT_BEGIN
 90
        0
 91
        0
 92
      512
 93
        0
300

 40
0.0
140
1.0
 94
        5
 62
     0
340
11
144
4.5
309
CONTENTFORMAT_END
171
     1
301
MARGIN
  1
CELLMARGIN_BEGIN
 40
1.5
 40
1.5
 40
1.5
 40
1.5
 40
4.5
 40
4.5
309
CELLMARGIN_END
 94
        6
 95
        1
302
GRIDFORMAT
  1
GRIDFORMAT_BEGIN
 90
        0
 91
        1
 62
     0
 92
       -2
340
14
 93
        0
 40
1.125
309
GRIDFORMAT_END
 95
        2
302
GRIDFORMAT
  1
GRIDFORMAT_BEGIN
 90
        0
 91
        1
 62
     0
 92
       -2
340
14
 93
        0
 40
1.125
309
GRIDFORMAT_END
 95
        4
302
GRIDFORMAT
  1
GRIDFORMAT_BEGIN
 90
        0
 91
        1
 62
     0
 92
       -2
340
14
 93
        0
 40
1.125
309
GRIDFORMAT_END
 95
        8
302
GRIDFORMAT
  1
GRIDFORMAT_BEGIN
 90
        0
 91
        1
 62
     0
 92
       -2
340
14
 93
        0
 40
1.125
309
GRIDFORMAT_END
 95
       16
302
GRIDFORMAT
  1
GRIDFORMAT_BEGIN
 90
        0
 91
        1
 62
     0
 92
       -2
340
14
 93
        0
 40
1.125
309
GRIDFORMAT_END
 95
       32
302
GRIDFORMAT
  1
GRIDFORMAT_BEGIN
 90
        0
 91
        1
 62
     0
 92
       -2
340
14
 93
        0
 40
1.125
309
GRIDFORMAT_END
309
TABLEFORMAT_END
  1
CELLSTYLE_BEGIN
 90
        2
 91
        1
300
_HEADER
309
CELLSTYLE_END
300
CELLSTYLE
  1
TABLEFORMAT_BEGIN
 90
        5
170
     1
 91
        0
 92
        0
 62
   257
 93
        1
300
CONTENTFORMAT
  1
CONTENTFORMAT_BEGIN
 90
        0
 91
        0
 92
      512
 93
        0
300

 40
0.0
140
1.0
 94
        2
 62
     0
340
11
144
4.5
309
CONTENTFORMAT_END
171
     1
301
MARGIN
  1
CELLMARGIN_BEGIN
 40
1.5
 40
1.5
 40
1.5
 40
1.5
 40
4.5
 40
4.5
309
CELLMARGIN_END
 94
        6
 95
        1
302
GRIDFORMAT
  1
GRIDFORMAT_BEGIN
 90
        0
 91
        1
 62
     0
 92
       -2
340
14
 93
        0
 40
1.125
309
GRIDFORMAT_END
 95
        2
302
GRIDFORMAT
  1
GRIDFORMAT_BEGIN
 90
        0
 91
        1
 62
     0
 92
       -2
340
14
 93
        0
 40
1.125
309
GRIDFORMAT_END
 95
        4
302
GRIDFORMAT
  1
GRIDFORMAT_BEGIN
 90
        0
 91
        1
 62
     0
 92
       -2
340
14
 93
        0
 40
1.125
309
GRIDFORMAT_END
 95
        8
302
GRIDFORMAT
  1
GRIDFORMAT_BEGIN
 90
        0
 91
        1
 62
     0
 92
       -2
340
14
 93
        0
 40
1.125
309
GRIDFORMAT_END
 95
       16
302
GRIDFORMAT
  1
GRIDFORMAT_BEGIN
 90
        0
 91
        1
 62
     0
 92
       -2
340
14
 93
        0
 40
1.125
309
GRIDFORMAT_END
 95
       32
302
GRIDFORMAT
  1
GRIDFORMAT_BEGIN
 90
        0
 91
        1
 62
     0
 92
       -2
340
14
 93
        0
 40
1.125
309
GRIDFORMAT_END
309
TABLEFORMAT_END
  1
CELLSTYLE_BEGIN
 90
        3
 91
        2
300
_DATA
309
CELLSTYLE_END
  0
ENDSEC
  0
SECTION
  2
ACDSDATA
 70
     2
 71
     8
  0
ACDSSCHEMA
 90
        0
  1
AcDb_Thumbnail_Schema
  2
AcDbDs::ID
280
    10
 91
        8
  2
Thumbnail_Data
280
    15
 91
        0
101
ACDSRECORD
 95
        0
 90
        1
  2
AcDbDs::TreatedAsObjectData
280
     1
291
     1
101
ACDSRECORD
 95
        0
 90
        2
  2
AcDbDs::Legacy
280
     1
291
     1
101
ACDSRECORD
  1
AcDbDs::ID
 90
        3
  2
AcDs:Indexable
280
     1
291
     1
101
ACDSRECORD
  1
AcDbDs::ID
 90
        4
  2
AcDbDs::HandleAttribute
280
     7
282
     1
  0
ACDSSCHEMA
 90
        1
  1
AcDbDs::TreatedAsObjectDataSchema
  2
AcDbDs::TreatedAsObjectData
280
     1
 91
        0
  0
ACDSSCHEMA
 90
        2
  1
AcDbDs::LegacySchema
  2
AcDbDs::Legacy
280
     1
 91
        0
  0
ACDSSCHEMA
 90
        3
  1
AcDbDs::IndexedPropertySchema
  2
AcDs:Indexable
280
     1
 91
        0
  0
ACDSSCHEMA
 90
        4
  1
AcDbDs::HandleAttributeSchema
  2
AcDbDs::HandleAttribute
280
     7
 91
        1
284
     1
  0
ACDSRECORD
 90
        0
  2
AcDbDs::ID
280
    10
320
22
  2
Thumbnail_Data
280
    15
 94
     1813
310
89504E470D0A1A0A0000000D494844520000010000000085080300000083A6D68B00000300504C5445212830FFFFFF2128300000000000000000000000000000000000000000000000000000330000660000990000CC0000FF0033000033330033660033990033CC0033FF0066000066330066660066990066CC0066FF0099
310
000099330099660099990099CC0099FF00CC0000CC3300CC6600CC9900CCCC00CCFF00FF0000FF3300FF6600FF9900FFCC00FFFF3300003300333300663300993300CC3300FF3333003333333333663333993333CC3333FF3366003366333366663366993366CC3366FF3399003399333399663399993399CC3399FF33CC00
310
33CC3333CC6633CC9933CCCC33CCFF33FF0033FF3333FF6633FF9933FFCC33FFFF6600006600336600666600996600CC6600FF6633006633336633666633996633CC6633FF6666006666336666666666996666CC6666FF6699006699336699666699996699CC6699FF66CC0066CC3366CC6666CC9966CCCC66CCFF66FF0066
310
FF3366FF6666FF9966FFCC66FFFF9900009900339900669900999900CC9900FF9933009933339933669933999933CC9933FF9966009966339966669966999966CC9966FF9999009999339999669999999999CC9999FF99CC0099CC3399CC6699CC9999CCCC99CCFF99FF0099FF3399FF6699FF9999FFCC99FFFFCC0000CC00
310
33CC0066CC0099CC00CCCC00FFCC3300CC3333CC3366CC3399CC33CCCC33FFCC6600CC6633CC6666CC6699CC66CCCC66FFCC9900CC9933CC9966CC9999CC99CCCC99FFCCCC00CCCC33CCCC66CCCC99CCCCCCCCCCFFCCFF00CCFF33CCFF66CCFF99CCFFCCCCFFFFFF0000FF0033FF0066FF0099FF00CCFF00FFFF3300FF3333
310
FF3366FF3399FF33CCFF33FFFF6600FF6633FF6666FF6699FF66CCFF66FFFF9900FF9933FF9966FF9999FF99CCFF99FFFFCC00FFCC33FFCC66FFCC99FFCCCCFFCCFFFFFF00FFFF33FFFF66FFFF99FFFFCCFFFFFF0000000D0D0D1A1A1A2828283535354343435050505D5D5D6B6B6B787878868686939393A1A1A1AEAEAEBB
310
BBBBC9C9C9D6D6D6E4E4E4F1F1F1FFFFFF0000000000000000000000000000000000000000000000000000000000002E4550F1000003D04944415478DAED9D519683200C45B321F6BF00B6C36FFE5B51541411154922C93933535B14B87D8480E000A8E50D85DB7300C2BF3F05A00014800250000A400128005E008CB76767
310
07A30770A322066E023007000C29000E264C01F7DBCED5322800D600AE3B02339C04FBB3A42AE00E000F812D002AB7C708C0BB1E205CDF005700CD9CA002E81680E91C80A10450E09BEB4D471FF49BA1EBA4518029538073EE25024B0FC81400CE005E1A47C7BF580378858028007733CFF91059006EE6EEBC7D02C0BDEC65
310
03C008C0ADFCBFA4805B05F816801B2540B73E5F1600DC03B85E044427B517C084020AD79844E98640727CD7C5767DC2A4290084030065D9E0416B8808942A401E80A4EA650140E0A480F63E004101740D004101FCC3B77E01F8FAF70DC0C7EF7D00C014807FF57B06F017C050FFD701205F00D0A41750007F2B1A04350680
310
D00CC099027A00E047CA0700BA504062C6995801080A4001D002700A801C40A348902D80B1FEFD0298EADF29005C4A400CC09001703C9CE0B084288E949B29800B80ED12A23701841B610C012C4B89AB020897AD0CC0DF131208605E07560DC07E590057007630B4C35FB0F60FC006F31F81B30EEDF21EFA64D3AFC560FC71
310
FE7670B038D90E80C311EEF66A5B1FD04001B89D067AA6805041394D0021B508844913784901EB5E00A13E800A91E0B421D198967100F0E906E71D99BD02A099151E8F790C870DC558007A1F0E43EFC3E14901D0B9023A0770D60B6496FF2A00051000EC131503005A00E7F706158002A8E90372BBAA68009CAE10A90780E1
310
0A91A6004A8B4D03C03DF70152014CF7473B01904EE6574ABE0D00F802C8AF14ADE503F802389910E9000036E9051803C8EF18A915092A00C6000E778D0DC5EE02C0C9BEC17CE131DC21FC2A804CE9C35693BA000C01802B7B87DDBC3F18E741DE3CDC5976148BD83B0C7BB59FEF1E77E89A3CAFB63180D2E707BCFAB0255E
310
00F02870BE32B29104A0EC19221F06102B00A16F00087D03C06CD8F37D2798CFDB41132304C0E3B1F47400983C969FE68992ADC2BCF60A90670A40013CBE82FEB3B5E4AC57C179CBB2F0A37B49A7094292E9C8A68F7609E7D7B40A58AD973F49717A91387DE668FF5ABA024A8E8A138A07802400E89A4012C0F8492F0A882E
310
B146835B8F38EEA281C83F7E0DC0AC00680B80B20B4F0018E7DDC42A602AA4A85EA0AA138C1D5E411C2039124C1DC40AC87F51581ADD63BBC1D0CB4E7075C692D17AABE5D637C6ED7C9B525E1C903CC35A7B98EE342597265073242BA7097C05C063F76B2F593A10B2DB5E5F92025E02B0A4C57D4E0AA08326D04E01AB6BFA
310
1EE6B862D40AD049D13742E1AFDB0FB2A1CF9B7DBE32550000000049454E44AE426082
  0
ENDSEC
  0
EOF
